  0
SECTION
  2
HEADER
  9
$ACADVER
  1
AC1015
  9
$ACADMAINTVER
 70
     6
  9
$DWGCODEPAGE
  3
ANSI_1252
  9
$INSBASE
 10
0.0
 20
0.0
 30
0.0
  9
$EXTMIN
 10
0.0
 20
0.0
 30
0.0
  9
$EXTMAX
 10
371.25
 20
262.5
 30
0.0
  9
$LIMMIN
 10
0.0
 20
0.0
  9
$LIMMAX
 10
371.25
 20
262.5
  9
$ORTHOMODE
 70
     0
  9
$REGENMODE
 70
     1
  9
$FILLMODE
 70
     1
  9
$QTEXTMODE
 70
     0
  9
$MIRRTEXT
 70
     1
  9
$LTSCALE
 40
1.25
  9
$ATTMODE
 70
     1
  9
$TEXTSIZE
 40
4.8506944444
  9
$TRACEWID
 40
1.0
  9
$TEXTSTYLE
  7
Standard
  9
$CLAYER
  8
0
  9
$CELTYPE
  6
ByLayer
  9
$CECOLOR
 62
   256
  9
$CELTSCALE
 40
1.0
  9
$DISPSILH
 70
     0
  9
$DIMSCALE
 40
1.0
  9
$DIMASZ
 40
4.1275
  9
$DIMEXO
 40
1.25
  9
$DIMDLI
 40
3.75
  9
$DIMRND
 40
0.0
  9
$DIMDLE
 40
0.0
  9
$DIMEXE
 40
1.25
  9
$DIMTP
 40
0.0
  9
$DIMTM
 40
0.0
  9
$DIMTXT
 40
4.8506944444
  9
$DIMCEN
 40
2.5
  9
$DIMTSZ
 40
0.0
  9
$DIMTOL
 70
     0
  9
$DIMLIM
 70
     0
  9
$DIMTIH
 70
     1
  9
$DIMTOH
 70
     1
  9
$DIMSE1
 70
     0
  9
$DIMSE2
 70
     0
  9
$DIMTAD
 70
     1
  9
$DIMZIN
 70
     0
  9
$DIMBLK
  1

  9
$DIMASO
 70
     1
  9
$DIMSHO
 70
     1
  9
$DIMPOST
  1

  9
$DIMAPOST
  1

  9
$DIMALT
 70
     0
  9
$DIMALTD
 70
     3
  9
$DIMALTF
 40
0.0393700787
  9
$DIMLFAC
 40
1.0
  9
$DIMTOFL
 70
     1
  9
$DIMTVP
 40
0.0
  9
$DIMTIX
 70
     0
  9
$DIMSOXD
 70
     0
  9
$DIMSAH
 70
     0
  9
$DIMBLK1
  1

  9
$DIMBLK2
  1

  9
$DIMSTYLE
  2
ISO-25
  9
$DIMCLRD
 70
     0
  9
$DIMCLRE
 70
     0
  9
$DIMCLRT
 70
     0
  9
$DIMTFAC
 40
1.0
  9
$DIMGAP
 40
1.905
  9
$DIMJUST
 70
     0
  9
$DIMSD1
 70
     0
  9
$DIMSD2
 70
     0
  9
$DIMTOLJ
 70
     0
  9
$DIMTZIN
 70
     0
  9
$DIMALTZ
 70
     0
  9
$DIMALTTZ
 70
     0
  9
$DIMUPT
 70
     0
  9
$DIMDEC
 70
     2
  9
$DIMTDEC
 70
     2
  9
$DIMALTU
 70
     2
  9
$DIMALTTD
 70
     3
  9
$DIMTXSTY
  7
Standard
  9
$DIMAUNIT
 70
     0
  9
$DIMADEC
 70
     2
  9
$DIMALTRND
 40
0.0
  9
$DIMAZIN
 70
     0
  9
$DIMDSEP
 70
    44
  9
$DIMATFIT
 70
     3
  9
$DIMFRAC
 70
     0
  9
$DIMLDRBLK
  1

  9
$DIMLUNIT
 70
     2
  9
$DIMLWD
 70
    -2
  9
$DIMLWE
 70
    -2
  9
$DIMTMOVE
 70
     0
  9
$LUNITS
 70
     2
  9
$LUPREC
 70
     2
  9
$SKETCHINC
 40
1.0
  9
$FILLETRAD
 40
10.0
  9
$AUNITS
 70
     1
  9
$AUPREC
 70
     2
  9
$MENU
  1
.
  9
$ELEVATION
 40
0.0
  9
$PELEVATION
 40
0.0
  9
$THICKNESS
 40
0.0
  9
$LIMCHECK
 70
     0
  9
$CHAMFERA
 40
0.0
  9
$CHAMFERB
 40
0.0
  9
$CHAMFERC
 40
0.0
  9
$CHAMFERD
 40
0.0
  9
$SKPOLY
 70
     0
  9
$TDCREATE
 40
2458601.447901377
  9
$TDUCREATE
 40
2458601.21873471
  9
$TDUPDATE
 40
2458601.447902303
  9
$TDUUPDATE
 40
2458601.218735637
  9
$TDINDWG
 40
0.0000000116
  9
$TDUSRTIMER
 40
0.0000000116
  9
$USRTIMER
 70
     1
  9
$ANGBASE
 50
0.0
  9
$ANGDIR
 70
     0
  9
$PDMODE
 70
     0
  9
$PDSIZE
 40
-1.0
  9
$PLINEWID
 40
0.0
  9
$SPLFRAME
 70
     0
  9
$SPLINETYPE
 70
     6
  9
$SPLINESEGS
 70
     8
  9
$HANDSEED
  5
199
  9
$SURFTAB1
 70
     6
  9
$SURFTAB2
 70
     6
  9
$SURFTYPE
 70
     6
  9
$SURFU
 70
     6
  9
$SURFV
 70
     6
  9
$UCSBASE
  2

  9
$UCSNAME
  2

  9
$UCSORG
 10
0.0
 20
0.0
 30
0.0
  9
$UCSXDIR
 10
1.0
 20
0.0
 30
0.0
  9
$UCSYDIR
 10
0.0
 20
1.0
 30
0.0
  9
$UCSORTHOREF
  2

  9
$UCSORTHOVIEW
 70
     0
  9
$UCSORGTOP
 10
0.0
 20
0.0
 30
0.0
  9
$UCSORGBOTTOM
 10
0.0
 20
0.0
 30
0.0
  9
$UCSORGLEFT
 10
0.0
 20
0.0
 30
0.0
  9
$UCSORGRIGHT
 10
0.0
 20
0.0
 30
0.0
  9
$UCSORGFRONT
 10
0.0
 20
0.0
 30
0.0
  9
$UCSORGBACK
 10
0.0
 20
0.0
 30
0.0
  9
$PUCSBASE
  2

  9
$PUCSNAME
  2

  9
$PUCSORG
 10
0.0
 20
0.0
 30
0.0
  9
$PUCSXDIR
 10
1.0
 20
0.0
 30
0.0
  9
$PUCSYDIR
 10
0.0
 20
1.0
 30
0.0
  9
$PUCSORTHOREF
  2

  9
$PUCSORTHOVIEW
 70
     0
  9
$PUCSORGTOP
 10
0.0
 20
0.0
 30
0.0
  9
$PUCSORGBOTTOM
 10
0.0
 20
0.0
 30
0.0
  9
$PUCSORGLEFT
 10
0.0
 20
0.0
 30
0.0
  9
$PUCSORGRIGHT
 10
0.0
 20
0.0
 30
0.0
  9
$PUCSORGFRONT
 10
0.0
 20
0.0
 30
0.0
  9
$PUCSORGBACK
 10
0.0
 20
0.0
 30
0.0
  9
$USERI1
 70
     0
  9
$USERI2
 70
     0
  9
$USERI3
 70
     0
  9
$USERI4
 70
     0
  9
$USERI5
 70
     0
  9
$USERR1
 40
0.0
  9
$USERR2
 40
0.0
  9
$USERR3
 40
0.0
  9
$USERR4
 40
0.0
  9
$USERR5
 40
0.0
  9
$WORLDVIEW
 70
     1
  9
$SHADEDGE
 70
     3
  9
$SHADEDIF
 70
    70
  9
$TILEMODE
 70
     1
  9
$MAXACTVP
 70
    64
  9
$PINSBASE
 10
0.0
 20
0.0
 30
0.0
  9
$PLIMCHECK
 70
     0
  9
$PEXTMIN
 10
1.0000000000E+20
 20
1.0000000000E+20
 30
1.0000000000E+20
  9
$PEXTMAX
 10
-1.0000000000E+20
 20
-1.0000000000E+20
 30
-1.0000000000E+20
  9
$PLIMMIN
 10
0.0
 20
0.0
  9
$PLIMMAX
 10
420.0
 20
297.0
  9
$UNITMODE
 70
     0
  9
$VISRETAIN
 70
     1
  9
$PLINEGEN
 70
     0
  9
$PSLTSCALE
 70
     1
  9
$TREEDEPTH
 70
  3020
  9
$CMLSTYLE
  2
Standard
  9
$CMLJUST
 70
     0
  9
$CMLSCALE
 40
20.0
  9
$PROXYGRAPHICS
 70
     1
  9
$MEASUREMENT
 70
     1
  9
$CELWEIGHT
370
    -1
  9
$ENDCAPS
280
     0
  9
$JOINSTYLE
280
     0
  9
$LWDISPLAY
290
     1
  9
$INSUNITS
 70
     4
  9
$HYPERLINKBASE
  1

  9
$STYLESHEET
  1

  9
$XEDIT
290
     1
  9
$CEPSNTYPE
380
     0
  9
$PSTYLEMODE
290
     1
  9
$FINGERPRINTGUID
  2
{79F72797-640C-4C3E-8DB5-3BC34A8044A3}
  9
$VERSIONGUID
  2
{FAEB1C32-E019-11D5-929B-00C0DF256EC4}
  9
$EXTNAMES
290
     1
  9
$PSVPSCALE
 40
0.0
  9
$OLESTARTUP
290
     0
  0
ENDSEC
  0
SECTION
  2
CLASSES
  0
CLASS
  1
ACDBDICTIONARYWDFLT
  2
AcDbDictionaryWithDefault
  3
ObjectDBX Classes
 90
        0
280
     0
281
     0
  0
CLASS
  1
VISUALSTYLE
  2
AcDbVisualStyle
  3
ObjectDBX Classes
 90
     4095
280
     0
281
     0
  0
CLASS
  1
MATERIAL
  2
AcDbMaterial
  3
ObjectDBX Classes
 90
     1153
280
     0
281
     0
  0
CLASS
  1
SCALE
  2
AcDbScale
  3
ObjectDBX Classes
 90
     1153
280
     0
281
     0
  0
CLASS
  1
SUN
  2
AcDbSun
  3
SCENEOE
 90
     1153
280
     0
281
     0
  0
CLASS
  1
ACDBPLACEHOLDER
  2
AcDbPlaceHolder
  3
ObjectDBX Classes
 90
        0
280
     0
281
     0
  0
CLASS
  1
LAYOUT
  2
AcDbLayout
  3
ObjectDBX Classes
 90
        0
280
     0
281
     0
  0
ENDSEC
  0
SECTION
  2
TABLES
  0
TABLE
  2
VPORT
  5
8
330
0
100
AcDbSymbolTable
 70
     1
  0
VPORT
  5
29
330
8
100
AcDbSymbolTableRecord
100
AcDbViewportTableRecord
  2
*Active
 70
     0
 10
0.0
 20
0.0
 11
1.0
 21
1.0
 12
185.625
 22
131.25
 13
0.0
 23
0.0
 14
10.0
 24
10.0
 15
10.0
 25
10.0
 16
0.0
 26
0.0
 36
1.0
 17
0.0
 27
0.0
 37
0.0
 40
262.5
 41
1.4142857143
 42
50.0
 43
0.0
 44
0.0
 50
0.0
 51
0.0
 71
     0
 72
  2000
 73
     1
 74
     3
 75
     0
 76
     0
 77
     0
 78
     0
281
     0
 65
     1
110
0.0
120
0.0
130
0.0
111
1.0
121
0.0
131
0.0
112
0.0
122
1.0
132
0.0
 79
     0
146
0.0
  0
ENDTAB
  0
TABLE
  2
LTYPE
  5
5
330
0
100
AcDbSymbolTable
 70
     6
  0
LTYPE
  5
14
330
5
100
AcDbSymbolTableRecord
100
AcDbLinetypeTableRecord
  2
ByBlock
 70
     0
  3

 72
    65
 73
     0
 40
0.0
  0
LTYPE
  5
15
330
5
100
AcDbSymbolTableRecord
100
AcDbLinetypeTableRecord
  2
ByLayer
 70
     0
  3

 72
    65
 73
     0
 40
0.0
  0
LTYPE
  5
16
330
5
100
AcDbSymbolTableRecord
100
AcDbLinetypeTableRecord
  2
Continuous
 70
     0
  3
Solid line
 72
    65
 73
     0
 40
0.0
  0
LTYPE
  5
6A
330
5
100
AcDbSymbolTableRecord
100
AcDbLinetypeTableRecord
  2
HIDDEN
 70
     0
  3
Hidden __ __ __ __ __ __ __ __ __ __ __ __ __ __
 72
    65
 73
     2
 40
1.905
 49
1.27
 74
     0
 49
-0.635
 74
     0
  0
LTYPE
  5
6B
330
5
100
AcDbSymbolTableRecord
100
AcDbLinetypeTableRecord
  2
PHANTOM
 70
     0
  3
Phantom ______  __  __  ______  __  __  ______
 72
    65
 73
     6
 40
12.7
 49
6.35
 74
     0
 49
-1.27
 74
     0
 49
1.27
 74
     0
 49
-1.27
 74
     0
 49
1.27
 74
     0
 49
-1.27
 74
     0
  0
LTYPE
  5
6C
330
5
100
AcDbSymbolTableRecord
100
AcDbLinetypeTableRecord
  2
CENTER
 70
     0
  3
Center ____ _ ____ _ ____ _ ____ _ ____ _ ____
 72
    65
 73
     4
 40
10.16
 49
6.35
 74
     0
 49
-1.27
 74
     0
 49
1.27
 74
     0
 49
-1.27
 74
     0
  0
LTYPE
  5
6D
330
5
100
AcDbSymbolTableRecord
100
AcDbLinetypeTableRecord
  2
CENTERX2
 70
     0
  3
Center (2x) ________  __  ________  __  _____
 72
    65
 73
     4
 40
20.32
 49
12.7
 74
     0
 49
-2.54
 74
     0
 49
2.54
 74
     0
 49
-2.54
 74
     0
  0
LTYPE
  5
6E
330
5
100
AcDbSymbolTableRecord
100
AcDbLinetypeTableRecord
  2
DOT2
 70
     0
  3
Dot (.5x) ........................................
 72
    65
 73
     2
 40
0.635
 49
0.0
 74
     0
 49
-0.635
 74
     0
  0
ENDTAB
  0
TABLE
  2
LAYER
  5
2
330
0
100
AcDbSymbolTable
 70
     8
  0
LAYER
  5
10
330
2
100
AcDbSymbolTableRecord
100
AcDbLayerTableRecord
  2
0
 70
     0
 62
     7
  6
Continuous
370
    -3
390
F
  0
LAYER
  5
6F
330
2
100
AcDbSymbolTableRecord
100
AcDbLayerTableRecord
  2
FORMAT
 70
     0
 62
     7
  6
Continuous
370
    -3
390
F
  0
LAYER
  5
70
330
2
100
AcDbSymbolTableRecord
100
AcDbLayerTableRecord
  2
SLD-0
 70
     0
 62
     2
  6
Continuous
370
    -3
390
F
  0
LAYER
  5
71
330
2
100
AcDbSymbolTableRecord
100
AcDbLayerTableRecord
  2
DIM
 70
     0
 62
   179
  6
Continuous
370
    -3
390
F
  0
LAYER
  5
72
330
2
100
AcDbSymbolTableRecord
100
AcDbLayerTableRecord
  2
SLD-DEFPOINTS
 70
     0
 62
   179
  6
Continuous
370
    -3
390
F
  0
LAYER
  5
73
330
2
100
AcDbSymbolTableRecord
100
AcDbLayerTableRecord
  2
HAT
 70
     0
 62
   135
  6
Continuous
370
    -3
390
F
  0
LAYER
  5
74
330
2
100
AcDbSymbolTableRecord
100
AcDbLayerTableRecord
  2
JOB
 70
     0
 62
   201
  6
Continuous
370
    -3
390
F
  0
LAYER
  5
75
330
2
100
AcDbSymbolTableRecord
100
AcDbLayerTableRecord
  2
INSPECTION_REPORT
 70
     0
 62
   255
  6
Continuous
370
    -3
390
F
  0
ENDTAB
  0
TABLE
  2
STYLE
  5
3
330
0
100
AcDbSymbolTable
 70
     4
  0
STYLE
  5
11
330
3
100
AcDbSymbolTableRecord
100
AcDbTextStyleTableRecord
  2
Standard
 70
     0
 40
0.0
 41
1.0
 50
0.0
 71
     0
 42
4.8506944444
  3
txt
  4

  0
STYLE
  5
96
330
3
100
AcDbSymbolTableRecord
100
AcDbTextStyleTableRecord
  2
SLDTEXTSTYLE0
 70
     0
 40
0.0
 41
0.7
 50
0.0
 71
     0
 42
4.8506944444
  3
TXT
  4

  0
STYLE
  5
98
330
3
100
AcDbSymbolTableRecord
100
AcDbTextStyleTableRecord
  2
SLDTEXTSTYLE1
 70
     0
 40
0.0
 41
0.75
 50
0.0
 71
     0
 42
4.8506944444
  3
TXT
  4

  0
STYLE
  5
AB
330
3
100
AcDbSymbolTableRecord
100
AcDbTextStyleTableRecord
  2
SLDTEXTSTYLE2
 70
     0
 40
0.0
 41
0.6875
 50
0.0
 71
     0
 42
4.8506944444
  3
TXT
  4

  0
ENDTAB
  0
TABLE
  2
VIEW
  5
6
330
0
100
AcDbSymbolTable
 70
     0
  0
ENDTAB
  0
TABLE
  2
UCS
  5
7
330
0
100
AcDbSymbolTable
 70
     0
  0
ENDTAB
  0
TABLE
  2
APPID
  5
9
330
0
100
AcDbSymbolTable
 70
     1
  0
APPID
  5
12
330
9
100
AcDbSymbolTableRecord
100
AcDbRegAppTableRecord
  2
ACAD
 70
     0
  0
ENDTAB
  0
TABLE
  2
DIMSTYLE
  5
A
330
0
100
AcDbSymbolTable
 70
     3
100
AcDbDimStyleTable
  0
DIMSTYLE
105
27
330
A
100
AcDbSymbolTableRecord
100
AcDbDimStyleTableRecord
  2
ISO-25
 70
     0
 41
2.5
 42
0.625
 43
3.75
 44
1.25
 73
     0
 74
     0
 77
     1
 78
     8
140
2.5
141
2.5
143
0.0393700787
147
0.625
171
     3
172
     1
178
     0
271
     2
272
     2
274
     3
278
    44
283
     0
284
     8
340
11
  0
DIMSTYLE
105
16D
102
{ACAD_REACTORS
330
16C
330
182
102
}
330
A
100
AcDbSymbolTableRecord
100
AcDbDimStyleTableRecord
  2
SLDDIMSTYLE0
 70
     0
 41
4.1275
 44
0.0
 45
0.000000001
 73
     0
 74
     0
 77
     1
 78
     4
 79
     1
140
3.6380208333
147
0.9095052083
173
     1
178
     0
271
     2
272
     2
276
     2
284
    12
340
96
  0
DIMSTYLE
105
178
102
{ACAD_REACTORS
330
177
330
18D
102
}
330
A
100
AcDbSymbolTableRecord
100
AcDbDimStyleTableRecord
  2
SLDDIMSTYLE1
 70
     0
 41
4.1275
 44
0.0
 45
0.000000001
 73
     0
 74
     0
 77
     1
 78
    12
 79
     3
140
3.6380208333
147
0.9095052083
173
     1
178
     0
271
     2
272
     2
276
     2
284
    12
340
96
  0
ENDTAB
  0
TABLE
  2
BLOCK_RECORD
  5
1
330
0
100
AcDbSymbolTable
 70
     6
  0
BLOCK_RECORD
  5
1F
330
1
100
AcDbSymbolTableRecord
100
AcDbBlockTableRecord
  2
*Model_Space
340
22
  0
BLOCK_RECORD
  5
1B
330
1
100
AcDbSymbolTableRecord
100
AcDbBlockTableRecord
  2
*Paper_Space
340
1E
  0
BLOCK_RECORD
  5
23
330
1
100
AcDbSymbolTableRecord
100
AcDbBlockTableRecord
  2
*Paper_Space0
340
26
  0
BLOCK_RECORD
  5
F8
330
1
100
AcDbSymbolTableRecord
100
AcDbBlockTableRecord
  2
SW_CENTERMARKSYMBOL_0
340
0
102
{BLKREFS
331
103
102
}
  0
BLOCK_RECORD
  5
16E
330
1
100
AcDbSymbolTableRecord
100
AcDbBlockTableRecord
  2
_D
340
0
  0
BLOCK_RECORD
  5
179
330
1
100
AcDbSymbolTableRecord
100
AcDbBlockTableRecord
  2
_D_1
340
0
  0
BLOCK_RECORD
  5
183
330
1
100
AcDbSymbolTableRecord
100
AcDbBlockTableRecord
  2
_D_2
340
0
  0
BLOCK_RECORD
  5
18E
330
1
100
AcDbSymbolTableRecord
100
AcDbBlockTableRecord
  2
_D_3
340
0
  0
ENDTAB
  0
ENDSEC
  0
SECTION
  2
BLOCKS
  0
BLOCK
  5
20
330
1F
100
AcDbEntity
  8
0
100
AcDbBlockBegin
  2
*Model_Space
 70
     0
 10
0.0
 20
0.0
 30
0.0
  3
*Model_Space
  1
*Model_Space
  0
ENDBLK
  5
21
330
1F
100
AcDbEntity
  8
0
100
AcDbBlockEnd
  0
BLOCK
  5
1C
330
1B
100
AcDbEntity
 67
     1
  8
0
100
AcDbBlockBegin
  2
*Paper_Space
 70
     0
 10
0.0
 20
0.0
 30
0.0
  3
*Paper_Space
  1
*Paper_Space
  0
ENDBLK
  5
1D
330
1B
100
AcDbEntity
 67
     1
  8
0
100
AcDbBlockEnd
  0
BLOCK
  5
24
330
23
100
AcDbEntity
  8
0
100
AcDbBlockBegin
  2
*Paper_Space0
 70
     0
 10
0.0
 20
0.0
 30
0.0
  3
*Paper_Space0
  1
*Paper_Space0
  0
ENDBLK
  5
25
330
23
100
AcDbEntity
  8
0
100
AcDbBlockEnd
  0
BLOCK
  5
F9
330
F8
100
AcDbEntity
  8
0
100
AcDbBlockBegin
  2
SW_CENTERMARKSYMBOL_0
 70
     0
 10
0.0
 20
0.0
 30
0.0
  3
SW_CENTERMARKSYMBOL_0
  1
SW_CENTERMARKSYMBOL_0
  0
LINE
  5
FB
330
F8
100
AcDbEntity
  8
DIM
 62
     0
100
AcDbLine
 10
0.0
 20
0.0
 30
0.0
 11
0.0
 21
2.5
 31
0.0
  0
LINE
  5
FC
330
F8
100
AcDbEntity
  8
DIM
 62
     0
100
AcDbLine
 10
0.0
 20
0.0
 30
0.0
 11
-2.5
 21
0.0
 31
0.0
  0
LINE
  5
FD
330
F8
100
AcDbEntity
  8
DIM
 62
     0
100
AcDbLine
 10
0.0
 20
0.0
 30
0.0
 11
0.0
 21
-2.5
 31
0.0
  0
LINE
  5
FE
330
F8
100
AcDbEntity
  8
DIM
 62
     0
100
AcDbLine
 10
0.0
 20
0.0
 30
0.0
 11
2.5
 21
0.0
 31
0.0
  0
LINE
  5
FF
330
F8
100
AcDbEntity
  8
DIM
 62
     0
100
AcDbLine
 10
0.0
 20
5.0
 30
0.0
 11
0.0
 21
34.132842712
 31
0.0
  0
LINE
  5
100
330
F8
100
AcDbEntity
  8
DIM
 62
     0
100
AcDbLine
 10
-5.0
 20
0.0
 30
0.0
 11
-34.132842712
 21
0.0
 31
0.0
  0
LINE
  5
101
330
F8
100
AcDbEntity
  8
DIM
 62
     0
100
AcDbLine
 10
0.0
 20
-5.0
 30
0.0
 11
0.0
 21
-34.132842712
 31
0.0
  0
LINE
  5
102
330
F8
100
AcDbEntity
  8
DIM
 62
     0
100
AcDbLine
 10
5.0
 20
0.0
 30
0.0
 11
34.132842712
 21
0.0
 31
0.0
  0
ENDBLK
  5
FA
330
F8
100
AcDbEntity
  8
0
100
AcDbBlockEnd
  0
BLOCK
  5
16F
330
16E
100
AcDbEntity
  8
0
100
AcDbBlockBegin
  2
_D
 70
     0
 10
0.0
 20
0.0
 30
0.0
  3
_D
  1
_D
  0
SOLID
  5
171
330
16E
100
AcDbEntity
  8
DIM
100
AcDbTrace
 10
171.3102854771
 20
84.1082991844
 30
0.0
 11
175.4377854771
 21
83.4732991844
 31
0.0
 12
175.4377854771
 22
84.7432991844
 32
0.0
 13
175.4377854771
 23
84.7432991844
 33
0.0
  0
SOLID
  5
172
330
16E
100
AcDbEntity
  8
DIM
100
AcDbTrace
 10
263.7146000519
 20
84.1082991844
 30
0.0
 11
259.5871000519
 21
84.7432991844
 31
0.0
 12
259.5871000519
 22
83.4732991844
 32
0.0
 13
259.5871000519
 23
83.4732991844
 33
0.0
  0
LINE
  5
173
330
16E
100
AcDbEntity
  8
DIM
100
AcDbLine
 10
171.3102854771
 20
134.6082991844
 30
0.0
 11
171.3102854771
 21
82.8582991844
 31
0.0
  0
LINE
  5
174
330
16E
100
AcDbEntity
  8
DIM
100
AcDbLine
 10
263.7146000519
 20
115.6108054529
 30
0.0
 11
263.7146000519
 21
82.8582991844
 31
0.0
  0
LINE
  5
175
330
16E
100
AcDbEntity
  8
DIM
100
AcDbLine
 10
171.3102854771
 20
84.1082991844
 30
0.0
 11
263.7146000519
 21
84.1082991844
 31
0.0
  0
MTEXT
  5
176
330
16E
100
AcDbEntity
  8
DIM
100
AcDbMText
 10
211.9476180865
 20
88.7979547683
 30
0.0
 40
3.6380208333
 41
0.0
 71
     1
 72
     1
  1
92.40
  7
SLDTEXTSTYLE0
 73
     1
 44
1.0
  0
ENDBLK
  5
170
330
16E
100
AcDbEntity
  8
0
100
AcDbBlockEnd
  0
BLOCK
  5
17A
330
179
100
AcDbEntity
  8
0
100
AcDbBlockBegin
  2
_D_1
 70
     0
 10
0.0
 20
0.0
 30
0.0
  3
_D_1
  1
_D_1
  0
SOLID
  5
17C
330
179
100
AcDbEntity
  8
DIM
100
AcDbTrace
 10
239.7102854769
 20
92.3287736025
 30
0.0
 11
243.8377854769
 21
91.6937736025
 31
0.0
 12
243.8377854769
 22
92.9637736025
 32
0.0
 13
243.8377854769
 23
92.9637736025
 33
0.0
  0
SOLID
  5
17D
330
179
100
AcDbEntity
  8
DIM
100
AcDbTrace
 10
263.7146000519
 20
92.3287736025
 30
0.0
 11
259.5871000519
 21
92.9637736025
 31
0.0
 12
259.5871000519
 22
91.6937736025
 32
0.0
 13
259.5871000519
 23
91.6937736025
 33
0.0
  0
LINE
  5
17E
330
179
100
AcDbEntity
  8
DIM
100
AcDbLine
 10
239.7102854769
 20
112.3832991844
 30
0.0
 11
239.7102854769
 21
91.0787736025
 31
0.0
  0
LINE
  5
17F
330
179
100
AcDbEntity
  8
DIM
100
AcDbLine
 10
263.7146000519
 20
115.6108054529
 30
0.0
 11
263.7146000519
 21
91.0787736025
 31
0.0
  0
LINE
  5
180
330
179
100
AcDbEntity
  8
DIM
100
AcDbLine
 10
239.7102854769
 20
92.3287736025
 30
0.0
 11
263.7146000519
 21
92.3287736025
 31
0.0
  0
MTEXT
  5
181
330
179
100
AcDbEntity
  8
DIM
100
AcDbMText
 10
249.2534100705
 20
97.0184291864
 30
0.0
 40
3.6380208333
 41
0.0
 71
     1
 72
     1
  1
24
  7
SLDTEXTSTYLE0
 73
     1
 44
1.0
  0
ENDBLK
  5
17B
330
179
100
AcDbEntity
  8
0
100
AcDbBlockEnd
  0
BLOCK
  5
184
330
183
100
AcDbEntity
  8
0
100
AcDbBlockBegin
  2
_D_2
 70
     0
 10
0.0
 20
0.0
 30
0.0
  3
_D_2
  1
_D_2
  0
SOLID
  5
186
330
183
100
AcDbEntity
  8
DIM
100
AcDbTrace
 10
165.1576985287
 20
167.6082991844
 30
0.0
 11
164.5226985287
 21
163.4807991844
 31
0.0
 12
165.7926985287
 22
163.4807991844
 32
0.0
 13
165.7926985287
 23
163.4807991844
 33
0.0
  0
SOLID
  5
187
330
183
100
AcDbEntity
  8
DIM
100
AcDbTrace
 10
165.1576985287
 20
104.1082991844
 30
0.0
 11
165.7926985287
 21
108.2357991844
 31
0.0
 12
164.5226985287
 22
108.2357991844
 32
0.0
 13
164.5226985287
 23
108.2357991844
 33
0.0
  0
LINE
  5
188
330
183
100
AcDbEntity
  8
DIM
100
AcDbLine
 10
242.8259709019
 20
167.6082991844
 30
0.0
 11
163.9076985287
 21
167.6082991844
 31
0.0
  0
LINE
  5
189
330
183
100
AcDbEntity
  8
DIM
100
AcDbLine
 10
242.8259709019
 20
104.1082991844
 30
0.0
 11
163.9076985287
 21
104.1082991844
 31
0.0
  0
LINE
  5
18A
330
183
100
AcDbEntity
  8
DIM
100
AcDbLine
 10
165.1576985287
 20
167.6082991844
 30
0.0
 11
165.1576985287
 21
104.1082991844
 31
0.0
  0
MTEXT
  5
18B
330
183
100
AcDbEntity
  8
DIM
100
AcDbMText
 10
160.4680429448
 20
127.4805770692
 30
0.0
 40
3.6380208333
 41
0.0
 71
     1
 72
     1
  1
%%c
  7
SLDTEXTSTYLE0
 11
-7.044195017643634E-15
 21
1.0
 31
0.0
 73
     1
 44
1.0
  0
MTEXT
  5
18C
330
183
100
AcDbEntity
  8
DIM
100
AcDbMText
 10
160.4680429448
 20
133.1063719437
 30
0.0
 40
3.6380208333
 41
0.0
 71
     1
 72
     1
  1
63.50
  7
SLDTEXTSTYLE0
 11
-7.044195017643634E-15
 21
1.0
 31
0.0
 73
     1
 44
1.0
  0
ENDBLK
  5
185
330
183
100
AcDbEntity
  8
0
100
AcDbBlockEnd
  0
BLOCK
  5
18F
330
18E
100
AcDbEntity
  8
0
100
AcDbBlockBegin
  2
_D_3
 70
     0
 10
0.0
 20
0.0
 30
0.0
  3
_D_3
  1
_D_3
  0
SOLID
  5
191
330
18E
100
AcDbEntity
  8
DIM
100
AcDbTrace
 10
270.174934091
 20
155.8582991844
 30
0.0
 11
269.539934091
 21
151.7307991844
 31
0.0
 12
270.809934091
 22
151.7307991844
 32
0.0
 13
270.809934091
 23
151.7307991844
 33
0.0
  0
SOLID
  5
192
330
18E
100
AcDbEntity
  8
DIM
100
AcDbTrace
 10
270.174934091
 20
115.8582991844
 30
0.0
 11
270.809934091
 21
119.9857991844
 31
0.0
 12
269.539934091
 22
119.9857991844
 32
0.0
 13
269.539934091
 23
119.9857991844
 33
0.0
  0
LINE
  5
193
330
18E
100
AcDbEntity
  8
DIM
100
AcDbLine
 10
263.9620937834
 20
155.8582991844
 30
0.0
 11
271.424934091
 21
155.8582991844
 31
0.0
  0
LINE
  5
194
330
18E
100
AcDbEntity
  8
DIM
100
AcDbLine
 10
263.9620937834
 20
115.8582991844
 30
0.0
 11
271.424934091
 21
115.8582991844
 31
0.0
  0
LINE
  5
195
330
18E
100
AcDbEntity
  8
DIM
100
AcDbLine
 10
270.174934091
 20
155.8582991844
 30
0.0
 11
270.174934091
 21
115.8582991844
 31
0.0
  0
MTEXT
  5
196
330
18E
100
AcDbEntity
  8
DIM
100
AcDbMText
 10
265.4852785071
 20
130.5863690533
 30
0.0
 40
3.6380208333
 41
0.0
 71
     1
 72
     1
  1
%%c
  7
SLDTEXTSTYLE0
 11
-7.044195017643634E-15
 21
1.0
 31
0.0
 73
     1
 44
1.0
  0
MTEXT
  5
197
330
18E
100
AcDbEntity
  8
DIM
100
AcDbMText
 10
265.4852785071
 20
136.2121639278
 30
0.0
 40
3.6380208333
 41
0.0
 71
     1
 72
     1
  1
40
  7
SLDTEXTSTYLE0
 11
-7.044195017643634E-15
 21
1.0
 31
0.0
 73
     1
 44
1.0
  0
ENDBLK
  5
190
330
18E
100
AcDbEntity
  8
0
100
AcDbBlockEnd
  0
ENDSEC
  0
SECTION
  2
ENTITIES
  0
LINE
  5
76
330
1F
100
AcDbEntity
  8
DIM
100
AcDbLine
 10
130.8805308612
 20
12.2387393211
 30
0.0
 11
130.8805308612
 21
5.9887393211
 31
0.0
  0
LINE
  5
77
330
1F
100
AcDbEntity
  8
DIM
100
AcDbLine
 10
318.0870021191
 20
12.2387393211
 30
0.0
 11
318.0870021191
 21
5.9887393211
 31
0.0
  0
LINE
  5
78
330
1F
100
AcDbEntity
  8
DIM
100
AcDbLine
 10
296.8146374145
 20
12.2387393211
 30
0.0
 11
296.8146374145
 21
5.9887393211
 31
0.0
  0
LINE
  5
79
330
1F
100
AcDbEntity
  8
DIM
100
AcDbLine
 10
348.6305308612
 20
5.9887393211
 30
0.0
 11
348.6305308612
 21
12.2387393211
 31
0.0
  0
LINE
  5
7A
330
1F
100
AcDbEntity
  8
DIM
100
AcDbLine
 10
140.6305308612
 20
12.2387393211
 30
0.0
 11
140.6305308612
 21
5.9887393211
 31
0.0
  0
LINE
  5
7B
330
1F
100
AcDbEntity
  8
DIM
100
AcDbLine
 10
164.6192214035
 20
12.2387393211
 30
0.0
 11
164.6192214035
 21
5.9887393211
 31
0.0
  0
LINE
  5
7C
330
1F
100
AcDbEntity
  8
DIM
100
AcDbLine
 10
364.8805308612
 20
5.9887393211
 30
0.0
 11
364.8805308612
 21
96.3012393211
 31
0.0
  0
LINE
  5
7D
330
1F
100
AcDbEntity
  8
DIM
100
AcDbLine
 10
357.2737558684
 20
75.0512393211
 30
0.0
 11
364.8805308612
 21
75.0512393211
 31
0.0
  0
LINE
  5
7E
330
1F
100
AcDbEntity
  8
DIM
100
AcDbLine
 10
186.3791885657
 20
11.3012393211
 30
0.0
 11
186.3791885657
 21
5.9887393211
 31
0.0
  0
LINE
  5
7F
330
1F
100
AcDbEntity
  8
DIM
100
AcDbLine
 10
245.9549364505
 20
12.2387393211
 30
0.0
 11
245.9549364505
 21
5.9887393211
 31
0.0
  0
LINE
  5
80
330
1F
100
AcDbEntity
  8
DIM
100
AcDbLine
 10
186.3791885657
 20
12.2387393211
 30
0.0
 11
186.3791885657
 21
11.3012393211
 31
0.0
  0
LINE
  5
81
330
1F
100
AcDbEntity
  8
DIM
100
AcDbLine
 10
358.6305308612
 20
21.9261493211
 30
0.0
 11
364.8805308612
 21
21.9261493211
 31
0.0
  0
LINE
  5
82
330
1F
100
AcDbEntity
  8
DIM
100
AcDbLine
 10
358.6305308612
 20
249.7387393211
 30
0.0
 11
12.3805308612
 21
249.7387393211
 31
0.0
  0
LINE
  5
83
330
1F
100
AcDbEntity
  8
DIM
100
AcDbLine
 10
364.8805308612
 20
255.9887393211
 30
0.0
 11
6.1305308612
 21
255.9887393211
 31
0.0
  0
LINE
  5
84
330
1F
100
AcDbEntity
  8
DIM
100
AcDbLine
 10
12.3805308612
 20
249.7387393211
 30
0.0
 11
12.3805308612
 21
12.2387393211
 31
0.0
  0
LINE
  5
85
330
1F
100
AcDbEntity
  8
DIM
100
AcDbLine
 10
6.1305308612
 20
255.9887393211
 30
0.0
 11
6.1305308612
 21
5.9887393211
 31
0.0
  0
LINE
  5
86
330
1F
100
AcDbEntity
  8
DIM
100
AcDbLine
 10
12.3805308612
 20
68.4887393211
 30
0.0
 11
6.1305308612
 21
68.4887393211
 31
0.0
  0
LINE
  5
87
330
1F
100
AcDbEntity
  8
DIM
100
AcDbLine
 10
6.1305308612
 20
130.9887393211
 30
0.0
 11
12.3805308612
 21
130.9887393211
 31
0.0
  0
LINE
  5
88
330
1F
100
AcDbEntity
  8
DIM
100
AcDbLine
 10
6.1305308612
 20
5.9887393211
 30
0.0
 11
364.8805308612
 21
5.9887393211
 31
0.0
  0
LINE
  5
89
330
1F
100
AcDbEntity
  8
DIM
100
AcDbLine
 10
12.3805308612
 20
12.2387393211
 30
0.0
 11
364.8805308612
 21
12.2387393211
 31
0.0
  0
LINE
  5
8A
330
1F
100
AcDbEntity
  8
DIM
100
AcDbLine
 10
60.5055308612
 20
5.9887393211
 30
0.0
 11
60.5055308612
 21
12.2387393211
 31
0.0
  0
LINE
  5
8B
330
1F
100
AcDbEntity
  8
DIM
100
AcDbLine
 10
123.0055308612
 20
12.2387393211
 30
0.0
 11
123.0055308612
 21
5.9887393211
 31
0.0
  0
LINE
  5
8C
330
1F
100
AcDbEntity
  8
DIM
100
AcDbLine
 10
12.3805308612
 20
193.4887393211
 30
0.0
 11
6.1305308612
 21
193.4887393211
 31
0.0
  0
LINE
  5
8D
330
1F
100
AcDbEntity
  8
DIM
100
AcDbLine
 10
60.5055308612
 20
249.7387393211
 30
0.0
 11
60.5055308612
 21
255.9887393211
 31
0.0
  0
LINE
  5
8E
330
1F
100
AcDbEntity
  8
DIM
100
AcDbLine
 10
123.0055308612
 20
255.9887393211
 30
0.0
 11
123.0055308612
 21
249.7387393211
 31
0.0
  0
LINE
  5
8F
330
1F
100
AcDbEntity
  8
DIM
100
AcDbLine
 10
185.5055308612
 20
255.9887393211
 30
0.0
 11
185.5055308612
 21
249.7387393211
 31
0.0
  0
LINE
  5
90
330
1F
100
AcDbEntity
  8
DIM
100
AcDbLine
 10
358.6305308612
 20
12.2387393211
 30
0.0
 11
358.6305308612
 21
249.7387393211
 31
0.0
  0
LINE
  5
91
330
1F
100
AcDbEntity
  8
DIM
100
AcDbLine
 10
364.8805308612
 20
96.3012393211
 30
0.0
 11
364.8805308612
 21
255.9887393211
 31
0.0
  0
LINE
  5
92
330
1F
100
AcDbEntity
  8
DIM
100
AcDbLine
 10
364.8805308612
 20
130.9887393211
 30
0.0
 11
358.6305308612
 21
130.9887393211
 31
0.0
  0
LINE
  5
93
330
1F
100
AcDbEntity
  8
DIM
100
AcDbLine
 10
248.0055308612
 20
255.9887393211
 30
0.0
 11
248.0055308612
 21
249.7387393211
 31
0.0
  0
LINE
  5
94
330
1F
100
AcDbEntity
  8
DIM
100
AcDbLine
 10
310.5055308612
 20
249.7387393211
 30
0.0
 11
310.5055308612
 21
255.9887393211
 31
0.0
  0
LINE
  5
95
330
1F
100
AcDbEntity
  8
DIM
100
AcDbLine
 10
358.6305308612
 20
193.4887393211
 30
0.0
 11
364.8805308612
 21
193.4887393211
 31
0.0
  0
MTEXT
  5
97
330
1F
100
AcDbEntity
  8
DIM
100
AcDbMText
 10
16.5759429274
 20
242.6535727172
 30
0.0
 40
5.2916666667
 41
0.0
 71
     1
 72
     1
  1
SK 40 ER 32A 24 AD/6.3G15000 SL
  7
SLDTEXTSTYLE0
 73
     1
 44
1.0
  0
MTEXT
  5
99
330
1F
100
AcDbEntity
  8
DIM
 62
     7
100
AcDbMText
 10
247.1659733083
 20
9.7524394079
 30
0.0
 40
1.87325
 41
0.0
 71
     1
 72
     1
  1
WEIGHT:
  7
SLDTEXTSTYLE1
 73
     1
 44
1.0
  0
MTEXT
  5
9A
330
1F
100
AcDbEntity
  8
DIM
 62
     7
100
AcDbMText
 10
360.7463459435
 20
102.4257668853
 30
0.0
 40
2.3151041667
 41
0.0
 71
     1
 72
     1
  1
C
  7
SLDTEXTSTYLE1
 73
     1
 44
1.0
  0
MTEXT
  5
9B
330
1F
100
AcDbEntity
  8
DIM
 62
     7
100
AcDbMText
 10
353.8044757743
 20
18.5674774795
 30
0.0
 40
3.6380208333
 41
0.0
 71
     1
 72
     1
  1
A4
  7
SLDTEXTSTYLE1
 73
     1
 44
1.0
  0
MTEXT
  5
9C
330
1F
100
AcDbEntity
  8
DIM
 62
     7
100
AcDbMText
 10
340.7138691946
 20
254.3237598255
 30
0.0
 40
2.3151041667
 41
0.0
 71
     1
 72
     1
  1
6
  7
SLDTEXTSTYLE1
 73
     1
 44
1.0
  0
MTEXT
  5
9D
330
1F
100
AcDbEntity
  8
DIM
 62
     7
100
AcDbMText
 10
278.2138691946
 20
254.3237598255
 30
0.0
 40
2.3151041667
 41
0.0
 71
     1
 72
     1
  1
5
  7
SLDTEXTSTYLE1
 73
     1
 44
1.0
  0
MTEXT
  5
9E
330
1F
100
AcDbEntity
  8
DIM
 62
     7
100
AcDbMText
 10
360.7138741946
 20
226.1987598255
 30
0.0
 40
2.3151041667
 41
0.0
 71
     1
 72
     1
  1
A
  7
SLDTEXTSTYLE1
 73
     1
 44
1.0
  0
MTEXT
  5
9F
330
1F
100
AcDbEntity
  8
DIM
 62
     7
100
AcDbMText
 10
360.7138741946
 20
163.6987598255
 30
0.0
 40
2.3151041667
 41
0.0
 71
     1
 72
     1
  1
B
  7
SLDTEXTSTYLE1
 73
     1
 44
1.0
  0
MTEXT
  5
A0
330
1F
100
AcDbEntity
  8
DIM
 62
     7
100
AcDbMText
 10
215.7138691946
 20
254.3237598255
 30
0.0
 40
2.3151041667
 41
0.0
 71
     1
 72
     1
  1
4
  7
SLDTEXTSTYLE1
 73
     1
 44
1.0
  0
MTEXT
  5
A1
330
1F
100
AcDbEntity
  8
DIM
 62
     7
100
AcDbMText
 10
28.7347025279
 20
254.3237598255
 30
0.0
 40
2.3151041667
 41
0.0
 71
     1
 72
     1
  1
1
  7
SLDTEXTSTYLE1
 73
     1
 44
1.0
  0
MTEXT
  5
A2
330
1F
100
AcDbEntity
  8
DIM
 62
     7
100
AcDbMText
 10
90.7138691946
 20
254.3237598255
 30
0.0
 40
2.3151041667
 41
0.0
 71
     1
 72
     1
  1
2
  7
SLDTEXTSTYLE1
 73
     1
 44
1.0
  0
MTEXT
  5
A3
330
1F
100
AcDbEntity
  8
DIM
 62
     7
100
AcDbMText
 10
153.2138691946
 20
254.3237598255
 30
0.0
 40
2.3151041667
 41
0.0
 71
     1
 72
     1
  1
3
  7
SLDTEXTSTYLE1
 73
     1
 44
1.0
  0
MTEXT
  5
A4
330
1F
100
AcDbEntity
  8
DIM
 62
     7
100
AcDbMText
 10
8.2138641946
 20
226.1987598255
 30
0.0
 40
2.3151041667
 41
0.0
 71
     1
 72
     1
  1
A
  7
SLDTEXTSTYLE1
 73
     1
 44
1.0
  0
MTEXT
  5
A5
330
1F
100
AcDbEntity
  8
DIM
 62
     7
100
AcDbMText
 10
90.7138691946
 20
10.5737598255
 30
0.0
 40
2.3151041667
 41
0.0
 71
     1
 72
     1
  1
2
  7
SLDTEXTSTYLE1
 73
     1
 44
1.0
  0
MTEXT
  5
A6
330
1F
100
AcDbEntity
  8
DIM
 62
     7
100
AcDbMText
 10
28.7347025279
 20
10.5737598255
 30
0.0
 40
2.3151041667
 41
0.0
 71
     1
 72
     1
  1
1
  7
SLDTEXTSTYLE1
 73
     1
 44
1.0
  0
MTEXT
  5
A7
330
1F
100
AcDbEntity
  8
DIM
 62
     7
100
AcDbMText
 10
8.2138641946
 20
38.6987598255
 30
0.0
 40
2.3151041667
 41
0.0
 71
     1
 72
     1
  1
D
  7
SLDTEXTSTYLE1
 73
     1
 44
1.0
  0
MTEXT
  5
A8
330
1F
100
AcDbEntity
  8
DIM
 62
     7
100
AcDbMText
 10
8.2138641946
 20
101.1987598255
 30
0.0
 40
2.3151041667
 41
0.0
 71
     1
 72
     1
  1
C
  7
SLDTEXTSTYLE1
 73
     1
 44
1.0
  0
MTEXT
  5
A9
330
1F
100
AcDbEntity
  8
DIM
 62
     7
100
AcDbMText
 10
8.2138641946
 20
163.6987598255
 30
0.0
 40
2.3151041667
 41
0.0
 71
     1
 72
     1
  1
B
  7
SLDTEXTSTYLE1
 73
     1
 44
1.0
  0
MTEXT
  5
AA
330
1F
100
AcDbEntity
  8
DIM
 62
     7
100
AcDbMText
 10
360.7463459435
 20
102.4257668853
 30
0.0
 40
2.3151041667
 41
0.0
 71
     1
 72
     1
  1
C
  7
SLDTEXTSTYLE1
 73
     1
 44
1.0
  0
MTEXT
  5
AC
330
1F
100
AcDbEntity
  8
DIM
 62
     7
100
AcDbMText
 10
320.6567072656
 20
9.6138484142
 30
0.0
 40
1.875
 41
0.0
 71
     1
 72
     1
  1
SHEET 1 OF 1
  7
SLDTEXTSTYLE2
 73
     1
 44
1.0
  0
MTEXT
  5
AD
330
1F
100
AcDbEntity
  8
DIM
 62
     7
100
AcDbMText
 10
187.9647254793
 20
9.8167093546
 30
0.0
 40
1.875
 41
0.0
 71
     1
 72
     1
  1
MATERIAL:
  7
SLDTEXTSTYLE1
 73
     1
 44
1.0
  0
MTEXT
  5
AE
330
1F
100
AcDbEntity
  8
DIM
 62
     7
100
AcDbMText
 10
340.7138691946
 20
254.3237598255
 30
0.0
 40
2.3151041667
 41
0.0
 71
     1
 72
     1
  1
6
  7
SLDTEXTSTYLE1
 73
     1
 44
1.0
  0
MTEXT
  5
AF
330
1F
100
AcDbEntity
  8
DIM
 62
     7
100
AcDbMText
 10
278.2138691946
 20
254.3237598255
 30
0.0
 40
2.3151041667
 41
0.0
 71
     1
 72
     1
  1
5
  7
SLDTEXTSTYLE1
 73
     1
 44
1.0
  0
MTEXT
  5
B0
330
1F
100
AcDbEntity
  8
DIM
 62
     7
100
AcDbMText
 10
360.7138741946
 20
226.1987598255
 30
0.0
 40
2.3151041667
 41
0.0
 71
     1
 72
     1
  1
A
  7
SLDTEXTSTYLE1
 73
     1
 44
1.0
  0
MTEXT
  5
B1
330
1F
100
AcDbEntity
  8
DIM
 62
     7
100
AcDbMText
 10
360.7138741946
 20
163.6987598255
 30
0.0
 40
2.3151041667
 41
0.0
 71
     1
 72
     1
  1
B
  7
SLDTEXTSTYLE1
 73
     1
 44
1.0
  0
MTEXT
  5
B2
330
1F
100
AcDbEntity
  8
DIM
 62
     7
100
AcDbMText
 10
215.7138691946
 20
254.3237598255
 30
0.0
 40
2.3151041667
 41
0.0
 71
     1
 72
     1
  1
4
  7
SLDTEXTSTYLE1
 73
     1
 44
1.0
  0
MTEXT
  5
B3
330
1F
100
AcDbEntity
  8
DIM
 62
     7
100
AcDbMText
 10
28.7347025279
 20
254.3237598255
 30
0.0
 40
2.3151041667
 41
0.0
 71
     1
 72
     1
  1
1
  7
SLDTEXTSTYLE1
 73
     1
 44
1.0
  0
MTEXT
  5
B4
330
1F
100
AcDbEntity
  8
DIM
 62
     7
100
AcDbMText
 10
90.7138691946
 20
254.3237598255
 30
0.0
 40
2.3151041667
 41
0.0
 71
     1
 72
     1
  1
2
  7
SLDTEXTSTYLE1
 73
     1
 44
1.0
  0
MTEXT
  5
B5
330
1F
100
AcDbEntity
  8
DIM
 62
     7
100
AcDbMText
 10
153.2138691946
 20
254.3237598255
 30
0.0
 40
2.3151041667
 41
0.0
 71
     1
 72
     1
  1
3
  7
SLDTEXTSTYLE1
 73
     1
 44
1.0
  0
MTEXT
  5
B6
330
1F
100
AcDbEntity
  8
DIM
 62
     7
100
AcDbMText
 10
8.2138641946
 20
226.1987598255
 30
0.0
 40
2.3151041667
 41
0.0
 71
     1
 72
     1
  1
A
  7
SLDTEXTSTYLE1
 73
     1
 44
1.0
  0
MTEXT
  5
B7
330
1F
100
AcDbEntity
  8
DIM
 62
     7
100
AcDbMText
 10
90.7138691946
 20
10.5737598255
 30
0.0
 40
2.3151041667
 41
0.0
 71
     1
 72
     1
  1
2
  7
SLDTEXTSTYLE1
 73
     1
 44
1.0
  0
MTEXT
  5
B8
330
1F
100
AcDbEntity
  8
DIM
 62
     7
100
AcDbMText
 10
28.7347025279
 20
10.5737598255
 30
0.0
 40
2.3151041667
 41
0.0
 71
     1
 72
     1
  1
1
  7
SLDTEXTSTYLE1
 73
     1
 44
1.0
  0
MTEXT
  5
B9
330
1F
100
AcDbEntity
  8
DIM
 62
     7
100
AcDbMText
 10
8.2138641946
 20
38.6987598255
 30
0.0
 40
2.3151041667
 41
0.0
 71
     1
 72
     1
  1
D
  7
SLDTEXTSTYLE1
 73
     1
 44
1.0
  0
MTEXT
  5
BA
330
1F
100
AcDbEntity
  8
DIM
 62
     7
100
AcDbMText
 10
8.2138641946
 20
101.1987598255
 30
0.0
 40
2.3151041667
 41
0.0
 71
     1
 72
     1
  1
C
  7
SLDTEXTSTYLE1
 73
     1
 44
1.0
  0
MTEXT
  5
BB
330
1F
100
AcDbEntity
  8
DIM
 62
     7
100
AcDbMText
 10
8.2138641946
 20
163.6987598255
 30
0.0
 40
2.3151041667
 41
0.0
 71
     1
 72
     1
  1
B
  7
SLDTEXTSTYLE1
 73
     1
 44
1.0
  0
SPLINE
  5
BC
330
1F
100
AcDbEntity
  8
0
  6
Continuous
 62
     7
370
    15
100
AcDbSpline
210
0.0
220
0.0
230
1.0
 70
     8
 71
     3
 72
    38
 73
    34
 74
     0
 42
0.000000001
 43
0.00000001
 40
0.0
 40
0.0
 40
0.0
 40
0.0
 40
0.0624999999999999
 40
0.0624999999999999
 40
0.1249999999999999
 40
0.1249999999999999
 40
0.1874999999999999
 40
0.1874999999999999
 40
0.25
 40
0.25
 40
0.3125
 40
0.3125
 40
0.375
 40
0.375
 40
0.4375
 40
0.4375
 40
0.5
 40
0.5
 40
0.5625
 40
0.5625
 40
0.625
 40
0.625
 40
0.6875
 40
0.6875
 40
0.75
 40
0.75
 40
0.8125
 40
0.8125
 40
0.875
 40
0.875
 40
0.9375
 40
0.9375
 40
1.0
 40
1.0
 40
1.0
 40
1.0
 10
111.7412503101105
 20
135.8582991844447
 30
0.0
 10
111.7412503101105
 20
135.3839174098799
 30
0.0
 10
111.7118266774492
 20
134.8795918879348
 30
0.0
 10
111.5691666403032
 20
133.8143969439047
 30
0.0
 10
111.4558622345343
 20
133.2533739839546
 30
0.0
 10
111.1158253785286
 20
132.0875333347842
 30
0.0
 10
110.888908255375
 20
131.4825600130269
 30
0.0
 10
110.2909752119181
 20
130.2560306931069
 30
0.0
 10
109.9196242957942
 20
129.6344103021549
 30
0.0
 10
109.0088112886361
 20
128.4199929592691
 30
0.0
 10
108.4689151566329
 20
127.8273691461382
 30
0.0
 10
107.2155288954533
 20
126.7335047727375
 30
0.0
 10
106.5017118173755
 20
126.2327811012342
 30
0.0
 10
104.9259107669289
 20
125.3923538743236
 30
0.0
 10
104.0640128622006
 20
125.0533981359436
 30
0.0
 10
102.25316570004
 20
124.5935004439632
 30
0.0
 10
101.3048512697568
 20
124.4731365948902
 30
0.0
 10
99.40732417151062
 20
124.4731365948902
 30
0.0
 10
98.45900974122739
 20
124.5935004439632
 30
0.0
 10
96.64816257906682
 20
125.0533981359436
 30
0.0
 10
95.78626467433853
 20
125.3923538743236
 30
0.0
 10
94.21046362389191
 20
126.2327811012342
 30
0.0
 10
93.49664654581412
 20
126.7335047727375
 30
0.0
 10
92.24326028463446
 20
127.8273691461382
 30
0.0
 10
91.70336415263132
 20
128.4199929592691
 30
0.0
 10
90.7925511454732
 20
129.6344103021549
 30
0.0
 10
90.42120022934931
 20
130.2560306931069
 30
0.0
 10
89.82326718589239
 20
131.4825600130269
 30
0.0
 10
89.59635006273884
 20
132.0875333347842
 30
0.0
 10
89.25631320673313
 20
133.2533739839546
 30
0.0
 10
89.14300880096415
 20
133.8143969439047
 30
0.0
 10
89.00034876381824
 20
134.8795918879348
 30
0.0
 10
88.97092513115689
 20
135.3839174098799
 30
0.0
 10
88.97092513115689
 20
135.8582991844447
 30
0.0
  0
SPLINE
  5
BD
330
1F
100
AcDbEntity
  8
0
  6
Continuous
 62
     7
370
    15
100
AcDbSpline
210
0.0
220
0.0
230
1.0
 70
     8
 71
     3
 72
    38
 73
    34
 74
     0
 42
0.000000001
 43
0.00000001
 40
0.0
 40
0.0
 40
0.0
 40
0.0
 40
0.0625
 40
0.0625
 40
0.125
 40
0.125
 40
0.1875
 40
0.1875
 40
0.25
 40
0.25
 40
0.3125
 40
0.3125
 40
0.375
 40
0.375
 40
0.4375
 40
0.4375
 40
0.5
 40
0.5
 40
0.5625
 40
0.5625
 40
0.625
 40
0.625
 40
0.6875
 40
0.6875
 40
0.75
 40
0.75
 40
0.8125
 40
0.8125
 40
0.875
 40
0.875
 40
0.9375
 40
0.9375
 40
1.0
 40
1.0
 40
1.0
 40
1.0
 10
88.97092513115689
 20
135.8582991844447
 30
0.0
 10
88.97092513115689
 20
136.3326809590095
 30
0.0
 10
89.00034876381824
 20
136.8370064809545
 30
0.0
 10
89.14300880096415
 20
137.9022014249847
 30
0.0
 10
89.25631320673311
 20
138.4632243849348
 30
0.0
 10
89.59635006273884
 20
139.6290650341051
 30
0.0
 10
89.82326718589239
 20
140.2340383558625
 30
0.0
 10
90.42120022934931
 20
141.4605676757825
 30
0.0
 10
90.7925511454732
 20
142.0821880667345
 30
0.0
 10
91.70336415263132
 20
143.2966054096203
 30
0.0
 10
92.24326028463446
 20
143.8892292227512
 30
0.0
 10
93.49664654581412
 20
144.9830935961518
 30
0.0
 10
94.21046362389191
 20
145.4838172676552
 30
0.0
 10
95.7862646743385
 20
146.3242444945657
 30
0.0
 10
96.64816257906682
 20
146.6632002329458
 30
0.0
 10
98.45900974122739
 20
147.1230979249262
 30
0.0
 10
99.40732417151062
 20
147.2434617739992
 30
0.0
 10
101.3048512697568
 20
147.2434617739992
 30
0.0
 10
102.25316570004
 20
147.1230979249262
 30
0.0
 10
104.0640128622006
 20
146.6632002329458
 30
0.0
 10
104.9259107669289
 20
146.3242444945657
 30
0.0
 10
106.5017118173755
 20
145.4838172676552
 30
0.0
 10
107.2155288954533
 20
144.9830935961518
 30
0.0
 10
108.4689151566329
 20
143.8892292227512
 30
0.0
 10
109.0088112886361
 20
143.2966054096203
 30
0.0
 10
109.9196242957942
 20
142.0821880667345
 30
0.0
 10
110.2909752119181
 20
141.4605676757825
 30
0.0
 10
110.888908255375
 20
140.2340383558625
 30
0.0
 10
111.1158253785286
 20
139.6290650341051
 30
0.0
 10
111.4558622345343
 20
138.4632243849348
 30
0.0
 10
111.5691666403032
 20
137.9022014249847
 30
0.0
 10
111.7118266774492
 20
136.8370064809545
 30
0.0
 10
111.7412503101105
 20
136.3326809590095
 30
0.0
 10
111.7412503101105
 20
135.8582991844447
 30
0.0
  0
ARC
  5
BE
330
1F
100
AcDbEntity
  8
0
  6
Continuous
 62
     7
370
    15
100
AcDbCircle
 10
100.3560877206
 20
135.8582991844
 30
0.0
 40
12.37469537600001
100
AcDbArc
 50
180.0000000103
 51
359.9999999765
  0
SPLINE
  5
BF
330
1F
100
AcDbEntity
  8
0
  6
Continuous
 62
     7
370
    15
100
AcDbSpline
210
0.0
220
0.0
230
1.0
 70
    24
 71
     3
 72
    14
 73
    10
 74
     0
 42
0.000000001
 43
0.00000001
 40
0.0
 40
0.0
 40
0.0
 40
0.0
 40
0.25
 40
0.25
 40
0.5
 40
0.5
 40
0.75
 40
0.75
 40
1.0
 40
1.0
 40
1.0
 40
1.0
 10
88.97092513111781
 20
135.8582991844447
 30
0.0
 10
88.86190858217694
 20
135.8582991844447
 30
0.0
 10
88.74583059075621
 20
135.8582991844447
 30
0.0
 10
88.52000155188877
 20
135.8582991844447
 30
0.0
 10
88.41072319250299
 20
135.8582991844447
 30
0.0
 10
88.22292848212622
 20
135.8582991844447
 30
0.0
 10
88.14483388644939
 20
135.8582991844447
 30
0.0
 10
88.03198792698271
 20
135.8582991844447
 30
0.0
 10
87.99712432969308
 20
135.8582991844447
 30
0.0
 10
87.98139234475843
 20
135.8582991844447
 30
0.0
  0
SPLINE
  5
C0
330
1F
100
AcDbEntity
  8
0
  6
Continuous
 62
     7
370
    15
100
AcDbSpline
210
0.0
220
0.0
230
1.0
 70
    24
 71
     3
 72
    14
 73
    10
 74
     0
 42
0.000000001
 43
0.00000001
 40
0.0
 40
0.0
 40
0.0
 40
0.0
 40
0.25
 40
0.25
 40
0.5
 40
0.5
 40
0.75
 40
0.75
 40
1.0
 40
1.0
 40
1.0
 40
1.0
 10
111.7412503101496
 20
135.8582991844447
 30
0.0
 10
111.850266859086
 20
135.8582991844447
 30
0.0
 10
111.9663448505017
 20
135.8582991844447
 30
0.0
 10
112.1921738893606
 20
135.8582991844447
 30
0.0
 10
112.3014522487429
 20
135.8582991844447
 30
0.0
 10
112.489246959117
 20
135.8582991844447
 30
0.0
 10
112.5673415547946
 20
135.8582991844447
 30
0.0
 10
112.6801875142669
 20
135.8582991844447
 30
0.0
 10
112.7150511115613
 20
135.8582991844447
 30
0.0
 10
112.7307830965013
 20
135.8582991844447
 30
0.0
  0
ARC
  5
C1
330
1F
100
AcDbEntity
  8
0
  6
Continuous
 62
     7
370
    15
100
AcDbCircle
 10
100.3560877206
 20
135.8582991844
 30
0.0
 40
12.37469537600001
100
AcDbArc
 50
359.9999999765
 51
180.0
  0
CIRCLE
  5
C2
330
1F
100
AcDbEntity
  8
0
  6
Continuous
 62
     7
370
    15
100
AcDbCircle
 10
100.3560877206
 20
135.8582991844
 30
0.0
 40
22.22500000000001
  0
CIRCLE
  5
C3
330
1F
100
AcDbEntity
  8
0
  6
Continuous
 62
     7
370
    15
100
AcDbCircle
 10
100.3560877206
 20
135.8582991844
 30
0.0
 40
22.39999999969785
  0
ARC
  5
C4
330
1F
100
AcDbEntity
  8
0
  6
Continuous
 62
     7
370
    15
100
AcDbCircle
 10
100.3560877206
 20
135.8582991844
 30
0.0
 40
30.86715728713359
100
AcDbArc
 50
253.7590550445
 51
286.2409449555
  0
SPLINE
  5
C5
330
1F
100
AcDbEntity
  8
0
  6
Continuous
 62
     7
370
    15
100
AcDbSpline
210
0.0
220
0.0
230
1.0
 70
     8
 71
     3
 72
    10
 73
     6
 74
     0
 42
0.000000001
 43
0.00000001
 40
0.0
 40
0.0
 40
0.0
 40
0.0
 40
0.5
 40
0.5
 40
1.0
 40
1.0
 40
1.0
 40
1.0
 10
91.72324500978299
 20
106.2229246151822
 30
0.0
 10
91.69059038416538
 20
106.266448873634
 30
0.0
 10
91.66260926911004
 20
106.3150109766516
 30
0.0
 10
91.61996306229561
 20
106.4264892864608
 30
0.0
 10
91.6060877199374
 20
106.4884605765683
 30
0.0
 10
91.60608772061076
 20
106.5523646688387
 30
0.0
  0
ARC
  5
C6
330
1F
100
AcDbEntity
  8
0
  6
Continuous
 62
     7
370
    15
100
AcDbCircle
 10
100.3560877206
 20
135.8582991844
 30
0.0
 40
30.58431456895075
100
AcDbArc
 50
253.3757249646
 51
286.6242750409
  0
SPLINE
  5
C7
330
1F
100
AcDbEntity
  8
0
  6
Continuous
 62
     7
370
    15
100
AcDbSpline
210
0.0
220
0.0
230
1.0
 70
     8
 71
     3
 72
    10
 73
     6
 74
     0
 42
0.000000001
 43
0.00000001
 40
0.0
 40
0.0
 40
0.0
 40
0.0
 40
0.5
 40
0.5
 40
1.0
 40
1.0
 40
1.0
 40
1.0
 10
108.9889304315928
 20
106.2229246156816
 30
0.0
 10
109.0215850570686
 20
106.2664488739876
 30
0.0
 10
109.0495661743526
 20
106.3150109814348
 30
0.0
 10
109.0922123802019
 20
106.4264892916239
 30
0.0
 10
109.1060877219467
 20
106.4884605816939
 30
0.0
 10
109.1060877206567
 20
106.5523646737171
 30
0.0
  0
ARC
  5
C8
330
1F
100
AcDbEntity
  8
0
  6
Continuous
 62
     7
370
    15
100
AcDbCircle
 10
100.3560877206
 20
135.8582991844
 30
0.0
 40
30.8671572871336
100
AcDbArc
 50
216.8228239932
 51
233.1771760068
  0
SPLINE
  5
C9
330
1F
100
AcDbEntity
  8
0
  6
Continuous
 62
     7
370
    15
100
AcDbSpline
210
0.0
220
0.0
230
1.0
 70
    24
 71
     3
 72
     8
 73
     4
 74
     0
 42
0.000000001
 43
0.00000001
 40
0.0
 40
0.0
 40
0.0
 40
0.0
 40
1.0
 40
1.0
 40
1.0
 40
1.0
 10
75.64715413334686
 20
117.3582991844447
 30
0.0
 10
75.74732307380721
 20
117.3582991844447
 30
0.0
 10
75.87356101046299
 20
117.3582991844447
 30
0.0
 10
76.00141059424745
 20
117.3582991844447
 30
0.0
  0
ARC
  5
CA
330
1F
100
AcDbEntity
  8
0
  6
Continuous
 62
     7
370
    15
100
AcDbCircle
 10
100.3560877206
 20
135.8582991844
 30
0.0
 40
30.58431456895076
100
AcDbArc
 50
217.2205832067
 51
232.7794167933
  0
SPLINE
  5
CB
330
1F
100
AcDbEntity
  8
0
  6
Continuous
 62
     7
370
    15
100
AcDbSpline
210
0.0
220
0.0
230
1.0
 70
    24
 71
     3
 72
     8
 73
     4
 74
     0
 42
0.000000001
 43
0.00000001
 40
0.0
 40
0.0
 40
0.0
 40
0.0
 40
1.0
 40
1.0
 40
1.0
 40
1.0
 10
81.85608772063371
 20
111.503622057134
 30
0.0
 10
81.85608772063371
 20
111.375831397259
 30
0.0
 10
81.85608772063368
 20
111.2494312699502
 30
0.0
 10
81.85608772063368
 20
111.1493655976689
 30
0.0
  0
ARC
  5
CC
330
1F
100
AcDbEntity
  8
0
  6
Continuous
 62
     7
370
    15
100
AcDbCircle
 10
100.3560877206
 20
135.8582991844
 30
0.0
 40
30.86715728713356
100
AcDbArc
 50
73.7590550445
 51
106.2409449555
  0
SPLINE
  5
CD
330
1F
100
AcDbEntity
  8
0
  6
Continuous
 62
     7
370
    15
100
AcDbSpline
210
0.0
220
0.0
230
1.0
 70
     8
 71
     3
 72
    10
 73
     6
 74
     0
 42
0.000000001
 43
0.00000001
 40
0.0
 40
0.0
 40
0.0
 40
0.0
 40
0.5
 40
0.5
 40
1.0
 40
1.0
 40
1.0
 40
1.0
 10
108.9889304310055
 20
165.4936737539905
 30
0.0
 10
109.0215850566686
 20
165.4501494955775
 30
0.0
 10
109.0495661738537
 20
165.4015873884912
 30
0.0
 10
109.092212380038
 20
165.2901090779615
 30
0.0
 10
109.1060877219194
 20
165.2281377876495
 30
0.0
 10
109.1060877206567
 20
165.1642336953584
 30
0.0
  0
ARC
  5
CE
330
1F
100
AcDbEntity
  8
0
  6
Continuous
 62
     7
370
    15
100
AcDbCircle
 10
100.3560877206
 20
135.8582991844
 30
0.0
 40
30.58431456895077
100
AcDbArc
 50
73.3757249499
 51
106.6242750409
  0
SPLINE
  5
CF
330
1F
100
AcDbEntity
  8
0
  6
Continuous
 62
     7
370
    15
100
AcDbSpline
210
0.0
220
0.0
230
1.0
 70
     8
 71
     3
 72
    10
 73
     6
 74
     0
 42
0.000000001
 43
0.00000001
 40
0.0
 40
0.0
 40
0.0
 40
0.0
 40
0.5
 40
0.5
 40
1.0
 40
1.0
 40
1.0
 40
1.0
 10
91.72324500696078
 20
165.4936737500062
 30
0.0
 10
91.69059038160663
 20
165.4501494912357
 30
0.0
 10
91.66260926693009
 20
165.4015873878736
 30
0.0
 10
91.6199630610545
 20
165.2901090774606
 30
0.0
 10
91.60608771925406
 20
165.2281377871303
 30
0.0
 10
91.6060877206107
 20
165.1642336949168
 30
0.0
  0
SPLINE
  5
D0
330
1F
100
AcDbEntity
  8
0
  6
Continuous
 62
     7
370
    15
100
AcDbSpline
210
0.0
220
0.0
230
1.0
 70
     8
 71
     3
 72
    31
 73
    27
 74
     0
 42
0.000000001
 43
0.00000001
 40
0.0
 40
0.0
 40
0.0
 40
0.0
 40
0.0132559966349189
 40
0.0264989966081602
 40
0.0397327988291494
 40
0.0529612101314919
 40
0.0661880420034987
 40
0.0794171072986517
 40
0.0926522169401775
 40
0.1058971766339516
 40
0.1191557836038749
 40
0.181094754453264
 40
0.2430471871464789
 40
0.306695881482009
 40
0.3703584092889373
 40
0.4993830193529282
 40
0.6284926302409563
 40
0.6922657259813465
 40
0.7560526822310297
 40
0.8181882638014923
 40
0.8803373499539993
 40
0.9042902683353782
 40
0.9282104830345619
 40
0.952120495510265
 40
0.9760428360099883
 40
1.0
 40
1.0
 40
1.0
 40
1.0
 10
130.9404022956129
 20
135.8582991844447
 30
0.0
 10
130.9395595810451
 20
136.0312952001262
 30
0.0
 10
130.9378749781374
 20
136.3771176198977
 30
0.0
 10
130.9242297299955
 20
136.8954982502881
 30
0.0
 10
130.9024419764703
 20
137.4132218370144
 30
0.0
 10
130.8717157739017
 20
137.9302883035108
 30
0.0
 10
130.8322642608693
 20
138.4466973803688
 30
0.0
 10
130.7840301462447
 20
138.962449448498
 30
0.0
 10
130.727029618316
 20
139.4775424813597
 30
0.0
 10
130.6612553226282
 20
139.9919834460669
 30
0.0
 10
130.4955414107127
 20
141.1342380462502
 30
0.0
 10
130.1535879921016
 20
142.8933144843319
 30
0.0
 10
129.4961518743785
 20
145.253320460285
 30
0.0
 10
128.64418045217
 20
147.5747506160751
 30
0.0
 10
127.2376270521636
 20
150.6133092219954
 30
0.0
 10
125.0079719153099
 20
154.1961492587923
 30
0.0
 10
122.216643233954
 20
157.3630210604864
 30
0.0
 10
119.7073444984299
 20
159.5865229210917
 30
0.0
 10
117.7240121767124
 20
161.07288197538
 30
0.0
 10
115.6461987246474
 20
162.3839073123009
 30
0.0
 10
113.9308673979658
 20
163.2833210976409
 30
0.0
 10
112.6244682747297
 20
163.8794065730713
 30
0.0
 10
111.7605880768151
 20
164.2421774542015
 30
0.0
 10
110.8862101775171
 20
164.577578882019
 30
0.0
 10
110.0020625079706
 20
164.8881073792508
 30
0.0
 10
109.4048907701306
 20
165.0721469739719
 30
0.0
 10
109.1060877351765
 20
165.1642336987277
 30
0.0
  0
SPLINE
  5
D1
330
1F
100
AcDbEntity
  8
0
  6
Continuous
 62
     7
370
    15
100
AcDbSpline
210
0.0
220
0.0
230
1.0
 70
     8
 71
     3
 72
    31
 73
    27
 74
     0
 42
0.000000001
 43
0.00000001
 40
0.0
 40
0.0
 40
0.0
 40
0.0
 40
0.0133128930162584
 40
0.0266126186434238
 40
0.0399030247502073
 40
0.0531879673032782
 40
0.0664713070272858
 40
0.0797569060442002
 40
0.0930486245065691
 40
0.1063503172393517
 40
0.1196658304048915
 40
0.1818014087549293
 40
0.2439504916860299
 40
0.3077235843799929
 40
0.3715105375763663
 40
0.5006201432131341
 40
0.6296447480293218
 40
0.6932934402594029
 40
0.7569559659581583
 40
0.8188949349972185
 40
0.8808473658849603
 40
0.9046980020604894
 40
0.9285163609918906
 40
0.9523246573931505
 40
0.9761451341308867
 40
1.0
 40
1.0
 40
1.0
 40
1.0
 10
109.106087735166
 20
106.552364670197
 30
0.0
 10
109.2723211179735
 20
106.6028846896346
 30
0.0
 10
109.6046234670618
 20
106.7038747606515
 30
0.0
 10
110.0995261958289
 20
106.8660024045931
 30
0.0
 10
110.5914416313642
 20
107.0358086181183
 30
0.0
 10
111.0801400391484
 20
107.2140625647192
 30
0.0
 10
111.5656826548387
 20
107.4005581939438
 30
0.0
 10
112.0480533152455
 20
107.5953509815232
 30
0.0
 10
112.5272547288679
 20
107.7984246904491
 30
0.0
 10
113.0032915143643
 20
108.0097884657098
 30
0.0
 10
114.0537642051442
 20
108.4977200370394
 30
0.0
 10
115.6460580888745
 20
109.3326132378545
 30
0.0
 10
117.7237146011102
 20
110.6435110143413
 30
0.0
 10
119.7072038648628
 20
112.1299617169847
 30
0.0
 10
122.2165230731917
 20
114.3534403989659
 30
0.0
 10
125.0079720971507
 20
117.520449337291
 30
0.0
 10
127.2375306409731
 20
121.1031350098751
 30
0.0
 10
128.6441121084535
 20
124.1416806738999
 30
0.0
 10
129.4960408826463
 20
126.4629347974559
 30
0.0
 10
130.1535539151055
 20
128.823127208493
 30
0.0
 10
130.521911521625
 20
130.7179955770475
 30
0.0
 10
130.7177749271549
 20
132.1352586544653
 30
0.0
 10
130.8173778247879
 20
133.0628918008463
 30
0.0
 10
130.8880003523829
 20
133.9927255491659
 30
0.0
 10
130.9322208821764
 20
134.9247764843677
 30
0.0
 10
130.9376738466672
 20
135.5469753497939
 30
0.0
 10
130.9404022955761
 20
135.8582991844447
 30
0.0
  0
SPLINE
  5
D2
330
1F
100
AcDbEntity
  8
0
  6
Continuous
 62
     7
370
    15
100
AcDbSpline
210
0.0
220
0.0
230
1.0
 70
     8
 71
     3
 72
    19
 73
    15
 74
     0
 42
0.000000001
 43
0.00000001
 40
0.0
 40
0.0
 40
0.0
 40
0.0
 40
0.0498983263598384
 40
0.0997762390400167
 40
0.149649787543898
 40
0.1995350255870836
 40
0.2494479956059126
 40
0.3746647806118571
 40
0.4999273868530957
 40
0.625163170291902
 40
0.7504447819000725
 40
0.8336320953532557
 40
0.9167923453941231
 40
0.9999999999999999
 40
0.9999999999999999
 40
0.9999999999999999
 40
0.9999999999999999
 10
81.85608771875522
 20
111.5036220573355
 30
0.0
 10
82.00227109790228
 20
111.393767146878
 30
0.0
 10
82.29457805177226
 20
111.1741022682108
 30
0.0
 10
82.7403962486417
 20
110.8546704909093
 30
0.0
 10
83.19141569017256
 20
110.5427496741249
 30
0.0
 10
83.64818051708272
 20
110.2390509441798
 30
0.0
 10
84.34288934868437
 20
109.7947987963928
 30
0.0
 10
85.28884133046968
 20
109.2310169309517
 30
0.0
 10
86.50250036500304
 20
108.5799110873615
 30
0.0
 10
87.74443589662324
 20
107.9839666563603
 30
0.0
 10
88.87001834853159
 20
107.5047872063971
 30
0.0
 10
89.86859448791326
 20
107.1237648554843
 30
0.0
 10
90.73195693749965
 20
106.8215833072422
 30
0.0
 10
91.3146554454701
 20
106.642121258614
 30
0.0
 10
91.60608771597634
 20
106.5523646665067
 30
0.0
  0
SPLINE
  5
D3
330
1F
100
AcDbEntity
  8
0
  6
Continuous
 62
     7
370
    15
100
AcDbSpline
210
0.0
220
0.0
230
1.0
 70
     8
 71
     3
 72
    34
 73
    30
 74
     0
 42
0.000000001
 43
0.00000001
 40
0.0
 40
0.0
 40
0.0
 40
0.0
 40
0.0091332024637246
 40
0.0182612433735732
 40
0.0273869560692221
 40
0.0365131760588104
 40
0.0456427383778029
 40
0.0547784749500532
 40
0.0835461555907233
 40
0.1123228157747314
 40
0.1423937441782167
 40
0.1724736920987865
 40
0.23495273877644
 40
0.2994478819463337
 40
0.3655379407129442
 40
0.4327295637688299
 40
0.5004764062567953
 40
0.568204418590846
 40
0.6353405018135823
 40
0.7013410455269796
 40
0.765716890733637
 40
0.8280520419345111
 40
0.8580414660304878
 40
0.8880398851909563
 40
0.9167194313852449
 40
0.9454079297705411
 40
0.9636070100697356
 40
0.9817968780876327
 40
0.9999999999999999
 40
0.9999999999999999
 40
0.9999999999999999
 40
0.9999999999999999
 10
91.60608770002491
 20
165.1642336971265
 30
0.0
 10
91.4342110829694
 20
165.111964333182
 30
0.0
 10
91.09055498350776
 20
165.0074551448918
 30
0.0
 10
90.57876312320577
 20
164.8392458710749
 30
0.0
 10
90.06994167556671
 20
164.6627351716269
 30
0.0
 10
89.56433832965942
 20
164.4770983481953
 30
0.0
 10
89.06188339869482
 20
164.2825530102743
 30
0.0
 10
88.20517644813421
 20
163.9333676011951
 30
0.0
 10
87.00881116793246
 20
163.3940301804657
 30
0.0
 10
85.47882261445545
 20
162.5991093169796
 30
0.0
 10
83.97392484569177
 20
161.7055441017667
 30
0.0
 10
81.97407397106838
 20
160.3550454098555
 30
0.0
 10
79.57193513764787
 20
158.3997823351517
 30
0.0
 10
76.93550495464005
 20
155.6533335005302
 30
0.0
 10
74.60932228981596
 20
152.5220559352862
 30
0.0
 10
72.67270595874348
 20
149.0619526504724
 30
0.0
 10
71.18988404157568
 20
145.3494167320171
 30
0.0
 10
70.20416283921888
 20
141.4762747900742
 30
0.0
 10
69.73372067535051
 20
137.5423568159956
 30
0.0
 10
69.77077518420116
 20
133.6470033522496
 30
0.0
 10
70.28351059939524
 20
129.8816791777543
 30
0.0
 10
71.07115046867285
 20
126.8934427378584
 30
0.0
 10
71.8891623059977
 20
124.6296062917593
 30
0.0
 10
72.57626678225603
 20
123.0255001897929
 30
0.0
 10
73.34144789011907
 20
121.4858967501607
 30
0.0
 10
74.07589910495591
 20
120.192698793919
 30
0.0
 10
74.75840918076726
 20
119.1095956388468
 30
0.0
 10
75.36045834344175
 20
118.2200475407731
 30
0.0
 10
75.78770796976893
 20
117.6456183785926
 30
0.0
 10
76.00141058255095
 20
117.3582991973649
 30
0.0
  0
ARC
  5
D4
330
1F
100
AcDbEntity
  8
0
  6
Continuous
 62
     7
370
    15
100
AcDbCircle
 10
100.3560877214
 20
135.8582991841
 30
0.0
 40
30.86715729090358
100
AcDbArc
 50
106.2409449512
 51
216.8228239872
  0
SPLINE
  5
D5
330
1F
100
AcDbEntity
  8
0
  6
Continuous
 62
     7
370
    15
100
AcDbSpline
210
0.0
220
0.0
230
1.0
 70
    24
 71
     3
 72
    10
 73
     6
 74
     0
 42
0.000000001
 43
0.00000001
 40
0.0
 40
0.0
 40
0.0
 40
0.0
 40
0.5
 40
0.5
 40
1.0
 40
1.0
 40
1.0
 40
1.0
 10
130.9404022956078
 20
135.8582991844447
 30
0.0
 10
130.9914267534515
 20
135.8582991844447
 30
0.0
 10
131.0444700514512
 20
135.8582991844447
 30
0.0
 10
131.1424812859559
 20
135.8582991844447
 30
0.0
 10
131.1871652679638
 20
135.8582991844447
 30
0.0
 10
131.2232450077853
 20
135.8582991844447
 30
0.0
  0
ARC
  5
D6
330
1F
100
AcDbEntity
  8
0
  6
Continuous
 62
     7
370
    15
100
AcDbCircle
 10
100.3560877204
 20
135.8582991844
 30
0.0
 40
30.86715728734559
100
AcDbArc
 50
286.2409449597
 51
0.0
  0
ARC
  5
D7
330
1F
100
AcDbEntity
  8
0
  6
Continuous
 62
     7
370
    15
100
AcDbCircle
 10
100.3560877204
 20
135.8582991844
 30
0.0
 40
30.86715728744035
100
AcDbArc
 50
0.0
 51
73.759055043
  0
ARC
  5
D8
330
1F
100
AcDbEntity
  8
0
  6
Continuous
 62
     7
370
    15
100
AcDbCircle
 10
100.3560877197
 20
135.8582991849
 30
0.0
 40
30.8671572874062
100
AcDbArc
 50
233.177176009
 51
253.759055057
  0
SPLINE
  5
D9
330
1F
100
AcDbEntity
  8
0
  6
Continuous
 62
     7
370
    15
100
AcDbSpline
210
0.0
220
0.0
230
1.0
 70
     8
 71
     3
 72
     9
 73
     5
 74
     0
 42
0.000000001
 43
0.00000001
 40
0.0
 40
0.0
 40
0.0
 40
0.0
 40
0.498780347075351
 40
1.0
 40
1.0
 40
1.0
 40
1.0
 10
108.9889304345554
 20
165.4936737507572
 30
0.0
 10
108.9203728905584
 20
165.5848399414697
 30
0.0
 10
108.7829225190692
 20
165.7676181749086
 30
0.0
 10
108.6445920998246
 20
165.9490637171268
 30
0.0
 10
108.5752581751019
 20
166.0400077888221
 30
0.0
  0
SPLINE
  5
DA
330
1F
100
AcDbEntity
  8
0
  6
Continuous
 62
     7
370
    15
100
AcDbSpline
210
0.0
220
0.0
230
1.0
 70
    24
 71
     3
 72
     8
 73
     4
 74
     0
 42
0.000000001
 43
0.00000001
 40
0.0
 40
0.0
 40
0.0
 40
0.0
 40
0.000536435349708
 40
0.000536435349708
 40
0.000536435349708
 40
0.000536435349708
 10
108.5752581719943
 20
166.0400077918053
 30
0.0
 10
108.6707410615722
 20
166.1354906813832
 30
0.0
 10
108.766148560942
 20
166.230898180753
 30
0.0
 10
108.8614832742831
 20
166.3262328940941
 30
0.0
  0
ARC
  5
DB
330
1F
100
AcDbEntity
  8
0
  6
Continuous
 62
     7
370
    15
100
AcDbCircle
 10
100.3560877206
 20
135.8582991844
 30
0.0
 40
31.63284271224548
100
AcDbArc
 50
359.9999999882
 51
74.4024500297
  0
ARC
  5
DC
330
1F
100
AcDbEntity
  8
0
  6
Continuous
 62
     7
370
    15
100
AcDbCircle
 10
100.3560877206
 20
135.8582991844
 30
0.0
 40
31.63284271276124
100
AcDbArc
 50
285.7334817376
 51
359.9999999765
  0
LINE
  5
DD
330
1F
100
AcDbEntity
  8
0
  6
Continuous
 62
     7
370
    15
100
AcDbLine
 10
108.933743134
 20
105.4106298822
 30
0.0
 11
108.5454717061
 21
105.6376329748
 31
0.0
  0
SPLINE
  5
DE
330
1F
100
AcDbEntity
  8
0
  6
Continuous
 62
     7
370
    15
100
AcDbSpline
210
0.0
220
0.0
230
1.0
 70
     8
 71
     3
 72
     9
 73
     5
 74
     0
 42
0.000000001
 43
0.00000001
 40
0.0
 40
0.0
 40
0.0
 40
0.0
 40
0.5013065793165208
 40
0.9999999999999999
 40
0.9999999999999999
 40
0.9999999999999999
 40
0.9999999999999999
 10
108.545471704292
 20
105.6376329837394
 30
0.0
 10
108.6198274018394
 20
105.7350534703092
 30
0.0
 10
108.768151203312
 20
105.9293866201005
 30
0.0
 10
108.9154656779453
 20
106.1252492265088
 30
0.0
 10
108.9889304372164
 20
106.2229246196825
 30
0.0
  0
SPLINE
  5
DF
330
1F
100
AcDbEntity
  8
0
  6
Continuous
 62
     7
370
    15
100
AcDbSpline
210
0.0
220
0.0
230
1.0
 70
     8
 71
     3
 72
     8
 73
     4
 74
     0
 42
0.000000001
 43
0.00000001
 40
0.0
 40
0.0
 40
0.0
 40
0.0
 40
0.0005364353529605
 40
0.0005364353529605
 40
0.0005364353529605
 40
0.0005364353529605
 10
92.13691727127109
 20
105.6765905770406
 30
0.0
 10
92.04143438111284
 20
105.5811076868823
 30
0.0
 10
91.9460268806084
 20
105.4857001884194
 30
0.0
 10
91.85069216668946
 20
105.3903654745005
 30
0.0
  0
SPLINE
  5
E0
330
1F
100
AcDbEntity
  8
0
  6
Continuous
 62
     7
370
    15
100
AcDbSpline
210
0.0
220
0.0
230
1.0
 70
     8
 71
     3
 72
     9
 73
     5
 74
     0
 42
0.000000001
 43
0.00000001
 40
0.0
 40
0.0
 40
0.0
 40
0.0
 40
0.4987803470753149
 40
1.0
 40
1.0
 40
1.0
 40
1.0
 10
91.72324501545138
 20
106.2229246130406
 30
0.0
 10
91.79180255947526
 20
106.1317584223686
 30
0.0
 10
91.92925293101833
 20
105.9489801890107
 30
0.0
 10
92.06758335031645
 20
105.7675346468741
 30
0.0
 10
92.136917275066
 20
105.6765905752196
 30
0.0
  0
ARC
  5
E1
330
1F
100
AcDbEntity
  8
0
  6
Continuous
 62
     7
370
    15
100
AcDbCircle
 10
100.3560877206
 20
135.8582991844
 30
0.0
 40
31.63284271224762
100
AcDbArc
 50
254.4024500297
 51
285.7334817367
  0
SPLINE
  5
E2
330
1F
100
AcDbEntity
  8
0
  6
Continuous
 62
     7
370
    15
100
AcDbSpline
210
0.0
220
0.0
230
1.0
 70
     8
 71
     3
 72
     9
 73
     5
 74
     0
 42
0.000000001
 43
0.00000001
 40
0.0
 40
0.0
 40
0.0
 40
0.0
 40
0.5013065560617223
 40
0.9999999999999999
 40
0.9999999999999999
 40
0.9999999999999999
 40
0.9999999999999999
 10
92.16670374588739
 20
166.07896538998
 30
0.0
 10
92.09234805075484
 20
165.9815449094972
 30
0.0
 10
91.94402424721898
 20
165.7872117628331
 30
0.0
 10
91.79670977452169
 20
165.5913491534904
 30
0.0
 10
91.72324501279031
 20
165.4936737542984
 30
0.0
  0
LINE
  5
E3
330
1F
100
AcDbEntity
  8
0
  6
Continuous
 62
     7
370
    15
100
AcDbLine
 10
91.7784323184
 20
166.3059684801
 30
0.0
 11
92.1667037464
 21
166.0789653876
 31
0.0
  0
ARC
  5
E4
330
1F
100
AcDbEntity
  8
0
  6
Continuous
 62
     7
370
    15
100
AcDbCircle
 10
100.3560877206
 20
135.8582991844
 30
0.0
 40
31.63284271224762
100
AcDbArc
 50
74.4024500297
 51
105.7334817367
  0
ARC
  5
E5
330
1F
100
AcDbEntity
  8
0
  6
Continuous
 62
     7
370
    15
100
AcDbCircle
 10
100.3560877238
 20
135.8582991913
 30
0.0
 40
31.6328427200626
100
AcDbArc
 50
234.2086512609
 51
254.4024500271
  0
SPLINE
  5
E6
330
1F
100
AcDbEntity
  8
0
  6
Continuous
 62
     7
370
    15
100
AcDbSpline
210
0.0
220
0.0
230
1.0
 70
    24
 71
     3
 72
     9
 73
     5
 74
     0
 42
0.000000001
 43
0.00000001
 40
0.0
 40
0.0
 40
0.0
 40
0.0
 40
0.5037136263313898
 40
1.0
 40
1.0
 40
1.0
 40
1.0
 10
81.85608772063368
 20
110.1992513133978
 30
0.0
 10
81.85608772063368
 20
110.3584690640383
 30
0.0
 10
81.85608772063368
 20
110.6745569010899
 30
0.0
 10
81.85608772063368
 20
110.9918816494355
 30
0.0
 10
81.85608772063368
 20
111.1493655980673
 30
0.0
  0
ARC
  5
E7
330
1F
100
AcDbEntity
  8
0
  6
Continuous
 62
     7
370
    15
100
AcDbCircle
 10
100.3560877206
 20
135.8582991844
 30
0.0
 40
31.63284271224763
100
AcDbArc
 50
215.7913487373
 51
234.2086512627
  0
SPLINE
  5
E8
330
1F
100
AcDbEntity
  8
0
  6
Continuous
 62
     7
370
    15
100
AcDbSpline
210
0.0
220
0.0
230
1.0
 70
    24
 71
     3
 72
     9
 73
     5
 74
     0
 42
0.000000001
 43
0.00000001
 40
0.0
 40
0.0
 40
0.0
 40
0.0
 40
0.4962863652118921
 40
1.0
 40
1.0
 40
1.0
 40
1.0
 10
75.64715412619545
 20
117.3582991844447
 30
0.0
 10
75.48967018205744
 20
117.3582991844447
 30
0.0
 10
75.17234543735938
 20
117.3582991844447
 30
0.0
 10
74.85625759667126
 20
117.3582991844447
 30
0.0
 10
74.6970398415259
 20
117.3582991844447
 30
0.0
  0
ARC
  5
E9
330
1F
100
AcDbEntity
  8
0
  6
Continuous
 62
     7
370
    15
100
AcDbCircle
 10
100.3560877203
 20
135.8582991847
 30
0.0
 40
31.63284271225419
100
AcDbArc
 50
105.7334817317
 51
215.7913487379
  0
ARC
  5
EA
330
1F
100
AcDbEntity
  8
0
  6
Continuous
 62
     7
370
    15
100
AcDbCircle
 10
100.3560877206
 20
135.8582991844
 30
0.0
 40
31.75000000003621
100
AcDbArc
 50
215.6390613326
 51
234.3609386674
  0
SPLINE
  5
EB
330
1F
100
AcDbEntity
  8
0
  6
Continuous
 62
     7
370
    15
100
AcDbSpline
210
0.0
220
0.0
230
1.0
 70
    24
 71
     3
 72
     8
 73
     4
 74
     0
 42
0.000000001
 43
0.00000001
 40
0.0
 40
0.0
 40
0.0
 40
0.0
 40
1.0
 40
1.0
 40
1.0
 40
1.0
 10
74.55274491405241
 20
117.3582991844447
 30
0.0
 10
74.55274491349527
 20
117.3582991844447
 30
0.0
 10
74.61152997139868
 20
117.3582991844448
 30
0.0
 10
74.6970398400545
 20
117.3582991844448
 30
0.0
  0
SPLINE
  5
EC
330
1F
100
AcDbEntity
  8
0
  6
Continuous
 62
     7
370
    15
100
AcDbSpline
210
0.0
220
0.0
230
1.0
 70
    24
 71
     3
 72
     8
 73
     4
 74
     0
 42
0.000000001
 43
0.00000001
 40
0.0
 40
0.0
 40
0.0
 40
0.0
 40
1.0
 40
1.0
 40
1.0
 40
1.0
 10
81.85608772063368
 20
110.1992513059167
 30
0.0
 10
81.85608772063368
 20
110.1136377237542
 30
0.0
 10
81.85608772063428
 20
110.0549563772516
 30
0.0
 10
81.85608772063428
 20
110.0549563780213
 30
0.0
  0
SPLINE
  5
ED
330
1F
100
AcDbEntity
  8
0
  6
Continuous
 62
     7
370
    15
100
AcDbSpline
210
0.0
220
0.0
230
1.0
 70
    24
 71
     3
 72
     8
 73
     4
 74
     0
 42
0.000000001
 43
0.00000001
 40
0.0
 40
0.0
 40
0.0
 40
0.0
 40
1.0
 40
1.0
 40
1.0
 40
1.0
 10
108.9565187584551
 20
166.4212683782661
 30
0.0
 10
108.9565187587807
 20
166.4212683785916
 30
0.0
 10
108.9192447741065
 20
166.3839943939175
 30
0.0
 10
108.8614832742325
 20
166.3262328940434
 30
0.0
  0
SPLINE
  5
EE
330
1F
100
AcDbEntity
  8
0
  6
Continuous
 62
     7
370
    15
100
AcDbSpline
210
0.0
220
0.0
230
1.0
 70
    24
 71
     3
 72
    10
 73
     6
 74
     0
 42
0.000000001
 43
0.00000001
 40
0.0
 40
0.0
 40
0.0
 40
0.0
 40
0.5
 40
0.5
 40
1.0
 40
1.0
 40
1.0
 40
1.0
 10
91.77843231256539
 20
166.3059684835526
 30
0.0
 10
91.73863822864777
 20
166.3292341154381
 30
0.0
 10
91.70380356055625
 20
166.3496002222782
 30
0.0
 10
91.65323642693147
 20
166.3791643232852
 30
0.0
 10
91.6381806833791
 20
166.3879666715935
 30
0.0
 10
91.63818068348809
 20
166.3879666715298
 30
0.0
  0
ARC
  5
EF
330
1F
100
AcDbEntity
  8
0
  6
Continuous
 62
     7
370
    15
100
AcDbCircle
 10
100.3560877206
 20
135.8582991844
 30
0.0
 40
31.74999999977623
100
AcDbArc
 50
74.2833781211
 51
105.936971532
  0
SPLINE
  5
F0
330
1F
100
AcDbEntity
  8
0
  6
Continuous
 62
     7
370
    15
100
AcDbSpline
210
0.0
220
0.0
230
1.0
 70
    24
 71
     3
 72
     8
 73
     4
 74
     0
 42
0.000000001
 43
0.00000001
 40
0.0
 40
0.0
 40
0.0
 40
0.0
 40
1.0
 40
1.0
 40
1.0
 40
1.0
 10
91.75565668251609
 20
105.2953299903271
 30
0.0
 10
91.75565668255625
 20
105.2953299903672
 30
0.0
 10
91.79293066705587
 20
105.3326039748669
 30
0.0
 10
91.85069216672525
 20
105.3903654745363
 30
0.0
  0
SPLINE
  5
F1
330
1F
100
AcDbEntity
  8
0
  6
Continuous
 62
     7
370
    15
100
AcDbSpline
210
0.0
220
0.0
230
1.0
 70
    24
 71
     3
 72
    10
 73
     6
 74
     0
 42
0.000000001
 43
0.00000001
 40
0.0
 40
0.0
 40
0.0
 40
0.0
 40
0.5
 40
0.5
 40
1.0
 40
1.0
 40
1.0
 40
1.0
 10
108.9337431304278
 20
105.4106298843278
 30
0.0
 10
108.9735372140338
 20
105.3873642526244
 30
0.0
 10
109.0083718818613
 20
105.3669981459387
 30
0.0
 10
109.0589390150871
 20
105.337434045165
 30
0.0
 10
109.0739947584964
 20
105.3286316969403
 30
0.0
 10
109.0739947581681
 20
105.3286316971322
 30
0.0
  0
ARC
  5
F2
330
1F
100
AcDbEntity
  8
0
  6
Continuous
 62
     7
370
    15
100
AcDbCircle
 10
100.3560877206
 20
135.8582991844
 30
0.0
 40
31.75000000003621
100
AcDbArc
 50
254.2833781209
 51
285.9369715327
  0
ARC
  5
F3
330
1F
100
AcDbEntity
  8
0
  6
Continuous
 62
     7
370
    15
100
AcDbCircle
 10
100.3560877206
 20
135.8582991844
 30
0.0
 40
31.75000000007487
100
AcDbArc
 50
105.936971532
 51
215.6390613325
  0
ARC
  5
F4
330
1F
100
AcDbEntity
  8
0
  6
Continuous
 62
     7
370
    15
100
AcDbCircle
 10
100.3560877206
 20
135.8582991844
 30
0.0
 40
31.75000000001055
100
AcDbArc
 50
234.3609386674
 51
254.283378121
  0
ARC
  5
F5
330
1F
100
AcDbEntity
  8
0
  6
Continuous
 62
     7
370
    15
100
AcDbCircle
 10
100.3560877206
 20
135.8582991844
 30
0.0
 40
31.75
100
AcDbArc
 50
0.0
 51
74.2833781211
  0
SPLINE
  5
F6
330
1F
100
AcDbEntity
  8
0
  6
Continuous
 62
     7
370
    15
100
AcDbSpline
210
0.0
220
0.0
230
1.0
 70
    24
 71
     3
 72
    10
 73
     6
 74
     0
 42
0.000000001
 43
0.00000001
 40
0.0
 40
0.0
 40
0.0
 40
0.0
 40
0.5
 40
0.5
 40
1.0
 40
1.0
 40
1.0
 40
1.0
 10
131.9889304333765
 20
135.8582991844447
 30
0.0
 10
132.025010173224
 20
135.8582991844447
 30
0.0
 10
132.0553407424021
 20
135.8582991844447
 30
0.0
 10
132.0959383250781
 20
135.8582991844447
 30
0.0
 10
132.106087720763
 20
135.8582991844447
 30
0.0
 10
132.1060877206518
 20
135.8582991844447
 30
0.0
  0
ARC
  5
F7
330
1F
100
AcDbEntity
  8
0
  6
Continuous
 62
     7
370
    15
100
AcDbCircle
 10
100.3560877206
 20
135.8582991844
 30
0.0
 40
31.75
100
AcDbArc
 50
285.9369715323
 51
359.9999999897
  0
INSERT
  5
103
330
1F
100
AcDbEntity
  8
DIM
100
AcDbBlockReference
  2
SW_CENTERMARKSYMBOL_0
 10
100.3560877206
 20
135.8582991844
 30
0.0
  0
LINE
  5
104
330
1F
100
AcDbEntity
  8
0
  6
Continuous
 62
     7
370
    15
100
AcDbLine
 10
254.3321221189
 20
104.1082991844
 30
0.0
 11
257.6446000519
 21
104.1082991844
 31
0.0
  0
LINE
  5
105
330
1F
100
AcDbEntity
  8
0
  6
Continuous
 62
     7
370
    15
100
AcDbLine
 10
257.6446000519
 20
167.6082991844
 30
0.0
 11
254.3321221189
 21
167.6082991844
 31
0.0
  0
LINE
  5
106
330
1F
100
AcDbEntity
  8
0
  6
Continuous
 62
     7
370
    15
100
AcDbLine
 10
244.0759709019
 20
104.1082991844
 30
0.0
 11
247.2884488349
 21
104.1082991844
 31
0.0
  0
LINE
  5
107
330
1F
100
AcDbEntity
  8
0
  6
Continuous
 62
     7
370
    15
100
AcDbLine
 10
247.2884488349
 20
167.6082991844
 30
0.0
 11
244.0759709019
 21
167.6082991844
 31
0.0
  0
LINE
  5
108
330
1F
100
AcDbEntity
  8
0
  6
Continuous
 62
     7
370
    15
100
AcDbLine
 10
254.3321221189
 20
167.6082991844
 30
0.0
 11
252.7102854769
 21
164.7991957184
 31
0.0
  0
LINE
  5
109
330
1F
100
AcDbEntity
  8
0
  6
Continuous
 62
     7
370
    15
100
AcDbLine
 10
252.7102854769
 20
106.9174026504
 30
0.0
 11
254.3321221189
 21
104.1082991844
 31
0.0
  0
LINE
  5
10A
330
1F
100
AcDbEntity
  8
0
  6
Continuous
 62
     7
370
    15
100
AcDbLine
 10
247.2884488349
 20
104.1082991844
 30
0.0
 11
248.9102854769
 21
106.9174026504
 31
0.0
  0
LINE
  5
10B
330
1F
100
AcDbEntity
  8
0
  6
Continuous
 62
     7
370
    15
100
AcDbLine
 10
248.9102854769
 20
164.7991957184
 30
0.0
 11
247.2884488349
 21
167.6082991844
 31
0.0
  0
LINE
  5
10C
330
1F
100
AcDbEntity
  8
0
  6
Continuous
 62
     7
370
    15
100
AcDbLine
 10
257.9274427647
 20
104.2254564722
 30
0.0
 11
258.6931281897
 21
104.9911418972
 31
0.0
  0
LINE
  5
10D
330
1F
100
AcDbEntity
  8
0
  6
Continuous
 62
     7
370
    15
100
AcDbLine
 10
258.6931281897
 20
166.7254564717
 30
0.0
 11
257.9274427647
 21
167.4911418966
 31
0.0
  0
LINE
  5
10E
330
1F
100
AcDbEntity
  8
0
  6
Continuous
 62
     7
370
    15
100
AcDbLine
 10
248.9102854804
 20
107.8582991844
 30
0.0
 11
252.7102854805
 21
107.8582991844
 31
0.0
  0
LINE
  5
10F
330
1F
100
AcDbEntity
  8
0
  6
Continuous
 62
     7
370
    15
100
AcDbLine
 10
252.7102854805
 20
163.8582991844
 30
0.0
 11
248.9102854804
 21
163.8582991844
 31
0.0
  0
ARC
  5
110
330
1F
100
AcDbEntity
  8
0
  6
Continuous
 62
     7
370
    15
100
AcDbCircle
 10
242.5102854766
 20
113.4582991841
 30
0.0
 40
0.4000000002166928
100
AcDbArc
 50
0.000000045
 51
89.9999999705
  0
ARC
  5
111
330
1F
100
AcDbEntity
  8
0
  6
Continuous
 62
     7
370
    15
100
AcDbCircle
 10
242.5102854766
 20
158.2582991848
 30
0.0
 40
0.4000000002167212
100
AcDbArc
 50
270.0000000295
 51
359.999999955
  0
LINE
  5
112
330
1F
100
AcDbEntity
  8
0
  6
Continuous
 62
     7
370
    15
100
AcDbLine
 10
239.7102854769
 20
158.0832991844
 30
0.0
 11
172.1659772499
 21
148.2329945604
 31
0.0
  0
LINE
  5
113
330
1F
100
AcDbEntity
  8
0
  6
Continuous
 62
     7
370
    15
100
AcDbLine
 10
172.1659772499
 20
123.4836038084
 30
0.0
 11
239.7102854769
 21
113.6332991844
 31
0.0
  0
LINE
  5
114
330
1F
100
AcDbEntity
  8
0
  6
Continuous
 62
     7
370
    15
100
AcDbLine
 10
239.7102854769
 20
113.6332991844
 30
0.0
 11
240.1927995339
 21
113.8582991844
 31
0.0
  0
LINE
  5
115
330
1F
100
AcDbEntity
  8
0
  6
Continuous
 62
     7
370
    15
100
AcDbLine
 10
240.1927995339
 20
157.8582991844
 30
0.0
 11
239.7102854769
 21
158.0832991844
 31
0.0
  0
LINE
  5
116
330
1F
100
AcDbEntity
  8
0
  6
Continuous
 62
     7
370
    15
100
AcDbLine
 10
240.1927995339
 20
113.8582991844
 30
0.0
 11
242.5102854768
 21
113.8582991844
 31
0.0
  0
LINE
  5
117
330
1F
100
AcDbEntity
  8
0
  6
Continuous
 62
     7
370
    15
100
AcDbLine
 10
242.5102854768
 20
157.8582991844
 30
0.0
 11
240.1927995339
 21
157.8582991844
 31
0.0
  0
LINE
  5
118
330
1F
100
AcDbEntity
  8
0
  6
Continuous
 62
     7
370
    15
100
AcDbLine
 10
262.7120937834
 20
115.8582991844
 30
0.0
 11
263.7146000519
 21
116.8608054529
 31
0.0
  0
LINE
  5
119
330
1F
100
AcDbEntity
  8
0
  6
Continuous
 62
     7
370
    15
100
AcDbLine
 10
263.7146000519
 20
154.855792916
 30
0.0
 11
262.7120937834
 21
155.8582991844
 31
0.0
  0
LINE
  5
11A
330
1F
100
AcDbEntity
  8
0
  6
Continuous
 62
     7
370
    15
100
AcDbLine
 10
258.8102854769
 20
115.8582991844
 30
0.0
 11
262.7120937834
 21
115.8582991844
 31
0.0
  0
LINE
  5
11B
330
1F
100
AcDbEntity
  8
0
  6
Continuous
 62
     7
370
    15
100
AcDbLine
 10
262.7120937834
 20
155.8582991844
 30
0.0
 11
258.8102854769
 21
155.8582991844
 31
0.0
  0
SPLINE
  5
11C
330
1F
100
AcDbEntity
  8
0
  6
Continuous
 62
     7
370
    15
100
AcDbSpline
210
0.0
220
0.0
230
1.0
 70
     8
 71
     3
 72
    11
 73
     7
 74
     0
 42
0.000000001
 43
0.00000001
 40
0.0
 40
0.0
 40
0.0
 40
0.0
 40
0.2418856032025078
 40
0.5000000000124919
 40
0.758114396836261
 40
1.0
 40
1.0
 40
1.0
 40
1.0
 10
172.1659772499816
 20
148.2329945604039
 30
0.0
 10
172.0538250686464
 20
148.2049392647791
 30
0.0
 10
171.8219960969069
 20
148.1469463638911
 30
0.0
 10
171.5383805717422
 20
147.9109613110841
 30
0.0
 10
171.3457936786452
 20
147.596259865536
 30
0.0
 10
171.3218626296483
 20
147.3584886444546
 30
0.0
 10
171.3102854772062
 20
147.2434617739992
 30
0.0
  0
SPLINE
  5
11D
330
1F
100
AcDbEntity
  8
0
  6
Continuous
 62
     7
370
    15
100
AcDbSpline
210
0.0
220
0.0
230
1.0
 70
     8
 71
     3
 72
    11
 73
     7
 74
     0
 42
0.000000001
 43
0.00000001
 40
0.0
 40
0.0
 40
0.0
 40
0.0
 40
0.2418856031626066
 40
0.4999999999851674
 40
0.7581143967952234
 40
1.0
 40
1.0
 40
1.0
 40
1.0
 10
171.3102854772062
 20
124.4731365948901
 30
0.0
 10
171.3218626296475
 20
124.3581097244392
 30
0.0
 10
171.3457936786424
 20
124.120338503367
 30
0.0
 10
171.5383805717254
 20
123.8056370578272
 30
0.0
 10
171.8219960968724
 20
123.5696520050187
 30
0.0
 10
172.0538250686024
 20
123.5116591041218
 30
0.0
 10
172.1659772499336
 20
123.4836038084925
 30
0.0
  0
ARC
  5
11E
330
1F
100
AcDbEntity
  8
0
  6
Continuous
 62
     7
370
    15
100
AcDbCircle
 10
243.3102854751
 20
166.4426137601
 30
0.0
 40
0.3999999981377584
100
AcDbArc
 50
134.9999999427
 51
180.000000483
  0
ARC
  5
11F
330
1F
100
AcDbEntity
  8
0
  6
Continuous
 62
     7
370
    15
100
AcDbCircle
 10
243.3102854751
 20
105.2739846088
 30
0.0
 40
0.3999999981377584
100
AcDbArc
 50
179.999999517
 51
225.0000000573
  0
ARC
  5
120
330
1F
100
AcDbEntity
  8
0
  6
Continuous
 62
     7
370
    15
100
AcDbCircle
 10
244.0759709012
 20
104.5082991826
 30
0.0
 40
0.3999999981811036
100
AcDbArc
 50
224.999999831
 51
270.0000001004
  0
ARC
  5
121
330
1F
100
AcDbEntity
  8
0
  6
Continuous
 62
     7
370
    15
100
AcDbCircle
 10
257.6446000526
 20
104.5082991826
 30
0.0
 40
0.3999999981682716
100
AcDbArc
 50
269.9999998996
 51
315.000000188
  0
LINE
  5
122
330
1F
100
AcDbEntity
  8
0
  6
Continuous
 62
     7
370
    15
100
AcDbLine
 10
243.0274427642
 20
104.9911418973
 30
0.0
 11
243.7931281892
 21
104.2254564722
 31
0.0
  0
LINE
  5
123
330
1F
100
AcDbEntity
  8
0
  6
Continuous
 62
     7
370
    15
100
AcDbLine
 10
243.7931281892
 20
167.4911418967
 30
0.0
 11
243.0274427642
 21
166.7254564716
 31
0.0
  0
ARC
  5
124
330
1F
100
AcDbEntity
  8
0
  6
Continuous
 62
     7
370
    15
100
AcDbCircle
 10
257.6446000526
 20
167.2082991863
 30
0.0
 40
0.3999999981682816
100
AcDbArc
 50
44.999999812
 51
90.0000001004
  0
ARC
  5
125
330
1F
100
AcDbEntity
  8
0
  6
Continuous
 62
     7
370
    15
100
AcDbCircle
 10
244.0759709012
 20
167.2082991863
 30
0.0
 40
0.3999999981810835
100
AcDbArc
 50
89.9999998996
 51
135.000000169
  0
ARC
  5
126
330
1F
100
AcDbEntity
  8
0
  6
Continuous
 62
     7
370
    15
100
AcDbCircle
 10
258.4102854788
 20
166.4426137601
 30
0.0
 40
0.3999999981593384
100
AcDbArc
 50
359.9999995195
 51
45.0000000586
  0
ARC
  5
127
330
1F
100
AcDbEntity
  8
0
  6
Continuous
 62
     7
370
    15
100
AcDbCircle
 10
258.4102854788
 20
105.2739846088
 30
0.0
 40
0.3999999981593484
100
AcDbArc
 50
314.9999999414
 51
0.0000004805
  0
LINE
  5
128
330
1F
100
AcDbEntity
  8
0
  6
Continuous
 62
     7
370
    15
100
AcDbLine
 10
254.3321221189
 20
167.6082991844
 30
0.0
 11
254.3321221189
 21
104.1082991844
 31
0.0
  0
LINE
  5
129
330
1F
100
AcDbEntity
  8
0
  6
Continuous
 62
     7
370
    15
100
AcDbLine
 10
257.6446000517
 20
166.4212683784
 30
0.0
 11
257.6446000519
 21
135.8582991844
 31
0.0
  0
LINE
  5
12A
330
1F
100
AcDbEntity
  8
0
  6
Continuous
 62
     7
370
    15
100
AcDbLine
 10
257.6446000519
 20
135.8582991787
 30
0.0
 11
257.6446000519
 21
105.3286316973
 31
0.0
  0
LINE
  5
12B
330
1F
100
AcDbEntity
  8
0
  6
Continuous
 62
     7
370
    15
100
AcDbLine
 10
244.0759709022
 20
105.3286316973
 30
0.0
 11
244.0759709019
 21
135.8582991787
 31
0.0
  0
LINE
  5
12C
330
1F
100
AcDbEntity
  8
0
  6
Continuous
 62
     7
370
    15
100
AcDbLine
 10
244.0759709019
 20
135.8582991844
 30
0.0
 11
244.0759709023
 21
166.4212683784
 31
0.0
  0
LINE
  5
12D
330
1F
100
AcDbEntity
  8
0
  6
Continuous
 62
     7
370
    15
100
AcDbLine
 10
247.2884488349
 20
104.1082991844
 30
0.0
 11
247.2884488349
 21
167.6082991844
 31
0.0
  0
SPLINE
  5
12E
330
1F
100
AcDbEntity
  8
0
  6
Continuous
 62
     7
370
    15
100
AcDbSpline
210
0.0
220
0.0
230
1.0
 70
    24
 71
     3
 72
    10
 73
     6
 74
     0
 42
0.000000001
 43
0.00000001
 40
0.0
 40
0.0
 40
0.0
 40
0.0
 40
0.5
 40
0.5
 40
1.0
 40
1.0
 40
1.0
 40
1.0
 10
243.7931281897694
 20
135.8582991844447
 30
0.0
 10
243.8292079295909
 20
135.8582991844447
 30
0.0
 10
243.8738919115988
 20
135.8582991844447
 30
0.0
 10
243.9719031461035
 20
135.8582991844447
 30
0.0
 10
244.0249464441032
 20
135.8582991844447
 30
0.0
 10
244.0759709019469
 20
135.8582991844447
 30
0.0
  0
LINE
  5
12F
330
1F
100
AcDbEntity
  8
0
  6
Continuous
 62
     7
370
    15
100
AcDbLine
 10
243.7931281892
 20
166.3262328941
 30
0.0
 11
243.7931281889
 21
135.858299178
 31
0.0
  0
SPLINE
  5
130
330
1F
100
AcDbEntity
  8
0
  6
Continuous
 62
     7
370
    15
100
AcDbSpline
210
0.0
220
0.0
230
1.0
 70
     8
 71
     3
 72
     8
 73
     4
 74
     0
 42
0.000000001
 43
0.00000001
 40
0.0
 40
0.0
 40
0.0
 40
0.0
 40
1.0
 40
1.0
 40
1.0
 40
1.0
 10
244.0759709026505
 20
166.4212683782661
 30
0.0
 10
243.9674651159455
 20
166.4212683785916
 30
0.0
 10
243.8642934009271
 20
166.3839943939175
 30
0.0
 10
243.7931281892802
 20
166.3262328940434
 30
0.0
  0
SPLINE
  5
131
330
1F
100
AcDbEntity
  8
0
  6
Continuous
 62
     7
370
    15
100
AcDbSpline
210
0.0
220
0.0
230
1.0
 70
     8
 71
     3
 72
    10
 73
     6
 74
     0
 42
0.000000001
 43
0.00000001
 40
0.0
 40
0.0
 40
0.0
 40
0.0
 40
0.5
 40
0.5
 40
1.0
 40
1.0
 40
1.0
 40
1.0
 10
243.793128190473
 20
105.4106298843278
 30
0.0
 10
243.8263128210268
 20
105.3873642526244
 30
0.0
 10
243.8670393693934
 20
105.3669981459387
 30
0.0
 10
243.963331224353
 20
105.337434045165
 30
0.0
 10
244.0188972935892
 20
105.3286316969403
 30
0.0
 10
244.0759709024825
 20
105.3286316971322
 30
0.0
  0
LINE
  5
132
330
1F
100
AcDbEntity
  8
0
  6
Continuous
 62
     7
370
    15
100
AcDbLine
 10
243.7931281889
 20
135.8582991715
 30
0.0
 11
243.7931281897
 21
105.4106298849
 31
0.0
  0
LINE
  5
133
330
1F
100
AcDbEntity
  8
0
  6
Continuous
 62
     7
370
    15
100
AcDbLine
 10
257.9274427649
 20
135.8582991788
 30
0.0
 11
257.9274427654
 21
166.3262328934
 31
0.0
  0
SPLINE
  5
134
330
1F
100
AcDbEntity
  8
0
  6
Continuous
 62
     7
370
    15
100
AcDbSpline
210
0.0
220
0.0
230
1.0
 70
    24
 71
     3
 72
    10
 73
     6
 74
     0
 42
0.000000001
 43
0.00000001
 40
0.0
 40
0.0
 40
0.0
 40
0.0
 40
0.5
 40
0.5
 40
1.0
 40
1.0
 40
1.0
 40
1.0
 10
257.6446000518951
 20
135.8582991844447
 30
0.0
 10
257.6956245097754
 20
135.8582991844447
 30
0.0
 10
257.7486678078147
 20
135.8582991844447
 30
0.0
 10
257.8466790423782
 20
135.8582991844447
 30
0.0
 10
257.8913630244045
 20
135.8582991844447
 30
0.0
 10
257.9274427642281
 20
135.8582991844447
 30
0.0
  0
SPLINE
  5
135
330
1F
100
AcDbEntity
  8
0
  6
Continuous
 62
     7
370
    15
100
AcDbSpline
210
0.0
220
0.0
230
1.0
 70
     8
 71
     3
 72
     8
 73
     4
 74
     0
 42
0.000000001
 43
0.00000001
 40
0.0
 40
0.0
 40
0.0
 40
0.0
 40
1.0
 40
1.0
 40
1.0
 40
1.0
 10
257.9274427658359
 20
166.3262328930093
 30
0.0
 10
257.8562790417892
 20
166.3839931859884
 30
0.0
 10
257.7531088810222
 20
166.4212683785128
 30
0.0
 10
257.64460005155
 20
166.4212683782661
 30
0.0
  0
LINE
  5
136
330
1F
100
AcDbEntity
  8
0
  6
Continuous
 62
     7
370
    15
100
AcDbLine
 10
257.927442765
 20
105.4106298834
 30
0.0
 11
257.9274427649
 21
135.8582991788
 31
0.0
  0
SPLINE
  5
137
330
1F
100
AcDbEntity
  8
0
  6
Continuous
 62
     7
370
    15
100
AcDbSpline
210
0.0
220
0.0
230
1.0
 70
     8
 71
     3
 72
    10
 73
     6
 74
     0
 42
0.000000001
 43
0.00000001
 40
0.0
 40
0.0
 40
0.0
 40
0.0
 40
0.5
 40
0.5
 40
1.0
 40
1.0
 40
1.0
 40
1.0
 10
257.644600051837
 20
105.3286316971322
 30
0.0
 10
257.7016673335802
 20
105.3286316969879
 30
0.0
 10
257.7571129813255
 20
105.3374015075554
 30
0.0
 10
257.8535424367949
 20
105.3669951081824
 30
0.0
 10
257.8942532132612
 20
105.3873608032562
 30
0.0
 10
257.9274427651075
 20
105.4106298855483
 30
0.0
  0
LINE
  5
138
330
1F
100
AcDbEntity
  8
0
  6
Continuous
 62
     7
370
    15
100
AcDbLine
 10
252.7102854769
 20
106.9174026504
 30
0.0
 11
252.7102854769
 21
164.7991957184
 31
0.0
  0
LINE
  5
139
330
1F
100
AcDbEntity
  8
0
  6
Continuous
 62
     7
370
    15
100
AcDbLine
 10
248.9102854769
 20
135.8582991844
 30
0.0
 11
248.9102854769
 21
106.9174026504
 31
0.0
  0
LINE
  5
13A
330
1F
100
AcDbEntity
  8
0
  6
Continuous
 62
     7
370
    15
100
AcDbLine
 10
248.9102854769
 20
164.7991957184
 30
0.0
 11
248.9102854769
 21
135.8582991844
 31
0.0
  0
LINE
  5
13B
330
1F
100
AcDbEntity
  8
0
  6
Continuous
 62
     7
370
    15
100
AcDbLine
 10
243.0274427623
 20
106.2229246188
 30
0.0
 11
243.0274427642
 21
135.8582991844
 31
0.0
  0
LINE
  5
13C
330
1F
100
AcDbEntity
  8
0
  6
Continuous
 62
     7
370
    15
100
AcDbLine
 10
243.0274427642
 20
135.8582991844
 30
0.0
 11
243.0274427636
 21
165.4936737508
 31
0.0
  0
SPLINE
  5
13D
330
1F
100
AcDbEntity
  8
0
  6
Continuous
 62
     7
370
    15
100
AcDbSpline
210
0.0
220
0.0
230
1.0
 70
     8
 71
     3
 72
     9
 73
     5
 74
     0
 42
0.000000001
 43
0.00000001
 40
0.0
 40
0.0
 40
0.0
 40
0.0
 40
0.498780347075351
 40
1.0
 40
1.0
 40
1.0
 40
1.0
 10
243.0274427629993
 20
165.4936737507572
 30
0.0
 10
243.0960003069963
 20
165.5848399414697
 30
0.0
 10
243.2334506784855
 20
165.7676181749086
 30
0.0
 10
243.3717810977301
 20
165.9490637171268
 30
0.0
 10
243.4411150224528
 20
166.0400077888221
 30
0.0
  0
SPLINE
  5
13E
330
1F
100
AcDbEntity
  8
0
  6
Continuous
 62
     7
370
    15
100
AcDbSpline
210
0.0
220
0.0
230
1.0
 70
     8
 71
     3
 72
     8
 73
     4
 74
     0
 42
0.000000001
 43
0.00000001
 40
0.0
 40
0.0
 40
0.0
 40
0.0
 40
0.000536435349708
 40
0.000536435349708
 40
0.000536435349708
 40
0.000536435349708
 10
243.4411150274324
 20
166.0400077918053
 30
0.0
 10
243.5583314487212
 20
166.1354906813832
 30
0.0
 10
243.6756707982492
 20
166.230898180753
 30
0.0
 10
243.7931281891976
 20
166.3262328940941
 30
0.0
  0
LINE
  5
13F
330
1F
100
AcDbEntity
  8
0
  6
Continuous
 62
     7
370
    15
100
AcDbLine
 10
243.7931281889
 20
105.4106298822
 30
0.0
 11
243.4709015003
 21
105.6376329748
 31
0.0
  0
SPLINE
  5
140
330
1F
100
AcDbEntity
  8
0
  6
Continuous
 62
     7
370
    15
100
AcDbSpline
210
0.0
220
0.0
230
1.0
 70
     8
 71
     3
 72
     9
 73
     5
 74
     0
 42
0.000000001
 43
0.00000001
 40
0.0
 40
0.0
 40
0.0
 40
0.0
 40
0.5013065793165208
 40
0.9999999999999999
 40
0.9999999999999999
 40
0.9999999999999999
 40
0.9999999999999999
 10
243.4709014932627
 20
105.6376329837394
 30
0.0
 10
243.3965457957152
 20
105.7350534703092
 30
0.0
 10
243.2482219942427
 20
105.9293866201005
 30
0.0
 10
243.1009075196093
 20
106.1252492265088
 30
0.0
 10
243.0274427603382
 20
106.2229246196825
 30
0.0
  0
LINE
  5
141
330
1F
100
AcDbEntity
  8
0
  6
Continuous
 62
     7
370
    15
100
AcDbLine
 10
258.69312819
 20
165.6572739816
 30
0.0
 11
258.6931281897
 21
135.8582991844
 31
0.0
  0
LINE
  5
142
330
1F
100
AcDbEntity
  8
0
  6
Continuous
 62
     7
370
    15
100
AcDbLine
 10
258.6931281897
 20
135.8582991844
 30
0.0
 11
258.6931281897
 21
106.059324387
 31
0.0
  0
SPLINE
  5
143
330
1F
100
AcDbEntity
  8
0
  6
Continuous
 62
     7
370
    15
100
AcDbSpline
210
0.0
220
0.0
230
1.0
 70
    24
 71
     3
 72
    31
 73
    27
 74
     0
 42
0.000000001
 43
0.00000001
 40
0.0
 40
0.0
 40
0.0
 40
0.0
 40
0.0132823932773856
 40
0.026551203816842
 40
0.0398103956624777
 40
0.0530639414890587
 40
0.0663158190490774
 40
0.0795700075970307
 40
0.0928304843069458
 40
0.1061012206992577
 40
0.11938617909305
 40
0.1814759386760654
 40
0.2435789296667077
 40
0.3073816230332527
 40
0.3711979128662651
 40
0.5004548484509089
 40
0.629649279866097
 40
0.6933605859139234
 40
0.7570854689509972
 40
0.8190310932947362
 40
0.8809899183241852
 40
0.904812838169967
 40
0.9286023320350317
 40
0.9523813656577593
 40
0.9761729350680175
 40
1.0
 40
1.0
 40
1.0
 40
1.0
 10
258.810285476921
 20
165.3641934779187
 30
0.0
 10
258.810285476921
 20
165.3168752047499
 30
0.0
 10
258.810285476921
 20
165.2222870466578
 30
0.0
 10
258.810285476921
 20
165.0693330684206
 30
0.0
 10
258.810285476921
 20
164.9083821968234
 30
0.0
 10
258.810285476921
 20
164.73863487016
 30
0.0
 10
258.810285476921
 20
164.5603052718935
 30
0.0
 10
258.810285476921
 20
164.3733357417821
 30
0.0
 10
258.810285476921
 20
164.1777431352388
 30
0.0
 10
258.810285476921
 20
163.9735180288485
 30
0.0
 10
258.810285476921
 20
163.500173050386
 30
0.0
 10
258.810285476921
 20
162.6840970895973
 30
0.0
 10
258.810285476921
 20
161.3900847700079
 30
0.0
 10
258.810285476921
 20
159.9118984787351
 30
0.0
 10
258.810285476921
 20
157.6868296655358
 30
0.0
 10
258.810285476921
 20
154.4963622748745
 30
0.0
 10
258.810285476921
 20
150.8660696790008
 30
0.0
 10
258.810285476921
 20
147.7790192184859
 30
0.0
 10
258.810285476921
 20
145.4185116469949
 30
0.0
 10
258.810285476921
 20
143.0167339950499
 30
0.0
 10
258.810285476921
 20
141.0880623867434
 30
0.0
 10
258.810285476921
 20
139.6456172581042
 30
0.0
 10
258.810285476921
 20
138.7020771973885
 30
0.0
 10
258.810285476921
 20
137.7562221634475
 30
0.0
 10
258.810285476921
 20
136.8080347368214
 30
0.0
 10
258.810285476921
 20
136.175034983864
 30
0.0
 10
258.810285476921
 20
135.8582991844447
 30
0.0
  0
SPLINE
  5
144
330
1F
100
AcDbEntity
  8
0
  6
Continuous
 62
     7
370
    15
100
AcDbSpline
210
0.0
220
0.0
230
1.0
 70
    24
 71
     3
 72
    10
 73
     6
 74
     0
 42
0.000000001
 43
0.00000001
 40
0.0
 40
0.0
 40
0.0
 40
0.0
 40
0.5
 40
0.5
 40
1.0
 40
1.0
 40
1.0
 40
1.0
 10
258.6931281896638
 20
135.8582991844447
 30
0.0
 10
258.7292079294911
 20
135.8582991844447
 30
0.0
 10
258.7595384986556
 20
135.8582991844447
 30
0.0
 10
258.8001360813307
 20
135.8582991844447
 30
0.0
 10
258.8102854770283
 20
135.8582991844447
 30
0.0
 10
258.8102854769391
 20
135.8582991844447
 30
0.0
  0
SPLINE
  5
145
330
1F
100
AcDbEntity
  8
0
  6
Continuous
 62
     7
370
    15
100
AcDbSpline
210
0.0
220
0.0
230
1.0
 70
     8
 71
     3
 72
     8
 73
     4
 74
     0
 42
0.000000001
 43
0.00000001
 40
0.0
 40
0.0
 40
0.0
 40
0.0
 40
1.0
 40
1.0
 40
1.0
 40
1.0
 10
258.8102854769391
 20
165.3641934717251
 30
0.0
 10
258.8102854787005
 20
165.4727084320233
 30
0.0
 10
258.7685239392799
 20
165.5791755744328
 30
0.0
 10
258.6931281901894
 20
165.6572739814954
 30
0.0
  0
SPLINE
  5
146
330
1F
100
AcDbEntity
  8
0
  6
Continuous
 62
     7
370
    15
100
AcDbSpline
210
0.0
220
0.0
230
1.0
 70
    24
 71
     3
 72
    31
 73
    27
 74
     0
 42
0.000000001
 43
0.00000001
 40
0.0
 40
0.0
 40
0.0
 40
0.0
 40
0.01324079652309
 40
0.0264681393850173
 40
0.0396859556326916
 40
0.0528981808077628
 40
0.0661087554487642
 40
0.0793216215709709
 40
0.0925407191396565
 40
0.1057699825525114
 40
0.1190133371468792
 40
0.1809589626463297
 40
0.2429177888329158
 40
0.3066290963320342
 40
0.3703539808216763
 40
0.4995484162088853
 40
0.6288053557674718
 40
0.6926080515837287
 40
0.7564243438652541
 40
0.8185141060944454
 40
0.8806170997270959
 40
0.9045147944753773
 40
0.9283787407947773
 40
0.9522321211361716
 40
0.9760981487404895
 40
0.9999999999999999
 40
0.9999999999999999
 40
0.9999999999999999
 40
0.9999999999999999
 10
258.810285476921
 20
135.8582991844447
 30
0.0
 10
258.810285476921
 20
135.6822927144837
 30
0.0
 10
258.810285476921
 20
135.3304586105859
 30
0.0
 10
258.810285476921
 20
134.8030794863409
 30
0.0
 10
258.810285476921
 20
134.2763929026348
 30
0.0
 10
258.810285476921
 20
133.7503989441787
 30
0.0
 10
258.810285476921
 20
133.2250978998815
 30
0.0
 10
258.810285476921
 20
132.7004893723021
 30
0.0
 10
258.810285476921
 20
132.1765755040684
 30
0.0
 10
258.810285476921
 20
131.6533489482012
 30
0.0
 10
258.810285476921
 20
130.4906282484089
 30
0.0
 10
258.810285476921
 20
128.7000198385521
 30
0.0
 10
258.810285476921
 20
126.2984291985495
 30
0.0
 10
258.810285476921
 20
123.9377456697624
 30
0.0
 10
258.810285476921
 20
120.8506818122516
 30
0.0
 10
258.810285476921
 20
117.220235851758
 30
0.0
 10
258.810285476921
 20
114.0299038923915
 30
0.0
 10
258.810285476921
 20
111.8048110919251
 30
0.0
 10
258.810285476921
 20
110.326713272864
 30
0.0
 10
258.810285476921
 20
109.0325757407193
 30
0.0
 10
258.810285476921
 20
108.1535240000262
 30
0.0
 10
258.810285476921
 20
107.5760360617251
 30
0.0
 10
258.810285476921
 20
107.2268479130118
 30
0.0
 10
258.810285476921
 20
106.9061624607906
 30
0.0
 10
258.810285476921
 20
106.6113847202338
 30
0.0
 10
258.810285476921
 20
106.438774650509
 30
0.0
 10
258.810285476921
 20
106.3524048909428
 30
0.0
  0
SPLINE
  5
147
330
1F
100
AcDbEntity
  8
0
  6
Continuous
 62
     7
370
    15
100
AcDbSpline
210
0.0
220
0.0
230
1.0
 70
     8
 71
     3
 72
     8
 73
     4
 74
     0
 42
0.000000001
 43
0.00000001
 40
0.0
 40
0.0
 40
0.0
 40
0.0
 40
1.0
 40
1.0
 40
1.0
 40
1.0
 10
258.6931281896362
 20
106.0593243868211
 30
0.0
 10
258.7685244102853
 20
106.1374232820403
 30
0.0
 10
258.8102854787703
 20
106.24389093317
 30
0.0
 10
258.8102854769391
 20
106.3524048974408
 30
0.0
  0
SPLINE
  5
148
330
1F
100
AcDbEntity
  8
0
  6
Continuous
 62
     7
370
    15
100
AcDbSpline
210
0.0
220
0.0
230
1.0
 70
    24
 71
     3
 72
    10
 73
     6
 74
     0
 42
0.000000001
 43
0.00000001
 40
0.0
 40
0.0
 40
0.0
 40
0.0
 40
0.5
 40
0.5
 40
1.0
 40
1.0
 40
1.0
 40
1.0
 10
242.9102854769029
 20
135.8582991844447
 30
0.0
 10
242.9102854767917
 20
135.8582991844447
 30
0.0
 10
242.9204348724766
 20
135.8582991844447
 30
0.0
 10
242.9610324551526
 20
135.8582991844447
 30
0.0
 10
242.9913630243307
 20
135.8582991844447
 30
0.0
 10
243.0274427641782
 20
135.8582991844447
 30
0.0
  0
SPLINE
  5
149
330
1F
100
AcDbEntity
  8
0
  6
Continuous
 62
     7
370
    15
100
AcDbSpline
210
0.0
220
0.0
230
1.0
 70
    24
 71
     3
 72
    31
 73
    27
 74
     0
 42
0.000000001
 43
0.00000001
 40
0.0
 40
0.0
 40
0.0
 40
0.0
 40
0.0132559966349189
 40
0.0264989966081602
 40
0.0397327988291494
 40
0.0529612101314919
 40
0.0661880420034987
 40
0.0794171072986517
 40
0.0926522169401775
 40
0.1058971766339516
 40
0.1191557836038749
 40
0.181094754453264
 40
0.2430471871464789
 40
0.306695881482009
 40
0.3703584092889373
 40
0.4993830193529282
 40
0.6284926302409563
 40
0.6922657259813465
 40
0.7560526822310297
 40
0.8181882638014923
 40
0.8803373499539993
 40
0.9042902683353782
 40
0.9282104830345619
 40
0.952120495510265
 40
0.9760428360099883
 40
1.0
 40
1.0
 40
1.0
 40
1.0
 10
242.910285476921
 20
135.8582991844447
 30
0.0
 10
242.910285476921
 20
136.0312952001262
 30
0.0
 10
242.910285476921
 20
136.3771176198977
 30
0.0
 10
242.910285476921
 20
136.8954982502881
 30
0.0
 10
242.910285476921
 20
137.4132218370144
 30
0.0
 10
242.910285476921
 20
137.9302883035108
 30
0.0
 10
242.910285476921
 20
138.4466973803688
 30
0.0
 10
242.910285476921
 20
138.962449448498
 30
0.0
 10
242.910285476921
 20
139.4775424813597
 30
0.0
 10
242.910285476921
 20
139.9919834460669
 30
0.0
 10
242.910285476921
 20
141.1342380462502
 30
0.0
 10
242.910285476921
 20
142.8933144843319
 30
0.0
 10
242.910285476921
 20
145.253320460285
 30
0.0
 10
242.910285476921
 20
147.5747506160751
 30
0.0
 10
242.910285476921
 20
150.6133092219954
 30
0.0
 10
242.910285476921
 20
154.1961492587923
 30
0.0
 10
242.910285476921
 20
157.3630210604864
 30
0.0
 10
242.910285476921
 20
159.5865229210917
 30
0.0
 10
242.910285476921
 20
161.07288197538
 30
0.0
 10
242.910285476921
 20
162.3839073123009
 30
0.0
 10
242.910285476921
 20
163.2833210976409
 30
0.0
 10
242.910285476921
 20
163.8794065730713
 30
0.0
 10
242.910285476921
 20
164.2421774542015
 30
0.0
 10
242.910285476921
 20
164.577578882019
 30
0.0
 10
242.910285476921
 20
164.8881073792508
 30
0.0
 10
242.910285476921
 20
165.0721469739719
 30
0.0
 10
242.910285476921
 20
165.1642336987277
 30
0.0
  0
SPLINE
  5
14A
330
1F
100
AcDbEntity
  8
0
  6
Continuous
 62
     7
370
    15
100
AcDbSpline
210
0.0
220
0.0
230
1.0
 70
     8
 71
     3
 72
    10
 73
     6
 74
     0
 42
0.000000001
 43
0.00000001
 40
0.0
 40
0.0
 40
0.0
 40
0.0
 40
0.5
 40
0.5
 40
1.0
 40
1.0
 40
1.0
 40
1.0
 10
243.0274427665492
 20
165.4936737539905
 30
0.0
 10
242.9947881408861
 20
165.4501494955775
 30
0.0
 10
242.966807023701
 20
165.4015873884912
 30
0.0
 10
242.9241608175167
 20
165.2901090779615
 30
0.0
 10
242.9102854756417
 20
165.2281377876495
 30
0.0
 10
242.9102854769045
 20
165.1642336953584
 30
0.0
  0
SPLINE
  5
14B
330
1F
100
AcDbEntity
  8
0
  6
Continuous
 62
     7
370
    15
100
AcDbSpline
210
0.0
220
0.0
230
1.0
 70
     8
 71
     3
 72
    10
 73
     6
 74
     0
 42
0.000000001
 43
0.00000001
 40
0.0
 40
0.0
 40
0.0
 40
0.0
 40
0.5
 40
0.5
 40
1.0
 40
1.0
 40
1.0
 40
1.0
 10
243.0274427659619
 20
106.2229246156816
 30
0.0
 10
242.994788140486
 20
106.2664488739876
 30
0.0
 10
242.9668070232021
 20
106.3150109814348
 30
0.0
 10
242.9241608173528
 20
106.4264892916239
 30
0.0
 10
242.9102854756144
 20
106.4884605816939
 30
0.0
 10
242.9102854769045
 20
106.5523646737171
 30
0.0
  0
SPLINE
  5
14C
330
1F
100
AcDbEntity
  8
0
  6
Continuous
 62
     7
370
    15
100
AcDbSpline
210
0.0
220
0.0
230
1.0
 70
    24
 71
     3
 72
    31
 73
    27
 74
     0
 42
0.000000001
 43
0.00000001
 40
0.0
 40
0.0
 40
0.0
 40
0.0
 40
0.0133128930162584
 40
0.0266126186434238
 40
0.0399030247502073
 40
0.0531879673032782
 40
0.0664713070272858
 40
0.0797569060442002
 40
0.0930486245065691
 40
0.1063503172393517
 40
0.1196658304048915
 40
0.1818014087549293
 40
0.2439504916860299
 40
0.3077235843799929
 40
0.3715105375763663
 40
0.5006201432131341
 40
0.6296447480293218
 40
0.6932934402594029
 40
0.7569559659581583
 40
0.8188949349972185
 40
0.8808473658849603
 40
0.9046980020604894
 40
0.9285163609918906
 40
0.9523246573931505
 40
0.9761451341308867
 40
1.0
 40
1.0
 40
1.0
 40
1.0
 10
242.910285476921
 20
106.552364670197
 30
0.0
 10
242.910285476921
 20
106.6028846896346
 30
0.0
 10
242.910285476921
 20
106.7038747606515
 30
0.0
 10
242.910285476921
 20
106.8660024045931
 30
0.0
 10
242.910285476921
 20
107.0358086181183
 30
0.0
 10
242.910285476921
 20
107.2140625647192
 30
0.0
 10
242.910285476921
 20
107.4005581939438
 30
0.0
 10
242.910285476921
 20
107.5953509815232
 30
0.0
 10
242.910285476921
 20
107.7984246904491
 30
0.0
 10
242.910285476921
 20
108.0097884657098
 30
0.0
 10
242.910285476921
 20
108.4977200370394
 30
0.0
 10
242.910285476921
 20
109.3326132378545
 30
0.0
 10
242.910285476921
 20
110.6435110143413
 30
0.0
 10
242.910285476921
 20
112.1299617169847
 30
0.0
 10
242.910285476921
 20
114.3534403989659
 30
0.0
 10
242.910285476921
 20
117.520449337291
 30
0.0
 10
242.910285476921
 20
121.1031350098751
 30
0.0
 10
242.910285476921
 20
124.1416806738999
 30
0.0
 10
242.910285476921
 20
126.4629347974559
 30
0.0
 10
242.910285476921
 20
128.823127208493
 30
0.0
 10
242.910285476921
 20
130.7179955770475
 30
0.0
 10
242.910285476921
 20
132.1352586544653
 30
0.0
 10
242.910285476921
 20
133.0628918008463
 30
0.0
 10
242.910285476921
 20
133.9927255491659
 30
0.0
 10
242.910285476921
 20
134.9247764843677
 30
0.0
 10
242.910285476921
 20
135.5469753497939
 30
0.0
 10
242.910285476921
 20
135.8582991844447
 30
0.0
  0
LINE
  5
14D
330
1F
100
AcDbEntity
  8
0
  6
Continuous
 62
     7
370
    15
100
AcDbLine
 10
239.7102854769
 20
135.8582991844
 30
0.0
 11
239.7102854769
 21
158.0832991844
 31
0.0
  0
LINE
  5
14E
330
1F
100
AcDbEntity
  8
0
  6
Continuous
 62
     7
370
    15
100
AcDbLine
 10
239.7102854769
 20
113.6332991844
 30
0.0
 11
239.7102854769
 21
135.8582991844
 31
0.0
  0
LINE
  5
14F
330
1F
100
AcDbEntity
  8
0
  6
Continuous
 62
     7
370
    15
100
AcDbLine
 10
240.1927995339
 20
135.8582991844
 30
0.0
 11
240.1927995339
 21
157.8582991844
 31
0.0
  0
LINE
  5
150
330
1F
100
AcDbEntity
  8
0
  6
Continuous
 62
     7
370
    15
100
AcDbLine
 10
240.1927995339
 20
113.8582991844
 30
0.0
 11
240.1927995339
 21
135.8582991844
 31
0.0
  0
LINE
  5
151
330
1F
100
AcDbEntity
  8
0
  6
Continuous
 62
     7
370
    15
100
AcDbLine
 10
263.7146000519
 20
135.8582991844
 30
0.0
 11
263.7146000519
 21
154.855792916
 31
0.0
  0
LINE
  5
152
330
1F
100
AcDbEntity
  8
0
  6
Continuous
 62
     7
370
    15
100
AcDbLine
 10
263.7146000519
 20
116.8608054529
 30
0.0
 11
263.7146000519
 21
135.8582991844
 31
0.0
  0
LINE
  5
153
330
1F
100
AcDbEntity
  8
0
  6
Continuous
 62
     7
370
    15
100
AcDbLine
 10
262.7120937834
 20
135.8582991844
 30
0.0
 11
262.7120937834
 21
155.8582991844
 31
0.0
  0
LINE
  5
154
330
1F
100
AcDbEntity
  8
0
  6
Continuous
 62
     7
370
    15
100
AcDbLine
 10
262.7120937834
 20
115.8582991844
 30
0.0
 11
262.7120937834
 21
135.8582991844
 31
0.0
  0
SPLINE
  5
155
330
1F
100
AcDbEntity
  8
0
  6
Continuous
 62
     7
370
    15
100
AcDbSpline
210
0.0
220
0.0
230
1.0
 70
    24
 71
     3
 72
    14
 73
    10
 74
     0
 42
0.000000001
 43
0.00000001
 40
0.0
 40
0.0
 40
0.0
 40
0.0
 40
0.25
 40
0.25
 40
0.5
 40
0.5
 40
0.75
 40
0.75
 40
1.0
 40
1.0
 40
1.0
 40
1.0
 10
171.3102854772062
 20
135.8582991844447
 30
0.0
 10
171.3102854771981
 20
135.8582991844447
 30
0.0
 10
171.3285896590533
 20
135.8582991844447
 30
0.0
 10
171.4096955831779
 20
135.8582991844447
 30
0.0
 10
171.4726796804733
 20
135.8582991844447
 30
0.0
 10
171.6350738838505
 20
135.8582991844447
 30
0.0
 10
171.7341192798833
 20
135.8582991844447
 30
0.0
 10
171.9458802659376
 20
135.8582991844447
 30
0.0
 10
172.0581018002947
 20
135.8582991844447
 30
0.0
 10
172.1659772498867
 20
135.8582991844447
 30
0.0
  0
SPLINE
  5
156
330
1F
100
AcDbEntity
  8
0
  6
Continuous
 62
     7
370
    15
100
AcDbSpline
210
0.0
220
0.0
230
1.0
 70
    24
 71
     3
 72
    22
 73
    18
 74
     0
 42
0.000000001
 43
0.00000001
 40
0.0
 40
0.0
 40
0.0
 40
0.0
 40
0.1250000000000001
 40
0.1250000000000001
 40
0.2500000000000002
 40
0.2500000000000002
 40
0.3750000000000003
 40
0.3750000000000003
 40
0.5000000000000002
 40
0.5000000000000002
 40
0.6250000000000002
 40
0.6250000000000002
 40
0.7500000000000002
 40
0.7500000000000002
 40
0.8750000000000001
 40
0.8750000000000001
 40
1.0
 40
1.0
 40
1.0
 40
1.0
 10
171.3102854772062
 20
147.2434617739992
 30
0.0
 10
171.3102854772062
 20
147.243461773989
 30
0.0
 10
171.3102854772062
 20
147.1230979249072
 30
0.0
 10
171.3102854772062
 20
146.663200232913
 30
0.0
 10
171.3102854772062
 20
146.3242444945281
 30
0.0
 10
171.3102854772062
 20
145.4838172676116
 30
0.0
 10
171.3102854772062
 20
144.9830935961074
 30
0.0
 10
171.3102854772062
 20
143.8892292227076
 30
0.0
 10
171.3102854772061
 20
143.2966054095786
 30
0.0
 10
171.3102854772062
 20
142.082188066698
 30
0.0
 10
171.3102854772062
 20
141.4605676757494
 30
0.0
 10
171.3102854772062
 20
140.2340383558364
 30
0.0
 10
171.3102854772062
 20
139.6290650340828
 30
0.0
 10
171.3102854772062
 20
138.4632243849196
 30
0.0
 10
171.3102854772062
 20
137.902201424973
 30
0.0
 10
171.3102854772062
 20
136.8370064809491
 30
0.0
 10
171.3102854772062
 20
136.3326809590069
 30
0.0
 10
171.3102854772062
 20
135.8582991844447
 30
0.0
  0
SPLINE
  5
157
330
1F
100
AcDbEntity
  8
0
  6
Continuous
 62
     7
370
    15
100
AcDbSpline
210
0.0
220
0.0
230
1.0
 70
    24
 71
     3
 72
    22
 73
    18
 74
     0
 42
0.000000001
 43
0.00000001
 40
0.0
 40
0.0
 40
0.0
 40
0.0
 40
0.125
 40
0.125
 40
0.25
 40
0.25
 40
0.375
 40
0.375
 40
0.5
 40
0.5
 40
0.625
 40
0.625
 40
0.75
 40
0.75
 40
0.875
 40
0.875
 40
1.0
 40
1.0
 40
1.0
 40
1.0
 10
171.3102854772062
 20
135.8582991844447
 30
0.0
 10
171.3102854772062
 20
135.3839174098774
 30
0.0
 10
171.3102854772062
 20
134.8795918879294
 30
0.0
 10
171.3102854772062
 20
133.8143969438929
 30
0.0
 10
171.3102854772062
 20
133.2533739839394
 30
0.0
 10
171.3102854772062
 20
132.0875333347619
 30
0.0
 10
171.3102854772062
 20
131.4825600130008
 30
0.0
 10
171.3102854772062
 20
130.2560306930737
 30
0.0
 10
171.3102854772062
 20
129.6344103021184
 30
0.0
 10
171.3102854772062
 20
128.4199929592274
 30
0.0
 10
171.3102854772062
 20
127.8273691460946
 30
0.0
 10
171.3102854772062
 20
126.7335047726931
 30
0.0
 10
171.3102854772062
 20
126.2327811011907
 30
0.0
 10
171.3102854772062
 20
125.392353874286
 30
0.0
 10
171.3102854772062
 20
125.0533981359108
 30
0.0
 10
171.3102854772062
 20
124.5935004439441
 30
0.0
 10
171.3102854772062
 20
124.47313659488
 30
0.0
 10
171.3102854772062
 20
124.4731365948902
 30
0.0
  0
LINE
  5
158
330
1F
100
AcDbEntity
  8
0
  6
Continuous
 62
     7
370
    15
100
AcDbLine
 10
242.9102854769
 20
166.4426137534
 30
0.0
 11
242.9102854769
 21
165.1642336947
 31
0.0
  0
LINE
  5
159
330
1F
100
AcDbEntity
  8
0
  6
Continuous
 62
     7
370
    15
100
AcDbLine
 10
242.9102854769
 20
106.5523646728
 30
0.0
 11
242.9102854769
 21
105.2739846155
 31
0.0
  0
LINE
  5
15A
330
1F
100
AcDbEntity
  8
0
  6
Continuous
 62
     7
370
    15
100
AcDbLine
 10
258.8102854769
 20
166.4426137534
 30
0.0
 11
258.8102854769
 21
165.3641934771
 31
0.0
  0
LINE
  5
15B
330
1F
100
AcDbEntity
  8
0
  6
Continuous
 62
     7
370
    15
100
AcDbLine
 10
258.8102854769
 20
106.3524048956
 30
0.0
 11
258.8102854769
 21
105.2739846155
 31
0.0
  0
LINE
  5
15C
330
1F
100
AcDbEntity
  8
0
  6
Continuous
 62
     8
370
    15
100
AcDbLine
 10
257.6446000519
 20
105.3286316971
 30
0.0
 11
257.6446000519
 21
104.1082991844
 31
0.0
  0
LINE
  5
15D
330
1F
100
AcDbEntity
  8
0
  6
Continuous
 62
     8
370
    15
100
AcDbLine
 10
257.6446000519
 20
167.6082991844
 30
0.0
 11
257.6446000517
 21
166.4212683784
 31
0.0
  0
LINE
  5
15E
330
1F
100
AcDbEntity
  8
0
  6
Continuous
 62
     8
370
    15
100
AcDbLine
 10
244.0759709019
 20
105.3286316971
 30
0.0
 11
244.0759709019
 21
104.1082991844
 31
0.0
  0
LINE
  5
15F
330
1F
100
AcDbEntity
  8
0
  6
Continuous
 62
     8
370
    15
100
AcDbLine
 10
244.0759709019
 20
167.6082991844
 30
0.0
 11
244.0759709023
 21
166.4212683784
 31
0.0
  0
LINE
  5
160
330
1F
100
AcDbEntity
  8
0
  6
Continuous
 62
     8
370
    15
100
AcDbLine
 10
258.6931281897
 20
106.0593243868
 30
0.0
 11
258.6931281897
 21
104.9911418972
 31
0.0
  0
LINE
  5
161
330
1F
100
AcDbEntity
  8
0
  6
Continuous
 62
     8
370
    15
100
AcDbLine
 10
258.6931281897
 20
166.7254564717
 30
0.0
 11
258.6931281897
 21
165.6572739821
 31
0.0
  0
LINE
  5
162
330
1F
100
AcDbEntity
  8
0
  6
Continuous
 62
     8
370
    15
100
AcDbLine
 10
257.9274427647
 20
167.4911418966
 30
0.0
 11
257.9274427647
 21
166.3262328938
 31
0.0
  0
LINE
  5
163
330
1F
100
AcDbEntity
  8
0
  6
Continuous
 62
     8
370
    15
100
AcDbLine
 10
257.9274427647
 20
105.4106298853
 30
0.0
 11
257.9274427647
 21
104.2254564722
 31
0.0
  0
LINE
  5
164
330
1F
100
AcDbEntity
  8
0
  6
Continuous
 62
     8
370
    15
100
AcDbLine
 10
242.5102854768
 20
135.8582991844
 30
0.0
 11
242.5102854768
 21
157.8582991846
 31
0.0
  0
LINE
  5
165
330
1F
100
AcDbEntity
  8
0
  6
Continuous
 62
     8
370
    15
100
AcDbLine
 10
242.5102854768
 20
113.8582991843
 30
0.0
 11
242.5102854768
 21
135.8582991844
 31
0.0
  0
LINE
  5
166
330
1F
100
AcDbEntity
  8
0
  6
Continuous
 62
     8
370
    15
100
AcDbLine
 10
172.1659772499
 20
135.8582991794
 30
0.0
 11
172.1659772499
 21
148.2329945604
 31
0.0
  0
LINE
  5
167
330
1F
100
AcDbEntity
  8
0
  6
Continuous
 62
     8
370
    15
100
AcDbLine
 10
172.1659772499
 20
123.4836038084
 30
0.0
 11
172.1659772499
 21
135.8582991794
 31
0.0
  0
LINE
  5
168
330
1F
100
AcDbEntity
  8
0
  6
Continuous
 62
     8
370
    15
100
AcDbLine
 10
243.0274427642
 20
166.7254564716
 30
0.0
 11
243.0274427642
 21
165.4936737508
 31
0.0
  0
LINE
  5
169
330
1F
100
AcDbEntity
  8
0
  6
Continuous
 62
     8
370
    15
100
AcDbLine
 10
243.0274427642
 20
106.2229246181
 30
0.0
 11
243.0274427642
 21
104.9911418973
 31
0.0
  0
LINE
  5
16A
330
1F
100
AcDbEntity
  8
0
  6
Continuous
 62
     8
370
    15
100
AcDbLine
 10
243.7931281892
 20
105.4106298852
 30
0.0
 11
243.7931281892
 21
104.2254564722
 31
0.0
  0
LINE
  5
16B
330
1F
100
AcDbEntity
  8
0
  6
Continuous
 62
     8
370
    15
100
AcDbLine
 10
243.7931281892
 20
167.4911418967
 30
0.0
 11
243.7931281892
 21
166.3262328941
 31
0.0
  0
DIMENSION
  5
16C
330
1F
100
AcDbEntity
  8
DIM
100
AcDbDimension
  2
_D
 10
263.7146000519
 20
84.1082991844
 30
0.0
 11
217.5124427645
 21
84.1082991844
 31
0.0
 70
   160
  1
<>
 71
     2
 42
-1.0
  3
SLDDIMSTYLE0
100
AcDbAlignedDimension
 13
171.3102854771
 23
135.8582991844
 33
0.0
 14
263.7146000519
 24
116.8608054529
 34
0.0
100
AcDbRotatedDimension
  0
DIMENSION
  5
177
330
1F
100
AcDbEntity
  8
DIM
100
AcDbDimension
  2
_D_1
 10
263.7146000519
 20
92.3287736025
 30
0.0
 11
251.7124427644
 21
92.3287736025
 31
0.0
 70
   160
  1
<>
 71
     2
 42
-1.0
  3
SLDDIMSTYLE1
100
AcDbAlignedDimension
 13
239.7102854769
 23
113.6332991844
 33
0.0
 14
263.7146000519
 24
116.8608054529
 34
0.0
100
AcDbRotatedDimension
  0
DIMENSION
  5
182
330
1F
100
AcDbEntity
  8
DIM
100
AcDbDimension
  2
_D_2
 10
165.1576985287
 20
104.1082991844
 30
0.0
 11
165.1576985287
 21
135.8582991844
 31
0.0
 70
   160
  1
%%c<>
 71
     2
 42
-1.0
  3
SLDDIMSTYLE0
100
AcDbAlignedDimension
 13
244.0759709019
 23
167.6082991844
 33
0.0
 14
244.0759709019
 24
104.1082991844
 34
0.0
 50
90.0
100
AcDbRotatedDimension
  0
DIMENSION
  5
18D
330
1F
100
AcDbEntity
  8
DIM
100
AcDbDimension
  2
_D_3
 10
270.174934091
 20
115.8582991844
 30
0.0
 11
270.174934091
 21
135.8582991844
 31
0.0
 70
   160
  1
%%c<>
 71
     2
 42
-1.0
  3
SLDDIMSTYLE1
100
AcDbAlignedDimension
 13
262.7120937834
 23
155.8582991844
 33
0.0
 14
262.7120937834
 24
115.8582991844
 34
0.0
 50
90.0
100
AcDbRotatedDimension
  0
LINE
  5
198
330
1F
100
AcDbEntity
  8
DIM
  6
CENTERX2
 48
1.6
370
     0
100
AcDbLine
 10
168.8425380452
 20
135.8582991844
 30
0.0
 11
263.5275107291
 21
135.8582991844
 31
0.0
  0
ENDSEC
  0
SECTION
  2
OBJECTS
  0
DICTIONARY
  5
C
330
0
100
AcDbDictionary
281
     1
  3
ACAD_GROUP
350
D
  3
ACAD_LAYOUT
350
1A
  3
ACAD_MLINESTYLE
350
17
  3
ACAD_PLOTSETTINGS
350
19
  3
ACAD_PLOTSTYLENAME
350
E
  3
ACAD_SCALELIST
350
47
  0
DICTIONARY
  5
D
102
{ACAD_REACTORS
330
C
102
}
330
C
100
AcDbDictionary
281
     1
  0
DICTIONARY
  5
1A
102
{ACAD_REACTORS
330
C
102
}
330
C
100
AcDbDictionary
281
     1
  3
Layout1
350
1E
  3
Layout2
350
26
  3
Model
350
22
  0
DICTIONARY
  5
17
102
{ACAD_REACTORS
330
C
102
}
330
C
100
AcDbDictionary
281
     1
  3
Standard
350
18
  0
DICTIONARY
  5
19
102
{ACAD_REACTORS
330
C
102
}
330
C
100
AcDbDictionary
281
     1
  0
ACDBDICTIONARYWDFLT
  5
E
102
{ACAD_REACTORS
330
C
102
}
330
C
100
AcDbDictionary
281
     1
  3
Normal
350
F
100
AcDbDictionaryWithDefault
340
F
  0
DICTIONARY
  5
47
102
{ACAD_REACTORS
330
C
102
}
330
C
100
AcDbDictionary
281
     1
  3
A0
350
48
  3
A1
350
49
  3
A2
350
4A
  3
A3
350
4B
  3
A4
350
4C
  3
A5
350
4D
  3
A6
350
4E
  3
A7
350
4F
  3
A8
350
50
  3
A9
350
51
  3
B0
350
52
  3
B1
350
53
  3
B2
350
54
  3
B3
350
55
  3
B4
350
56
  3
B5
350
57
  3
B6
350
58
  3
B7
350
59
  3
B8
350
5A
  3
B9
350
5B
  3
C0
350
5C
  3
C1
350
5D
  3
C2
350
5E
  3
C3
350
5F
  3
C4
350
60
  3
C5
350
61
  3
C6
350
62
  3
C7
350
63
  3
C8
350
64
  3
C9
350
65
  3
D0
350
66
  3
D1
350
67
  3
D2
350
68
  0
LAYOUT
  5
1E
102
{ACAD_REACTORS
330
1A
102
}
330
1A
100
AcDbPlotSettings
  1

  2
none_device
  4

  6

 40
0.0
 41
0.0
 42
0.0
 43
0.0
 44
0.0
 45
0.0
 46
0.0
 47
0.0
 48
0.0
 49
0.0
140
0.0
141
0.0
142
1.0
143
1.0
 70
   688
 72
     1
 73
     0
 74
     5
  7

 75
    16
147
1.0
148
0.0
149
0.0
100
AcDbLayout
  1
Layout1
 70
     1
 71
     1
 10
0.0
 20
0.0
 11
420.0
 21
297.0
 12
0.0
 22
0.0
 32
0.0
 14
1.0000000000E+20
 24
1.0000000000E+20
 34
1.0000000000E+20
 15
-1.0000000000E+20
 25
-1.0000000000E+20
 35
-1.0000000000E+20
146
0.0
 13
0.0
 23
0.0
 33
0.0
 16
1.0
 26
0.0
 36
0.0
 17
0.0
 27
1.0
 37
0.0
 76
     0
330
1B
  0
LAYOUT
  5
26
102
{ACAD_REACTORS
330
1A
102
}
330
1A
100
AcDbPlotSettings
  1

  2
none_device
  4

  6

 40
0.0
 41
0.0
 42
0.0
 43
0.0
 44
0.0
 45
0.0
 46
0.0
 47
0.0
 48
0.0
 49
0.0
140
0.0
141
0.0
142
1.0
143
1.0
 70
   688
 72
     1
 73
     0
 74
     5
  7

 75
    16
147
1.0
148
0.0
149
0.0
100
AcDbLayout
  1
Layout2
 70
     1
 71
     2
 10
0.0
 20
0.0
 11
0.0
 21
0.0
 12
0.0
 22
0.0
 32
0.0
 14
0.0
 24
0.0
 34
0.0
 15
0.0
 25
0.0
 35
0.0
146
0.0
 13
0.0
 23
0.0
 33
0.0
 16
1.0
 26
0.0
 36
0.0
 17
0.0
 27
1.0
 37
0.0
 76
     0
330
23
  0
LAYOUT
  5
22
102
{ACAD_REACTORS
330
1A
102
}
330
1A
100
AcDbPlotSettings
  1

  2
none_device
  4
Letter_(8.50_x_11.00_Inches)
  6

 40
6.35
 41
6.35
 42
6.35000508
 43
6.35000508
 44
215.9
 45
279.4
 46
0.0
 47
0.0
 48
0.0
 49
0.0
140
0.0
141
0.0
142
1.0
143
1.0
 70
  1712
 72
     1
 73
     0
 74
     0
  7

 75
     0
147
1.0
148
0.0
149
0.0
100
AcDbLayout
  1
Model
 70
     1
 71
     0
 10
0.0
 20
0.0
 11
371.25
 21
262.5
 12
0.0
 22
0.0
 32
0.0
 14
0.0
 24
0.0
 34
0.0
 15
371.25
 25
262.5
 35
0.0
146
0.0
 13
0.0
 23
0.0
 33
0.0
 16
1.0
 26
0.0
 36
0.0
 17
0.0
 27
1.0
 37
0.0
 76
     0
330
1F
331
29
  0
MLINESTYLE
  5
18
102
{ACAD_REACTORS
330
17
102
}
330
17
100
AcDbMlineStyle
  2
Standard
 70
     0
  3

 62
   256
 51
90.0
 52
90.0
 71
     2
 49
0.5
 62
   256
  6
BYLAYER
 49
-0.5
 62
   256
  6
BYLAYER
  0
ACDBPLACEHOLDER
  5
F
102
{ACAD_REACTORS
330
E
102
}
330
E
  0
SCALE
  5
48
102
{ACAD_REACTORS
330
47
102
}
330
47
100
AcDbScale
 70
     0
300
1:1
140
1.0
141
1.0
290
     1
  0
SCALE
  5
49
102
{ACAD_REACTORS
330
47
102
}
330
47
100
AcDbScale
 70
     0
300
1:2
140
1.0
141
2.0
290
     0
  0
SCALE
  5
4A
102
{ACAD_REACTORS
330
47
102
}
330
47
100
AcDbScale
 70
     0
300
1:4
140
1.0
141
4.0
290
     0
  0
SCALE
  5
4B
102
{ACAD_REACTORS
330
47
102
}
330
47
100
AcDbScale
 70
     0
300
1:5
140
1.0
141
5.0
290
     0
  0
SCALE
  5
4C
102
{ACAD_REACTORS
330
47
102
}
330
47
100
AcDbScale
 70
     0
300
1:8
140
1.0
141
8.0
290
     0
  0
SCALE
  5
4D
102
{ACAD_REACTORS
330
47
102
}
330
47
100
AcDbScale
 70
     0
300
1:10
140
1.0
141
10.0
290
     0
  0
SCALE
  5
4E
102
{ACAD_REACTORS
330
47
102
}
330
47
100
AcDbScale
 70
     0
300
1:16
140
1.0
141
16.0
290
     0
  0
SCALE
  5
4F
102
{ACAD_REACTORS
330
47
102
}
330
47
100
AcDbScale
 70
     0
300
1:20
140
1.0
141
20.0
290
     0
  0
SCALE
  5
50
102
{ACAD_REACTORS
330
47
102
}
330
47
100
AcDbScale
 70
     0
300
1:30
140
1.0
141
30.0
290
     0
  0
SCALE
  5
51
102
{ACAD_REACTORS
330
47
102
}
330
47
100
AcDbScale
 70
     0
300
1:40
140
1.0
141
40.0
290
     0
  0
SCALE
  5
52
102
{ACAD_REACTORS
330
47
102
}
330
47
100
AcDbScale
 70
     0
300
1:50
140
1.0
141
50.0
290
     0
  0
SCALE
  5
53
102
{ACAD_REACTORS
330
47
102
}
330
47
100
AcDbScale
 70
     0
300
1:100
140
1.0
141
100.0
290
     0
  0
SCALE
  5
54
102
{ACAD_REACTORS
330
47
102
}
330
47
100
AcDbScale
 70
     0
300
2:1
140
2.0
141
1.0
290
     0
  0
SCALE
  5
55
102
{ACAD_REACTORS
330
47
102
}
330
47
100
AcDbScale
 70
     0
300
4:1
140
4.0
141
1.0
290
     0
  0
SCALE
  5
56
102
{ACAD_REACTORS
330
47
102
}
330
47
100
AcDbScale
 70
     0
300
8:1
140
8.0
141
1.0
290
     0
  0
SCALE
  5
57
102
{ACAD_REACTORS
330
47
102
}
330
47
100
AcDbScale
 70
     0
300
10:1
140
10.0
141
1.0
290
     0
  0
SCALE
  5
58
102
{ACAD_REACTORS
330
47
102
}
330
47
100
AcDbScale
 70
     0
300
100:1
140
100.0
141
1.0
290
     0
  0
SCALE
  5
59
102
{ACAD_REACTORS
330
47
102
}
330
47
100
AcDbScale
 70
     0
300
1/128" = 1'-0"
140
0.0078125
141
12.0
290
     0
  0
SCALE
  5
5A
102
{ACAD_REACTORS
330
47
102
}
330
47
100
AcDbScale
 70
     0
300
1/64" = 1'-0"
140
0.015625
141
12.0
290
     0
  0
SCALE
  5
5B
102
{ACAD_REACTORS
330
47
102
}
330
47
100
AcDbScale
 70
     0
300
1/32" = 1'-0"
140
0.03125
141
12.0
290
     0
  0
SCALE
  5
5C
102
{ACAD_REACTORS
330
47
102
}
330
47
100
AcDbScale
 70
     0
300
1/16" = 1'-0"
140
0.0625
141
12.0
290
     0
  0
SCALE
  5
5D
102
{ACAD_REACTORS
330
47
102
}
330
47
100
AcDbScale
 70
     0
300
3/32" = 1'-0"
140
0.09375
141
12.0
290
     0
  0
SCALE
  5
5E
102
{ACAD_REACTORS
330
47
102
}
330
47
100
AcDbScale
 70
     0
300
1/8" = 1'-0"
140
0.125
141
12.0
290
     0
  0
SCALE
  5
5F
102
{ACAD_REACTORS
330
47
102
}
330
47
100
AcDbScale
 70
     0
300
3/16" = 1'-0"
140
0.1875
141
12.0
290
     0
  0
SCALE
  5
60
102
{ACAD_REACTORS
330
47
102
}
330
47
100
AcDbScale
 70
     0
300
1/4" = 1'-0"
140
0.25
141
12.0
290
     0
  0
SCALE
  5
61
102
{ACAD_REACTORS
330
47
102
}
330
47
100
AcDbScale
 70
     0
300
3/8" = 1'-0"
140
0.375
141
12.0
290
     0
  0
SCALE
  5
62
102
{ACAD_REACTORS
330
47
102
}
330
47
100
AcDbScale
 70
     0
300
1/2" = 1'-0"
140
0.5
141
12.0
290
     0
  0
SCALE
  5
63
102
{ACAD_REACTORS
330
47
102
}
330
47
100
AcDbScale
 70
     0
300
3/4" = 1'-0"
140
0.75
141
12.0
290
     0
  0
SCALE
  5
64
102
{ACAD_REACTORS
330
47
102
}
330
47
100
AcDbScale
 70
     0
300
1" = 1'-0"
140
1.0
141
12.0
290
     0
  0
SCALE
  5
65
102
{ACAD_REACTORS
330
47
102
}
330
47
100
AcDbScale
 70
     0
300
1-1/2" = 1'-0"
140
1.5
141
12.0
290
     0
  0
SCALE
  5
66
102
{ACAD_REACTORS
330
47
102
}
330
47
100
AcDbScale
 70
     0
300
3" = 1'-0"
140
3.0
141
12.0
290
     0
  0
SCALE
  5
67
102
{ACAD_REACTORS
330
47
102
}
330
47
100
AcDbScale
 70
     0
300
6" = 1'-0"
140
6.0
141
12.0
290
     0
  0
SCALE
  5
68
102
{ACAD_REACTORS
330
47
102
}
330
47
100
AcDbScale
 70
     0
300
1'-0" = 1'-0"
140
12.0
141
12.0
290
     0
  0
ENDSEC
  0
EOF
