  0
SECTION
  2
HEADER
  9
$ACADVER
  1
AC1015
  9
$ACADMAINTVER
 70
     6
  9
$DWGCODEPAGE
  3
ANSI_1252
  9
$INSBASE
 10
0.0
 20
0.0
 30
0.0
  9
$EXTMIN
 10
0.0
 20
0.0
 30
0.0
  9
$EXTMAX
 10
297.0
 20
210.0
 30
0.0
  9
$LIMMIN
 10
0.0
 20
0.0
  9
$LIMMAX
 10
297.0
 20
210.0
  9
$ORTHOMODE
 70
     0
  9
$REGENMODE
 70
     1
  9
$FILLMODE
 70
     1
  9
$QTEXTMODE
 70
     0
  9
$MIRRTEXT
 70
     1
  9
$LTSCALE
 40
1.0
  9
$ATTMODE
 70
     1
  9
$TEXTSIZE
 40
3.8805555556
  9
$TRACEWID
 40
1.0
  9
$TEXTSTYLE
  7
Standard
  9
$CLAYER
  8
0
  9
$CELTYPE
  6
ByLayer
  9
$CECOLOR
 62
   256
  9
$CELTSCALE
 40
1.0
  9
$DISPSILH
 70
     0
  9
$DIMSCALE
 40
1.0
  9
$DIMASZ
 40
3.302
  9
$DIMEXO
 40
1.0
  9
$DIMDLI
 40
3.75
  9
$DIMRND
 40
0.0
  9
$DIMDLE
 40
0.0
  9
$DIMEXE
 40
1.0
  9
$DIMTP
 40
0.0
  9
$DIMTM
 40
0.0
  9
$DIMTXT
 40
3.8805555556
  9
$DIMCEN
 40
2.5
  9
$DIMTSZ
 40
0.0
  9
$DIMTOL
 70
     0
  9
$DIMLIM
 70
     0
  9
$DIMTIH
 70
     1
  9
$DIMTOH
 70
     1
  9
$DIMSE1
 70
     0
  9
$DIMSE2
 70
     0
  9
$DIMTAD
 70
     1
  9
$DIMZIN
 70
     0
  9
$DIMBLK
  1

  9
$DIMASO
 70
     1
  9
$DIMSHO
 70
     1
  9
$DIMPOST
  1

  9
$DIMAPOST
  1

  9
$DIMALT
 70
     0
  9
$DIMALTD
 70
     3
  9
$DIMALTF
 40
0.0393700787
  9
$DIMLFAC
 40
1.0
  9
$DIMTOFL
 70
     1
  9
$DIMTVP
 40
0.0
  9
$DIMTIX
 70
     0
  9
$DIMSOXD
 70
     0
  9
$DIMSAH
 70
     0
  9
$DIMBLK1
  1

  9
$DIMBLK2
  1

  9
$DIMSTYLE
  2
ISO-25
  9
$DIMCLRD
 70
     0
  9
$DIMCLRE
 70
     0
  9
$DIMCLRT
 70
     0
  9
$DIMTFAC
 40
1.0
  9
$DIMGAP
 40
1.524
  9
$DIMJUST
 70
     0
  9
$DIMSD1
 70
     0
  9
$DIMSD2
 70
     0
  9
$DIMTOLJ
 70
     0
  9
$DIMTZIN
 70
     0
  9
$DIMALTZ
 70
     0
  9
$DIMALTTZ
 70
     0
  9
$DIMUPT
 70
     0
  9
$DIMDEC
 70
     2
  9
$DIMTDEC
 70
     2
  9
$DIMALTU
 70
     2
  9
$DIMALTTD
 70
     3
  9
$DIMTXSTY
  7
Standard
  9
$DIMAUNIT
 70
     0
  9
$DIMADEC
 70
     2
  9
$DIMALTRND
 40
0.0
  9
$DIMAZIN
 70
     0
  9
$DIMDSEP
 70
    44
  9
$DIMATFIT
 70
     3
  9
$DIMFRAC
 70
     0
  9
$DIMLDRBLK
  1

  9
$DIMLUNIT
 70
     2
  9
$DIMLWD
 70
    -2
  9
$DIMLWE
 70
    -2
  9
$DIMTMOVE
 70
     0
  9
$LUNITS
 70
     2
  9
$LUPREC
 70
     2
  9
$SKETCHINC
 40
1.0
  9
$FILLETRAD
 40
10.0
  9
$AUNITS
 70
     0
  9
$AUPREC
 70
     2
  9
$MENU
  1
.
  9
$ELEVATION
 40
0.0
  9
$PELEVATION
 40
0.0
  9
$THICKNESS
 40
0.0
  9
$LIMCHECK
 70
     0
  9
$CHAMFERA
 40
0.0
  9
$CHAMFERB
 40
0.0
  9
$CHAMFERC
 40
0.0
  9
$CHAMFERD
 40
0.0
  9
$SKPOLY
 70
     0
  9
$TDCREATE
 40
2458612.522194827
  9
$TDUCREATE
 40
2458612.29302816
  9
$TDUPDATE
 40
2458612.522195521
  9
$TDUUPDATE
 40
2458612.293028854
  9
$TDINDWG
 40
0.0000000116
  9
$TDUSRTIMER
 40
0.0000000116
  9
$USRTIMER
 70
     1
  9
$ANGBASE
 50
0.0
  9
$ANGDIR
 70
     0
  9
$PDMODE
 70
     0
  9
$PDSIZE
 40
-1.0
  9
$PLINEWID
 40
0.0
  9
$SPLFRAME
 70
     0
  9
$SPLINETYPE
 70
     6
  9
$SPLINESEGS
 70
     8
  9
$HANDSEED
  5
14B
  9
$SURFTAB1
 70
     6
  9
$SURFTAB2
 70
     6
  9
$SURFTYPE
 70
     6
  9
$SURFU
 70
     6
  9
$SURFV
 70
     6
  9
$UCSBASE
  2

  9
$UCSNAME
  2

  9
$UCSORG
 10
0.0
 20
0.0
 30
0.0
  9
$UCSXDIR
 10
1.0
 20
0.0
 30
0.0
  9
$UCSYDIR
 10
0.0
 20
1.0
 30
0.0
  9
$UCSORTHOREF
  2

  9
$UCSORTHOVIEW
 70
     0
  9
$UCSORGTOP
 10
0.0
 20
0.0
 30
0.0
  9
$UCSORGBOTTOM
 10
0.0
 20
0.0
 30
0.0
  9
$UCSORGLEFT
 10
0.0
 20
0.0
 30
0.0
  9
$UCSORGRIGHT
 10
0.0
 20
0.0
 30
0.0
  9
$UCSORGFRONT
 10
0.0
 20
0.0
 30
0.0
  9
$UCSORGBACK
 10
0.0
 20
0.0
 30
0.0
  9
$PUCSBASE
  2

  9
$PUCSNAME
  2

  9
$PUCSORG
 10
0.0
 20
0.0
 30
0.0
  9
$PUCSXDIR
 10
1.0
 20
0.0
 30
0.0
  9
$PUCSYDIR
 10
0.0
 20
1.0
 30
0.0
  9
$PUCSORTHOREF
  2

  9
$PUCSORTHOVIEW
 70
     0
  9
$PUCSORGTOP
 10
0.0
 20
0.0
 30
0.0
  9
$PUCSORGBOTTOM
 10
0.0
 20
0.0
 30
0.0
  9
$PUCSORGLEFT
 10
0.0
 20
0.0
 30
0.0
  9
$PUCSORGRIGHT
 10
0.0
 20
0.0
 30
0.0
  9
$PUCSORGFRONT
 10
0.0
 20
0.0
 30
0.0
  9
$PUCSORGBACK
 10
0.0
 20
0.0
 30
0.0
  9
$USERI1
 70
     0
  9
$USERI2
 70
     0
  9
$USERI3
 70
     0
  9
$USERI4
 70
     0
  9
$USERI5
 70
     0
  9
$USERR1
 40
0.0
  9
$USERR2
 40
0.0
  9
$USERR3
 40
0.0
  9
$USERR4
 40
0.0
  9
$USERR5
 40
0.0
  9
$WORLDVIEW
 70
     1
  9
$SHADEDGE
 70
     3
  9
$SHADEDIF
 70
    70
  9
$TILEMODE
 70
     1
  9
$MAXACTVP
 70
    64
  9
$PINSBASE
 10
0.0
 20
0.0
 30
0.0
  9
$PLIMCHECK
 70
     0
  9
$PEXTMIN
 10
1.0000000000E+20
 20
1.0000000000E+20
 30
1.0000000000E+20
  9
$PEXTMAX
 10
-1.0000000000E+20
 20
-1.0000000000E+20
 30
-1.0000000000E+20
  9
$PLIMMIN
 10
0.0
 20
0.0
  9
$PLIMMAX
 10
420.0
 20
297.0
  9
$UNITMODE
 70
     0
  9
$VISRETAIN
 70
     1
  9
$PLINEGEN
 70
     0
  9
$PSLTSCALE
 70
     1
  9
$TREEDEPTH
 70
  3020
  9
$CMLSTYLE
  2
Standard
  9
$CMLJUST
 70
     0
  9
$CMLSCALE
 40
20.0
  9
$PROXYGRAPHICS
 70
     1
  9
$MEASUREMENT
 70
     1
  9
$CELWEIGHT
370
    -1
  9
$ENDCAPS
280
     0
  9
$JOINSTYLE
280
     0
  9
$LWDISPLAY
290
     1
  9
$INSUNITS
 70
     4
  9
$HYPERLINKBASE
  1

  9
$STYLESHEET
  1

  9
$XEDIT
290
     1
  9
$CEPSNTYPE
380
     0
  9
$PSTYLEMODE
290
     1
  9
$FINGERPRINTGUID
  2
{9ABF0F68-3E04-4D91-B883-2F16C8B10D64}
  9
$VERSIONGUID
  2
{FAEB1C32-E019-11D5-929B-00C0DF256EC4}
  9
$EXTNAMES
290
     1
  9
$PSVPSCALE
 40
0.0
  9
$OLESTARTUP
290
     0
  0
ENDSEC
  0
SECTION
  2
CLASSES
  0
CLASS
  1
ACDBDICTIONARYWDFLT
  2
AcDbDictionaryWithDefault
  3
ObjectDBX Classes
 90
        0
280
     0
281
     0
  0
CLASS
  1
VISUALSTYLE
  2
AcDbVisualStyle
  3
ObjectDBX Classes
 90
     4095
280
     0
281
     0
  0
CLASS
  1
MATERIAL
  2
AcDbMaterial
  3
ObjectDBX Classes
 90
     1153
280
     0
281
     0
  0
CLASS
  1
SCALE
  2
AcDbScale
  3
ObjectDBX Classes
 90
     1153
280
     0
281
     0
  0
CLASS
  1
SUN
  2
AcDbSun
  3
SCENEOE
 90
     1153
280
     0
281
     0
  0
CLASS
  1
ACDBPLACEHOLDER
  2
AcDbPlaceHolder
  3
ObjectDBX Classes
 90
        0
280
     0
281
     0
  0
CLASS
  1
LAYOUT
  2
AcDbLayout
  3
ObjectDBX Classes
 90
        0
280
     0
281
     0
  0
ENDSEC
  0
SECTION
  2
TABLES
  0
TABLE
  2
VPORT
  5
8
330
0
100
AcDbSymbolTable
 70
     1
  0
VPORT
  5
29
330
8
100
AcDbSymbolTableRecord
100
AcDbViewportTableRecord
  2
*Active
 70
     0
 10
0.0
 20
0.0
 11
1.0
 21
1.0
 12
148.5
 22
105.0
 13
0.0
 23
0.0
 14
10.0
 24
10.0
 15
10.0
 25
10.0
 16
0.0
 26
0.0
 36
1.0
 17
0.0
 27
0.0
 37
0.0
 40
210.0
 41
1.4142857143
 42
50.0
 43
0.0
 44
0.0
 50
0.0
 51
0.0
 71
     0
 72
  2000
 73
     1
 74
     3
 75
     0
 76
     0
 77
     0
 78
     0
281
     0
 65
     1
110
0.0
120
0.0
130
0.0
111
1.0
121
0.0
131
0.0
112
0.0
122
1.0
132
0.0
 79
     0
146
0.0
  0
ENDTAB
  0
TABLE
  2
LTYPE
  5
5
330
0
100
AcDbSymbolTable
 70
     6
  0
LTYPE
  5
14
330
5
100
AcDbSymbolTableRecord
100
AcDbLinetypeTableRecord
  2
ByBlock
 70
     0
  3

 72
    65
 73
     0
 40
0.0
  0
LTYPE
  5
15
330
5
100
AcDbSymbolTableRecord
100
AcDbLinetypeTableRecord
  2
ByLayer
 70
     0
  3

 72
    65
 73
     0
 40
0.0
  0
LTYPE
  5
16
330
5
100
AcDbSymbolTableRecord
100
AcDbLinetypeTableRecord
  2
Continuous
 70
     0
  3
Solid line
 72
    65
 73
     0
 40
0.0
  0
LTYPE
  5
6A
330
5
100
AcDbSymbolTableRecord
100
AcDbLinetypeTableRecord
  2
HIDDEN
 70
     0
  3
Hidden __ __ __ __ __ __ __ __ __ __ __ __ __ __
 72
    65
 73
     2
 40
1.905
 49
1.27
 74
     0
 49
-0.635
 74
     0
  0
LTYPE
  5
6B
330
5
100
AcDbSymbolTableRecord
100
AcDbLinetypeTableRecord
  2
PHANTOM
 70
     0
  3
Phantom ______  __  __  ______  __  __  ______
 72
    65
 73
     6
 40
12.7
 49
6.35
 74
     0
 49
-1.27
 74
     0
 49
1.27
 74
     0
 49
-1.27
 74
     0
 49
1.27
 74
     0
 49
-1.27
 74
     0
  0
LTYPE
  5
6C
330
5
100
AcDbSymbolTableRecord
100
AcDbLinetypeTableRecord
  2
CENTER
 70
     0
  3
Center ____ _ ____ _ ____ _ ____ _ ____ _ ____
 72
    65
 73
     4
 40
10.16
 49
6.35
 74
     0
 49
-1.27
 74
     0
 49
1.27
 74
     0
 49
-1.27
 74
     0
  0
LTYPE
  5
6D
330
5
100
AcDbSymbolTableRecord
100
AcDbLinetypeTableRecord
  2
CENTERX2
 70
     0
  3
Center (2x) ________  __  ________  __  _____
 72
    65
 73
     4
 40
20.32
 49
12.7
 74
     0
 49
-2.54
 74
     0
 49
2.54
 74
     0
 49
-2.54
 74
     0
  0
LTYPE
  5
6E
330
5
100
AcDbSymbolTableRecord
100
AcDbLinetypeTableRecord
  2
DOT2
 70
     0
  3
Dot (.5x) ........................................
 72
    65
 73
     2
 40
0.635
 49
0.0
 74
     0
 49
-0.635
 74
     0
  0
ENDTAB
  0
TABLE
  2
LAYER
  5
2
330
0
100
AcDbSymbolTable
 70
     8
  0
LAYER
  5
10
330
2
100
AcDbSymbolTableRecord
100
AcDbLayerTableRecord
  2
0
 70
     0
 62
     7
  6
Continuous
370
    -3
390
F
  0
LAYER
  5
6F
330
2
100
AcDbSymbolTableRecord
100
AcDbLayerTableRecord
  2
FORMAT
 70
     0
 62
     7
  6
Continuous
370
    -3
390
F
  0
LAYER
  5
70
330
2
100
AcDbSymbolTableRecord
100
AcDbLayerTableRecord
  2
SLD-0
 70
     0
 62
     2
  6
Continuous
370
    -3
390
F
  0
LAYER
  5
71
330
2
100
AcDbSymbolTableRecord
100
AcDbLayerTableRecord
  2
DIM
 70
     0
 62
   179
  6
Continuous
370
    -3
390
F
  0
LAYER
  5
72
330
2
100
AcDbSymbolTableRecord
100
AcDbLayerTableRecord
  2
SLD-DEFPOINTS
 70
     0
 62
   179
  6
Continuous
370
    -3
390
F
  0
LAYER
  5
73
330
2
100
AcDbSymbolTableRecord
100
AcDbLayerTableRecord
  2
HAT
 70
     0
 62
   135
  6
Continuous
370
    -3
390
F
  0
LAYER
  5
74
330
2
100
AcDbSymbolTableRecord
100
AcDbLayerTableRecord
  2
JOB
 70
     0
 62
   201
  6
Continuous
370
    -3
390
F
  0
LAYER
  5
75
330
2
100
AcDbSymbolTableRecord
100
AcDbLayerTableRecord
  2
INSPECTION_REPORT
 70
     0
 62
   255
  6
Continuous
370
    -3
390
F
  0
ENDTAB
  0
TABLE
  2
STYLE
  5
3
330
0
100
AcDbSymbolTable
 70
     4
  0
STYLE
  5
11
330
3
100
AcDbSymbolTableRecord
100
AcDbTextStyleTableRecord
  2
Standard
 70
     0
 40
0.0
 41
1.0
 50
0.0
 71
     0
 42
3.8805555556
  3
txt
  4

  0
STYLE
  5
92
330
3
100
AcDbSymbolTableRecord
100
AcDbTextStyleTableRecord
  2
SLDTEXTSTYLE0
 70
     0
 40
0.0
 41
0.7
 50
0.0
 71
     0
 42
3.8805555556
  3
TXT
  4

  0
STYLE
  5
94
330
3
100
AcDbSymbolTableRecord
100
AcDbTextStyleTableRecord
  2
SLDTEXTSTYLE1
 70
     0
 40
0.0
 41
0.75
 50
0.0
 71
     0
 42
3.8805555556
  3
TXT
  4

  0
STYLE
  5
A7
330
3
100
AcDbSymbolTableRecord
100
AcDbTextStyleTableRecord
  2
SLDTEXTSTYLE2
 70
     0
 40
0.0
 41
0.6875
 50
0.0
 71
     0
 42
3.8805555556
  3
TXT
  4

  0
ENDTAB
  0
TABLE
  2
VIEW
  5
6
330
0
100
AcDbSymbolTable
 70
     0
  0
ENDTAB
  0
TABLE
  2
UCS
  5
7
330
0
100
AcDbSymbolTable
 70
     0
  0
ENDTAB
  0
TABLE
  2
APPID
  5
9
330
0
100
AcDbSymbolTable
 70
     1
  0
APPID
  5
12
330
9
100
AcDbSymbolTableRecord
100
AcDbRegAppTableRecord
  2
ACAD
 70
     0
  0
ENDTAB
  0
TABLE
  2
DIMSTYLE
  5
A
330
0
100
AcDbSymbolTable
 70
     5
100
AcDbDimStyleTable
  0
DIMSTYLE
105
27
330
A
100
AcDbSymbolTableRecord
100
AcDbDimStyleTableRecord
  2
ISO-25
 70
     0
 41
2.5
 42
0.625
 43
3.75
 44
1.25
 73
     0
 74
     0
 77
     1
 78
     8
140
2.5
141
2.5
143
0.0393700787
147
0.625
171
     3
172
     1
178
     0
271
     2
272
     2
274
     3
278
    44
283
     0
284
     8
340
11
  0
DIMSTYLE
105
106
102
{ACAD_REACTORS
330
105
330
113
102
}
330
A
100
AcDbSymbolTableRecord
100
AcDbDimStyleTableRecord
  2
SLDDIMSTYLE0
 70
     0
 41
3.302
 44
0.0
 45
0.000000001
 73
     0
 74
     0
 77
     1
 78
    12
 79
     3
140
2.9104166667
147
0.7276041667
172
     1
173
     1
178
     0
271
     2
272
     2
276
     2
284
    12
289
     0
340
92
  0
DIMSTYLE
105
11F
102
{ACAD_REACTORS
330
11E
102
}
330
A
100
AcDbSymbolTableRecord
100
AcDbDimStyleTableRecord
  2
SLDDIMSTYLE1
 70
     0
 41
3.302
 44
0.0
 45
0.000000001
 73
     0
 74
     0
 77
     1
 78
    12
 79
     3
140
2.9104166667
147
0.7276041667
173
     1
178
     0
271
     2
272
     2
276
     2
284
    12
340
92
  0
DIMSTYLE
105
12A
102
{ACAD_REACTORS
330
129
330
135
102
}
330
A
100
AcDbSymbolTableRecord
100
AcDbDimStyleTableRecord
  2
SLDDIMSTYLE2
 70
     0
 41
3.302
 44
0.0
 45
0.000000001
 73
     0
 74
     0
 77
     1
 78
     4
 79
     1
140
2.9104166667
147
0.7276041667
173
     1
178
     0
271
     2
272
     2
276
     2
284
    12
340
92
  0
DIMSTYLE
105
140
102
{ACAD_REACTORS
330
13F
102
}
330
A
100
AcDbSymbolTableRecord
100
AcDbDimStyleTableRecord
  2
SLDDIMSTYLE3
 70
     0
 41
3.302
 44
0.0
 73
     0
 74
     0
 77
     1
 78
    12
 79
     3
140
2.9104166667
147
0.7276041667
173
     1
178
     0
179
     1
272
     1
276
     2
284
    12
340
92
  0
ENDTAB
  0
TABLE
  2
BLOCK_RECORD
  5
1
330
0
100
AcDbSymbolTable
 70
     7
  0
BLOCK_RECORD
  5
1F
330
1
100
AcDbSymbolTableRecord
100
AcDbBlockTableRecord
  2
*Model_Space
340
22
  0
BLOCK_RECORD
  5
1B
330
1
100
AcDbSymbolTableRecord
100
AcDbBlockTableRecord
  2
*Paper_Space
340
1E
  0
BLOCK_RECORD
  5
23
330
1
100
AcDbSymbolTableRecord
100
AcDbBlockTableRecord
  2
*Paper_Space0
340
26
  0
BLOCK_RECORD
  5
107
330
1
100
AcDbSymbolTableRecord
100
AcDbBlockTableRecord
  2
_D
340
0
  0
BLOCK_RECORD
  5
114
330
1
100
AcDbSymbolTableRecord
100
AcDbBlockTableRecord
  2
_D_1
340
0
  0
BLOCK_RECORD
  5
120
330
1
100
AcDbSymbolTableRecord
100
AcDbBlockTableRecord
  2
_D_2
340
0
  0
BLOCK_RECORD
  5
12B
330
1
100
AcDbSymbolTableRecord
100
AcDbBlockTableRecord
  2
_D_3
340
0
  0
BLOCK_RECORD
  5
136
330
1
100
AcDbSymbolTableRecord
100
AcDbBlockTableRecord
  2
_D_4
340
0
  0
BLOCK_RECORD
  5
141
330
1
100
AcDbSymbolTableRecord
100
AcDbBlockTableRecord
  2
_D_5
340
0
  0
ENDTAB
  0
ENDSEC
  0
SECTION
  2
BLOCKS
  0
BLOCK
  5
20
330
1F
100
AcDbEntity
  8
0
100
AcDbBlockBegin
  2
*Model_Space
 70
     0
 10
0.0
 20
0.0
 30
0.0
  3
*Model_Space
  1
*Model_Space
  0
ENDBLK
  5
21
330
1F
100
AcDbEntity
  8
0
100
AcDbBlockEnd
  0
BLOCK
  5
1C
330
1B
100
AcDbEntity
 67
     1
  8
0
100
AcDbBlockBegin
  2
*Paper_Space
 70
     0
 10
0.0
 20
0.0
 30
0.0
  3
*Paper_Space
  1
*Paper_Space
  0
ENDBLK
  5
1D
330
1B
100
AcDbEntity
 67
     1
  8
0
100
AcDbBlockEnd
  0
BLOCK
  5
24
330
23
100
AcDbEntity
  8
0
100
AcDbBlockBegin
  2
*Paper_Space0
 70
     0
 10
0.0
 20
0.0
 30
0.0
  3
*Paper_Space0
  1
*Paper_Space0
  0
ENDBLK
  5
25
330
23
100
AcDbEntity
  8
0
100
AcDbBlockEnd
  0
BLOCK
  5
108
330
107
100
AcDbEntity
  8
0
100
AcDbBlockBegin
  2
_D
 70
     0
 10
0.0
 20
0.0
 30
0.0
  3
_D
  1
_D
  0
SOLID
  5
10A
330
107
100
AcDbEntity
  8
DIM
100
AcDbTrace
 10
261.4487720256
 20
120.6399623025
 30
0.0
 11
261.9567720256
 21
123.9419623025
 31
0.0
 12
260.9407720256
 22
123.9419623025
 32
0.0
 13
260.9407720256
 23
123.9419623025
 33
0.0
  0
SOLID
  5
10B
330
107
100
AcDbEntity
  8
DIM
100
AcDbTrace
 10
261.4487720256
 20
105.6399623025
 30
0.0
 11
260.9407720256
 21
102.3379623025
 31
0.0
 12
261.9567720256
 22
102.3379623025
 32
0.0
 13
261.9567720256
 23
102.3379623025
 33
0.0
  0
LINE
  5
10C
330
107
100
AcDbEntity
  8
DIM
100
AcDbLine
 10
254.5060348219
 20
120.6399623025
 30
0.0
 11
262.4487720256
 21
120.6399623025
 31
0.0
  0
LINE
  5
10D
330
107
100
AcDbEntity
  8
DIM
100
AcDbLine
 10
254.5060348219
 20
105.6399623025
 30
0.0
 11
262.4487720256
 21
105.6399623025
 31
0.0
  0
LINE
  5
10E
330
107
100
AcDbEntity
  8
DIM
100
AcDbLine
 10
261.4487720256
 20
120.6399623025
 30
0.0
 11
261.4487720256
 21
126.9899623025
 31
0.0
  0
LINE
  5
10F
330
107
100
AcDbEntity
  8
DIM
100
AcDbLine
 10
261.4487720256
 20
120.6399623025
 30
0.0
 11
261.4487720256
 21
105.6399623025
 31
0.0
  0
LINE
  5
110
330
107
100
AcDbEntity
  8
DIM
100
AcDbLine
 10
261.4487720256
 20
105.6399623025
 30
0.0
 11
261.4487720256
 21
99.2899623025
 31
0.0
  0
MTEXT
  5
111
330
107
100
AcDbEntity
  8
DIM
100
AcDbMText
 10
257.6970475584
 20
108.9224181976
 30
0.0
 40
2.9104166667
 41
0.0
 71
     1
 72
     1
  1
%%c
  7
SLDTEXTSTYLE0
 11
-7.044195017643634E-15
 21
1.0
 31
0.0
 73
     1
 44
1.0
  0
MTEXT
  5
112
330
107
100
AcDbEntity
  8
DIM
100
AcDbMText
 10
257.6970475584
 20
113.4230540972
 30
0.0
 40
2.9104166667
 41
0.0
 71
     1
 72
     1
  1
15
  7
SLDTEXTSTYLE0
 11
-7.044195017643634E-15
 21
1.0
 31
0.0
 73
     1
 44
1.0
  0
ENDBLK
  5
109
330
107
100
AcDbEntity
  8
0
100
AcDbBlockEnd
  0
BLOCK
  5
115
330
114
100
AcDbEntity
  8
0
100
AcDbBlockBegin
  2
_D_1
 70
     0
 10
0.0
 20
0.0
 30
0.0
  3
_D_1
  1
_D_1
  0
SOLID
  5
117
330
114
100
AcDbEntity
  8
DIM
100
AcDbTrace
 10
270.4275757262
 20
102.1399623025
 30
0.0
 11
270.9355757262
 21
105.4419623025
 31
0.0
 12
269.9195757262
 22
105.4419623025
 32
0.0
 13
269.9195757262
 23
105.4419623025
 33
0.0
  0
SOLID
  5
118
330
114
100
AcDbEntity
  8
DIM
100
AcDbTrace
 10
270.4275757262
 20
124.1399623025
 30
0.0
 11
269.9195757262
 21
120.8379623025
 31
0.0
 12
270.9355757262
 22
120.8379623025
 32
0.0
 13
270.9355757262
 23
120.8379623025
 33
0.0
  0
LINE
  5
119
330
114
100
AcDbEntity
  8
DIM
100
AcDbLine
 10
210.0343182453
 20
102.1399623025
 30
0.0
 11
271.4275757262
 21
102.1399623025
 31
0.0
  0
LINE
  5
11A
330
114
100
AcDbEntity
  8
DIM
100
AcDbLine
 10
210.0343182453
 20
124.1399623025
 30
0.0
 11
271.4275757262
 21
124.1399623025
 31
0.0
  0
LINE
  5
11B
330
114
100
AcDbEntity
  8
DIM
100
AcDbLine
 10
270.4275757262
 20
102.1399623025
 30
0.0
 11
270.4275757262
 21
124.1399623025
 31
0.0
  0
MTEXT
  5
11C
330
114
100
AcDbEntity
  8
DIM
100
AcDbMText
 10
266.675851259
 20
108.9224181976
 30
0.0
 40
2.9104166667
 41
0.0
 71
     1
 72
     1
  1
%%c
  7
SLDTEXTSTYLE0
 11
-1.608122649676637E-16
 21
1.0
 31
0.0
 73
     1
 44
1.0
  0
MTEXT
  5
11D
330
114
100
AcDbEntity
  8
DIM
100
AcDbMText
 10
266.675851259
 20
113.4230540972
 30
0.0
 40
2.9104166667
 41
0.0
 71
     1
 72
     1
  1
22
  7
SLDTEXTSTYLE0
 11
-1.608122649676637E-16
 21
1.0
 31
0.0
 73
     1
 44
1.0
  0
ENDBLK
  5
116
330
114
100
AcDbEntity
  8
0
100
AcDbBlockEnd
  0
BLOCK
  5
121
330
120
100
AcDbEntity
  8
0
100
AcDbBlockBegin
  2
_D_2
 70
     0
 10
0.0
 20
0.0
 30
0.0
  3
_D_2
  1
_D_2
  0
SOLID
  5
123
330
120
100
AcDbEntity
  8
DIM
100
AcDbTrace
 10
254.4275757262
 20
73.9905561454
 30
0.0
 11
251.1255757262
 21
74.4985561454
 31
0.0
 12
251.1255757262
 22
73.4825561454
 32
0.0
 13
251.1255757262
 23
73.4825561454
 33
0.0
  0
SOLID
  5
124
330
120
100
AcDbEntity
  8
DIM
100
AcDbTrace
 10
94.4275757262
 20
73.9905561454
 30
0.0
 11
97.7295757262
 21
73.4825561454
 31
0.0
 12
97.7295757262
 22
74.4985561454
 32
0.0
 13
97.7295757262
 23
74.4985561454
 33
0.0
  0
LINE
  5
125
330
120
100
AcDbEntity
  8
DIM
100
AcDbLine
 10
254.4275757262
 20
105.6368796363
 30
0.0
 11
254.4275757262
 21
72.9905561454
 31
0.0
  0
LINE
  5
126
330
120
100
AcDbEntity
  8
DIM
100
AcDbLine
 10
94.4275757262
 20
89.9149623025
 30
0.0
 11
94.4275757262
 21
72.9905561454
 31
0.0
  0
LINE
  5
127
330
120
100
AcDbEntity
  8
DIM
100
AcDbLine
 10
254.4275757262
 20
73.9905561454
 30
0.0
 11
94.4275757262
 21
73.9905561454
 31
0.0
  0
MTEXT
  5
128
330
120
100
AcDbEntity
  8
DIM
100
AcDbMText
 10
171.4767364935
 20
77.7422806126
 30
0.0
 40
2.9104166667
 41
0.0
 71
     1
 72
     1
  1
160
  7
SLDTEXTSTYLE0
 73
     1
 44
1.0
  0
ENDBLK
  5
122
330
120
100
AcDbEntity
  8
0
100
AcDbBlockEnd
  0
BLOCK
  5
12C
330
12B
100
AcDbEntity
  8
0
100
AcDbBlockBegin
  2
_D_3
 70
     0
 10
0.0
 20
0.0
 30
0.0
  3
_D_3
  1
_D_3
  0
SOLID
  5
12E
330
12B
100
AcDbEntity
  8
DIM
100
AcDbTrace
 10
21.5189235805
 20
81.3899623025
 30
0.0
 11
22.0269235805
 21
84.6919623025
 31
0.0
 12
21.0109235805
 22
84.6919623025
 32
0.0
 13
21.0109235805
 23
84.6919623025
 33
0.0
  0
SOLID
  5
12F
330
12B
100
AcDbEntity
  8
DIM
100
AcDbTrace
 10
21.5189235805
 20
144.8899623025
 30
0.0
 11
21.0109235805
 21
141.5879623025
 31
0.0
 12
22.0269235805
 22
141.5879623025
 32
0.0
 13
22.0269235805
 23
141.5879623025
 33
0.0
  0
LINE
  5
130
330
12B
100
AcDbEntity
  8
DIM
100
AcDbLine
 10
97.7932611511
 20
81.3899623025
 30
0.0
 11
20.5189235805
 21
81.3899623025
 31
0.0
  0
LINE
  5
131
330
12B
100
AcDbEntity
  8
DIM
100
AcDbLine
 10
97.7932611511
 20
144.8899623025
 30
0.0
 11
20.5189235805
 21
144.8899623025
 31
0.0
  0
LINE
  5
132
330
12B
100
AcDbEntity
  8
DIM
100
AcDbLine
 10
21.5189235805
 20
81.3899623025
 30
0.0
 11
21.5189235805
 21
144.8899623025
 31
0.0
  0
MTEXT
  5
133
330
12B
100
AcDbEntity
  8
DIM
100
AcDbMText
 10
17.7671991134
 20
106.4377846103
 30
0.0
 40
2.9104166667
 41
0.0
 71
     1
 72
     1
  1
%%c
  7
SLDTEXTSTYLE0
 11
6.123233995736766E-17
 21
1.0
 31
0.0
 73
     1
 44
1.0
  0
MTEXT
  5
134
330
12B
100
AcDbEntity
  8
DIM
100
AcDbMText
 10
17.7671991134
 20
110.9384205099
 30
0.0
 40
2.9104166667
 41
0.0
 71
     1
 72
     1
  1
63.50
  7
SLDTEXTSTYLE0
 11
6.123233995736766E-17
 21
1.0
 31
0.0
 73
     1
 44
1.0
  0
ENDBLK
  5
12D
330
12B
100
AcDbEntity
  8
0
100
AcDbBlockEnd
  0
BLOCK
  5
137
330
136
100
AcDbEntity
  8
0
100
AcDbBlockBegin
  2
_D_4
 70
     0
 10
0.0
 20
0.0
 30
0.0
  3
_D_4
  1
_D_4
  0
SOLID
  5
139
330
136
100
AcDbEntity
  8
DIM
100
AcDbTrace
 10
26.0275757262
 20
65.3899623025
 30
0.0
 11
29.3295757262
 21
64.8819623025
 31
0.0
 12
29.3295757262
 22
65.8979623025
 32
0.0
 13
29.3295757262
 23
65.8979623025
 33
0.0
  0
SOLID
  5
13A
330
136
100
AcDbEntity
  8
DIM
100
AcDbTrace
 10
254.4275757262
 20
65.3899623025
 30
0.0
 11
251.1255757262
 21
65.8979623025
 31
0.0
 12
251.1255757262
 22
64.8819623025
 32
0.0
 13
251.1255757262
 23
64.8819623025
 33
0.0
  0
LINE
  5
13B
330
136
100
AcDbEntity
  8
DIM
100
AcDbLine
 10
26.0275757262
 20
100.7547997129
 30
0.0
 11
26.0275757262
 21
64.3899623025
 31
0.0
  0
LINE
  5
13C
330
136
100
AcDbEntity
  8
DIM
100
AcDbLine
 10
254.4275757262
 20
105.6368796363
 30
0.0
 11
254.4275757262
 21
64.3899623025
 31
0.0
  0
LINE
  5
13D
330
136
100
AcDbEntity
  8
DIM
100
AcDbLine
 10
26.0275757262
 20
65.3899623025
 30
0.0
 11
254.4275757262
 21
65.3899623025
 31
0.0
  0
MTEXT
  5
13E
330
136
100
AcDbEntity
  8
DIM
100
AcDbMText
 10
134.7921029062
 20
69.1416867697
 30
0.0
 40
2.9104166667
 41
0.0
 71
     1
 72
     1
  1
228.40
  7
SLDTEXTSTYLE0
 73
     1
 44
1.0
  0
ENDBLK
  5
138
330
136
100
AcDbEntity
  8
0
100
AcDbBlockEnd
  0
BLOCK
  5
142
330
141
100
AcDbEntity
  8
0
100
AcDbBlockBegin
  2
_D_5
 70
     0
 10
0.0
 20
0.0
 30
0.0
  3
_D_5
  1
_D_5
  0
ARC
  5
144
330
141
100
AcDbEntity
  8
DIM
100
AcDbCircle
 10
348.8025703432
 20
113.1399623025
 30
0.0
 40
109.3944713709355
100
AcDbArc
 50
175.5
 51
180.0
  0
ARC
  5
145
330
141
100
AcDbEntity
  8
DIM
100
AcDbCircle
 10
348.8025703432
 20
113.1399623025
 30
0.0
 40
109.3944713709355
100
AcDbArc
 50
172.1753629048
 51
175.5
  0
ARC
  5
146
330
141
100
AcDbEntity
  8
DIM
100
AcDbCircle
 10
348.8025703432
 20
113.1399623025
 30
0.0
 40
109.3944713709355
100
AcDbArc
 50
180.0
 51
183.3246370952
  0
SOLID
  5
147
330
141
100
AcDbEntity
  8
DIM
100
AcDbTrace
 10
239.745325619
 20
121.7229536039
 30
0.0
 11
240.5598068655
 21
124.9629980942
 31
0.0
 12
239.5482567877
 22
125.0579846196
 32
0.0
 13
239.5482567877
 23
125.0579846196
 33
0.0
  0
SOLID
  5
148
330
141
100
AcDbEntity
  8
DIM
100
AcDbTrace
 10
239.4080989723
 20
113.1399623025
 30
0.0
 11
238.9499741207
 21
109.8306739167
 31
0.0
 12
239.9658584842
 22
109.846002326
 32
0.0
 13
239.9658584842
 23
109.846002326
 33
0.0
  0
MTEXT
  5
149
330
141
100
AcDbEntity
  8
DIM
100
AcDbMText
 10
235.6211729275
 20
114.5328215737
 30
0.0
 40
2.9104166667
 41
0.0
 71
     1
 72
     1
  1
4.5°
  7
SLDTEXTSTYLE0
 11
0.04010641767393369
 21
0.9991954139513272
 31
0.0
 73
     1
 44
1.0
  0
ENDBLK
  5
143
330
141
100
AcDbEntity
  8
0
100
AcDbBlockEnd
  0
ENDSEC
  0
SECTION
  2
ENTITIES
  0
LINE
  5
76
330
1F
100
AcDbEntity
  8
DIM
100
AcDbLine
 10
104.704424689
 20
9.7909914569
 30
0.0
 11
104.704424689
 21
4.7909914569
 31
0.0
  0
LINE
  5
77
330
1F
100
AcDbEntity
  8
DIM
100
AcDbLine
 10
254.4696016953
 20
9.7909914569
 30
0.0
 11
254.4696016953
 21
4.7909914569
 31
0.0
  0
LINE
  5
78
330
1F
100
AcDbEntity
  8
DIM
100
AcDbLine
 10
237.4517099316
 20
9.7909914569
 30
0.0
 11
237.4517099316
 21
4.7909914569
 31
0.0
  0
LINE
  5
79
330
1F
100
AcDbEntity
  8
DIM
100
AcDbLine
 10
278.904424689
 20
4.7909914569
 30
0.0
 11
278.904424689
 21
9.7909914569
 31
0.0
  0
LINE
  5
7A
330
1F
100
AcDbEntity
  8
DIM
100
AcDbLine
 10
112.504424689
 20
9.7909914569
 30
0.0
 11
112.504424689
 21
4.7909914569
 31
0.0
  0
LINE
  5
7B
330
1F
100
AcDbEntity
  8
DIM
100
AcDbLine
 10
131.6953771228
 20
9.7909914569
 30
0.0
 11
131.6953771228
 21
4.7909914569
 31
0.0
  0
LINE
  5
7C
330
1F
100
AcDbEntity
  8
DIM
100
AcDbLine
 10
291.904424689
 20
4.7909914569
 30
0.0
 11
291.904424689
 21
77.0409914569
 31
0.0
  0
LINE
  5
7D
330
1F
100
AcDbEntity
  8
DIM
100
AcDbLine
 10
149.1033508525
 20
9.0409914569
 30
0.0
 11
149.1033508525
 21
4.7909914569
 31
0.0
  0
LINE
  5
7E
330
1F
100
AcDbEntity
  8
DIM
100
AcDbLine
 10
286.904424689
 20
199.7909914569
 30
0.0
 11
9.904424689
 21
199.7909914569
 31
0.0
  0
LINE
  5
7F
330
1F
100
AcDbEntity
  8
DIM
100
AcDbLine
 10
291.904424689
 20
204.7909914569
 30
0.0
 11
4.904424689
 21
204.7909914569
 31
0.0
  0
LINE
  5
80
330
1F
100
AcDbEntity
  8
DIM
100
AcDbLine
 10
9.904424689
 20
199.7909914569
 30
0.0
 11
9.904424689
 21
9.7909914569
 31
0.0
  0
LINE
  5
81
330
1F
100
AcDbEntity
  8
DIM
100
AcDbLine
 10
4.904424689
 20
204.7909914569
 30
0.0
 11
4.904424689
 21
4.7909914569
 31
0.0
  0
LINE
  5
82
330
1F
100
AcDbEntity
  8
DIM
100
AcDbLine
 10
9.904424689
 20
54.7909914569
 30
0.0
 11
4.904424689
 21
54.7909914569
 31
0.0
  0
LINE
  5
83
330
1F
100
AcDbEntity
  8
DIM
100
AcDbLine
 10
4.904424689
 20
104.7909914569
 30
0.0
 11
9.904424689
 21
104.7909914569
 31
0.0
  0
LINE
  5
84
330
1F
100
AcDbEntity
  8
DIM
100
AcDbLine
 10
4.904424689
 20
4.7909914569
 30
0.0
 11
291.904424689
 21
4.7909914569
 31
0.0
  0
LINE
  5
85
330
1F
100
AcDbEntity
  8
DIM
100
AcDbLine
 10
9.904424689
 20
9.7909914569
 30
0.0
 11
291.904424689
 21
9.7909914569
 31
0.0
  0
LINE
  5
86
330
1F
100
AcDbEntity
  8
DIM
100
AcDbLine
 10
48.404424689
 20
4.7909914569
 30
0.0
 11
48.404424689
 21
9.7909914569
 31
0.0
  0
LINE
  5
87
330
1F
100
AcDbEntity
  8
DIM
100
AcDbLine
 10
98.404424689
 20
9.7909914569
 30
0.0
 11
98.404424689
 21
4.7909914569
 31
0.0
  0
LINE
  5
88
330
1F
100
AcDbEntity
  8
DIM
100
AcDbLine
 10
9.904424689
 20
154.7909914569
 30
0.0
 11
4.904424689
 21
154.7909914569
 31
0.0
  0
LINE
  5
89
330
1F
100
AcDbEntity
  8
DIM
100
AcDbLine
 10
48.404424689
 20
199.7909914569
 30
0.0
 11
48.404424689
 21
204.7909914569
 31
0.0
  0
LINE
  5
8A
330
1F
100
AcDbEntity
  8
DIM
100
AcDbLine
 10
98.404424689
 20
204.7909914569
 30
0.0
 11
98.404424689
 21
199.7909914569
 31
0.0
  0
LINE
  5
8B
330
1F
100
AcDbEntity
  8
DIM
100
AcDbLine
 10
148.404424689
 20
204.7909914569
 30
0.0
 11
148.404424689
 21
199.7909914569
 31
0.0
  0
LINE
  5
8C
330
1F
100
AcDbEntity
  8
DIM
100
AcDbLine
 10
286.904424689
 20
9.7909914569
 30
0.0
 11
286.904424689
 21
199.7909914569
 31
0.0
  0
LINE
  5
8D
330
1F
100
AcDbEntity
  8
DIM
100
AcDbLine
 10
291.904424689
 20
77.0409914569
 30
0.0
 11
291.904424689
 21
204.7909914569
 31
0.0
  0
LINE
  5
8E
330
1F
100
AcDbEntity
  8
DIM
100
AcDbLine
 10
291.904424689
 20
104.7909914569
 30
0.0
 11
286.904424689
 21
104.7909914569
 31
0.0
  0
LINE
  5
8F
330
1F
100
AcDbEntity
  8
DIM
100
AcDbLine
 10
198.404424689
 20
204.7909914569
 30
0.0
 11
198.404424689
 21
199.7909914569
 31
0.0
  0
LINE
  5
90
330
1F
100
AcDbEntity
  8
DIM
100
AcDbLine
 10
248.404424689
 20
199.7909914569
 30
0.0
 11
248.404424689
 21
204.7909914569
 31
0.0
  0
LINE
  5
91
330
1F
100
AcDbEntity
  8
DIM
100
AcDbLine
 10
286.904424689
 20
154.7909914569
 30
0.0
 11
291.904424689
 21
154.7909914569
 31
0.0
  0
MTEXT
  5
93
330
1F
100
AcDbEntity
  8
DIM
100
AcDbMText
 10
16.3819020909
 20
193.3961869077
 30
0.0
 40
4.2333333333
 41
0.0
 71
     1
 72
     1
  1
SK40 SFH05 160 AD+B/2.5G 25000 SL
  7
SLDTEXTSTYLE0
 73
     1
 44
1.0
  0
MTEXT
  5
95
330
1F
100
AcDbEntity
  8
DIM
 62
     7
100
AcDbMText
 10
197.7327786466
 20
7.8019515263
 30
0.0
 40
1.4986
 41
0.0
 71
     1
 72
     1
  1
WEIGHT:
  7
SLDTEXTSTYLE1
 73
     1
 44
1.0
  0
MTEXT
  5
96
330
1F
100
AcDbEntity
  8
DIM
 62
     7
100
AcDbMText
 10
288.5970767548
 20
81.9406135082
 30
0.0
 40
1.8520833333
 41
0.0
 71
     1
 72
     1
  1
C
  7
SLDTEXTSTYLE1
 73
     1
 44
1.0
  0
MTEXT
  5
97
330
1F
100
AcDbEntity
  8
DIM
 62
     7
100
AcDbMText
 10
283.3368266114
 20
9.0689120314
 30
0.0
 40
2.9104166667
 41
0.0
 71
     1
 72
     1
  1
A4
  7
SLDTEXTSTYLE1
 73
     1
 44
1.0
  0
MTEXT
  5
98
330
1F
100
AcDbEntity
  8
DIM
 62
     7
100
AcDbMText
 10
272.5710953557
 20
203.4590078604
 30
0.0
 40
1.8520833333
 41
0.0
 71
     1
 72
     1
  1
6
  7
SLDTEXTSTYLE1
 73
     1
 44
1.0
  0
MTEXT
  5
99
330
1F
100
AcDbEntity
  8
DIM
 62
     7
100
AcDbMText
 10
222.5710953557
 20
203.4590078604
 30
0.0
 40
1.8520833333
 41
0.0
 71
     1
 72
     1
  1
5
  7
SLDTEXTSTYLE1
 73
     1
 44
1.0
  0
MTEXT
  5
9A
330
1F
100
AcDbEntity
  8
DIM
 62
     7
100
AcDbMText
 10
288.5710993557
 20
180.9590078604
 30
0.0
 40
1.8520833333
 41
0.0
 71
     1
 72
     1
  1
A
  7
SLDTEXTSTYLE1
 73
     1
 44
1.0
  0
MTEXT
  5
9B
330
1F
100
AcDbEntity
  8
DIM
 62
     7
100
AcDbMText
 10
288.5710993557
 20
130.9590078604
 30
0.0
 40
1.8520833333
 41
0.0
 71
     1
 72
     1
  1
B
  7
SLDTEXTSTYLE1
 73
     1
 44
1.0
  0
MTEXT
  5
9C
330
1F
100
AcDbEntity
  8
DIM
 62
     7
100
AcDbMText
 10
172.5710953557
 20
203.4590078604
 30
0.0
 40
1.8520833333
 41
0.0
 71
     1
 72
     1
  1
4
  7
SLDTEXTSTYLE1
 73
     1
 44
1.0
  0
MTEXT
  5
9D
330
1F
100
AcDbEntity
  8
DIM
 62
     7
100
AcDbMText
 10
22.9877620223
 20
203.4590078604
 30
0.0
 40
1.8520833333
 41
0.0
 71
     1
 72
     1
  1
1
  7
SLDTEXTSTYLE1
 73
     1
 44
1.0
  0
MTEXT
  5
9E
330
1F
100
AcDbEntity
  8
DIM
 62
     7
100
AcDbMText
 10
72.5710953557
 20
203.4590078604
 30
0.0
 40
1.8520833333
 41
0.0
 71
     1
 72
     1
  1
2
  7
SLDTEXTSTYLE1
 73
     1
 44
1.0
  0
MTEXT
  5
9F
330
1F
100
AcDbEntity
  8
DIM
 62
     7
100
AcDbMText
 10
122.5710953557
 20
203.4590078604
 30
0.0
 40
1.8520833333
 41
0.0
 71
     1
 72
     1
  1
3
  7
SLDTEXTSTYLE1
 73
     1
 44
1.0
  0
MTEXT
  5
A0
330
1F
100
AcDbEntity
  8
DIM
 62
     7
100
AcDbMText
 10
6.5710913557
 20
180.9590078604
 30
0.0
 40
1.8520833333
 41
0.0
 71
     1
 72
     1
  1
A
  7
SLDTEXTSTYLE1
 73
     1
 44
1.0
  0
MTEXT
  5
A1
330
1F
100
AcDbEntity
  8
DIM
 62
     7
100
AcDbMText
 10
72.5710953557
 20
8.4590078604
 30
0.0
 40
1.8520833333
 41
0.0
 71
     1
 72
     1
  1
2
  7
SLDTEXTSTYLE1
 73
     1
 44
1.0
  0
MTEXT
  5
A2
330
1F
100
AcDbEntity
  8
DIM
 62
     7
100
AcDbMText
 10
22.9877620223
 20
8.4590078604
 30
0.0
 40
1.8520833333
 41
0.0
 71
     1
 72
     1
  1
1
  7
SLDTEXTSTYLE1
 73
     1
 44
1.0
  0
MTEXT
  5
A3
330
1F
100
AcDbEntity
  8
DIM
 62
     7
100
AcDbMText
 10
6.5710913557
 20
30.9590078604
 30
0.0
 40
1.8520833333
 41
0.0
 71
     1
 72
     1
  1
D
  7
SLDTEXTSTYLE1
 73
     1
 44
1.0
  0
MTEXT
  5
A4
330
1F
100
AcDbEntity
  8
DIM
 62
     7
100
AcDbMText
 10
6.5710913557
 20
80.9590078604
 30
0.0
 40
1.8520833333
 41
0.0
 71
     1
 72
     1
  1
C
  7
SLDTEXTSTYLE1
 73
     1
 44
1.0
  0
MTEXT
  5
A5
330
1F
100
AcDbEntity
  8
DIM
 62
     7
100
AcDbMText
 10
6.5710913557
 20
130.9590078604
 30
0.0
 40
1.8520833333
 41
0.0
 71
     1
 72
     1
  1
B
  7
SLDTEXTSTYLE1
 73
     1
 44
1.0
  0
MTEXT
  5
A6
330
1F
100
AcDbEntity
  8
DIM
 62
     7
100
AcDbMText
 10
288.5970767548
 20
81.9406135082
 30
0.0
 40
1.8520833333
 41
0.0
 71
     1
 72
     1
  1
C
  7
SLDTEXTSTYLE1
 73
     1
 44
1.0
  0
MTEXT
  5
A8
330
1F
100
AcDbEntity
  8
DIM
 62
     7
100
AcDbMText
 10
256.5253658125
 20
7.6910787314
 30
0.0
 40
1.5
 41
0.0
 71
     1
 72
     1
  1
SHEET 1 OF 1
  7
SLDTEXTSTYLE2
 73
     1
 44
1.0
  0
MTEXT
  5
A9
330
1F
100
AcDbEntity
  8
DIM
 62
     7
100
AcDbMText
 10
150.3717803834
 20
7.8533674836
 30
0.0
 40
1.5
 41
0.0
 71
     1
 72
     1
  1
MATERIAL:
  7
SLDTEXTSTYLE1
 73
     1
 44
1.0
  0
MTEXT
  5
AA
330
1F
100
AcDbEntity
  8
DIM
 62
     7
100
AcDbMText
 10
272.5710953557
 20
203.4590078604
 30
0.0
 40
1.8520833333
 41
0.0
 71
     1
 72
     1
  1
6
  7
SLDTEXTSTYLE1
 73
     1
 44
1.0
  0
MTEXT
  5
AB
330
1F
100
AcDbEntity
  8
DIM
 62
     7
100
AcDbMText
 10
222.5710953557
 20
203.4590078604
 30
0.0
 40
1.8520833333
 41
0.0
 71
     1
 72
     1
  1
5
  7
SLDTEXTSTYLE1
 73
     1
 44
1.0
  0
MTEXT
  5
AC
330
1F
100
AcDbEntity
  8
DIM
 62
     7
100
AcDbMText
 10
288.5710993557
 20
180.9590078604
 30
0.0
 40
1.8520833333
 41
0.0
 71
     1
 72
     1
  1
A
  7
SLDTEXTSTYLE1
 73
     1
 44
1.0
  0
MTEXT
  5
AD
330
1F
100
AcDbEntity
  8
DIM
 62
     7
100
AcDbMText
 10
288.5710993557
 20
130.9590078604
 30
0.0
 40
1.8520833333
 41
0.0
 71
     1
 72
     1
  1
B
  7
SLDTEXTSTYLE1
 73
     1
 44
1.0
  0
MTEXT
  5
AE
330
1F
100
AcDbEntity
  8
DIM
 62
     7
100
AcDbMText
 10
172.5710953557
 20
203.4590078604
 30
0.0
 40
1.8520833333
 41
0.0
 71
     1
 72
     1
  1
4
  7
SLDTEXTSTYLE1
 73
     1
 44
1.0
  0
MTEXT
  5
AF
330
1F
100
AcDbEntity
  8
DIM
 62
     7
100
AcDbMText
 10
22.9877620223
 20
203.4590078604
 30
0.0
 40
1.8520833333
 41
0.0
 71
     1
 72
     1
  1
1
  7
SLDTEXTSTYLE1
 73
     1
 44
1.0
  0
MTEXT
  5
B0
330
1F
100
AcDbEntity
  8
DIM
 62
     7
100
AcDbMText
 10
72.5710953557
 20
203.4590078604
 30
0.0
 40
1.8520833333
 41
0.0
 71
     1
 72
     1
  1
2
  7
SLDTEXTSTYLE1
 73
     1
 44
1.0
  0
MTEXT
  5
B1
330
1F
100
AcDbEntity
  8
DIM
 62
     7
100
AcDbMText
 10
122.5710953557
 20
203.4590078604
 30
0.0
 40
1.8520833333
 41
0.0
 71
     1
 72
     1
  1
3
  7
SLDTEXTSTYLE1
 73
     1
 44
1.0
  0
MTEXT
  5
B2
330
1F
100
AcDbEntity
  8
DIM
 62
     7
100
AcDbMText
 10
6.5710913557
 20
180.9590078604
 30
0.0
 40
1.8520833333
 41
0.0
 71
     1
 72
     1
  1
A
  7
SLDTEXTSTYLE1
 73
     1
 44
1.0
  0
MTEXT
  5
B3
330
1F
100
AcDbEntity
  8
DIM
 62
     7
100
AcDbMText
 10
72.5710953557
 20
8.4590078604
 30
0.0
 40
1.8520833333
 41
0.0
 71
     1
 72
     1
  1
2
  7
SLDTEXTSTYLE1
 73
     1
 44
1.0
  0
MTEXT
  5
B4
330
1F
100
AcDbEntity
  8
DIM
 62
     7
100
AcDbMText
 10
22.9877620223
 20
8.4590078604
 30
0.0
 40
1.8520833333
 41
0.0
 71
     1
 72
     1
  1
1
  7
SLDTEXTSTYLE1
 73
     1
 44
1.0
  0
MTEXT
  5
B5
330
1F
100
AcDbEntity
  8
DIM
 62
     7
100
AcDbMText
 10
6.5710913557
 20
30.9590078604
 30
0.0
 40
1.8520833333
 41
0.0
 71
     1
 72
     1
  1
D
  7
SLDTEXTSTYLE1
 73
     1
 44
1.0
  0
MTEXT
  5
B6
330
1F
100
AcDbEntity
  8
DIM
 62
     7
100
AcDbMText
 10
6.5710913557
 20
80.9590078604
 30
0.0
 40
1.8520833333
 41
0.0
 71
     1
 72
     1
  1
C
  7
SLDTEXTSTYLE1
 73
     1
 44
1.0
  0
MTEXT
  5
B7
330
1F
100
AcDbEntity
  8
DIM
 62
     7
100
AcDbMText
 10
6.5710913557
 20
130.9590078604
 30
0.0
 40
1.8520833333
 41
0.0
 71
     1
 72
     1
  1
B
  7
SLDTEXTSTYLE1
 73
     1
 44
1.0
  0
LINE
  5
B8
330
1F
100
AcDbEntity
  8
0
  6
Continuous
 62
     7
370
    15
100
AcDbLine
 10
109.0494123682
 20
144.8899623025
 30
0.0
 11
107.4275757262
 21
142.0808588369
 31
0.0
  0
LINE
  5
B9
330
1F
100
AcDbEntity
  8
0
  6
Continuous
 62
     7
370
    15
100
AcDbLine
 10
107.4275757262
 20
84.1990657681
 30
0.0
 11
109.0494123682
 21
81.3899623025
 31
0.0
  0
LINE
  5
BA
330
1F
100
AcDbEntity
  8
0
  6
Continuous
 62
     7
370
    15
100
AcDbLine
 10
102.0057390841
 20
81.3899623025
 30
0.0
 11
103.6275757262
 21
84.1990657681
 31
0.0
  0
LINE
  5
BB
330
1F
100
AcDbEntity
  8
0
  6
Continuous
 62
     7
370
    15
100
AcDbLine
 10
103.6275757262
 20
142.0808588369
 30
0.0
 11
102.0057390841
 21
144.8899623025
 31
0.0
  0
LINE
  5
BC
330
1F
100
AcDbEntity
  8
0
  6
Continuous
 62
     7
370
    15
100
AcDbLine
 10
98.7932611511
 20
81.3899623025
 30
0.0
 11
102.0057390841
 21
81.3899623025
 31
0.0
  0
LINE
  5
BD
330
1F
100
AcDbEntity
  8
0
  6
Continuous
 62
     7
370
    15
100
AcDbLine
 10
102.0057390841
 20
144.8899623025
 30
0.0
 11
98.7932611511
 21
144.8899623025
 31
0.0
  0
ARC
  5
BE
330
1F
100
AcDbEntity
  8
0
  6
Continuous
 62
     7
370
    15
100
AcDbCircle
 10
98.7932611511
 20
81.7899623025
 30
0.0
 40
0.3999999999999992
100
AcDbArc
 50
225.0
 51
270.0
  0
ARC
  5
BF
330
1F
100
AcDbEntity
  8
0
  6
Continuous
 62
     7
370
    15
100
AcDbCircle
 10
98.7932611511
 20
144.4899623025
 30
0.0
 40
0.4000000000000093
100
AcDbArc
 50
90.0
 51
135.0
  0
ARC
  5
C0
330
1F
100
AcDbEntity
  8
0
  6
Continuous
 62
     7
370
    15
100
AcDbCircle
 10
112.3618903012
 20
81.7899623025
 30
0.0
 40
0.3999999999999915
100
AcDbArc
 50
270.0
 51
315.0
  0
ARC
  5
C1
330
1F
100
AcDbEntity
  8
0
  6
Continuous
 62
     7
370
    15
100
AcDbCircle
 10
112.3618903012
 20
144.4899623025
 30
0.0
 40
0.4000000000000057
100
AcDbArc
 50
45.0
 51
90.0
  0
LINE
  5
C2
330
1F
100
AcDbEntity
  8
0
  6
Continuous
 62
     7
370
    15
100
AcDbLine
 10
109.0494123682
 20
81.3899623025
 30
0.0
 11
112.3618903012
 21
81.3899623025
 31
0.0
  0
LINE
  5
C3
330
1F
100
AcDbEntity
  8
0
  6
Continuous
 62
     7
370
    15
100
AcDbLine
 10
112.3618903012
 20
144.8899623025
 30
0.0
 11
109.0494123682
 21
144.8899623025
 31
0.0
  0
LINE
  5
C4
330
1F
100
AcDbEntity
  8
0
  6
Continuous
 62
     7
370
    15
100
AcDbLine
 10
98.5104184386
 20
144.772805015
 30
0.0
 11
97.7447330137
 21
144.0071195901
 31
0.0
  0
LINE
  5
C5
330
1F
100
AcDbEntity
  8
0
  6
Continuous
 62
     7
370
    15
100
AcDbLine
 10
97.7447330137
 20
82.272805015
 30
0.0
 11
98.5104184386
 21
81.5071195901
 31
0.0
  0
LINE
  5
C6
330
1F
100
AcDbEntity
  8
0
  6
Continuous
 62
     7
370
    15
100
AcDbLine
 10
112.6447330137
 20
81.5071195901
 30
0.0
 11
113.4104184386
 21
82.272805015
 31
0.0
  0
LINE
  5
C7
330
1F
100
AcDbEntity
  8
0
  6
Continuous
 62
     7
370
    15
100
AcDbLine
 10
113.4104184386
 20
144.0071195901
 30
0.0
 11
112.6447330137
 21
144.772805015
 31
0.0
  0
ARC
  5
C8
330
1F
100
AcDbEntity
  8
0
  6
Continuous
 62
     7
370
    15
100
AcDbCircle
 10
98.0275757262
 20
82.5556477275
 30
0.0
 40
0.4000000000000057
100
AcDbArc
 50
180.0
 51
225.0
  0
ARC
  5
C9
330
1F
100
AcDbEntity
  8
0
  6
Continuous
 62
     7
370
    15
100
AcDbCircle
 10
98.0275757262
 20
143.7242768776
 30
0.0
 40
0.4000000000000057
100
AcDbArc
 50
135.0
 51
180.0
  0
ARC
  5
CA
330
1F
100
AcDbEntity
  8
0
  6
Continuous
 62
     7
370
    15
100
AcDbCircle
 10
113.1275757262
 20
82.5556477275
 30
0.0
 40
0.3999999999999915
100
AcDbArc
 50
315.0
 51
0.0
  0
ARC
  5
CB
330
1F
100
AcDbEntity
  8
0
  6
Continuous
 62
     7
370
    15
100
AcDbCircle
 10
113.1275757262
 20
143.7242768776
 30
0.0
 40
0.3999999999999915
100
AcDbArc
 50
0.0
 51
45.0
  0
LINE
  5
CC
330
1F
100
AcDbEntity
  8
0
  6
Continuous
 62
     7
370
    15
100
AcDbLine
 10
103.6275757262
 20
85.1399623025
 30
0.0
 11
107.4275757262
 21
85.1399623025
 31
0.0
  0
LINE
  5
CD
330
1F
100
AcDbEntity
  8
0
  6
Continuous
 62
     7
370
    15
100
AcDbLine
 10
107.4275757262
 20
141.1399623025
 30
0.0
 11
103.6275757262
 21
141.1399623025
 31
0.0
  0
ARC
  5
CE
330
1F
100
AcDbEntity
  8
0
  6
Continuous
 62
     7
370
    15
100
AcDbCircle
 10
97.1275757262
 20
90.6399623025
 30
0.0
 40
0.5
100
AcDbArc
 50
0.0
 51
90.0
  0
ARC
  5
CF
330
1F
100
AcDbEntity
  8
0
  6
Continuous
 62
     7
370
    15
100
AcDbCircle
 10
97.1275757262
 20
135.6399623025
 30
0.0
 40
0.5
100
AcDbArc
 50
270.0
 51
0.0
  0
LINE
  5
D0
330
1F
100
AcDbEntity
  8
0
  6
Continuous
 62
     7
370
    15
100
AcDbLine
 10
94.4275757262
 20
90.9149623025
 30
0.0
 11
94.9100897833
 21
91.1399623025
 31
0.0
  0
LINE
  5
D1
330
1F
100
AcDbEntity
  8
0
  6
Continuous
 62
     7
370
    15
100
AcDbLine
 10
94.9100897833
 20
135.1399623025
 30
0.0
 11
94.4275757262
 21
135.3649623025
 31
0.0
  0
LINE
  5
D2
330
1F
100
AcDbEntity
  8
0
  6
Continuous
 62
     7
370
    15
100
AcDbLine
 10
94.4275757262
 20
135.3649623025
 30
0.0
 11
26.8832674989
 21
125.5146576786
 31
0.0
  0
LINE
  5
D3
330
1F
100
AcDbEntity
  8
0
  6
Continuous
 62
     7
370
    15
100
AcDbLine
 10
26.8832674989
 20
100.7652669264
 30
0.0
 11
94.4275757262
 21
90.9149623025
 31
0.0
  0
LINE
  5
D4
330
1F
100
AcDbEntity
  8
0
  6
Continuous
 62
     7
370
    15
100
AcDbLine
 10
94.9100897833
 20
91.1399623025
 30
0.0
 11
97.1275757262
 21
91.1399623025
 31
0.0
  0
LINE
  5
D5
330
1F
100
AcDbEntity
  8
0
  6
Continuous
 62
     7
370
    15
100
AcDbLine
 10
97.1275757262
 20
135.1399623025
 30
0.0
 11
94.9100897833
 21
135.1399623025
 31
0.0
  0
ARC
  5
D6
330
1F
100
AcDbEntity
  8
0
  6
Continuous
 62
     7
370
    15
100
AcDbCircle
 10
27.0275757262
 20
101.7547997129
 30
0.0
 40
1.000000000000004
100
AcDbArc
 50
180.0
 51
261.7027777778
  0
ARC
  5
D7
330
1F
100
AcDbEntity
  8
0
  6
Continuous
 62
     7
370
    15
100
AcDbCircle
 10
27.0275757262
 20
124.5251248921
 30
0.0
 40
1.000000000000004
100
AcDbArc
 50
98.2972222222
 51
180.0
  0
ARC
  5
D8
330
1F
100
AcDbEntity
  8
0
  6
Continuous
 62
     7
370
    15
100
AcDbCircle
 10
115.4104184386
 20
126.1399623025
 30
0.0
 40
2.000000000000028
100
AcDbArc
 50
199.7083588352
 51
270.0
  0
ARC
  5
D9
330
1F
100
AcDbEntity
  8
0
  6
Continuous
 62
     7
370
    15
100
AcDbCircle
 10
115.4104184386
 20
100.1399623025
 30
0.0
 40
2.000000000000011
100
AcDbArc
 50
90.0
 51
160.2916411648
  0
LINE
  5
DA
330
1F
100
AcDbEntity
  8
0
  6
Continuous
 62
     7
370
    15
100
AcDbLine
 10
209.0343182453
 20
124.1399623025
 30
0.0
 11
115.4104184386
 21
124.1399623025
 31
0.0
  0
LINE
  5
DB
330
1F
100
AcDbEntity
  8
0
  6
Continuous
 62
     7
370
    15
100
AcDbLine
 10
115.4104184386
 20
102.1399623025
 30
0.0
 11
209.0343182453
 21
102.1399623025
 31
0.0
  0
LINE
  5
DC
330
1F
100
AcDbEntity
  8
0
  6
Continuous
 62
     7
370
    15
100
AcDbLine
 10
209.0343182453
 20
102.1399623025
 30
0.0
 11
253.5060348219
 21
105.6399623025
 31
0.0
  0
LINE
  5
DD
330
1F
100
AcDbEntity
  8
0
  6
Continuous
 62
     7
370
    15
100
AcDbLine
 10
253.5060348219
 20
120.6399623025
 30
0.0
 11
209.0343182453
 21
124.1399623025
 31
0.0
  0
ARC
  5
DE
330
1F
100
AcDbEntity
  8
0
  6
Continuous
 62
     7
370
    15
100
AcDbCircle
 10
253.4275757262
 20
119.6430449688
 30
0.0
 40
1.000000000000009
100
AcDbArc
 50
0.0
 51
85.5
  0
ARC
  5
DF
330
1F
100
AcDbEntity
  8
0
  6
Continuous
 62
     7
370
    15
100
AcDbCircle
 10
253.4275757262
 20
106.6368796363
 30
0.0
 40
1.0
100
AcDbArc
 50
274.5
 51
0.0
  0
LINE
  5
E0
330
1F
100
AcDbEntity
  8
0
  6
Continuous
 62
     7
370
    15
100
AcDbLine
 10
107.4275757262
 20
113.1399623025
 30
0.0
 11
107.4275757262
 21
142.0808588369
 31
0.0
  0
LINE
  5
E1
330
1F
100
AcDbEntity
  8
0
  6
Continuous
 62
     7
370
    15
100
AcDbLine
 10
107.4275757262
 20
84.1990657681
 30
0.0
 11
107.4275757262
 21
113.1399623025
 31
0.0
  0
LINE
  5
E2
330
1F
100
AcDbEntity
  8
0
  6
Continuous
 62
     7
370
    15
100
AcDbLine
 10
109.0494123682
 20
113.1399623025
 30
0.0
 11
109.0494123682
 21
144.8899623025
 31
0.0
  0
LINE
  5
E3
330
1F
100
AcDbEntity
  8
0
  6
Continuous
 62
     7
370
    15
100
AcDbLine
 10
109.0494123682
 20
81.3899623025
 30
0.0
 11
109.0494123682
 21
113.1399623025
 31
0.0
  0
LINE
  5
E4
330
1F
100
AcDbEntity
  8
0
  6
Continuous
 62
     7
370
    15
100
AcDbLine
 10
102.0057390841
 20
113.1399623025
 30
0.0
 11
102.0057390841
 21
144.8899623025
 31
0.0
  0
LINE
  5
E5
330
1F
100
AcDbEntity
  8
0
  6
Continuous
 62
     7
370
    15
100
AcDbLine
 10
102.0057390841
 20
81.3899623025
 30
0.0
 11
102.0057390841
 21
113.1399623025
 31
0.0
  0
LINE
  5
E6
330
1F
100
AcDbEntity
  8
0
  6
Continuous
 62
     7
370
    15
100
AcDbLine
 10
103.6275757262
 20
113.1399623025
 30
0.0
 11
103.6275757262
 21
142.0808588369
 31
0.0
  0
LINE
  5
E7
330
1F
100
AcDbEntity
  8
0
  6
Continuous
 62
     7
370
    15
100
AcDbLine
 10
103.6275757262
 20
84.1990657681
 30
0.0
 11
103.6275757262
 21
113.1399623025
 31
0.0
  0
LINE
  5
E8
330
1F
100
AcDbEntity
  8
0
  6
Continuous
 62
     7
370
    15
100
AcDbLine
 10
97.6275757262
 20
113.1399623025
 30
0.0
 11
97.6275757262
 21
143.7242768776
 31
0.0
  0
LINE
  5
E9
330
1F
100
AcDbEntity
  8
0
  6
Continuous
 62
     7
370
    15
100
AcDbLine
 10
97.6275757262
 20
82.5556477275
 30
0.0
 11
97.6275757262
 21
113.1399623025
 31
0.0
  0
LINE
  5
EA
330
1F
100
AcDbEntity
  8
0
  6
Continuous
 62
     7
370
    15
100
AcDbLine
 10
113.5275757262
 20
113.1399623025
 30
0.0
 11
113.5275757262
 21
143.7242768776
 31
0.0
  0
LINE
  5
EB
330
1F
100
AcDbEntity
  8
0
  6
Continuous
 62
     7
370
    15
100
AcDbLine
 10
113.5275757262
 20
82.5556477275
 30
0.0
 11
113.5275757262
 21
113.1399623025
 31
0.0
  0
LINE
  5
EC
330
1F
100
AcDbEntity
  8
0
  6
Continuous
 62
     7
370
    15
100
AcDbLine
 10
94.4275757262
 20
113.1399623025
 30
0.0
 11
94.4275757262
 21
135.3649623025
 31
0.0
  0
LINE
  5
ED
330
1F
100
AcDbEntity
  8
0
  6
Continuous
 62
     7
370
    15
100
AcDbLine
 10
94.4275757262
 20
90.9149623025
 30
0.0
 11
94.4275757262
 21
113.1399623025
 31
0.0
  0
LINE
  5
EE
330
1F
100
AcDbEntity
  8
0
  6
Continuous
 62
     7
370
    15
100
AcDbLine
 10
94.9100897833
 20
113.1399623025
 30
0.0
 11
94.9100897833
 21
135.1399623025
 31
0.0
  0
LINE
  5
EF
330
1F
100
AcDbEntity
  8
0
  6
Continuous
 62
     7
370
    15
100
AcDbLine
 10
94.9100897833
 20
91.1399623025
 30
0.0
 11
94.9100897833
 21
113.1399623025
 31
0.0
  0
LINE
  5
F0
330
1F
100
AcDbEntity
  8
0
  6
Continuous
 62
     7
370
    15
100
AcDbLine
 10
26.0275757262
 20
113.1399623025
 30
0.0
 11
26.0275757262
 21
124.5251248921
 31
0.0
  0
LINE
  5
F1
330
1F
100
AcDbEntity
  8
0
  6
Continuous
 62
     7
370
    15
100
AcDbLine
 10
26.0275757262
 20
101.7547997129
 30
0.0
 11
26.0275757262
 21
113.1399623025
 31
0.0
  0
LINE
  5
F2
330
1F
100
AcDbEntity
  8
0
  6
Continuous
 62
     7
370
    15
100
AcDbLine
 10
254.4275757262
 20
119.6430449688
 30
0.0
 11
254.4275757262
 21
106.6368798665
 31
0.0
  0
LINE
  5
F3
330
1F
100
AcDbEntity
  8
0
  6
Continuous
 62
     8
370
    15
100
AcDbLine
 10
98.7932611511
 20
113.1399623025
 30
0.0
 11
98.7932611511
 21
144.8899623025
 31
0.0
  0
LINE
  5
F4
330
1F
100
AcDbEntity
  8
0
  6
Continuous
 62
     8
370
    15
100
AcDbLine
 10
98.7932611511
 20
81.3899623025
 30
0.0
 11
98.7932611511
 21
113.1399623025
 31
0.0
  0
LINE
  5
F5
330
1F
100
AcDbEntity
  8
0
  6
Continuous
 62
     8
370
    15
100
AcDbLine
 10
98.5104184386
 20
113.1399623025
 30
0.0
 11
98.5104184386
 21
144.772805015
 31
0.0
  0
LINE
  5
F6
330
1F
100
AcDbEntity
  8
0
  6
Continuous
 62
     8
370
    15
100
AcDbLine
 10
98.5104184386
 20
81.5071195901
 30
0.0
 11
98.5104184386
 21
113.1399623025
 31
0.0
  0
LINE
  5
F7
330
1F
100
AcDbEntity
  8
0
  6
Continuous
 62
     8
370
    15
100
AcDbLine
 10
112.3618903012
 20
113.1399623025
 30
0.0
 11
112.3618903012
 21
144.8899623025
 31
0.0
  0
LINE
  5
F8
330
1F
100
AcDbEntity
  8
0
  6
Continuous
 62
     8
370
    15
100
AcDbLine
 10
112.3618903012
 20
81.3899623025
 30
0.0
 11
112.3618903012
 21
113.1399623025
 31
0.0
  0
LINE
  5
F9
330
1F
100
AcDbEntity
  8
0
  6
Continuous
 62
     8
370
    15
100
AcDbLine
 10
112.6447330137
 20
113.1399623025
 30
0.0
 11
112.6447330137
 21
144.772805015
 31
0.0
  0
LINE
  5
FA
330
1F
100
AcDbEntity
  8
0
  6
Continuous
 62
     8
370
    15
100
AcDbLine
 10
112.6447330137
 20
81.5071195901
 30
0.0
 11
112.6447330137
 21
113.1399623025
 31
0.0
  0
LINE
  5
FB
330
1F
100
AcDbEntity
  8
0
  6
Continuous
 62
     8
370
    15
100
AcDbLine
 10
97.7447330137
 20
113.1399623025
 30
0.0
 11
97.7447330137
 21
144.0071195901
 31
0.0
  0
LINE
  5
FC
330
1F
100
AcDbEntity
  8
0
  6
Continuous
 62
     8
370
    15
100
AcDbLine
 10
97.7447330137
 20
82.272805015
 30
0.0
 11
97.7447330137
 21
113.1399623025
 31
0.0
  0
LINE
  5
FD
330
1F
100
AcDbEntity
  8
0
  6
Continuous
 62
     8
370
    15
100
AcDbLine
 10
113.4104184386
 20
113.1399623025
 30
0.0
 11
113.4104184386
 21
144.0071195901
 31
0.0
  0
LINE
  5
FE
330
1F
100
AcDbEntity
  8
0
  6
Continuous
 62
     8
370
    15
100
AcDbLine
 10
113.4104184386
 20
82.272805015
 30
0.0
 11
113.4104184386
 21
113.1399623025
 31
0.0
  0
LINE
  5
FF
330
1F
100
AcDbEntity
  8
0
  6
Continuous
 62
     8
370
    15
100
AcDbLine
 10
97.1275757262
 20
113.1399623025
 30
0.0
 11
97.1275757262
 21
135.1399623025
 31
0.0
  0
LINE
  5
100
330
1F
100
AcDbEntity
  8
0
  6
Continuous
 62
     8
370
    15
100
AcDbLine
 10
97.1275757262
 20
91.1399623025
 30
0.0
 11
97.1275757262
 21
113.1399623025
 31
0.0
  0
LINE
  5
101
330
1F
100
AcDbEntity
  8
0
  6
Continuous
 62
     8
370
    15
100
AcDbLine
 10
26.8832674989
 20
113.1399623025
 30
0.0
 11
26.8832674989
 21
125.5146576786
 31
0.0
  0
LINE
  5
102
330
1F
100
AcDbEntity
  8
0
  6
Continuous
 62
     8
370
    15
100
AcDbLine
 10
26.8832674989
 20
100.7652669264
 30
0.0
 11
26.8832674989
 21
113.1399623025
 31
0.0
  0
LINE
  5
103
330
1F
100
AcDbEntity
  8
0
  6
Continuous
 62
     8
370
    15
100
AcDbLine
 10
115.4104184386
 20
124.1399623025
 30
0.0
 11
115.4104184386
 21
102.1399623025
 31
0.0
  0
LINE
  5
104
330
1F
100
AcDbEntity
  8
0
  6
Continuous
 62
     8
370
    15
100
AcDbLine
 10
253.5060348219
 20
120.6399623025
 30
0.0
 11
253.5060348219
 21
105.6399623025
 31
0.0
  0
DIMENSION
  5
105
330
1F
100
AcDbEntity
  8
DIM
100
AcDbDimension
  2
_D
 10
261.4487720256
 20
105.6399623025
 30
0.0
 11
261.4487720256
 21
113.1399623025
 31
0.0
 70
   160
  1
%%c<>
 71
     2
 42
-1.0
  3
SLDDIMSTYLE0
100
AcDbAlignedDimension
 13
253.5060348219
 23
120.6399623025
 33
0.0
 14
253.5060348219
 24
105.6399623025
 34
0.0
 50
90.0
100
AcDbRotatedDimension
  0
DIMENSION
  5
113
330
1F
100
AcDbEntity
  8
DIM
100
AcDbDimension
  2
_D_1
 10
270.4275757262
 20
124.1399623025
 30
0.0
 11
270.4275757262
 21
113.1399623025
 31
0.0
 70
   160
  1
%%c<>
 71
     2
 42
-1.0
  3
SLDDIMSTYLE0
100
AcDbAlignedDimension
 13
209.0343182453
 23
102.1399623025
 33
0.0
 14
209.0343182453
 24
124.1399623025
 34
0.0
 50
90.0
100
AcDbRotatedDimension
  0
DIMENSION
  5
11E
330
1F
100
AcDbEntity
  8
DIM
100
AcDbDimension
  2
_D_2
 10
94.4275757262
 20
73.9905561454
 30
0.0
 11
174.4275757262
 21
73.9905561454
 31
0.0
 70
   160
  1
<>
 71
     2
 42
-1.0
  3
SLDDIMSTYLE1
100
AcDbAlignedDimension
 13
254.4275757262
 23
106.6368796363
 33
0.0
 14
94.4275757262
 24
90.9149623025
 34
0.0
 50
0.0
100
AcDbRotatedDimension
  0
DIMENSION
  5
129
330
1F
100
AcDbEntity
  8
DIM
100
AcDbDimension
  2
_D_3
 10
21.5189235805
 20
144.8899623025
 30
0.0
 11
21.5189235805
 21
113.1399623025
 31
0.0
 70
   160
  1
%%c<>
 71
     2
 42
-1.0
  3
SLDDIMSTYLE2
100
AcDbAlignedDimension
 13
98.7932611511
 23
81.3899623025
 33
0.0
 14
98.7932611511
 24
144.8899623025
 34
0.0
 50
90.0
100
AcDbRotatedDimension
  0
DIMENSION
  5
135
330
1F
100
AcDbEntity
  8
DIM
100
AcDbDimension
  2
_D_4
 10
254.4275757262
 20
65.3899623025
 30
0.0
 11
140.2275757262
 21
65.3899623025
 31
0.0
 70
   160
  1
<>
 71
     2
 42
-1.0
  3
SLDDIMSTYLE2
100
AcDbAlignedDimension
 13
26.0275757262
 23
101.7547997129
 33
0.0
 14
254.4275757262
 24
106.6368796363
 34
0.0
100
AcDbRotatedDimension
  0
DIMENSION
  5
13F
330
1F
100
AcDbEntity
  8
DIM
100
AcDbDimension
  2
_D_5
 10
25.3954930235
 20
113.1399623025
 30
0.0
 11
239.4961162377
 21
117.5273826625
 31
0.0
 70
   162
  1
<>
 71
     1
 42
-1.0
  3
SLDDIMSTYLE3
100
AcDb2LineAngularDimension
 13
209.0343182453
 23
124.1399623025
 33
0.0
 14
253.5060348219
 24
120.6399623025
 34
0.0
 15
254.8547668472
 25
113.1399623025
 35
0.0
 16
239.4924381452
 26
117.4347690936
 36
0.0
  0
LINE
  5
14A
330
1F
100
AcDbEntity
  8
DIM
  6
CENTERX2
370
     0
100
AcDbLine
 10
25.3954930235
 20
113.1399623025
 30
0.0
 11
254.8547668472
 21
113.1399623025
 31
0.0
  0
ENDSEC
  0
SECTION
  2
OBJECTS
  0
DICTIONARY
  5
C
330
0
100
AcDbDictionary
281
     1
  3
ACAD_GROUP
350
D
  3
ACAD_LAYOUT
350
1A
  3
ACAD_MLINESTYLE
350
17
  3
ACAD_PLOTSETTINGS
350
19
  3
ACAD_PLOTSTYLENAME
350
E
  3
ACAD_SCALELIST
350
47
  0
DICTIONARY
  5
D
102
{ACAD_REACTORS
330
C
102
}
330
C
100
AcDbDictionary
281
     1
  0
DICTIONARY
  5
1A
102
{ACAD_REACTORS
330
C
102
}
330
C
100
AcDbDictionary
281
     1
  3
Layout1
350
1E
  3
Layout2
350
26
  3
Model
350
22
  0
DICTIONARY
  5
17
102
{ACAD_REACTORS
330
C
102
}
330
C
100
AcDbDictionary
281
     1
  3
Standard
350
18
  0
DICTIONARY
  5
19
102
{ACAD_REACTORS
330
C
102
}
330
C
100
AcDbDictionary
281
     1
  0
ACDBDICTIONARYWDFLT
  5
E
102
{ACAD_REACTORS
330
C
102
}
330
C
100
AcDbDictionary
281
     1
  3
Normal
350
F
100
AcDbDictionaryWithDefault
340
F
  0
DICTIONARY
  5
47
102
{ACAD_REACTORS
330
C
102
}
330
C
100
AcDbDictionary
281
     1
  3
A0
350
48
  3
A1
350
49
  3
A2
350
4A
  3
A3
350
4B
  3
A4
350
4C
  3
A5
350
4D
  3
A6
350
4E
  3
A7
350
4F
  3
A8
350
50
  3
A9
350
51
  3
B0
350
52
  3
B1
350
53
  3
B2
350
54
  3
B3
350
55
  3
B4
350
56
  3
B5
350
57
  3
B6
350
58
  3
B7
350
59
  3
B8
350
5A
  3
B9
350
5B
  3
C0
350
5C
  3
C1
350
5D
  3
C2
350
5E
  3
C3
350
5F
  3
C4
350
60
  3
C5
350
61
  3
C6
350
62
  3
C7
350
63
  3
C8
350
64
  3
C9
350
65
  3
D0
350
66
  3
D1
350
67
  3
D2
350
68
  0
LAYOUT
  5
1E
102
{ACAD_REACTORS
330
1A
102
}
330
1A
100
AcDbPlotSettings
  1

  2
none_device
  4

  6

 40
0.0
 41
0.0
 42
0.0
 43
0.0
 44
0.0
 45
0.0
 46
0.0
 47
0.0
 48
0.0
 49
0.0
140
0.0
141
0.0
142
1.0
143
1.0
 70
   688
 72
     1
 73
     0
 74
     5
  7

 75
    16
147
1.0
148
0.0
149
0.0
100
AcDbLayout
  1
Layout1
 70
     1
 71
     1
 10
0.0
 20
0.0
 11
420.0
 21
297.0
 12
0.0
 22
0.0
 32
0.0
 14
1.0000000000E+20
 24
1.0000000000E+20
 34
1.0000000000E+20
 15
-1.0000000000E+20
 25
-1.0000000000E+20
 35
-1.0000000000E+20
146
0.0
 13
0.0
 23
0.0
 33
0.0
 16
1.0
 26
0.0
 36
0.0
 17
0.0
 27
1.0
 37
0.0
 76
     0
330
1B
  0
LAYOUT
  5
26
102
{ACAD_REACTORS
330
1A
102
}
330
1A
100
AcDbPlotSettings
  1

  2
none_device
  4

  6

 40
0.0
 41
0.0
 42
0.0
 43
0.0
 44
0.0
 45
0.0
 46
0.0
 47
0.0
 48
0.0
 49
0.0
140
0.0
141
0.0
142
1.0
143
1.0
 70
   688
 72
     1
 73
     0
 74
     5
  7

 75
    16
147
1.0
148
0.0
149
0.0
100
AcDbLayout
  1
Layout2
 70
     1
 71
     2
 10
0.0
 20
0.0
 11
0.0
 21
0.0
 12
0.0
 22
0.0
 32
0.0
 14
0.0
 24
0.0
 34
0.0
 15
0.0
 25
0.0
 35
0.0
146
0.0
 13
0.0
 23
0.0
 33
0.0
 16
1.0
 26
0.0
 36
0.0
 17
0.0
 27
1.0
 37
0.0
 76
     0
330
23
  0
LAYOUT
  5
22
102
{ACAD_REACTORS
330
1A
102
}
330
1A
100
AcDbPlotSettings
  1

  2
none_device
  4
Letter_(8.50_x_11.00_Inches)
  6

 40
6.35
 41
6.35
 42
6.35000508
 43
6.35000508
 44
215.9
 45
279.4
 46
0.0
 47
0.0
 48
0.0
 49
0.0
140
0.0
141
0.0
142
1.0
143
1.0
 70
  1712
 72
     1
 73
     0
 74
     0
  7

 75
     0
147
1.0
148
0.0
149
0.0
100
AcDbLayout
  1
Model
 70
     1
 71
     0
 10
0.0
 20
0.0
 11
297.0
 21
210.0
 12
0.0
 22
0.0
 32
0.0
 14
0.0
 24
0.0
 34
0.0
 15
297.0
 25
210.0
 35
0.0
146
0.0
 13
0.0
 23
0.0
 33
0.0
 16
1.0
 26
0.0
 36
0.0
 17
0.0
 27
1.0
 37
0.0
 76
     0
330
1F
331
29
  0
MLINESTYLE
  5
18
102
{ACAD_REACTORS
330
17
102
}
330
17
100
AcDbMlineStyle
  2
Standard
 70
     0
  3

 62
   256
 51
90.0
 52
90.0
 71
     2
 49
0.5
 62
   256
  6
BYLAYER
 49
-0.5
 62
   256
  6
BYLAYER
  0
ACDBPLACEHOLDER
  5
F
102
{ACAD_REACTORS
330
E
102
}
330
E
  0
SCALE
  5
48
102
{ACAD_REACTORS
330
47
102
}
330
47
100
AcDbScale
 70
     0
300
1:1
140
1.0
141
1.0
290
     1
  0
SCALE
  5
49
102
{ACAD_REACTORS
330
47
102
}
330
47
100
AcDbScale
 70
     0
300
1:2
140
1.0
141
2.0
290
     0
  0
SCALE
  5
4A
102
{ACAD_REACTORS
330
47
102
}
330
47
100
AcDbScale
 70
     0
300
1:4
140
1.0
141
4.0
290
     0
  0
SCALE
  5
4B
102
{ACAD_REACTORS
330
47
102
}
330
47
100
AcDbScale
 70
     0
300
1:5
140
1.0
141
5.0
290
     0
  0
SCALE
  5
4C
102
{ACAD_REACTORS
330
47
102
}
330
47
100
AcDbScale
 70
     0
300
1:8
140
1.0
141
8.0
290
     0
  0
SCALE
  5
4D
102
{ACAD_REACTORS
330
47
102
}
330
47
100
AcDbScale
 70
     0
300
1:10
140
1.0
141
10.0
290
     0
  0
SCALE
  5
4E
102
{ACAD_REACTORS
330
47
102
}
330
47
100
AcDbScale
 70
     0
300
1:16
140
1.0
141
16.0
290
     0
  0
SCALE
  5
4F
102
{ACAD_REACTORS
330
47
102
}
330
47
100
AcDbScale
 70
     0
300
1:20
140
1.0
141
20.0
290
     0
  0
SCALE
  5
50
102
{ACAD_REACTORS
330
47
102
}
330
47
100
AcDbScale
 70
     0
300
1:30
140
1.0
141
30.0
290
     0
  0
SCALE
  5
51
102
{ACAD_REACTORS
330
47
102
}
330
47
100
AcDbScale
 70
     0
300
1:40
140
1.0
141
40.0
290
     0
  0
SCALE
  5
52
102
{ACAD_REACTORS
330
47
102
}
330
47
100
AcDbScale
 70
     0
300
1:50
140
1.0
141
50.0
290
     0
  0
SCALE
  5
53
102
{ACAD_REACTORS
330
47
102
}
330
47
100
AcDbScale
 70
     0
300
1:100
140
1.0
141
100.0
290
     0
  0
SCALE
  5
54
102
{ACAD_REACTORS
330
47
102
}
330
47
100
AcDbScale
 70
     0
300
2:1
140
2.0
141
1.0
290
     0
  0
SCALE
  5
55
102
{ACAD_REACTORS
330
47
102
}
330
47
100
AcDbScale
 70
     0
300
4:1
140
4.0
141
1.0
290
     0
  0
SCALE
  5
56
102
{ACAD_REACTORS
330
47
102
}
330
47
100
AcDbScale
 70
     0
300
8:1
140
8.0
141
1.0
290
     0
  0
SCALE
  5
57
102
{ACAD_REACTORS
330
47
102
}
330
47
100
AcDbScale
 70
     0
300
10:1
140
10.0
141
1.0
290
     0
  0
SCALE
  5
58
102
{ACAD_REACTORS
330
47
102
}
330
47
100
AcDbScale
 70
     0
300
100:1
140
100.0
141
1.0
290
     0
  0
SCALE
  5
59
102
{ACAD_REACTORS
330
47
102
}
330
47
100
AcDbScale
 70
     0
300
1/128" = 1'-0"
140
0.0078125
141
12.0
290
     0
  0
SCALE
  5
5A
102
{ACAD_REACTORS
330
47
102
}
330
47
100
AcDbScale
 70
     0
300
1/64" = 1'-0"
140
0.015625
141
12.0
290
     0
  0
SCALE
  5
5B
102
{ACAD_REACTORS
330
47
102
}
330
47
100
AcDbScale
 70
     0
300
1/32" = 1'-0"
140
0.03125
141
12.0
290
     0
  0
SCALE
  5
5C
102
{ACAD_REACTORS
330
47
102
}
330
47
100
AcDbScale
 70
     0
300
1/16" = 1'-0"
140
0.0625
141
12.0
290
     0
  0
SCALE
  5
5D
102
{ACAD_REACTORS
330
47
102
}
330
47
100
AcDbScale
 70
     0
300
3/32" = 1'-0"
140
0.09375
141
12.0
290
     0
  0
SCALE
  5
5E
102
{ACAD_REACTORS
330
47
102
}
330
47
100
AcDbScale
 70
     0
300
1/8" = 1'-0"
140
0.125
141
12.0
290
     0
  0
SCALE
  5
5F
102
{ACAD_REACTORS
330
47
102
}
330
47
100
AcDbScale
 70
     0
300
3/16" = 1'-0"
140
0.1875
141
12.0
290
     0
  0
SCALE
  5
60
102
{ACAD_REACTORS
330
47
102
}
330
47
100
AcDbScale
 70
     0
300
1/4" = 1'-0"
140
0.25
141
12.0
290
     0
  0
SCALE
  5
61
102
{ACAD_REACTORS
330
47
102
}
330
47
100
AcDbScale
 70
     0
300
3/8" = 1'-0"
140
0.375
141
12.0
290
     0
  0
SCALE
  5
62
102
{ACAD_REACTORS
330
47
102
}
330
47
100
AcDbScale
 70
     0
300
1/2" = 1'-0"
140
0.5
141
12.0
290
     0
  0
SCALE
  5
63
102
{ACAD_REACTORS
330
47
102
}
330
47
100
AcDbScale
 70
     0
300
3/4" = 1'-0"
140
0.75
141
12.0
290
     0
  0
SCALE
  5
64
102
{ACAD_REACTORS
330
47
102
}
330
47
100
AcDbScale
 70
     0
300
1" = 1'-0"
140
1.0
141
12.0
290
     0
  0
SCALE
  5
65
102
{ACAD_REACTORS
330
47
102
}
330
47
100
AcDbScale
 70
     0
300
1-1/2" = 1'-0"
140
1.5
141
12.0
290
     0
  0
SCALE
  5
66
102
{ACAD_REACTORS
330
47
102
}
330
47
100
AcDbScale
 70
     0
300
3" = 1'-0"
140
3.0
141
12.0
290
     0
  0
SCALE
  5
67
102
{ACAD_REACTORS
330
47
102
}
330
47
100
AcDbScale
 70
     0
300
6" = 1'-0"
140
6.0
141
12.0
290
     0
  0
SCALE
  5
68
102
{ACAD_REACTORS
330
47
102
}
330
47
100
AcDbScale
 70
     0
300
1'-0" = 1'-0"
140
12.0
141
12.0
290
     0
  0
ENDSEC
  0
EOF
