  0
SECTION
  2
HEADER
  9
$ACADVER
  1
AC1015
  9
$ACADMAINTVER
 70
     6
  9
$DWGCODEPAGE
  3
ANSI_1252
  9
$INSBASE
 10
0.0
 20
0.0
 30
0.0
  9
$EXTMIN
 10
0.0
 20
0.0
 30
0.0
  9
$EXTMAX
 10
212.1428571429
 20
150.0
 30
0.0
  9
$LIMMIN
 10
0.0
 20
0.0
  9
$LIMMAX
 10
212.1428571429
 20
150.0
  9
$ORTHOMODE
 70
     0
  9
$REGENMODE
 70
     1
  9
$FILLMODE
 70
     1
  9
$QTEXTMODE
 70
     0
  9
$MIRRTEXT
 70
     1
  9
$LTSCALE
 40
0.7142857143
  9
$ATTMODE
 70
     1
  9
$TEXTSIZE
 40
2.7718253968
  9
$TRACEWID
 40
1.0
  9
$TEXTSTYLE
  7
Standard
  9
$CLAYER
  8
0
  9
$CELTYPE
  6
ByLayer
  9
$CECOLOR
 62
   256
  9
$CELTSCALE
 40
1.0
  9
$DISPSILH
 70
     0
  9
$DIMSCALE
 40
1.0
  9
$DIMASZ
 40
2.3585714286
  9
$DIMEXO
 40
0.7142857143
  9
$DIMDLI
 40
3.75
  9
$DIMRND
 40
0.0
  9
$DIMDLE
 40
0.0
  9
$DIMEXE
 40
0.7142857143
  9
$DIMTP
 40
0.0
  9
$DIMTM
 40
0.0
  9
$DIMTXT
 40
2.7718253968
  9
$DIMCEN
 40
2.5
  9
$DIMTSZ
 40
0.0
  9
$DIMTOL
 70
     0
  9
$DIMLIM
 70
     0
  9
$DIMTIH
 70
     1
  9
$DIMTOH
 70
     1
  9
$DIMSE1
 70
     0
  9
$DIMSE2
 70
     0
  9
$DIMTAD
 70
     1
  9
$DIMZIN
 70
     0
  9
$DIMBLK
  1

  9
$DIMASO
 70
     1
  9
$DIMSHO
 70
     1
  9
$DIMPOST
  1

  9
$DIMAPOST
  1

  9
$DIMALT
 70
     0
  9
$DIMALTD
 70
     3
  9
$DIMALTF
 40
0.0393700787
  9
$DIMLFAC
 40
1.0
  9
$DIMTOFL
 70
     1
  9
$DIMTVP
 40
0.0
  9
$DIMTIX
 70
     0
  9
$DIMSOXD
 70
     0
  9
$DIMSAH
 70
     0
  9
$DIMBLK1
  1

  9
$DIMBLK2
  1

  9
$DIMSTYLE
  2
ISO-25
  9
$DIMCLRD
 70
     0
  9
$DIMCLRE
 70
     0
  9
$DIMCLRT
 70
     0
  9
$DIMTFAC
 40
1.0
  9
$DIMGAP
 40
1.0885714286
  9
$DIMJUST
 70
     0
  9
$DIMSD1
 70
     0
  9
$DIMSD2
 70
     0
  9
$DIMTOLJ
 70
     0
  9
$DIMTZIN
 70
     0
  9
$DIMALTZ
 70
     0
  9
$DIMALTTZ
 70
     0
  9
$DIMUPT
 70
     0
  9
$DIMDEC
 70
     2
  9
$DIMTDEC
 70
     2
  9
$DIMALTU
 70
     2
  9
$DIMALTTD
 70
     3
  9
$DIMTXSTY
  7
Standard
  9
$DIMAUNIT
 70
     0
  9
$DIMADEC
 70
     2
  9
$DIMALTRND
 40
0.0
  9
$DIMAZIN
 70
     0
  9
$DIMDSEP
 70
    44
  9
$DIMATFIT
 70
     3
  9
$DIMFRAC
 70
     0
  9
$DIMLDRBLK
  1

  9
$DIMLUNIT
 70
     2
  9
$DIMLWD
 70
    -2
  9
$DIMLWE
 70
    -2
  9
$DIMTMOVE
 70
     0
  9
$LUNITS
 70
     2
  9
$LUPREC
 70
     2
  9
$SKETCHINC
 40
1.0
  9
$FILLETRAD
 40
10.0
  9
$AUNITS
 70
     1
  9
$AUPREC
 70
     2
  9
$MENU
  1
.
  9
$ELEVATION
 40
0.0
  9
$PELEVATION
 40
0.0
  9
$THICKNESS
 40
0.0
  9
$LIMCHECK
 70
     0
  9
$CHAMFERA
 40
0.0
  9
$CHAMFERB
 40
0.0
  9
$CHAMFERC
 40
0.0
  9
$CHAMFERD
 40
0.0
  9
$SKPOLY
 70
     0
  9
$TDCREATE
 40
2458627.676255417
  9
$TDUCREATE
 40
2458627.44708875
  9
$TDUPDATE
 40
2458627.676256343
  9
$TDUUPDATE
 40
2458627.447089676
  9
$TDINDWG
 40
0.0000000116
  9
$TDUSRTIMER
 40
0.0000000116
  9
$USRTIMER
 70
     1
  9
$ANGBASE
 50
0.0
  9
$ANGDIR
 70
     0
  9
$PDMODE
 70
     0
  9
$PDSIZE
 40
-1.0
  9
$PLINEWID
 40
0.0
  9
$SPLFRAME
 70
     0
  9
$SPLINETYPE
 70
     6
  9
$SPLINESEGS
 70
     8
  9
$HANDSEED
  5
172
  9
$SURFTAB1
 70
     6
  9
$SURFTAB2
 70
     6
  9
$SURFTYPE
 70
     6
  9
$SURFU
 70
     6
  9
$SURFV
 70
     6
  9
$UCSBASE
  2

  9
$UCSNAME
  2

  9
$UCSORG
 10
0.0
 20
0.0
 30
0.0
  9
$UCSXDIR
 10
1.0
 20
0.0
 30
0.0
  9
$UCSYDIR
 10
0.0
 20
1.0
 30
0.0
  9
$UCSORTHOREF
  2

  9
$UCSORTHOVIEW
 70
     0
  9
$UCSORGTOP
 10
0.0
 20
0.0
 30
0.0
  9
$UCSORGBOTTOM
 10
0.0
 20
0.0
 30
0.0
  9
$UCSORGLEFT
 10
0.0
 20
0.0
 30
0.0
  9
$UCSORGRIGHT
 10
0.0
 20
0.0
 30
0.0
  9
$UCSORGFRONT
 10
0.0
 20
0.0
 30
0.0
  9
$UCSORGBACK
 10
0.0
 20
0.0
 30
0.0
  9
$PUCSBASE
  2

  9
$PUCSNAME
  2

  9
$PUCSORG
 10
0.0
 20
0.0
 30
0.0
  9
$PUCSXDIR
 10
1.0
 20
0.0
 30
0.0
  9
$PUCSYDIR
 10
0.0
 20
1.0
 30
0.0
  9
$PUCSORTHOREF
  2

  9
$PUCSORTHOVIEW
 70
     0
  9
$PUCSORGTOP
 10
0.0
 20
0.0
 30
0.0
  9
$PUCSORGBOTTOM
 10
0.0
 20
0.0
 30
0.0
  9
$PUCSORGLEFT
 10
0.0
 20
0.0
 30
0.0
  9
$PUCSORGRIGHT
 10
0.0
 20
0.0
 30
0.0
  9
$PUCSORGFRONT
 10
0.0
 20
0.0
 30
0.0
  9
$PUCSORGBACK
 10
0.0
 20
0.0
 30
0.0
  9
$USERI1
 70
     0
  9
$USERI2
 70
     0
  9
$USERI3
 70
     0
  9
$USERI4
 70
     0
  9
$USERI5
 70
     0
  9
$USERR1
 40
0.0
  9
$USERR2
 40
0.0
  9
$USERR3
 40
0.0
  9
$USERR4
 40
0.0
  9
$USERR5
 40
0.0
  9
$WORLDVIEW
 70
     1
  9
$SHADEDGE
 70
     3
  9
$SHADEDIF
 70
    70
  9
$TILEMODE
 70
     1
  9
$MAXACTVP
 70
    64
  9
$PINSBASE
 10
0.0
 20
0.0
 30
0.0
  9
$PLIMCHECK
 70
     0
  9
$PEXTMIN
 10
1.0000000000E+20
 20
1.0000000000E+20
 30
1.0000000000E+20
  9
$PEXTMAX
 10
-1.0000000000E+20
 20
-1.0000000000E+20
 30
-1.0000000000E+20
  9
$PLIMMIN
 10
0.0
 20
0.0
  9
$PLIMMAX
 10
420.0
 20
297.0
  9
$UNITMODE
 70
     0
  9
$VISRETAIN
 70
     1
  9
$PLINEGEN
 70
     0
  9
$PSLTSCALE
 70
     1
  9
$TREEDEPTH
 70
  3020
  9
$CMLSTYLE
  2
Standard
  9
$CMLJUST
 70
     0
  9
$CMLSCALE
 40
20.0
  9
$PROXYGRAPHICS
 70
     1
  9
$MEASUREMENT
 70
     1
  9
$CELWEIGHT
370
    -1
  9
$ENDCAPS
280
     0
  9
$JOINSTYLE
280
     0
  9
$LWDISPLAY
290
     1
  9
$INSUNITS
 70
     4
  9
$HYPERLINKBASE
  1

  9
$STYLESHEET
  1

  9
$XEDIT
290
     1
  9
$CEPSNTYPE
380
     0
  9
$PSTYLEMODE
290
     1
  9
$FINGERPRINTGUID
  2
{692729CC-6F54-46F8-A0EA-C61FF4CB2467}
  9
$VERSIONGUID
  2
{FAEB1C32-E019-11D5-929B-00C0DF256EC4}
  9
$EXTNAMES
290
     1
  9
$PSVPSCALE
 40
0.0
  9
$OLESTARTUP
290
     0
  0
ENDSEC
  0
SECTION
  2
CLASSES
  0
CLASS
  1
ACDBDICTIONARYWDFLT
  2
AcDbDictionaryWithDefault
  3
ObjectDBX Classes
 90
        0
280
     0
281
     0
  0
CLASS
  1
VISUALSTYLE
  2
AcDbVisualStyle
  3
ObjectDBX Classes
 90
     4095
280
     0
281
     0
  0
CLASS
  1
MATERIAL
  2
AcDbMaterial
  3
ObjectDBX Classes
 90
     1153
280
     0
281
     0
  0
CLASS
  1
SCALE
  2
AcDbScale
  3
ObjectDBX Classes
 90
     1153
280
     0
281
     0
  0
CLASS
  1
SUN
  2
AcDbSun
  3
SCENEOE
 90
     1153
280
     0
281
     0
  0
CLASS
  1
ACDBPLACEHOLDER
  2
AcDbPlaceHolder
  3
ObjectDBX Classes
 90
        0
280
     0
281
     0
  0
CLASS
  1
LAYOUT
  2
AcDbLayout
  3
ObjectDBX Classes
 90
        0
280
     0
281
     0
  0
ENDSEC
  0
SECTION
  2
TABLES
  0
TABLE
  2
VPORT
  5
8
330
0
100
AcDbSymbolTable
 70
     1
  0
VPORT
  5
29
330
8
100
AcDbSymbolTableRecord
100
AcDbViewportTableRecord
  2
*Active
 70
     0
 10
0.0
 20
0.0
 11
1.0
 21
1.0
 12
106.0714285714
 22
75.0
 13
0.0
 23
0.0
 14
10.0
 24
10.0
 15
10.0
 25
10.0
 16
0.0
 26
0.0
 36
1.0
 17
0.0
 27
0.0
 37
0.0
 40
150.0
 41
1.4142857143
 42
50.0
 43
0.0
 44
0.0
 50
0.0
 51
0.0
 71
     0
 72
  2000
 73
     1
 74
     3
 75
     0
 76
     0
 77
     0
 78
     0
281
     0
 65
     1
110
0.0
120
0.0
130
0.0
111
1.0
121
0.0
131
0.0
112
0.0
122
1.0
132
0.0
 79
     0
146
0.0
  0
ENDTAB
  0
TABLE
  2
LTYPE
  5
5
330
0
100
AcDbSymbolTable
 70
     6
  0
LTYPE
  5
14
330
5
100
AcDbSymbolTableRecord
100
AcDbLinetypeTableRecord
  2
ByBlock
 70
     0
  3

 72
    65
 73
     0
 40
0.0
  0
LTYPE
  5
15
330
5
100
AcDbSymbolTableRecord
100
AcDbLinetypeTableRecord
  2
ByLayer
 70
     0
  3

 72
    65
 73
     0
 40
0.0
  0
LTYPE
  5
16
330
5
100
AcDbSymbolTableRecord
100
AcDbLinetypeTableRecord
  2
Continuous
 70
     0
  3
Solid line
 72
    65
 73
     0
 40
0.0
  0
LTYPE
  5
6A
330
5
100
AcDbSymbolTableRecord
100
AcDbLinetypeTableRecord
  2
HIDDEN
 70
     0
  3
Hidden __ __ __ __ __ __ __ __ __ __ __ __ __ __
 72
    65
 73
     2
 40
1.905
 49
1.27
 74
     0
 49
-0.635
 74
     0
  0
LTYPE
  5
6B
330
5
100
AcDbSymbolTableRecord
100
AcDbLinetypeTableRecord
  2
PHANTOM
 70
     0
  3
Phantom ______  __  __  ______  __  __  ______
 72
    65
 73
     6
 40
12.7
 49
6.35
 74
     0
 49
-1.27
 74
     0
 49
1.27
 74
     0
 49
-1.27
 74
     0
 49
1.27
 74
     0
 49
-1.27
 74
     0
  0
LTYPE
  5
6C
330
5
100
AcDbSymbolTableRecord
100
AcDbLinetypeTableRecord
  2
CENTER
 70
     0
  3
Center ____ _ ____ _ ____ _ ____ _ ____ _ ____
 72
    65
 73
     4
 40
10.16
 49
6.35
 74
     0
 49
-1.27
 74
     0
 49
1.27
 74
     0
 49
-1.27
 74
     0
  0
LTYPE
  5
6D
330
5
100
AcDbSymbolTableRecord
100
AcDbLinetypeTableRecord
  2
CENTERX2
 70
     0
  3
Center (2x) ________  __  ________  __  _____
 72
    65
 73
     4
 40
20.32
 49
12.7
 74
     0
 49
-2.54
 74
     0
 49
2.54
 74
     0
 49
-2.54
 74
     0
  0
LTYPE
  5
6E
330
5
100
AcDbSymbolTableRecord
100
AcDbLinetypeTableRecord
  2
DOT2
 70
     0
  3
Dot (.5x) ........................................
 72
    65
 73
     2
 40
0.635
 49
0.0
 74
     0
 49
-0.635
 74
     0
  0
ENDTAB
  0
TABLE
  2
LAYER
  5
2
330
0
100
AcDbSymbolTable
 70
     8
  0
LAYER
  5
10
330
2
100
AcDbSymbolTableRecord
100
AcDbLayerTableRecord
  2
0
 70
     0
 62
     7
  6
Continuous
370
    -3
390
F
  0
LAYER
  5
6F
330
2
100
AcDbSymbolTableRecord
100
AcDbLayerTableRecord
  2
FORMAT
 70
     0
 62
     7
  6
Continuous
370
    -3
390
F
  0
LAYER
  5
70
330
2
100
AcDbSymbolTableRecord
100
AcDbLayerTableRecord
  2
SLD-0
 70
     0
 62
     2
  6
Continuous
370
    -3
390
F
  0
LAYER
  5
71
330
2
100
AcDbSymbolTableRecord
100
AcDbLayerTableRecord
  2
DIM
 70
     0
 62
   179
  6
Continuous
370
    -3
390
F
  0
LAYER
  5
72
330
2
100
AcDbSymbolTableRecord
100
AcDbLayerTableRecord
  2
SLD-DEFPOINTS
 70
     0
 62
   179
  6
Continuous
370
    -3
390
F
  0
LAYER
  5
73
330
2
100
AcDbSymbolTableRecord
100
AcDbLayerTableRecord
  2
HAT
 70
     0
 62
   135
  6
Continuous
370
    -3
390
F
  0
LAYER
  5
74
330
2
100
AcDbSymbolTableRecord
100
AcDbLayerTableRecord
  2
JOB
 70
     0
 62
   201
  6
Continuous
370
    -3
390
F
  0
LAYER
  5
75
330
2
100
AcDbSymbolTableRecord
100
AcDbLayerTableRecord
  2
INSPECTION_REPORT
 70
     0
 62
   255
  6
Continuous
370
    -3
390
F
  0
ENDTAB
  0
TABLE
  2
STYLE
  5
3
330
0
100
AcDbSymbolTable
 70
     4
  0
STYLE
  5
11
330
3
100
AcDbSymbolTableRecord
100
AcDbTextStyleTableRecord
  2
Standard
 70
     0
 40
0.0
 41
1.0
 50
0.0
 71
     0
 42
2.7718253968
  3
txt
  4

  0
STYLE
  5
96
330
3
100
AcDbSymbolTableRecord
100
AcDbTextStyleTableRecord
  2
SLDTEXTSTYLE0
 70
     0
 40
0.0
 41
0.7
 50
0.0
 71
     0
 42
2.7718253968
  3
TXT
  4

  0
STYLE
  5
98
330
3
100
AcDbSymbolTableRecord
100
AcDbTextStyleTableRecord
  2
SLDTEXTSTYLE1
 70
     0
 40
0.0
 41
0.75
 50
0.0
 71
     0
 42
2.7718253968
  3
TXT
  4

  0
STYLE
  5
AB
330
3
100
AcDbSymbolTableRecord
100
AcDbTextStyleTableRecord
  2
SLDTEXTSTYLE2
 70
     0
 40
0.0
 41
0.6875
 50
0.0
 71
     0
 42
2.7718253968
  3
TXT
  4

  0
ENDTAB
  0
TABLE
  2
VIEW
  5
6
330
0
100
AcDbSymbolTable
 70
     0
  0
ENDTAB
  0
TABLE
  2
UCS
  5
7
330
0
100
AcDbSymbolTable
 70
     0
  0
ENDTAB
  0
TABLE
  2
APPID
  5
9
330
0
100
AcDbSymbolTable
 70
     1
  0
APPID
  5
12
330
9
100
AcDbSymbolTableRecord
100
AcDbRegAppTableRecord
  2
ACAD
 70
     0
  0
ENDTAB
  0
TABLE
  2
DIMSTYLE
  5
A
330
0
100
AcDbSymbolTable
 70
     3
100
AcDbDimStyleTable
  0
DIMSTYLE
105
27
330
A
100
AcDbSymbolTableRecord
100
AcDbDimStyleTableRecord
  2
ISO-25
 70
     0
 41
2.5
 42
0.625
 43
3.75
 44
1.25
 73
     0
 74
     0
 77
     1
 78
     8
140
2.5
141
2.5
143
0.0393700787
147
0.625
171
     3
172
     1
178
     0
271
     2
272
     2
274
     3
278
    44
283
     0
284
     8
340
11
  0
DIMSTYLE
105
131
102
{ACAD_REACTORS
330
130
330
13C
330
147
330
151
330
166
102
}
330
A
100
AcDbSymbolTableRecord
100
AcDbDimStyleTableRecord
  2
SLDDIMSTYLE0
 70
     0
 41
2.3585714286
 44
0.0
 45
0.000000001
 73
     0
 74
     0
 77
     1
 78
    12
 79
     3
140
2.0788690476
147
0.5197172619
173
     1
178
     0
271
     2
272
     2
276
     2
284
    12
340
96
  0
DIMSTYLE
105
15C
102
{ACAD_REACTORS
330
15B
102
}
330
A
100
AcDbSymbolTableRecord
100
AcDbDimStyleTableRecord
  2
SLDDIMSTYLE1
 70
     0
 41
2.3585714286
 44
0.0
 45
0.000000001
 73
     0
 74
     0
 77
     1
 78
     4
 79
     1
140
2.0788690476
147
0.5197172619
173
     1
178
     0
271
     2
272
     2
276
     2
284
    12
340
96
  0
ENDTAB
  0
TABLE
  2
BLOCK_RECORD
  5
1
330
0
100
AcDbSymbolTable
 70
     7
  0
BLOCK_RECORD
  5
1F
330
1
100
AcDbSymbolTableRecord
100
AcDbBlockTableRecord
  2
*Model_Space
340
22
  0
BLOCK_RECORD
  5
1B
330
1
100
AcDbSymbolTableRecord
100
AcDbBlockTableRecord
  2
*Paper_Space
340
1E
  0
BLOCK_RECORD
  5
23
330
1
100
AcDbSymbolTableRecord
100
AcDbBlockTableRecord
  2
*Paper_Space0
340
26
  0
BLOCK_RECORD
  5
132
330
1
100
AcDbSymbolTableRecord
100
AcDbBlockTableRecord
  2
_D
340
0
  0
BLOCK_RECORD
  5
13D
330
1
100
AcDbSymbolTableRecord
100
AcDbBlockTableRecord
  2
_D_1
340
0
  0
BLOCK_RECORD
  5
148
330
1
100
AcDbSymbolTableRecord
100
AcDbBlockTableRecord
  2
_D_2
340
0
  0
BLOCK_RECORD
  5
152
330
1
100
AcDbSymbolTableRecord
100
AcDbBlockTableRecord
  2
_D_3
340
0
  0
BLOCK_RECORD
  5
15D
330
1
100
AcDbSymbolTableRecord
100
AcDbBlockTableRecord
  2
_D_4
340
0
  0
BLOCK_RECORD
  5
167
330
1
100
AcDbSymbolTableRecord
100
AcDbBlockTableRecord
  2
_D_5
340
0
  0
ENDTAB
  0
ENDSEC
  0
SECTION
  2
BLOCKS
  0
BLOCK
  5
20
330
1F
100
AcDbEntity
  8
0
100
AcDbBlockBegin
  2
*Model_Space
 70
     0
 10
0.0
 20
0.0
 30
0.0
  3
*Model_Space
  1
*Model_Space
  0
ENDBLK
  5
21
330
1F
100
AcDbEntity
  8
0
100
AcDbBlockEnd
  0
BLOCK
  5
1C
330
1B
100
AcDbEntity
 67
     1
  8
0
100
AcDbBlockBegin
  2
*Paper_Space
 70
     0
 10
0.0
 20
0.0
 30
0.0
  3
*Paper_Space
  1
*Paper_Space
  0
ENDBLK
  5
1D
330
1B
100
AcDbEntity
 67
     1
  8
0
100
AcDbBlockEnd
  0
BLOCK
  5
24
330
23
100
AcDbEntity
  8
0
100
AcDbBlockBegin
  2
*Paper_Space0
 70
     0
 10
0.0
 20
0.0
 30
0.0
  3
*Paper_Space0
  1
*Paper_Space0
  0
ENDBLK
  5
25
330
23
100
AcDbEntity
  8
0
100
AcDbBlockEnd
  0
BLOCK
  5
133
330
132
100
AcDbEntity
  8
0
100
AcDbBlockBegin
  2
_D
 70
     0
 10
0.0
 20
0.0
 30
0.0
  3
_D
  1
_D
  0
SOLID
  5
135
330
132
100
AcDbEntity
  8
DIM
100
AcDbTrace
 10
168.0087849868
 20
93.2778142186
 30
0.0
 11
167.6459278439
 21
90.91924279
 31
0.0
 12
168.3716421296
 22
90.91924279
 32
0.0
 13
168.3716421296
 23
90.91924279
 33
0.0
  0
SOLID
  5
136
330
132
100
AcDbEntity
  8
DIM
100
AcDbTrace
 10
168.0087849868
 20
71.2778142186
 30
0.0
 11
168.3716421296
 21
73.6363856471
 31
0.0
 12
167.6459278439
 22
73.6363856471
 32
0.0
 13
167.6459278439
 23
73.6363856471
 33
0.0
  0
LINE
  5
137
330
132
100
AcDbEntity
  8
DIM
100
AcDbLine
 10
150.7554621835
 20
93.2778142186
 30
0.0
 11
168.7230707011
 21
93.2778142186
 31
0.0
  0
LINE
  5
138
330
132
100
AcDbEntity
  8
DIM
100
AcDbLine
 10
150.7554621835
 20
71.2778142186
 30
0.0
 11
168.7230707011
 21
71.2778142186
 31
0.0
  0
LINE
  5
139
330
132
100
AcDbEntity
  8
DIM
100
AcDbLine
 10
168.0087849868
 20
93.2778142186
 30
0.0
 11
168.0087849868
 21
71.2778142186
 31
0.0
  0
MTEXT
  5
13A
330
132
100
AcDbEntity
  8
DIM
100
AcDbMText
 10
165.328981796
 20
79.2652827151
 30
0.0
 40
2.0788690476
 41
0.0
 71
     1
 72
     1
  1
%%c
  7
SLDTEXTSTYLE0
 11
-1.059690869644414E-14
 21
1.0
 31
0.0
 73
     1
 44
1.0
  0
MTEXT
  5
13B
330
132
100
AcDbEntity
  8
DIM
100
AcDbMText
 10
165.328981796
 20
82.4800226434
 30
0.0
 40
2.0788690476
 41
0.0
 71
     1
 72
     1
  1
22
  7
SLDTEXTSTYLE0
 11
-1.059690869644414E-14
 21
1.0
 31
0.0
 73
     1
 44
1.0
  0
ENDBLK
  5
134
330
132
100
AcDbEntity
  8
0
100
AcDbBlockEnd
  0
BLOCK
  5
13E
330
13D
100
AcDbEntity
  8
0
100
AcDbBlockBegin
  2
_D_1
 70
     0
 10
0.0
 20
0.0
 30
0.0
  3
_D_1
  1
_D_1
  0
SOLID
  5
140
330
13D
100
AcDbEntity
  8
DIM
100
AcDbTrace
 10
175.4697478978
 20
106.2778142186
 30
0.0
 11
175.1068907549
 21
103.91924279
 31
0.0
 12
175.8326050406
 22
103.91924279
 32
0.0
 13
175.8326050406
 23
103.91924279
 33
0.0
  0
SOLID
  5
141
330
13D
100
AcDbEntity
  8
DIM
100
AcDbTrace
 10
175.4697478978
 20
58.2778142186
 30
0.0
 11
175.8326050406
 21
60.6363856471
 31
0.0
 12
175.1068907549
 22
60.6363856471
 32
0.0
 13
175.1068907549
 23
60.6363856471
 33
0.0
  0
LINE
  5
142
330
13D
100
AcDbEntity
  8
DIM
100
AcDbLine
 10
131.7554621835
 20
106.2778142186
 30
0.0
 11
176.1840336121
 21
106.2778142186
 31
0.0
  0
LINE
  5
143
330
13D
100
AcDbEntity
  8
DIM
100
AcDbLine
 10
131.7554621835
 20
58.2778142186
 30
0.0
 11
176.1840336121
 21
58.2778142186
 31
0.0
  0
LINE
  5
144
330
13D
100
AcDbEntity
  8
DIM
100
AcDbLine
 10
175.4697478978
 20
106.2778142186
 30
0.0
 11
175.4697478978
 21
58.2778142186
 31
0.0
  0
MTEXT
  5
145
330
13D
100
AcDbEntity
  8
DIM
100
AcDbMText
 10
172.789944707
 20
79.2652827151
 30
0.0
 40
2.0788690476
 41
0.0
 71
     1
 72
     1
  1
%%c
  7
SLDTEXTSTYLE0
 11
-1.059690869644414E-14
 21
1.0
 31
0.0
 73
     1
 44
1.0
  0
MTEXT
  5
146
330
13D
100
AcDbEntity
  8
DIM
100
AcDbMText
 10
172.789944707
 20
82.4800226434
 30
0.0
 40
2.0788690476
 41
0.0
 71
     1
 72
     1
  1
48
  7
SLDTEXTSTYLE0
 11
-1.059690869644414E-14
 21
1.0
 31
0.0
 73
     1
 44
1.0
  0
ENDBLK
  5
13F
330
13D
100
AcDbEntity
  8
0
100
AcDbBlockEnd
  0
BLOCK
  5
149
330
148
100
AcDbEntity
  8
0
100
AcDbBlockBegin
  2
_D_2
 70
     0
 10
0.0
 20
0.0
 30
0.0
  3
_D_2
  1
_D_2
  0
SOLID
  5
14B
330
148
100
AcDbEntity
  8
DIM
100
AcDbTrace
 10
151.0411764692
 20
51.4774116094
 30
0.0
 11
148.6826050406
 21
51.8402687523
 31
0.0
 12
148.6826050406
 22
51.1145544665
 32
0.0
 13
148.6826050406
 23
51.1145544665
 33
0.0
  0
SOLID
  5
14C
330
148
100
AcDbEntity
  8
DIM
100
AcDbTrace
 10
132.0411764692
 20
51.4774116094
 30
0.0
 11
134.3997478978
 21
51.1145544665
 31
0.0
 12
134.3997478978
 22
51.8402687523
 32
0.0
 13
134.3997478978
 23
51.8402687523
 33
0.0
  0
LINE
  5
14D
330
148
100
AcDbEntity
  8
DIM
100
AcDbLine
 10
151.0411764692
 20
71.5635285043
 30
0.0
 11
151.0411764692
 21
50.7631258951
 31
0.0
  0
LINE
  5
14E
330
148
100
AcDbEntity
  8
DIM
100
AcDbLine
 10
132.0411764692
 20
58.5635285043
 30
0.0
 11
132.0411764692
 21
50.7631258951
 31
0.0
  0
LINE
  5
14F
330
148
100
AcDbEntity
  8
DIM
100
AcDbLine
 10
151.0411764692
 20
51.4774116094
 30
0.0
 11
132.0411764692
 21
51.4774116094
 31
0.0
  0
MTEXT
  5
150
330
148
100
AcDbEntity
  8
DIM
100
AcDbMText
 10
140.1360149298
 20
54.1572148002
 30
0.0
 40
2.0788690476
 41
0.0
 71
     1
 72
     1
  1
19
  7
SLDTEXTSTYLE0
 73
     1
 44
1.0
  0
ENDBLK
  5
14A
330
148
100
AcDbEntity
  8
0
100
AcDbBlockEnd
  0
BLOCK
  5
153
330
152
100
AcDbEntity
  8
0
100
AcDbBlockBegin
  2
_D_3
 70
     0
 10
0.0
 20
0.0
 30
0.0
  3
_D_3
  1
_D_3
  0
SOLID
  5
155
330
152
100
AcDbEntity
  8
DIM
100
AcDbTrace
 10
132.0411764692
 20
51.4774116094
 30
0.0
 11
129.6826050406
 21
51.8402687523
 31
0.0
 12
129.6826050406
 22
51.1145544665
 32
0.0
 13
129.6826050406
 23
51.1145544665
 33
0.0
  0
SOLID
  5
156
330
152
100
AcDbEntity
  8
DIM
100
AcDbTrace
 10
92.0411764692
 20
51.4774116094
 30
0.0
 11
94.3997478978
 21
51.1145544665
 31
0.0
 12
94.3997478978
 22
51.8402687523
 32
0.0
 13
94.3997478978
 23
51.8402687523
 33
0.0
  0
LINE
  5
157
330
152
100
AcDbEntity
  8
DIM
100
AcDbLine
 10
132.0411764692
 20
58.5635285043
 30
0.0
 11
132.0411764692
 21
50.7631258951
 31
0.0
  0
LINE
  5
158
330
152
100
AcDbEntity
  8
DIM
100
AcDbLine
 10
92.0411764692
 20
65.6885285043
 30
0.0
 11
92.0411764692
 21
50.7631258951
 31
0.0
  0
LINE
  5
159
330
152
100
AcDbEntity
  8
DIM
100
AcDbLine
 10
132.0411764692
 20
51.4774116094
 30
0.0
 11
92.0411764692
 21
51.4774116094
 31
0.0
  0
MTEXT
  5
15A
330
152
100
AcDbEntity
  8
DIM
100
AcDbMText
 10
110.6360149298
 20
54.1572148002
 30
0.0
 40
2.0788690476
 41
0.0
 71
     1
 72
     1
  1
40
  7
SLDTEXTSTYLE0
 73
     1
 44
1.0
  0
ENDBLK
  5
154
330
152
100
AcDbEntity
  8
0
100
AcDbBlockEnd
  0
BLOCK
  5
15E
330
15D
100
AcDbEntity
  8
0
100
AcDbBlockBegin
  2
_D_4
 70
     0
 10
0.0
 20
0.0
 30
0.0
  3
_D_4
  1
_D_4
  0
SOLID
  5
160
330
15D
100
AcDbEntity
  8
DIM
100
AcDbTrace
 10
43.641176469
 20
46.0601791572
 30
0.0
 11
45.9997478976
 21
45.6973220143
 31
0.0
 12
45.9997478976
 22
46.4230363
 32
0.0
 13
45.9997478976
 23
46.4230363
 33
0.0
  0
SOLID
  5
161
330
15D
100
AcDbEntity
  8
DIM
100
AcDbTrace
 10
164.0411764692
 20
46.0601791572
 30
0.0
 11
161.6826050406
 21
46.4230363
 31
0.0
 12
161.6826050406
 22
45.6973220143
 32
0.0
 13
161.6826050406
 23
45.6973220143
 33
0.0
  0
LINE
  5
162
330
15D
100
AcDbEntity
  8
DIM
100
AcDbLine
 10
43.641176469
 20
73.1793000977
 30
0.0
 11
43.641176469
 21
45.3458934429
 31
0.0
  0
LINE
  5
163
330
15D
100
AcDbEntity
  8
DIM
100
AcDbLine
 10
164.0411764692
 20
72.5635285043
 30
0.0
 11
164.0411764692
 21
45.3458934429
 31
0.0
  0
LINE
  5
164
330
15D
100
AcDbEntity
  8
DIM
100
AcDbLine
 10
43.641176469
 20
46.0601791572
 30
0.0
 11
164.0411764692
 21
46.0601791572
 31
0.0
  0
MTEXT
  5
165
330
15D
100
AcDbEntity
  8
DIM
100
AcDbMText
 10
99.9586958834
 20
48.739982348
 30
0.0
 40
2.0788690476
 41
0.0
 71
     1
 72
     1
  1
120.40
  7
SLDTEXTSTYLE0
 73
     1
 44
1.0
  0
ENDBLK
  5
15F
330
15D
100
AcDbEntity
  8
0
100
AcDbBlockEnd
  0
BLOCK
  5
168
330
167
100
AcDbEntity
  8
0
100
AcDbBlockBegin
  2
_D_5
 70
     0
 10
0.0
 20
0.0
 30
0.0
  3
_D_5
  1
_D_5
  0
SOLID
  5
16A
330
167
100
AcDbEntity
  8
DIM
100
AcDbTrace
 10
40.6573266868
 20
105.2778142186
 30
0.0
 11
40.294469544
 21
102.91924279
 31
0.0
 12
41.0201838297
 22
102.91924279
 32
0.0
 13
41.0201838297
 23
102.91924279
 33
0.0
  0
SOLID
  5
16B
330
167
100
AcDbEntity
  8
DIM
100
AcDbTrace
 10
40.6573266868
 20
59.2778142186
 30
0.0
 11
41.0201838297
 21
61.6363856471
 31
0.0
 12
40.294469544
 22
61.6363856471
 32
0.0
 13
40.294469544
 23
61.6363856471
 33
0.0
  0
LINE
  5
16C
330
167
100
AcDbEntity
  8
DIM
100
AcDbLine
 10
94.4925761799
 20
105.2778142186
 30
0.0
 11
39.9430409725
 21
105.2778142186
 31
0.0
  0
LINE
  5
16D
330
167
100
AcDbEntity
  8
DIM
100
AcDbLine
 10
94.4925761799
 20
59.2778142186
 30
0.0
 11
39.9430409725
 21
59.2778142186
 31
0.0
  0
LINE
  5
16E
330
167
100
AcDbEntity
  8
DIM
100
AcDbLine
 10
40.6573266868
 20
105.2778142186
 30
0.0
 11
40.6573266868
 21
59.2778142186
 31
0.0
  0
MTEXT
  5
16F
330
167
100
AcDbEntity
  8
DIM
100
AcDbMText
 10
37.977523496
 20
79.2652827151
 30
0.0
 40
2.0788690476
 41
0.0
 71
     1
 72
     1
  1
%%c
  7
SLDTEXTSTYLE0
 11
-1.059690869644414E-14
 21
1.0
 31
0.0
 73
     1
 44
1.0
  0
MTEXT
  5
170
330
167
100
AcDbEntity
  8
DIM
100
AcDbMText
 10
37.977523496
 20
82.4800226434
 30
0.0
 40
2.0788690476
 41
0.0
 71
     1
 72
     1
  1
46
  7
SLDTEXTSTYLE0
 11
-1.059690869644414E-14
 21
1.0
 31
0.0
 73
     1
 44
1.0
  0
ENDBLK
  5
169
330
167
100
AcDbEntity
  8
0
100
AcDbBlockEnd
  0
ENDSEC
  0
SECTION
  2
ENTITIES
  0
LINE
  5
76
330
1F
100
AcDbEntity
  8
DIM
100
AcDbLine
 10
74.7888747779
 20
6.9935653263
 30
0.0
 11
74.7888747779
 21
3.4221367549
 31
0.0
  0
LINE
  5
77
330
1F
100
AcDbEntity
  8
DIM
100
AcDbLine
 10
181.7640012109
 20
6.9935653263
 30
0.0
 11
181.7640012109
 21
3.4221367549
 31
0.0
  0
LINE
  5
78
330
1F
100
AcDbEntity
  8
DIM
100
AcDbLine
 10
169.6083642368
 20
6.9935653263
 30
0.0
 11
169.6083642368
 21
3.4221367549
 31
0.0
  0
LINE
  5
79
330
1F
100
AcDbEntity
  8
DIM
100
AcDbLine
 10
199.2174462064
 20
3.4221367549
 30
0.0
 11
199.2174462064
 21
6.9935653263
 31
0.0
  0
LINE
  5
7A
330
1F
100
AcDbEntity
  8
DIM
100
AcDbLine
 10
80.3603033493
 20
6.9935653263
 30
0.0
 11
80.3603033493
 21
3.4221367549
 31
0.0
  0
LINE
  5
7B
330
1F
100
AcDbEntity
  8
DIM
100
AcDbLine
 10
94.0681265163
 20
6.9935653263
 30
0.0
 11
94.0681265163
 21
3.4221367549
 31
0.0
  0
LINE
  5
7C
330
1F
100
AcDbEntity
  8
DIM
100
AcDbLine
 10
208.5031604921
 20
3.4221367549
 30
0.0
 11
208.5031604921
 21
55.029279612
 31
0.0
  0
LINE
  5
7D
330
1F
100
AcDbEntity
  8
DIM
100
AcDbLine
 10
204.1564319248
 20
42.8864224692
 30
0.0
 11
208.5031604921
 21
42.8864224692
 31
0.0
  0
LINE
  5
7E
330
1F
100
AcDbEntity
  8
DIM
100
AcDbLine
 10
106.5023934661
 20
6.4578510406
 30
0.0
 11
106.5023934661
 21
3.4221367549
 31
0.0
  0
LINE
  5
7F
330
1F
100
AcDbEntity
  8
DIM
100
AcDbLine
 10
140.5456779717
 20
6.9935653263
 30
0.0
 11
140.5456779717
 21
3.4221367549
 31
0.0
  0
LINE
  5
80
330
1F
100
AcDbEntity
  8
DIM
100
AcDbLine
 10
106.5023934661
 20
6.9935653263
 30
0.0
 11
106.5023934661
 21
6.4578510406
 31
0.0
  0
LINE
  5
81
330
1F
100
AcDbEntity
  8
DIM
100
AcDbLine
 10
204.9317319207
 20
12.5292281835
 30
0.0
 11
208.5031604921
 21
12.5292281835
 31
0.0
  0
LINE
  5
82
330
1F
100
AcDbEntity
  8
DIM
100
AcDbLine
 10
204.9317319207
 20
142.7078510406
 30
0.0
 11
7.0745890636
 21
142.7078510406
 31
0.0
  0
LINE
  5
83
330
1F
100
AcDbEntity
  8
DIM
100
AcDbLine
 10
208.5031604921
 20
146.279279612
 30
0.0
 11
3.5031604921
 21
146.279279612
 31
0.0
  0
LINE
  5
84
330
1F
100
AcDbEntity
  8
DIM
100
AcDbLine
 10
7.0745890636
 20
142.7078510406
 30
0.0
 11
7.0745890636
 21
6.9935653263
 31
0.0
  0
LINE
  5
85
330
1F
100
AcDbEntity
  8
DIM
100
AcDbLine
 10
3.5031604921
 20
146.279279612
 30
0.0
 11
3.5031604921
 21
3.4221367549
 31
0.0
  0
LINE
  5
86
330
1F
100
AcDbEntity
  8
DIM
100
AcDbLine
 10
7.0745890636
 20
39.1364224692
 30
0.0
 11
3.5031604921
 21
39.1364224692
 31
0.0
  0
LINE
  5
87
330
1F
100
AcDbEntity
  8
DIM
100
AcDbLine
 10
3.5031604921
 20
74.8507081835
 30
0.0
 11
7.0745890636
 21
74.8507081835
 31
0.0
  0
LINE
  5
88
330
1F
100
AcDbEntity
  8
DIM
100
AcDbLine
 10
3.5031604921
 20
3.4221367549
 30
0.0
 11
208.5031604921
 21
3.4221367549
 31
0.0
  0
LINE
  5
89
330
1F
100
AcDbEntity
  8
DIM
100
AcDbLine
 10
7.0745890636
 20
6.9935653263
 30
0.0
 11
208.5031604921
 21
6.9935653263
 31
0.0
  0
LINE
  5
8A
330
1F
100
AcDbEntity
  8
DIM
100
AcDbLine
 10
34.5745890636
 20
3.4221367549
 30
0.0
 11
34.5745890636
 21
6.9935653263
 31
0.0
  0
LINE
  5
8B
330
1F
100
AcDbEntity
  8
DIM
100
AcDbLine
 10
70.2888747779
 20
6.9935653263
 30
0.0
 11
70.2888747779
 21
3.4221367549
 31
0.0
  0
LINE
  5
8C
330
1F
100
AcDbEntity
  8
DIM
100
AcDbLine
 10
7.0745890636
 20
110.5649938978
 30
0.0
 11
3.5031604921
 21
110.5649938978
 31
0.0
  0
LINE
  5
8D
330
1F
100
AcDbEntity
  8
DIM
100
AcDbLine
 10
34.5745890636
 20
142.7078510406
 30
0.0
 11
34.5745890636
 21
146.279279612
 31
0.0
  0
LINE
  5
8E
330
1F
100
AcDbEntity
  8
DIM
100
AcDbLine
 10
70.2888747779
 20
146.279279612
 30
0.0
 11
70.2888747779
 21
142.7078510406
 31
0.0
  0
LINE
  5
8F
330
1F
100
AcDbEntity
  8
DIM
100
AcDbLine
 10
106.0031604921
 20
146.279279612
 30
0.0
 11
106.0031604921
 21
142.7078510406
 31
0.0
  0
LINE
  5
90
330
1F
100
AcDbEntity
  8
DIM
100
AcDbLine
 10
204.9317319207
 20
6.9935653263
 30
0.0
 11
204.9317319207
 21
142.7078510406
 31
0.0
  0
LINE
  5
91
330
1F
100
AcDbEntity
  8
DIM
100
AcDbLine
 10
208.5031604921
 20
55.029279612
 30
0.0
 11
208.5031604921
 21
146.279279612
 31
0.0
  0
LINE
  5
92
330
1F
100
AcDbEntity
  8
DIM
100
AcDbLine
 10
208.5031604921
 20
74.8507081835
 30
0.0
 11
204.9317319207
 21
74.8507081835
 31
0.0
  0
LINE
  5
93
330
1F
100
AcDbEntity
  8
DIM
100
AcDbLine
 10
141.7174462064
 20
146.279279612
 30
0.0
 11
141.7174462064
 21
142.7078510406
 31
0.0
  0
LINE
  5
94
330
1F
100
AcDbEntity
  8
DIM
100
AcDbLine
 10
177.4317319207
 20
142.7078510406
 30
0.0
 11
177.4317319207
 21
146.279279612
 31
0.0
  0
LINE
  5
95
330
1F
100
AcDbEntity
  8
DIM
100
AcDbLine
 10
204.9317319207
 20
110.5649938978
 30
0.0
 11
208.5031604921
 21
110.5649938978
 31
0.0
  0
MTEXT
  5
97
330
1F
100
AcDbEntity
  8
DIM
100
AcDbMText
 10
9.532329593
 20
138.5368788474
 30
0.0
 40
3.0238095238
 41
0.0
 71
     1
 72
     1
  1
BT30 FMH22 040 AD/6.3G15000 SL SP.S
  7
SLDTEXTSTYLE0
 73
     1
 44
1.0
  0
MTEXT
  5
99
330
1F
100
AcDbEntity
  8
DIM
 62
     7
100
AcDbMText
 10
141.2376990333
 20
5.5728225188
 30
0.0
 40
1.0704285714
 41
0.0
 71
     1
 72
     1
  1
WEIGHT:
  7
SLDTEXTSTYLE1
 73
     1
 44
1.0
  0
MTEXT
  5
9A
330
1F
100
AcDbEntity
  8
DIM
 62
     7
100
AcDbMText
 10
206.1407691106
 20
58.5290096487
 30
0.0
 40
1.3229166667
 41
0.0
 71
     1
 72
     1
  1
C
  7
SLDTEXTSTYLE1
 73
     1
 44
1.0
  0
MTEXT
  5
9B
330
1F
100
AcDbEntity
  8
DIM
 62
     7
100
AcDbMText
 10
202.1739861568
 20
10.6099871312
 30
0.0
 40
2.0788690476
 41
0.0
 71
     1
 72
     1
  1
A4
  7
SLDTEXTSTYLE1
 73
     1
 44
1.0
  0
MTEXT
  5
9C
330
1F
100
AcDbEntity
  8
DIM
 62
     7
100
AcDbMText
 10
194.6936395398
 20
145.3278627574
 30
0.0
 40
1.3229166667
 41
0.0
 71
     1
 72
     1
  1
6
  7
SLDTEXTSTYLE1
 73
     1
 44
1.0
  0
MTEXT
  5
9D
330
1F
100
AcDbEntity
  8
DIM
 62
     7
100
AcDbMText
 10
158.9793538255
 20
145.3278627574
 30
0.0
 40
1.3229166667
 41
0.0
 71
     1
 72
     1
  1
5
  7
SLDTEXTSTYLE1
 73
     1
 44
1.0
  0
MTEXT
  5
9E
330
1F
100
AcDbEntity
  8
DIM
 62
     7
100
AcDbMText
 10
206.1222138255
 20
129.256434186
 30
0.0
 40
1.3229166667
 41
0.0
 71
     1
 72
     1
  1
A
  7
SLDTEXTSTYLE1
 73
     1
 44
1.0
  0
MTEXT
  5
9F
330
1F
100
AcDbEntity
  8
DIM
 62
     7
100
AcDbMText
 10
206.1222138255
 20
93.5421484717
 30
0.0
 40
1.3229166667
 41
0.0
 71
     1
 72
     1
  1
B
  7
SLDTEXTSTYLE1
 73
     1
 44
1.0
  0
MTEXT
  5
A0
330
1F
100
AcDbEntity
  8
DIM
 62
     7
100
AcDbMText
 10
123.2650681112
 20
145.3278627574
 30
0.0
 40
1.3229166667
 41
0.0
 71
     1
 72
     1
  1
4
  7
SLDTEXTSTYLE1
 73
     1
 44
1.0
  0
MTEXT
  5
A1
330
1F
100
AcDbEntity
  8
DIM
 62
     7
100
AcDbMText
 10
16.419830016
 20
145.3278627574
 30
0.0
 40
1.3229166667
 41
0.0
 71
     1
 72
     1
  1
1
  7
SLDTEXTSTYLE1
 73
     1
 44
1.0
  0
MTEXT
  5
A2
330
1F
100
AcDbEntity
  8
DIM
 62
     7
100
AcDbMText
 10
51.8364966826
 20
145.3278627574
 30
0.0
 40
1.3229166667
 41
0.0
 71
     1
 72
     1
  1
2
  7
SLDTEXTSTYLE1
 73
     1
 44
1.0
  0
MTEXT
  5
A3
330
1F
100
AcDbEntity
  8
DIM
 62
     7
100
AcDbMText
 10
87.5507823969
 20
145.3278627574
 30
0.0
 40
1.3229166667
 41
0.0
 71
     1
 72
     1
  1
3
  7
SLDTEXTSTYLE1
 73
     1
 44
1.0
  0
MTEXT
  5
A4
330
1F
100
AcDbEntity
  8
DIM
 62
     7
100
AcDbMText
 10
4.6936366826
 20
129.256434186
 30
0.0
 40
1.3229166667
 41
0.0
 71
     1
 72
     1
  1
A
  7
SLDTEXTSTYLE1
 73
     1
 44
1.0
  0
MTEXT
  5
A5
330
1F
100
AcDbEntity
  8
DIM
 62
     7
100
AcDbMText
 10
51.8364966826
 20
6.0421484717
 30
0.0
 40
1.3229166667
 41
0.0
 71
     1
 72
     1
  1
2
  7
SLDTEXTSTYLE1
 73
     1
 44
1.0
  0
MTEXT
  5
A6
330
1F
100
AcDbEntity
  8
DIM
 62
     7
100
AcDbMText
 10
16.419830016
 20
6.0421484717
 30
0.0
 40
1.3229166667
 41
0.0
 71
     1
 72
     1
  1
1
  7
SLDTEXTSTYLE1
 73
     1
 44
1.0
  0
MTEXT
  5
A7
330
1F
100
AcDbEntity
  8
DIM
 62
     7
100
AcDbMText
 10
4.6936366826
 20
22.1135770432
 30
0.0
 40
1.3229166667
 41
0.0
 71
     1
 72
     1
  1
D
  7
SLDTEXTSTYLE1
 73
     1
 44
1.0
  0
MTEXT
  5
A8
330
1F
100
AcDbEntity
  8
DIM
 62
     7
100
AcDbMText
 10
4.6936366826
 20
57.8278627574
 30
0.0
 40
1.3229166667
 41
0.0
 71
     1
 72
     1
  1
C
  7
SLDTEXTSTYLE1
 73
     1
 44
1.0
  0
MTEXT
  5
A9
330
1F
100
AcDbEntity
  8
DIM
 62
     7
100
AcDbMText
 10
4.6936366826
 20
93.5421484717
 30
0.0
 40
1.3229166667
 41
0.0
 71
     1
 72
     1
  1
B
  7
SLDTEXTSTYLE1
 73
     1
 44
1.0
  0
MTEXT
  5
AA
330
1F
100
AcDbEntity
  8
DIM
 62
     7
100
AcDbMText
 10
206.1407691106
 20
58.5290096487
 30
0.0
 40
1.3229166667
 41
0.0
 71
     1
 72
     1
  1
C
  7
SLDTEXTSTYLE1
 73
     1
 44
1.0
  0
MTEXT
  5
AC
330
1F
100
AcDbEntity
  8
DIM
 62
     7
100
AcDbMText
 10
183.2324041518
 20
5.4936276653
 30
0.0
 40
1.0714285714
 41
0.0
 71
     1
 72
     1
  1
SHEET 1 OF 1
  7
SLDTEXTSTYLE2
 73
     1
 44
1.0
  0
MTEXT
  5
AD
330
1F
100
AcDbEntity
  8
DIM
 62
     7
100
AcDbMText
 10
107.4084145596
 20
5.6095482026
 30
0.0
 40
1.0714285714
 41
0.0
 71
     1
 72
     1
  1
MATERIAL:
  7
SLDTEXTSTYLE1
 73
     1
 44
1.0
  0
MTEXT
  5
AE
330
1F
100
AcDbEntity
  8
DIM
 62
     7
100
AcDbMText
 10
194.6936395398
 20
145.3278627574
 30
0.0
 40
1.3229166667
 41
0.0
 71
     1
 72
     1
  1
6
  7
SLDTEXTSTYLE1
 73
     1
 44
1.0
  0
MTEXT
  5
AF
330
1F
100
AcDbEntity
  8
DIM
 62
     7
100
AcDbMText
 10
158.9793538255
 20
145.3278627574
 30
0.0
 40
1.3229166667
 41
0.0
 71
     1
 72
     1
  1
5
  7
SLDTEXTSTYLE1
 73
     1
 44
1.0
  0
MTEXT
  5
B0
330
1F
100
AcDbEntity
  8
DIM
 62
     7
100
AcDbMText
 10
206.1222138255
 20
129.256434186
 30
0.0
 40
1.3229166667
 41
0.0
 71
     1
 72
     1
  1
A
  7
SLDTEXTSTYLE1
 73
     1
 44
1.0
  0
MTEXT
  5
B1
330
1F
100
AcDbEntity
  8
DIM
 62
     7
100
AcDbMText
 10
206.1222138255
 20
93.5421484717
 30
0.0
 40
1.3229166667
 41
0.0
 71
     1
 72
     1
  1
B
  7
SLDTEXTSTYLE1
 73
     1
 44
1.0
  0
MTEXT
  5
B2
330
1F
100
AcDbEntity
  8
DIM
 62
     7
100
AcDbMText
 10
123.2650681112
 20
145.3278627574
 30
0.0
 40
1.3229166667
 41
0.0
 71
     1
 72
     1
  1
4
  7
SLDTEXTSTYLE1
 73
     1
 44
1.0
  0
MTEXT
  5
B3
330
1F
100
AcDbEntity
  8
DIM
 62
     7
100
AcDbMText
 10
16.419830016
 20
145.3278627574
 30
0.0
 40
1.3229166667
 41
0.0
 71
     1
 72
     1
  1
1
  7
SLDTEXTSTYLE1
 73
     1
 44
1.0
  0
MTEXT
  5
B4
330
1F
100
AcDbEntity
  8
DIM
 62
     7
100
AcDbMText
 10
51.8364966826
 20
145.3278627574
 30
0.0
 40
1.3229166667
 41
0.0
 71
     1
 72
     1
  1
2
  7
SLDTEXTSTYLE1
 73
     1
 44
1.0
  0
MTEXT
  5
B5
330
1F
100
AcDbEntity
  8
DIM
 62
     7
100
AcDbMText
 10
87.5507823969
 20
145.3278627574
 30
0.0
 40
1.3229166667
 41
0.0
 71
     1
 72
     1
  1
3
  7
SLDTEXTSTYLE1
 73
     1
 44
1.0
  0
MTEXT
  5
B6
330
1F
100
AcDbEntity
  8
DIM
 62
     7
100
AcDbMText
 10
4.6936366826
 20
129.256434186
 30
0.0
 40
1.3229166667
 41
0.0
 71
     1
 72
     1
  1
A
  7
SLDTEXTSTYLE1
 73
     1
 44
1.0
  0
MTEXT
  5
B7
330
1F
100
AcDbEntity
  8
DIM
 62
     7
100
AcDbMText
 10
51.8364966826
 20
6.0421484717
 30
0.0
 40
1.3229166667
 41
0.0
 71
     1
 72
     1
  1
2
  7
SLDTEXTSTYLE1
 73
     1
 44
1.0
  0
MTEXT
  5
B8
330
1F
100
AcDbEntity
  8
DIM
 62
     7
100
AcDbMText
 10
16.419830016
 20
6.0421484717
 30
0.0
 40
1.3229166667
 41
0.0
 71
     1
 72
     1
  1
1
  7
SLDTEXTSTYLE1
 73
     1
 44
1.0
  0
MTEXT
  5
B9
330
1F
100
AcDbEntity
  8
DIM
 62
     7
100
AcDbMText
 10
4.6936366826
 20
22.1135770432
 30
0.0
 40
1.3229166667
 41
0.0
 71
     1
 72
     1
  1
D
  7
SLDTEXTSTYLE1
 73
     1
 44
1.0
  0
MTEXT
  5
BA
330
1F
100
AcDbEntity
  8
DIM
 62
     7
100
AcDbMText
 10
4.6936366826
 20
57.8278627574
 30
0.0
 40
1.3229166667
 41
0.0
 71
     1
 72
     1
  1
C
  7
SLDTEXTSTYLE1
 73
     1
 44
1.0
  0
MTEXT
  5
BB
330
1F
100
AcDbEntity
  8
DIM
 62
     7
100
AcDbMText
 10
4.6936366826
 20
93.5421484717
 30
0.0
 40
1.3229166667
 41
0.0
 71
     1
 72
     1
  1
B
  7
SLDTEXTSTYLE1
 73
     1
 44
1.0
  0
LINE
  5
BC
330
1F
100
AcDbEntity
  8
0
  6
Continuous
 62
     7
370
    15
100
AcDbLine
 10
121.3301903102
 20
58.2778142186
 30
0.0
 11
131.0411764692
 21
58.2778142186
 31
0.0
  0
LINE
  5
BD
330
1F
100
AcDbEntity
  8
0
  6
Continuous
 62
     7
370
    15
100
AcDbLine
 10
131.0411764692
 20
106.2778142186
 30
0.0
 11
121.3301903102
 21
106.2778142186
 31
0.0
  0
LINE
  5
BE
330
1F
100
AcDbEntity
  8
0
  6
Continuous
 62
     7
370
    15
100
AcDbLine
 10
121.3301903102
 20
106.2778142186
 30
0.0
 11
117.0411764692
 21
104.2778142186
 31
0.0
  0
LINE
  5
BF
330
1F
100
AcDbEntity
  8
0
  6
Continuous
 62
     7
370
    15
100
AcDbLine
 10
117.0411764692
 20
60.2778142186
 30
0.0
 11
121.3301903102
 21
58.2778142186
 31
0.0
  0
LINE
  5
C0
330
1F
100
AcDbEntity
  8
0
  6
Continuous
 62
     7
370
    15
100
AcDbLine
 10
131.0411764692
 20
58.2778142186
 30
0.0
 11
132.0411764692
 21
59.2778142186
 31
0.0
  0
LINE
  5
C1
330
1F
100
AcDbEntity
  8
0
  6
Continuous
 62
     7
370
    15
100
AcDbLine
 10
132.0411764692
 20
105.2778142186
 30
0.0
 11
131.0411764692
 21
106.2778142186
 31
0.0
  0
LINE
  5
C2
330
1F
100
AcDbEntity
  8
0
  6
Continuous
 62
     7
370
    15
100
AcDbLine
 10
109.6126278234
 20
59.2778142186
 30
0.0
 11
112.8754910442
 21
59.2778142186
 31
0.0
  0
LINE
  5
C3
330
1F
100
AcDbEntity
  8
0
  6
Continuous
 62
     7
370
    15
100
AcDbLine
 10
112.8754910442
 20
105.2778142186
 30
0.0
 11
109.6126278234
 21
105.2778142186
 31
0.0
  0
LINE
  5
C4
330
1F
100
AcDbEntity
  8
0
  6
Continuous
 62
     7
370
    15
100
AcDbLine
 10
109.6126278234
 20
105.2778142186
 30
0.0
 11
107.6411764692
 21
101.8631603085
 31
0.0
  0
LINE
  5
C5
330
1F
100
AcDbEntity
  8
0
  6
Continuous
 62
     7
370
    15
100
AcDbLine
 10
107.6411764692
 20
62.6924681286
 30
0.0
 11
109.6126278234
 21
59.2778142186
 31
0.0
  0
LINE
  5
C6
330
1F
100
AcDbEntity
  8
0
  6
Continuous
 62
     7
370
    15
100
AcDbLine
 10
101.6751917539
 20
59.2778142186
 30
0.0
 11
103.6411764692
 21
62.6829996324
 31
0.0
  0
LINE
  5
C7
330
1F
100
AcDbEntity
  8
0
  6
Continuous
 62
     7
370
    15
100
AcDbLine
 10
103.6411764692
 20
101.8726288047
 30
0.0
 11
101.6751917539
 21
105.2778142186
 31
0.0
  0
LINE
  5
C8
330
1F
100
AcDbEntity
  8
0
  6
Continuous
 62
     7
370
    15
100
AcDbLine
 10
95.2068618942
 20
59.2778142186
 30
0.0
 11
101.6751917539
 21
59.2778142186
 31
0.0
  0
LINE
  5
C9
330
1F
100
AcDbEntity
  8
0
  6
Continuous
 62
     7
370
    15
100
AcDbLine
 10
101.6751917539
 20
105.2778142186
 30
0.0
 11
95.2068618942
 21
105.2778142186
 31
0.0
  0
LINE
  5
CA
330
1F
100
AcDbEntity
  8
0
  6
Continuous
 62
     7
370
    15
100
AcDbLine
 10
94.9240191812
 20
105.1606569306
 30
0.0
 11
94.1583337565
 21
104.3949715058
 31
0.0
  0
LINE
  5
CB
330
1F
100
AcDbEntity
  8
0
  6
Continuous
 62
     7
370
    15
100
AcDbLine
 10
94.1583337565
 20
60.1606569313
 30
0.0
 11
94.924019182
 21
59.3949715057
 31
0.0
  0
LINE
  5
CC
330
1F
100
AcDbEntity
  8
0
  6
Continuous
 62
     7
370
    15
100
AcDbLine
 10
113.1583337572
 20
59.3949715066
 30
0.0
 11
113.9240191819
 21
60.1606569313
 31
0.0
  0
LINE
  5
CD
330
1F
100
AcDbEntity
  8
0
  6
Continuous
 62
     7
370
    15
100
AcDbLine
 10
113.9240191819
 20
104.3949715058
 30
0.0
 11
113.1583337572
 21
105.1606569306
 31
0.0
  0
LINE
  5
CE
330
1F
100
AcDbEntity
  8
0
  6
Continuous
 62
     7
370
    15
100
AcDbLine
 10
114.0411764692
 20
60.2778142186
 30
0.0
 11
117.0411764692
 21
60.2778142186
 31
0.0
  0
LINE
  5
CF
330
1F
100
AcDbEntity
  8
0
  6
Continuous
 62
     7
370
    15
100
AcDbLine
 10
117.0411764692
 20
104.2778142186
 30
0.0
 11
114.0411764692
 21
104.2778142186
 31
0.0
  0
SPLINE
  5
D0
330
1F
100
AcDbEntity
  8
0
  6
Continuous
 62
     7
370
    15
100
AcDbSpline
210
0.0
220
0.0
230
1.0
 70
     8
 71
     3
 72
    11
 73
     7
 74
     0
 42
0.000000001
 43
0.00000001
 40
0.0
 40
0.0
 40
0.0
 40
0.0
 40
0.2475748603873592
 40
0.4999999989910825
 40
0.7524251381134394
 40
1.0
 40
1.0
 40
1.0
 40
1.0
 10
94.92401918160978
 20
59.39497150768778
 30
0.0
 10
94.94338420446995
 20
59.37765857762384
 30
0.0
 10
94.98249363341355
 20
59.34269353714695
 30
0.0
 10
95.05291394421133
 20
59.3061509921009
 30
0.0
 10
95.1285481048836
 20
59.28219579373898
 30
0.0
 10
95.18092666461301
 20
59.27926526819549
 30
0.0
 10
95.20686189394233
 20
59.27781421928506
 30
0.0
  0
SPLINE
  5
D1
330
1F
100
AcDbEntity
  8
0
  6
Continuous
 62
     7
370
    15
100
AcDbSpline
210
0.0
220
0.0
230
1.0
 70
     8
 71
     3
 72
    24
 73
    20
 74
     0
 42
0.000000001
 43
0.00000001
 40
0.0
 40
0.0
 40
0.0
 40
0.0
 40
0.0007135608376232
 40
0.0033546820101263
 40
0.0042631008752546
 40
0.0049380770415237
 40
0.0052134814848178
 40
0.0054688076831307
 40
0.0057260706880456
 40
0.0060066579716507
 40
0.0066965386496631
 40
0.008173715466701
 40
0.0102562264117486
 40
0.0189105535864933
 40
0.0497982474544557
 40
0.1635524518359881
 40
0.3412929675330987
 40
0.7423735396149005
 40
1.0
 40
1.0
 40
1.0
 40
1.0
 10
94.04961150299917
 20
61.31854976046351
 30
0.0
 10
94.04963562752546
 20
61.31857359825991
 30
0.0
 10
94.04974904478443
 20
61.31868566750826
 30
0.0
 10
94.04996841465706
 20
61.31848395263092
 30
0.0
 10
94.05028318117445
 20
61.3177961925337
 30
0.0
 10
94.05047752103886
 20
61.3172078801838
 30
0.0
 10
94.05063826578022
 20
61.31661075046195
 30
0.0
 10
94.05075376870315
 20
61.31613504264934
 30
0.0
 10
94.05086995553512
 20
61.31561059795114
 30
0.0
 10
94.05103441381273
 20
61.31480483927918
 30
0.0
 10
94.05129670359413
 20
61.31335387385661
 30
0.0
 10
94.0516089634338
 20
61.31132477164393
 30
0.0
 10
94.05227784351864
 20
61.30635848729209
 30
0.0
 10
94.05366593657622
 20
61.29293154686209
 30
0.0
 10
94.05681756412415
 20
61.2519037969321
 30
0.0
 10
94.06111510732255
 20
61.17710604007977
 30
0.0
 10
94.06903163891522
 20
61.03008708044796
 30
0.0
 10
94.07740805994335
 20
60.86894471045709
 30
0.0
 10
94.08396968644075
 20
60.76983975357664
 30
0.0
 10
94.0865359997266
 20
60.73107888115645
 30
0.0
  0
LINE
  5
D2
330
1F
100
AcDbEntity
  8
0
  6
Continuous
 62
     7
370
    15
100
AcDbLine
 10
103.6411764692
 20
63.2778142186
 30
0.0
 11
107.6411764692
 21
63.2778142186
 31
0.0
  0
LINE
  5
D3
330
1F
100
AcDbEntity
  8
0
  6
Continuous
 62
     7
370
    15
100
AcDbLine
 10
107.6411764692
 20
101.2778142186
 30
0.0
 11
103.6411764692
 21
101.2778142186
 31
0.0
  0
LINE
  5
D4
330
1F
100
AcDbEntity
  8
0
  6
Continuous
 62
     7
370
    15
100
AcDbLine
 10
92.0411764692
 20
98.1528142186
 30
0.0
 11
44.0690223552
 21
91.1568090206
 31
0.0
  0
LINE
  5
D5
330
1F
100
AcDbEntity
  8
0
  6
Continuous
 62
     7
370
    15
100
AcDbLine
 10
44.0690223552
 20
73.3988194166
 30
0.0
 11
92.0411764692
 21
66.4028142186
 31
0.0
  0
LINE
  5
D6
330
1F
100
AcDbEntity
  8
0
  6
Continuous
 62
     7
370
    15
100
AcDbLine
 10
92.0411764692
 20
66.4028142186
 30
0.0
 11
92.6309158722
 21
66.6778142186
 31
0.0
  0
LINE
  5
D7
330
1F
100
AcDbEntity
  8
0
  6
Continuous
 62
     7
370
    15
100
AcDbLine
 10
92.6309158722
 20
97.8778142186
 30
0.0
 11
92.0411764692
 21
98.1528142186
 31
0.0
  0
LINE
  5
D8
330
1F
100
AcDbEntity
  8
0
  6
Continuous
 62
     7
370
    15
100
AcDbLine
 10
92.6309158722
 20
66.6778142186
 30
0.0
 11
93.5411764698
 21
66.6778142186
 31
0.0
  0
LINE
  5
D9
330
1F
100
AcDbEntity
  8
0
  6
Continuous
 62
     7
370
    15
100
AcDbLine
 10
93.5411764698
 20
97.8778142186
 30
0.0
 11
92.6309158722
 21
97.8778142186
 31
0.0
  0
LINE
  5
DA
330
1F
100
AcDbEntity
  8
0
  6
Continuous
 62
     7
370
    15
100
AcDbLine
 10
134.5773031992
 20
93.2778142186
 30
0.0
 11
134.0411764692
 21
93.0278142186
 31
0.0
  0
LINE
  5
DB
330
1F
100
AcDbEntity
  8
0
  6
Continuous
 62
     7
370
    15
100
AcDbLine
 10
134.0411764692
 20
71.5278142186
 30
0.0
 11
134.5773031992
 21
71.2778142186
 31
0.0
  0
LINE
  5
DC
330
1F
100
AcDbEntity
  8
0
  6
Continuous
 62
     7
370
    15
100
AcDbLine
 10
150.0411764692
 20
71.2778142186
 30
0.0
 11
151.0411764692
 21
72.2778142186
 31
0.0
  0
LINE
  5
DD
330
1F
100
AcDbEntity
  8
0
  6
Continuous
 62
     7
370
    15
100
AcDbLine
 10
151.0411764692
 20
92.2778142186
 30
0.0
 11
150.0411764692
 21
93.2778142186
 31
0.0
  0
LINE
  5
DE
330
1F
100
AcDbEntity
  8
0
  6
Continuous
 62
     7
370
    15
100
AcDbLine
 10
134.5773031992
 20
71.2778142186
 30
0.0
 11
150.0411764692
 21
71.2778142186
 31
0.0
  0
LINE
  5
DF
330
1F
100
AcDbEntity
  8
0
  6
Continuous
 62
     7
370
    15
100
AcDbLine
 10
150.0411764692
 20
93.2778142186
 30
0.0
 11
134.5773031992
 21
93.2778142186
 31
0.0
  0
LINE
  5
E0
330
1F
100
AcDbEntity
  8
0
  6
Continuous
 62
     7
370
    15
100
AcDbLine
 10
132.5411764686
 20
71.5278142186
 30
0.0
 11
134.0411764692
 21
71.5278142186
 31
0.0
  0
LINE
  5
E1
330
1F
100
AcDbEntity
  8
0
  6
Continuous
 62
     7
370
    15
100
AcDbLine
 10
134.0411764692
 20
93.0278142186
 30
0.0
 11
132.5411764686
 21
93.0278142186
 31
0.0
  0
LINE
  5
E2
330
1F
100
AcDbEntity
  8
0
  6
Continuous
 62
     7
370
    15
100
AcDbLine
 10
163.0411764692
 20
72.2778142186
 30
0.0
 11
164.0411764692
 21
73.2778142186
 31
0.0
  0
LINE
  5
E3
330
1F
100
AcDbEntity
  8
0
  6
Continuous
 62
     7
370
    15
100
AcDbLine
 10
164.0411764692
 20
91.2778142186
 30
0.0
 11
163.0411764692
 21
92.2778142186
 31
0.0
  0
LINE
  5
E4
330
1F
100
AcDbEntity
  8
0
  6
Continuous
 62
     7
370
    15
100
AcDbLine
 10
158.0411764692
 20
72.2778142186
 30
0.0
 11
163.0411764692
 21
72.2778142186
 31
0.0
  0
LINE
  5
E5
330
1F
100
AcDbEntity
  8
0
  6
Continuous
 62
     7
370
    15
100
AcDbLine
 10
163.0411764692
 20
92.2778142186
 30
0.0
 11
158.0411764692
 21
92.2778142186
 31
0.0
  0
LINE
  5
E6
330
1F
100
AcDbEntity
  8
0
  6
Continuous
 62
     7
370
    15
100
AcDbLine
 10
158.0411764692
 20
92.2778142186
 30
0.0
 11
157.0411764692
 21
91.2778142186
 31
0.0
  0
LINE
  5
E7
330
1F
100
AcDbEntity
  8
0
  6
Continuous
 62
     7
370
    15
100
AcDbLine
 10
157.0411764692
 20
73.2778142186
 30
0.0
 11
158.0411764692
 21
72.2778142186
 31
0.0
  0
LINE
  5
E8
330
1F
100
AcDbEntity
  8
0
  6
Continuous
 62
     7
370
    15
100
AcDbLine
 10
151.0411764692
 20
78.2778142186
 30
0.0
 11
157.0411764692
 21
78.2778142186
 31
0.0
  0
LINE
  5
E9
330
1F
100
AcDbEntity
  8
0
  6
Continuous
 62
     7
370
    15
100
AcDbLine
 10
157.0411764692
 20
86.2778142186
 30
0.0
 11
151.0411764692
 21
86.2778142186
 31
0.0
  0
LINE
  5
EA
330
1F
100
AcDbEntity
  8
0
  6
Continuous
 62
     7
370
    15
100
AcDbLine
 10
131.0411764692
 20
106.2778142186
 30
0.0
 11
131.0411764692
 21
58.2778142186
 31
0.0
  0
LINE
  5
EB
330
1F
100
AcDbEntity
  8
0
  6
Continuous
 62
     7
370
    15
100
AcDbLine
 10
121.3301903102
 20
106.2778142186
 30
0.0
 11
121.3301903102
 21
58.2778142186
 31
0.0
  0
LINE
  5
EC
330
1F
100
AcDbEntity
  8
0
  6
Continuous
 62
     7
370
    15
100
AcDbLine
 10
117.0411764692
 20
104.2778142186
 30
0.0
 11
117.0411764692
 21
60.2778142186
 31
0.0
  0
LINE
  5
ED
330
1F
100
AcDbEntity
  8
0
  6
Continuous
 62
     7
370
    15
100
AcDbLine
 10
132.0411764692
 20
82.2778142186
 30
0.0
 11
132.0411764692
 21
59.2778142186
 31
0.0
  0
LINE
  5
EE
330
1F
100
AcDbEntity
  8
0
  6
Continuous
 62
     7
370
    15
100
AcDbLine
 10
132.0411764692
 20
105.2778142186
 30
0.0
 11
132.0411764692
 21
82.2778142186
 31
0.0
  0
LINE
  5
EF
330
1F
100
AcDbEntity
  8
0
  6
Continuous
 62
     7
370
    15
100
AcDbLine
 10
109.6126278234
 20
59.2778142186
 30
0.0
 11
109.6126278234
 21
105.2778142186
 31
0.0
  0
LINE
  5
F0
330
1F
100
AcDbEntity
  8
0
  6
Continuous
 62
     7
370
    15
100
AcDbLine
 10
112.8754910442
 20
105.2778142186
 30
0.0
 11
112.8754910442
 21
59.2778142186
 31
0.0
  0
LINE
  5
F1
330
1F
100
AcDbEntity
  8
0
  6
Continuous
 62
     7
370
    15
100
AcDbLine
 10
113.1583337572
 20
59.3949715066
 30
0.0
 11
113.1583337572
 21
105.1606569306
 31
0.0
  0
SPLINE
  5
F2
330
1F
100
AcDbEntity
  8
0
  6
Continuous
 62
     7
370
    15
100
AcDbSpline
210
0.0
220
0.0
230
1.0
 70
     8
 71
     3
 72
    10
 73
     6
 74
     0
 42
0.000000001
 43
0.00000001
 40
0.0
 40
0.0
 40
0.0
 40
0.0
 40
0.5
 40
0.5
 40
1.0
 40
1.0
 40
1.0
 40
1.0
 10
112.8754910441738
 20
59.27781421855229
 30
0.0
 10
112.9265155020175
 20
59.27781421844113
 30
0.0
 10
112.9795588000172
 20
59.28796361412603
 30
0.0
 10
113.0775700345219
 20
59.32856119680204
 30
0.0
 10
113.1222540165298
 20
59.35889176598011
 30
0.0
 10
113.1583337563513
 20
59.39497150582759
 30
0.0
  0
SPLINE
  5
F3
330
1F
100
AcDbEntity
  8
0
  6
Continuous
 62
     7
370
    15
100
AcDbSpline
210
0.0
220
0.0
230
1.0
 70
     8
 71
     3
 72
    10
 73
     6
 74
     0
 42
0.000000001
 43
0.00000001
 40
0.0
 40
0.0
 40
0.0
 40
0.0
 40
0.5
 40
0.5
 40
1.0
 40
1.0
 40
1.0
 40
1.0
 10
112.8754910441738
 20
105.2778142185885
 30
0.0
 10
112.9265155020175
 20
105.2778142186997
 30
0.0
 10
112.9795588000172
 20
105.2676648230148
 30
0.0
 10
113.0775700345219
 20
105.2270672403388
 30
0.0
 10
113.1222540165298
 20
105.1967366711607
 30
0.0
 10
113.1583337563513
 20
105.1606569313132
 30
0.0
  0
LINE
  5
F4
330
1F
100
AcDbEntity
  8
0
  6
Continuous
 62
     7
370
    15
100
AcDbLine
 10
107.6411764692
 20
62.6924681286
 30
0.0
 11
107.6411764692
 21
101.8631603085
 31
0.0
  0
LINE
  5
F5
330
1F
100
AcDbEntity
  8
0
  6
Continuous
 62
     7
370
    15
100
AcDbLine
 10
101.6751917539
 20
59.2778142186
 30
0.0
 11
101.6751917539
 21
105.2778142186
 31
0.0
  0
LINE
  5
F6
330
1F
100
AcDbEntity
  8
0
  6
Continuous
 62
     7
370
    15
100
AcDbLine
 10
103.6411764692
 20
62.6829996324
 30
0.0
 11
103.6411764692
 21
101.8726288047
 31
0.0
  0
LINE
  5
F7
330
1F
100
AcDbEntity
  8
0
  6
Continuous
 62
     7
370
    15
100
AcDbLine
 10
95.2068618937
 20
90.9702313588
 30
0.0
 11
95.2068618942
 21
105.2778142186
 31
0.0
  0
LINE
  5
F8
330
1F
100
AcDbEntity
  8
0
  6
Continuous
 62
     7
370
    15
100
AcDbLine
 10
95.2068618942
 20
73.7231637469
 30
0.0
 11
95.2068618942
 21
90.9702313591
 31
0.0
  0
LINE
  5
F9
330
1F
100
AcDbEntity
  8
0
  6
Continuous
 62
     7
370
    15
100
AcDbLine
 10
94.9240191816
 20
73.813313312
 30
0.0
 11
94.9240191816
 21
90.8234700865
 31
0.0
  0
SPLINE
  5
FA
330
1F
100
AcDbEntity
  8
0
  6
Continuous
 62
     7
370
    15
100
AcDbSpline
210
0.0
220
0.0
230
1.0
 70
     8
 71
     3
 72
    10
 73
     6
 74
     0
 42
0.000000001
 43
0.00000001
 40
0.0
 40
0.0
 40
0.0
 40
0.0
 40
0.5
 40
0.5
 40
1.0
 40
1.0
 40
1.0
 40
1.0
 10
94.9240191804628
 20
90.82347008455048
 30
0.0
 10
94.95728177213564
 20
90.86523340246973
 30
0.0
 10
94.99810025868008
 20
90.90171577613654
 30
0.0
 10
95.09441732730329
 20
90.95455891022723
 30
0.0
 10
95.14990958933429
 20
90.97023135891764
 30
0.0
 10
95.20686189330006
 20
90.97023135897302
 30
0.0
  0
SPLINE
  5
FB
330
1F
100
AcDbEntity
  8
0
  6
Continuous
 62
     7
370
    15
100
AcDbSpline
210
0.0
220
0.0
230
1.0
 70
     8
 71
     3
 72
     8
 73
     4
 74
     0
 42
0.000000001
 43
0.00000001
 40
0.0
 40
0.0
 40
0.0
 40
0.0
 40
1.0
 40
1.0
 40
1.0
 40
1.0
 10
95.20686189317027
 20
73.72316374695173
 30
0.0
 10
95.09963210076441
 20
73.72316374714359
 30
0.0
 10
94.99649119669331
 20
73.7575216264515
 30
0.0
 10
94.9240191816098
 20
73.81331331209061
 30
0.0
  0
LINE
  5
FC
330
1F
100
AcDbEntity
  8
0
  6
Continuous
 62
     7
370
    15
100
AcDbLine
 10
94.1583337564
 20
73.6449715058
 30
0.0
 11
94.1583337564
 21
90.9106569313
 31
0.0
  0
LINE
  5
FD
330
1F
100
AcDbEntity
  8
0
  6
Continuous
 62
     7
370
    15
100
AcDbLine
 10
94.1583337586
 20
90.9106569292
 30
0.0
 11
94.1583337565
 21
104.3949715057
 31
0.0
  0
LINE
  5
FE
330
1F
100
AcDbEntity
  8
0
  6
Continuous
 62
     7
370
    15
100
AcDbLine
 10
94.924019182
 20
105.1606569314
 30
0.0
 11
94.924019182
 21
90.8234700848
 31
0.0
  0
LINE
  5
FF
330
1F
100
AcDbEntity
  8
0
  6
Continuous
 62
     7
370
    15
100
AcDbLine
 10
113.9240191819
 20
104.3949715057
 30
0.0
 11
113.9240191819
 21
60.1606569314
 31
0.0
  0
SPLINE
  5
100
330
1F
100
AcDbEntity
  8
0
  6
Continuous
 62
     7
370
    15
100
AcDbSpline
210
0.0
220
0.0
230
1.0
 70
     8
 71
     3
 72
    10
 73
     6
 74
     0
 42
0.000000001
 43
0.00000001
 40
0.0
 40
0.0
 40
0.0
 40
0.0
 40
0.5
 40
0.5
 40
1.0
 40
1.0
 40
1.0
 40
1.0
 10
113.9240191819425
 20
60.16065693141881
 30
0.0
 10
113.96009892179
 20
60.19673667124028
 30
0.0
 10
113.9904294909681
 20
60.24142065324825
 30
0.0
 10
114.0310270736441
 20
60.33943188775294
 30
0.0
 10
114.041176469329
 20
60.39247518575261
 30
0.0
 10
114.0411764692178
 20
60.44349964359633
 30
0.0
  0
SPLINE
  5
101
330
1F
100
AcDbEntity
  8
0
  6
Continuous
 62
     7
370
    15
100
AcDbSpline
210
0.0
220
0.0
230
1.0
 70
     8
 71
     3
 72
    10
 73
     6
 74
     0
 42
0.000000001
 43
0.00000001
 40
0.0
 40
0.0
 40
0.0
 40
0.0
 40
0.5
 40
0.5
 40
1.0
 40
1.0
 40
1.0
 40
1.0
 10
113.9240191819425
 20
104.394971505722
 30
0.0
 10
113.96009892179
 20
104.3588917659005
 30
0.0
 10
113.9904294909681
 20
104.3142077838926
 30
0.0
 10
114.0310270736441
 20
104.2161965493879
 30
0.0
 10
114.041176469329
 20
104.1631532513882
 30
0.0
 10
114.0411764692178
 20
104.1121287935445
 30
0.0
  0
LINE
  5
102
330
1F
100
AcDbEntity
  8
0
  6
Continuous
 62
     7
370
    15
100
AcDbLine
 10
94.0411764692
 20
73.5278142186
 30
0.0
 11
94.0411764692
 21
91.0278142186
 31
0.0
  0
SPLINE
  5
103
330
1F
100
AcDbEntity
  8
0
  6
Continuous
 62
     7
370
    15
100
AcDbSpline
210
0.0
220
0.0
230
1.0
 70
    24
 71
     3
 72
    10
 73
     6
 74
     0
 42
0.000000001
 43
0.00000001
 40
0.0
 40
0.0
 40
0.0
 40
0.0
 40
0.5
 40
0.5
 40
1.0
 40
1.0
 40
1.0
 40
1.0
 10
94.04117646918158
 20
91.02781421858855
 30
0.0
 10
94.04117646898311
 20
91.027814218787
 30
0.0
 10
94.0552679644896
 20
91.01372272328052
 30
0.0
 10
94.09740846019591
 20
90.9715822275742
 30
0.0
 10
94.1256123097922
 20
90.94337837797792
 30
0.0
 10
94.15833375892623
 20
90.91065692884389
 30
0.0
  0
SPLINE
  5
104
330
1F
100
AcDbEntity
  8
0
  6
Continuous
 62
     7
370
    15
100
AcDbSpline
210
0.0
220
0.0
230
1.0
 70
    24
 71
     3
 72
    10
 73
     6
 74
     0
 42
0.000000001
 43
0.00000001
 40
0.0
 40
0.0
 40
0.0
 40
0.0
 40
0.5
 40
0.5
 40
1.0
 40
1.0
 40
1.0
 40
1.0
 10
94.15833375922324
 20
73.64497150859394
 30
0.0
 10
94.12566011525837
 20
73.61229786462908
 30
0.0
 10
94.0977143487862
 20
73.5843520981569
 30
0.0
 10
94.05513996842247
 20
73.54177771779318
 30
0.0
 10
94.04117646928464
 20
73.52781421865534
 30
0.0
 10
94.04117646918158
 20
73.52781421855228
 30
0.0
  0
LINE
  5
105
330
1F
100
AcDbEntity
  8
0
  6
Continuous
 62
     7
370
    15
100
AcDbLine
 10
114.0411764692
 20
60.2778142186
 30
0.0
 11
114.0411764692
 21
104.2778142186
 31
0.0
  0
SPLINE
  5
106
330
1F
100
AcDbEntity
  8
0
  6
Continuous
 62
     7
370
    15
100
AcDbSpline
210
0.0
220
0.0
230
1.0
 70
     8
 71
     3
 72
    10
 73
     6
 74
     0
 42
0.000000001
 43
0.00000001
 40
0.0
 40
0.0
 40
0.0
 40
0.0
 40
0.5
 40
0.5
 40
1.0
 40
1.0
 40
1.0
 40
1.0
 10
94.92401918166568
 20
105.1606569309308
 30
0.0
 10
94.9600989214924
 20
105.1967366708811
 30
0.0
 10
95.00478290354552
 20
105.2270672401609
 30
0.0
 10
95.10279413819482
 20
105.2676648229775
 30
0.0
 10
95.15583743629176
 20
105.2778142186997
 30
0.0
 10
95.20686189422563
 20
105.2778142185885
 30
0.0
  0
SPLINE
  5
107
330
1F
100
AcDbEntity
  8
0
  6
Continuous
 62
     7
370
    15
100
AcDbSpline
210
0.0
220
0.0
230
1.0
 70
    24
 71
     3
 72
    23
 73
    19
 74
     0
 42
0.000000001
 43
0.00000001
 40
0.0
 40
0.0
 40
0.0
 40
0.0
 40
0.0516067122138672
 40
0.1261480475390842
 40
0.2011342032105713
 40
0.2761049185885429
 40
0.350646457240975
 40
0.4246490615674902
 40
0.496744934820206
 40
0.5675635041585504
 40
0.6370109480115513
 40
0.6866554340445379
 40
0.7363166361332718
 40
0.7832064516165944
 40
0.8301126933436787
 40
0.8887153766003656
 40
0.9453642351569485
 40
1.0
 40
1.0
 40
1.0
 40
1.0
 10
94.0411764691997
 20
61.39139030555631
 30
0.0
 10
94.0411764691997
 20
61.23589718160528
 30
0.0
 10
94.0411764691997
 20
60.85580798098177
 30
0.0
 10
94.0411764691997
 20
60.53489076366019
 30
0.0
 10
94.0411764691997
 20
60.39897955709084
 30
0.0
 10
94.0411764691997
 20
60.52967098412426
 30
0.0
 10
94.0411764691997
 20
60.91208196163585
 30
0.0
 10
94.0411764691997
 20
61.53564080068211
 30
0.0
 10
94.0411764691997
 20
62.37832417514422
 30
0.0
 10
94.0411764691997
 20
63.41489892064736
 30
0.0
 10
94.0411764691997
 20
64.51805604874295
 30
0.0
 10
94.0411764691997
 20
65.6218089724057
 30
0.0
 10
94.0411764691997
 20
66.66305016989547
 30
0.0
 10
94.0411764691997
 20
67.76019128960412
 30
0.0
 10
94.0411764691997
 20
68.99833461937638
 30
0.0
 10
94.0411764691997
 20
70.3971019617731
 30
0.0
 10
94.0411764691997
 20
71.93965625931996
 30
0.0
 10
94.0411764691997
 20
73.00485122526213
 30
0.0
 10
94.0411764691997
 20
73.52781423572428
 30
0.0
  0
SPLINE
  5
108
330
1F
100
AcDbEntity
  8
0
  6
Continuous
 62
     7
370
    15
100
AcDbSpline
210
0.0
220
0.0
230
1.0
 70
     8
 71
     3
 72
    10
 73
     6
 74
     0
 42
0.000000001
 43
0.00000001
 40
0.0
 40
0.0
 40
0.0
 40
0.0
 40
0.5
 40
0.5
 40
1.0
 40
1.0
 40
1.0
 40
1.0
 10
94.04117646918158
 20
104.1121287935445
 30
0.0
 10
94.04117646907042
 20
104.1631532513882
 30
0.0
 10
94.05132586475533
 20
104.2161965493879
 30
0.0
 10
94.09192344743133
 20
104.3142077838926
 30
0.0
 10
94.12225401660942
 20
104.3588917659005
 30
0.0
 10
94.15833375645688
 20
104.394971505722
 30
0.0
  0
SPLINE
  5
109
330
1F
100
AcDbEntity
  8
0
  6
Continuous
 62
     7
370
    15
100
AcDbSpline
210
0.0
220
0.0
230
1.0
 70
    24
 71
     3
 72
    28
 73
    24
 74
     0
 42
0.000000001
 43
0.00000001
 40
0.0
 40
0.0
 40
0.0
 40
0.0
 40
0.0172609917266192
 40
0.0345056168241062
 40
0.051740754278221
 40
0.0689732944367254
 40
0.086210130762152
 40
0.1034581515659289
 40
0.1207242317733285
 40
0.182962148582412
 40
0.2452211421643691
 40
0.308775924130777
 40
0.3723522288517808
 40
0.5007058081701127
 40
0.6289643407707409
 40
0.6923793798429837
 40
0.7558158943397398
 40
0.8178307489565474
 40
0.879866604800951
 40
0.9099142783835792
 40
0.939928127999652
 40
0.9699445671691572
 40
1.0
 40
1.0
 40
1.0
 40
1.0
 10
94.0411764691997
 20
91.0278142110667
 30
0.0
 10
94.0411764691997
 20
91.16077188282952
 30
0.0
 10
94.0411764691997
 20
91.42656115776425
 30
0.0
 10
94.0411764691997
 20
91.82053050569478
 30
0.0
 10
94.0411764691997
 20
92.21072520331394
 30
0.0
 10
94.0411764691997
 20
92.59682899186141
 30
0.0
 10
94.0411764691997
 20
92.9789253004952
 30
0.0
 10
94.0411764691997
 20
93.35699536990661
 30
0.0
 10
94.0411764691997
 20
94.05554790964733
 30
0.0
 10
94.0411764691997
 20
95.05066951082952
 30
0.0
 10
94.0411764691997
 20
96.30341442491553
 30
0.0
 10
94.0411764691997
 20
97.49081866263631
 30
0.0
 10
94.0411764691997
 20
98.98154997221856
 30
0.0
 10
94.0411764691997
 20
100.6275404183503
 30
0.0
 10
94.0411764691997
 20
101.9351605331379
 30
0.0
 10
94.0411764691997
 20
102.7594205252875
 30
0.0
 10
94.0411764691997
 20
103.259766760854
 30
0.0
 10
94.0411764691997
 20
103.6465280505227
 30
0.0
 10
94.0411764691997
 20
103.8726828788403
 30
0.0
 10
94.0411764691997
 20
103.997889557627
 30
0.0
 10
94.0411764691997
 20
104.0634718124139
 30
0.0
 10
94.0411764691997
 20
104.1045325601713
 30
0.0
 10
94.0411764691997
 20
104.1095956202073
 30
0.0
 10
94.0411764691997
 20
104.112128793484
 30
0.0
  0
LINE
  5
10A
330
1F
100
AcDbEntity
  8
0
  6
Continuous
 62
     7
370
    15
100
AcDbLine
 10
93.5411764698
 20
66.6778142188
 30
0.0
 11
93.5411764698
 21
97.8778142183
 31
0.0
  0
SPLINE
  5
10B
330
1F
100
AcDbEntity
  8
0
  6
Continuous
 62
     7
370
    15
100
AcDbSpline
210
0.0
220
0.0
230
1.0
 70
     8
 71
     3
 72
    14
 73
    10
 74
     0
 42
0.000000001
 43
0.00000001
 40
0.0
 40
0.0
 40
0.0
 40
0.0
 40
0.2500000000000004
 40
0.2500000000000004
 40
0.5000000000000011
 40
0.5000000000000011
 40
0.7500000000000019
 40
0.7500000000000019
 40
1.0
 40
1.0
 40
1.0
 40
1.0
 10
94.0411764694659
 20
98.37781421801267
 30
0.0
 10
94.04117646933967
 20
98.31888865294582
 30
0.0
 10
94.03043709985297
 20
98.25531533852795
 30
0.0
 10
93.98170413968175
 20
98.13221838831716
 30
0.0
 10
93.94354539630837
 20
98.0730763642646
 30
0.0
 10
93.84591432350553
 20
97.97544529146175
 30
0.0
 10
93.78677229945293
 20
97.93728654808838
 30
0.0
 10
93.66367534924217
 20
97.88855358791716
 30
0.0
 10
93.60010203482427
 20
97.87781421843044
 30
0.0
 10
93.54117646975745
 20
97.87781421830422
 30
0.0
  0
SPLINE
  5
10C
330
1F
100
AcDbEntity
  8
0
  6
Continuous
 62
     7
370
    15
100
AcDbSpline
210
0.0
220
0.0
230
1.0
 70
     8
 71
     3
 72
    14
 73
    10
 74
     0
 42
0.000000001
 43
0.00000001
 40
0.0
 40
0.0
 40
0.0
 40
0.0
 40
0.25
 40
0.25
 40
0.5
 40
0.5
 40
0.75
 40
0.75
 40
1.0
 40
1.0
 40
1.0
 40
1.0
 10
94.0411764694659
 20
66.17781421912815
 30
0.0
 10
94.04117646933967
 20
66.236739784195
 30
0.0
 10
94.03043709985297
 20
66.30031309861289
 30
0.0
 10
93.98170413968175
 20
66.42341004882365
 30
0.0
 10
93.94354539630837
 20
66.48255207287623
 30
0.0
 10
93.84591432350553
 20
66.58018314567909
 30
0.0
 10
93.78677229945293
 20
66.61834188905246
 30
0.0
 10
93.66367534924217
 20
66.66707484922368
 30
0.0
 10
93.60010203482427
 20
66.67781421871038
 30
0.0
 10
93.54117646975745
 20
66.6778142188366
 30
0.0
  0
LINE
  5
10D
330
1F
100
AcDbEntity
  8
0
  6
Continuous
 62
     7
370
    15
100
AcDbLine
 10
92.0411764692
 20
66.4028142186
 30
0.0
 11
92.0411764692
 21
98.1528142186
 31
0.0
  0
LINE
  5
10E
330
1F
100
AcDbEntity
  8
0
  6
Continuous
 62
     7
370
    15
100
AcDbLine
 10
44.0690223552
 20
73.3988194166
 30
0.0
 11
44.0690223552
 21
91.1568090206
 31
0.0
  0
LINE
  5
10F
330
1F
100
AcDbEntity
  8
0
  6
Continuous
 62
     7
370
    15
100
AcDbLine
 10
92.6309158722
 20
66.6778142186
 30
0.0
 11
92.6309158722
 21
97.8778142186
 31
0.0
  0
SPLINE
  5
110
330
1F
100
AcDbEntity
  8
0
  6
Continuous
 62
     7
370
    15
100
AcDbSpline
210
0.0
220
0.0
230
1.0
 70
     8
 71
     3
 72
    14
 73
    10
 74
     0
 42
0.000000001
 43
0.00000001
 40
0.0
 40
0.0
 40
0.0
 40
0.0
 40
0.25
 40
0.25
 40
0.5
 40
0.5
 40
0.75
 40
0.75
 40
1.0
 40
1.0
 40
1.0
 40
1.0
 10
132.541176468642
 20
93.02781421830423
 30
0.0
 10
132.4822509035751
 20
93.02781421843044
 30
0.0
 10
132.4186775891572
 20
93.03855358791715
 30
0.0
 10
132.2955806389465
 20
93.08728654808834
 30
0.0
 10
132.2364386148939
 20
93.12544529146174
 30
0.0
 10
132.138807542091
 20
93.22307636426457
 30
0.0
 10
132.1006487987177
 20
93.28221838831716
 30
0.0
 10
132.0519158385464
 20
93.40531533852793
 30
0.0
 10
132.0411764690597
 20
93.46888865294582
 30
0.0
 10
132.0411764689335
 20
93.52781421801265
 30
0.0
  0
LINE
  5
111
330
1F
100
AcDbEntity
  8
0
  6
Continuous
 62
     7
370
    15
100
AcDbLine
 10
132.5411764686
 20
93.0278142183
 30
0.0
 11
132.5411764686
 21
71.5278142188
 31
0.0
  0
SPLINE
  5
112
330
1F
100
AcDbEntity
  8
0
  6
Continuous
 62
     7
370
    15
100
AcDbSpline
210
0.0
220
0.0
230
1.0
 70
     8
 71
     3
 72
    14
 73
    10
 74
     0
 42
0.000000001
 43
0.00000001
 40
0.0
 40
0.0
 40
0.0
 40
0.0
 40
0.25
 40
0.25
 40
0.5
 40
0.5
 40
0.75
 40
0.75
 40
1.0
 40
1.0
 40
1.0
 40
1.0
 10
132.541176468642
 20
71.52781421883661
 30
0.0
 10
132.4822509035751
 20
71.52781421871038
 30
0.0
 10
132.4186775891572
 20
71.51707484922368
 30
0.0
 10
132.2955806389465
 20
71.46834188905245
 30
0.0
 10
132.2364386148939
 20
71.43018314567908
 30
0.0
 10
132.138807542091
 20
71.33255207287624
 30
0.0
 10
132.1006487987177
 20
71.27341004882365
 30
0.0
 10
132.0519158385464
 20
71.15031309861288
 30
0.0
 10
132.0411764690597
 20
71.08673978419499
 30
0.0
 10
132.0411764689335
 20
71.02781421912815
 30
0.0
  0
LINE
  5
113
330
1F
100
AcDbEntity
  8
0
  6
Continuous
 62
     7
370
    15
100
AcDbLine
 10
134.0411764692
 20
93.0278142186
 30
0.0
 11
134.0411764692
 21
71.5278142186
 31
0.0
  0
LINE
  5
114
330
1F
100
AcDbEntity
  8
0
  6
Continuous
 62
     7
370
    15
100
AcDbLine
 10
134.5773031992
 20
93.2778142186
 30
0.0
 11
134.5773031992
 21
71.2778142186
 31
0.0
  0
LINE
  5
115
330
1F
100
AcDbEntity
  8
0
  6
Continuous
 62
     7
370
    15
100
AcDbLine
 10
151.0411764692
 20
82.2778142186
 30
0.0
 11
151.0411764692
 21
72.2778142186
 31
0.0
  0
LINE
  5
116
330
1F
100
AcDbEntity
  8
0
  6
Continuous
 62
     7
370
    15
100
AcDbLine
 10
151.0411764692
 20
92.2778142186
 30
0.0
 11
151.0411764692
 21
82.2778142186
 31
0.0
  0
LINE
  5
117
330
1F
100
AcDbEntity
  8
0
  6
Continuous
 62
     7
370
    15
100
AcDbLine
 10
150.0411764692
 20
93.2778142186
 30
0.0
 11
150.0411764692
 21
71.2778142186
 31
0.0
  0
LINE
  5
118
330
1F
100
AcDbEntity
  8
0
  6
Continuous
 62
     7
370
    15
100
AcDbLine
 10
163.0411764692
 20
72.2778142186
 30
0.0
 11
163.0411764692
 21
92.2778142186
 31
0.0
  0
LINE
  5
119
330
1F
100
AcDbEntity
  8
0
  6
Continuous
 62
     7
370
    15
100
AcDbLine
 10
164.0411764692
 20
91.2778142186
 30
0.0
 11
164.0411764692
 21
73.2778142186
 31
0.0
  0
LINE
  5
11A
330
1F
100
AcDbEntity
  8
0
  6
Continuous
 62
     7
370
    15
100
AcDbLine
 10
158.0411764692
 20
92.2778142186
 30
0.0
 11
158.0411764692
 21
72.2778142186
 31
0.0
  0
LINE
  5
11B
330
1F
100
AcDbEntity
  8
0
  6
Continuous
 62
     7
370
    15
100
AcDbLine
 10
157.0411764692
 20
73.2778142186
 30
0.0
 11
157.0411764692
 21
91.2778142186
 31
0.0
  0
SPLINE
  5
11C
330
1F
100
AcDbEntity
  8
0
  6
Continuous
 62
     7
370
    15
100
AcDbSpline
210
0.0
220
0.0
230
1.0
 70
     8
 71
     3
 72
    14
 73
    10
 74
     0
 42
0.000000001
 43
0.00000001
 40
0.0
 40
0.0
 40
0.0
 40
0.0
 40
0.25
 40
0.25
 40
0.5
 40
0.5
 40
0.75
 40
0.75
 40
1.0
 40
1.0
 40
1.0
 40
1.0
 10
43.64117646884772
 20
73.89358581030723
 30
0.0
 10
43.64117646885519
 20
73.83907753586142
 30
0.0
 10
43.6503285598018
 20
73.78103854016311
 30
0.0
 10
43.69088152190061
 20
73.6681240207312
 30
0.0
 10
43.72237357056535
 20
73.61348484102781
 30
0.0
 10
43.8035706722761
 20
73.51958748581055
 30
0.0
 10
43.85309337029772
 20
73.48054018795408
 30
0.0
 10
43.95897386332357
 20
73.4241172082052
 30
0.0
 10
44.01508463049584
 20
73.40668540956362
 30
0.0
 10
44.06902235528013
 20
73.39881941712203
 30
0.0
  0
SPLINE
  5
11D
330
1F
100
AcDbEntity
  8
0
  6
Continuous
 62
     7
370
    15
100
AcDbSpline
210
0.0
220
0.0
230
1.0
 70
    24
 71
     3
 72
    34
 73
    30
 74
     0
 42
0.000000001
 43
0.00000001
 40
0.0
 40
0.0
 40
0.0
 40
0.0
 40
0.125
 40
0.125
 40
0.1875
 40
0.1875
 40
0.25
 40
0.25
 40
0.3125
 40
0.3125
 40
0.375
 40
0.375
 40
0.4375
 40
0.4375
 40
0.5
 40
0.5
 40
0.5625
 40
0.5625
 40
0.625
 40
0.625
 40
0.6875
 40
0.6875
 40
0.75
 40
0.75
 40
0.8125
 40
0.8125
 40
0.875
 40
0.875
 40
1.0
 40
1.0
 40
1.0
 40
1.0
 10
43.64117646884771
 20
90.66204262683625
 30
0.0
 10
43.64117646884771
 20
90.66204262683625
 30
0.0
 10
43.6411764688477
 20
90.57708244563251
 30
0.0
 10
43.64117646884771
 20
90.2014690129422
 30
0.0
 10
43.64117646884771
 20
90.03436336334659
 30
0.0
 10
43.6411764688477
 20
89.59403524595756
 30
0.0
 10
43.64117646884771
 20
89.32056608151373
 30
0.0
 10
43.64117646884771
 20
88.64982780885245
 30
0.0
 10
43.64117646884771
 20
88.25223906544377
 30
0.0
 10
43.64117646884769
 20
87.32922399078637
 30
0.0
 10
43.6411764688477
 20
86.8035568887762
 30
0.0
 10
43.64117646884769
 20
85.6431100502619
 30
0.0
 10
43.64117646884771
 20
85.00839369543995
 30
0.0
 10
43.64117646884771
 20
83.67485488115483
 30
0.0
 10
43.64117646884771
 20
82.97649991925923
 30
0.0
 10
43.6411764688477
 20
81.57912851788159
 30
0.0
 10
43.64117646884771
 20
80.880773555986
 30
0.0
 10
43.64117646884771
 20
79.54723474170088
 30
0.0
 10
43.64117646884768
 20
78.91251838687893
 30
0.0
 10
43.64117646884769
 20
77.75207154836463
 30
0.0
 10
43.64117646884771
 20
77.22640444635445
 30
0.0
 10
43.6411764688477
 20
76.30338937169705
 30
0.0
 10
43.64117646884771
 20
75.90580062828836
 30
0.0
 10
43.64117646884771
 20
75.2350623556271
 30
0.0
 10
43.64117646884771
 20
74.96159319118327
 30
0.0
 10
43.64117646884771
 20
74.52126507379423
 30
0.0
 10
43.6411764688477
 20
74.35415942419864
 30
0.0
 10
43.64117646884772
 20
73.97854599150833
 30
0.0
 10
43.64117646884771
 20
73.89358581030457
 30
0.0
 10
43.64117646884771
 20
73.89358581030457
 30
0.0
  0
SPLINE
  5
11E
330
1F
100
AcDbEntity
  8
0
  6
Continuous
 62
     7
370
    15
100
AcDbSpline
210
0.0
220
0.0
230
1.0
 70
     8
 71
     3
 72
    14
 73
    10
 74
     0
 42
0.000000001
 43
0.00000001
 40
0.0
 40
0.0
 40
0.0
 40
0.0
 40
0.25
 40
0.25
 40
0.5
 40
0.5
 40
0.75
 40
0.75
 40
1.0
 40
1.0
 40
1.0
 40
1.0
 10
43.64117646884772
 20
90.66204262683358
 30
0.0
 10
43.64117646885521
 20
90.71655090131284
 30
0.0
 10
43.6503285598134
 20
90.77458989704914
 30
0.0
 10
43.69088152196368
 20
90.88750441654601
 30
0.0
 10
43.72237357066842
 20
90.94214359627556
 30
0.0
 10
43.80357067247188
 20
91.03604095151333
 30
0.0
 10
43.85309337054537
 20
91.07508824936372
 30
0.0
 10
43.95897386366045
 20
91.13151122907013
 30
0.0
 10
44.0150846308696
 20
91.14894302767591
 30
0.0
 10
44.06902235567715
 20
91.15680902007671
 30
0.0
  0
LINE
  5
11F
330
1F
100
AcDbEntity
  8
0
  6
Continuous
 62
     7
370
    15
100
AcDbLine
 10
137.7411764692
 20
60.9778142186
 30
0.0
 11
132.0411764692
 21
60.9778142201
 31
0.0
  0
LINE
  5
120
330
1F
100
AcDbEntity
  8
0
  6
Continuous
 62
     7
370
    15
100
AcDbLine
 10
137.7411764692
 20
60.9778142186
 30
0.0
 11
137.7411764692
 21
60.2778142186
 31
0.0
  0
LINE
  5
121
330
1F
100
AcDbEntity
  8
0
  6
Continuous
 62
     7
370
    15
100
AcDbLine
 10
137.7411764692
 20
60.2778142186
 30
0.0
 11
132.0411764692
 21
60.2778142193
 31
0.0
  0
LINE
  5
122
330
1F
100
AcDbEntity
  8
0
  6
Continuous
 62
     7
370
    15
100
AcDbLine
 10
132.0411764692
 20
69.5778142202
 30
0.0
 11
137.7411764692
 21
69.5778142186
 31
0.0
  0
LINE
  5
123
330
1F
100
AcDbEntity
  8
0
  6
Continuous
 62
     7
370
    15
100
AcDbLine
 10
137.7411764692
 20
69.5778142186
 30
0.0
 11
137.7411764692
 21
60.9778142186
 31
0.0
  0
LINE
  5
124
330
1F
100
AcDbEntity
  8
0
  6
Continuous
 62
     7
370
    15
100
AcDbLine
 10
137.7411764692
 20
70.2778142186
 30
0.0
 11
137.7411764692
 21
69.5778142186
 31
0.0
  0
LINE
  5
125
330
1F
100
AcDbEntity
  8
0
  6
Continuous
 62
     7
370
    15
100
AcDbLine
 10
137.7411764692
 20
70.2778142186
 30
0.0
 11
132.0411764692
 21
70.2778142211
 31
0.0
  0
LINE
  5
126
330
1F
100
AcDbEntity
  8
0
  6
Continuous
 62
     7
370
    15
100
AcDbLine
 10
137.7411764692
 20
94.2778142186
 30
0.0
 11
137.7411764692
 21
94.9778142186
 31
0.0
  0
LINE
  5
127
330
1F
100
AcDbEntity
  8
0
  6
Continuous
 62
     7
370
    15
100
AcDbLine
 10
137.7411764692
 20
94.2778142186
 30
0.0
 11
132.0411764692
 21
94.2778142161
 31
0.0
  0
LINE
  5
128
330
1F
100
AcDbEntity
  8
0
  6
Continuous
 62
     7
370
    15
100
AcDbLine
 10
132.0411764692
 20
94.9778142169
 30
0.0
 11
137.7411764692
 21
94.9778142186
 31
0.0
  0
LINE
  5
129
330
1F
100
AcDbEntity
  8
0
  6
Continuous
 62
     7
370
    15
100
AcDbLine
 10
137.7411764692
 20
103.5778142186
 30
0.0
 11
132.0411764692
 21
103.577814217
 31
0.0
  0
LINE
  5
12A
330
1F
100
AcDbEntity
  8
0
  6
Continuous
 62
     7
370
    15
100
AcDbLine
 10
137.7411764692
 20
94.9778142186
 30
0.0
 11
137.7411764692
 21
103.5778142186
 31
0.0
  0
LINE
  5
12B
330
1F
100
AcDbEntity
  8
0
  6
Continuous
 62
     7
370
    15
100
AcDbLine
 10
137.7411764692
 20
104.2778142186
 30
0.0
 11
132.0411764692
 21
104.2778142179
 31
0.0
  0
LINE
  5
12C
330
1F
100
AcDbEntity
  8
0
  6
Continuous
 62
     7
370
    15
100
AcDbLine
 10
137.7411764692
 20
103.5778142186
 30
0.0
 11
137.7411764692
 21
104.2778142186
 31
0.0
  0
LINE
  5
12D
330
1F
100
AcDbEntity
  8
0
  6
Continuous
 62
     8
370
    15
100
AcDbLine
 10
95.2068618942
 20
59.2778142186
 30
0.0
 11
95.2068618937
 21
73.7231637468
 31
0.0
  0
LINE
  5
12E
330
1F
100
AcDbEntity
  8
0
  6
Continuous
 62
     8
370
    15
100
AcDbLine
 10
94.1583337565
 20
60.1606569313
 30
0.0
 11
94.1583337588
 21
73.6449715081
 31
0.0
  0
LINE
  5
12F
330
1F
100
AcDbEntity
  8
0
  6
Continuous
 62
     8
370
    15
100
AcDbLine
 10
94.9240191818
 20
73.8133133121
 30
0.0
 11
94.924019182
 21
59.3949715057
 31
0.0
  0
DIMENSION
  5
130
330
1F
100
AcDbEntity
  8
DIM
100
AcDbDimension
  2
_D
 10
168.0087849868
 20
71.2778142186
 30
0.0
 11
168.0087849868
 21
82.2778142186
 31
0.0
 70
   160
  1
%%c<>
 71
     2
 42
-1.0
  3
SLDDIMSTYLE0
100
AcDbAlignedDimension
 13
150.0411764692
 23
93.2778142186
 33
0.0
 14
150.0411764692
 24
71.2778142186
 34
0.0
 50
90.0
100
AcDbRotatedDimension
  0
DIMENSION
  5
13C
330
1F
100
AcDbEntity
  8
DIM
100
AcDbDimension
  2
_D_1
 10
175.4697478978
 20
58.2778142186
 30
0.0
 11
175.4697478978
 21
82.2778142186
 31
0.0
 70
   160
  1
%%c<>
 71
     2
 42
-1.0
  3
SLDDIMSTYLE0
100
AcDbAlignedDimension
 13
131.0411764692
 23
106.2778142186
 33
0.0
 14
131.0411764692
 24
58.2778142186
 34
0.0
 50
90.0
100
AcDbRotatedDimension
  0
DIMENSION
  5
147
330
1F
100
AcDbEntity
  8
DIM
100
AcDbDimension
  2
_D_2
 10
132.0411764692
 20
51.4774116094
 30
0.0
 11
141.5411764692
 21
51.4774116094
 31
0.0
 70
   160
  1
<>
 71
     2
 42
-1.0
  3
SLDDIMSTYLE0
100
AcDbAlignedDimension
 13
151.0411764692
 23
72.2778142186
 33
0.0
 14
132.0411764692
 24
59.2778142186
 34
0.0
 50
0.0
100
AcDbRotatedDimension
  0
DIMENSION
  5
151
330
1F
100
AcDbEntity
  8
DIM
100
AcDbDimension
  2
_D_3
 10
92.0411764692
 20
51.4774116094
 30
0.0
 11
112.0411764692
 21
51.4774116094
 31
0.0
 70
   160
  1
<>
 71
     2
 42
-1.0
  3
SLDDIMSTYLE0
100
AcDbAlignedDimension
 13
132.0411764692
 23
59.2778142186
 33
0.0
 14
92.0411764692
 24
66.4028142186
 34
0.0
 50
0.0
100
AcDbRotatedDimension
  0
DIMENSION
  5
15B
330
1F
100
AcDbEntity
  8
DIM
100
AcDbDimension
  2
_D_4
 10
164.0411764692
 20
46.0601791572
 30
0.0
 11
103.8411764691
 21
46.0601791572
 31
0.0
 70
   160
  1
<>
 71
     2
 42
-1.0
  3
SLDDIMSTYLE1
100
AcDbAlignedDimension
 13
43.641176469
 23
73.893585812
 33
0.0
 14
164.0411764692
 24
73.2778142186
 34
0.0
 50
0.0
100
AcDbRotatedDimension
  0
DIMENSION
  5
166
330
1F
100
AcDbEntity
  8
DIM
100
AcDbDimension
  2
_D_5
 10
40.6573266868
 20
59.2778142186
 30
0.0
 11
40.6573266868
 21
82.2778142186
 31
0.0
 70
   160
  1
%%c<>
 71
     2
 42
-1.0
  3
SLDDIMSTYLE0
100
AcDbAlignedDimension
 13
95.2068618942
 23
105.2778142186
 33
0.0
 14
95.2068618942
 24
59.2778142186
 34
0.0
 50
90.0
100
AcDbRotatedDimension
  0
LINE
  5
171
330
1F
100
AcDbEntity
  8
DIM
  6
CENTERX2
370
     0
100
AcDbLine
 10
43.038975665
 20
82.2778142186
 30
0.0
 11
163.687166878
 21
82.2778142186
 31
0.0
  0
ENDSEC
  0
SECTION
  2
OBJECTS
  0
DICTIONARY
  5
C
330
0
100
AcDbDictionary
281
     1
  3
ACAD_GROUP
350
D
  3
ACAD_LAYOUT
350
1A
  3
ACAD_MLINESTYLE
350
17
  3
ACAD_PLOTSETTINGS
350
19
  3
ACAD_PLOTSTYLENAME
350
E
  3
ACAD_SCALELIST
350
47
  0
DICTIONARY
  5
D
102
{ACAD_REACTORS
330
C
102
}
330
C
100
AcDbDictionary
281
     1
  0
DICTIONARY
  5
1A
102
{ACAD_REACTORS
330
C
102
}
330
C
100
AcDbDictionary
281
     1
  3
Layout1
350
1E
  3
Layout2
350
26
  3
Model
350
22
  0
DICTIONARY
  5
17
102
{ACAD_REACTORS
330
C
102
}
330
C
100
AcDbDictionary
281
     1
  3
Standard
350
18
  0
DICTIONARY
  5
19
102
{ACAD_REACTORS
330
C
102
}
330
C
100
AcDbDictionary
281
     1
  0
ACDBDICTIONARYWDFLT
  5
E
102
{ACAD_REACTORS
330
C
102
}
330
C
100
AcDbDictionary
281
     1
  3
Normal
350
F
100
AcDbDictionaryWithDefault
340
F
  0
DICTIONARY
  5
47
102
{ACAD_REACTORS
330
C
102
}
330
C
100
AcDbDictionary
281
     1
  3
A0
350
48
  3
A1
350
49
  3
A2
350
4A
  3
A3
350
4B
  3
A4
350
4C
  3
A5
350
4D
  3
A6
350
4E
  3
A7
350
4F
  3
A8
350
50
  3
A9
350
51
  3
B0
350
52
  3
B1
350
53
  3
B2
350
54
  3
B3
350
55
  3
B4
350
56
  3
B5
350
57
  3
B6
350
58
  3
B7
350
59
  3
B8
350
5A
  3
B9
350
5B
  3
C0
350
5C
  3
C1
350
5D
  3
C2
350
5E
  3
C3
350
5F
  3
C4
350
60
  3
C5
350
61
  3
C6
350
62
  3
C7
350
63
  3
C8
350
64
  3
C9
350
65
  3
D0
350
66
  3
D1
350
67
  3
D2
350
68
  0
LAYOUT
  5
1E
102
{ACAD_REACTORS
330
1A
102
}
330
1A
100
AcDbPlotSettings
  1

  2
none_device
  4

  6

 40
0.0
 41
0.0
 42
0.0
 43
0.0
 44
0.0
 45
0.0
 46
0.0
 47
0.0
 48
0.0
 49
0.0
140
0.0
141
0.0
142
1.0
143
1.0
 70
   688
 72
     1
 73
     0
 74
     5
  7

 75
    16
147
1.0
148
0.0
149
0.0
100
AcDbLayout
  1
Layout1
 70
     1
 71
     1
 10
0.0
 20
0.0
 11
420.0
 21
297.0
 12
0.0
 22
0.0
 32
0.0
 14
1.0000000000E+20
 24
1.0000000000E+20
 34
1.0000000000E+20
 15
-1.0000000000E+20
 25
-1.0000000000E+20
 35
-1.0000000000E+20
146
0.0
 13
0.0
 23
0.0
 33
0.0
 16
1.0
 26
0.0
 36
0.0
 17
0.0
 27
1.0
 37
0.0
 76
     0
330
1B
  0
LAYOUT
  5
26
102
{ACAD_REACTORS
330
1A
102
}
330
1A
100
AcDbPlotSettings
  1

  2
none_device
  4

  6

 40
0.0
 41
0.0
 42
0.0
 43
0.0
 44
0.0
 45
0.0
 46
0.0
 47
0.0
 48
0.0
 49
0.0
140
0.0
141
0.0
142
1.0
143
1.0
 70
   688
 72
     1
 73
     0
 74
     5
  7

 75
    16
147
1.0
148
0.0
149
0.0
100
AcDbLayout
  1
Layout2
 70
     1
 71
     2
 10
0.0
 20
0.0
 11
0.0
 21
0.0
 12
0.0
 22
0.0
 32
0.0
 14
0.0
 24
0.0
 34
0.0
 15
0.0
 25
0.0
 35
0.0
146
0.0
 13
0.0
 23
0.0
 33
0.0
 16
1.0
 26
0.0
 36
0.0
 17
0.0
 27
1.0
 37
0.0
 76
     0
330
23
  0
LAYOUT
  5
22
102
{ACAD_REACTORS
330
1A
102
}
330
1A
100
AcDbPlotSettings
  1

  2
none_device
  4
Letter_(8.50_x_11.00_Inches)
  6

 40
6.35
 41
6.35
 42
6.35000508
 43
6.35000508
 44
215.9
 45
279.4
 46
0.0
 47
0.0
 48
0.0
 49
0.0
140
0.0
141
0.0
142
1.0
143
1.0
 70
  1712
 72
     1
 73
     0
 74
     0
  7

 75
     0
147
1.0
148
0.0
149
0.0
100
AcDbLayout
  1
Model
 70
     1
 71
     0
 10
0.0
 20
0.0
 11
212.1428571429
 21
150.0
 12
0.0
 22
0.0
 32
0.0
 14
0.0
 24
0.0
 34
0.0
 15
212.1428571429
 25
150.0
 35
0.0
146
0.0
 13
0.0
 23
0.0
 33
0.0
 16
1.0
 26
0.0
 36
0.0
 17
0.0
 27
1.0
 37
0.0
 76
     0
330
1F
331
29
  0
MLINESTYLE
  5
18
102
{ACAD_REACTORS
330
17
102
}
330
17
100
AcDbMlineStyle
  2
Standard
 70
     0
  3

 62
   256
 51
90.0
 52
90.0
 71
     2
 49
0.5
 62
   256
  6
BYLAYER
 49
-0.5
 62
   256
  6
BYLAYER
  0
ACDBPLACEHOLDER
  5
F
102
{ACAD_REACTORS
330
E
102
}
330
E
  0
SCALE
  5
48
102
{ACAD_REACTORS
330
47
102
}
330
47
100
AcDbScale
 70
     0
300
1:1
140
1.0
141
1.0
290
     1
  0
SCALE
  5
49
102
{ACAD_REACTORS
330
47
102
}
330
47
100
AcDbScale
 70
     0
300
1:2
140
1.0
141
2.0
290
     0
  0
SCALE
  5
4A
102
{ACAD_REACTORS
330
47
102
}
330
47
100
AcDbScale
 70
     0
300
1:4
140
1.0
141
4.0
290
     0
  0
SCALE
  5
4B
102
{ACAD_REACTORS
330
47
102
}
330
47
100
AcDbScale
 70
     0
300
1:5
140
1.0
141
5.0
290
     0
  0
SCALE
  5
4C
102
{ACAD_REACTORS
330
47
102
}
330
47
100
AcDbScale
 70
     0
300
1:8
140
1.0
141
8.0
290
     0
  0
SCALE
  5
4D
102
{ACAD_REACTORS
330
47
102
}
330
47
100
AcDbScale
 70
     0
300
1:10
140
1.0
141
10.0
290
     0
  0
SCALE
  5
4E
102
{ACAD_REACTORS
330
47
102
}
330
47
100
AcDbScale
 70
     0
300
1:16
140
1.0
141
16.0
290
     0
  0
SCALE
  5
4F
102
{ACAD_REACTORS
330
47
102
}
330
47
100
AcDbScale
 70
     0
300
1:20
140
1.0
141
20.0
290
     0
  0
SCALE
  5
50
102
{ACAD_REACTORS
330
47
102
}
330
47
100
AcDbScale
 70
     0
300
1:30
140
1.0
141
30.0
290
     0
  0
SCALE
  5
51
102
{ACAD_REACTORS
330
47
102
}
330
47
100
AcDbScale
 70
     0
300
1:40
140
1.0
141
40.0
290
     0
  0
SCALE
  5
52
102
{ACAD_REACTORS
330
47
102
}
330
47
100
AcDbScale
 70
     0
300
1:50
140
1.0
141
50.0
290
     0
  0
SCALE
  5
53
102
{ACAD_REACTORS
330
47
102
}
330
47
100
AcDbScale
 70
     0
300
1:100
140
1.0
141
100.0
290
     0
  0
SCALE
  5
54
102
{ACAD_REACTORS
330
47
102
}
330
47
100
AcDbScale
 70
     0
300
2:1
140
2.0
141
1.0
290
     0
  0
SCALE
  5
55
102
{ACAD_REACTORS
330
47
102
}
330
47
100
AcDbScale
 70
     0
300
4:1
140
4.0
141
1.0
290
     0
  0
SCALE
  5
56
102
{ACAD_REACTORS
330
47
102
}
330
47
100
AcDbScale
 70
     0
300
8:1
140
8.0
141
1.0
290
     0
  0
SCALE
  5
57
102
{ACAD_REACTORS
330
47
102
}
330
47
100
AcDbScale
 70
     0
300
10:1
140
10.0
141
1.0
290
     0
  0
SCALE
  5
58
102
{ACAD_REACTORS
330
47
102
}
330
47
100
AcDbScale
 70
     0
300
100:1
140
100.0
141
1.0
290
     0
  0
SCALE
  5
59
102
{ACAD_REACTORS
330
47
102
}
330
47
100
AcDbScale
 70
     0
300
1/128" = 1'-0"
140
0.0078125
141
12.0
290
     0
  0
SCALE
  5
5A
102
{ACAD_REACTORS
330
47
102
}
330
47
100
AcDbScale
 70
     0
300
1/64" = 1'-0"
140
0.015625
141
12.0
290
     0
  0
SCALE
  5
5B
102
{ACAD_REACTORS
330
47
102
}
330
47
100
AcDbScale
 70
     0
300
1/32" = 1'-0"
140
0.03125
141
12.0
290
     0
  0
SCALE
  5
5C
102
{ACAD_REACTORS
330
47
102
}
330
47
100
AcDbScale
 70
     0
300
1/16" = 1'-0"
140
0.0625
141
12.0
290
     0
  0
SCALE
  5
5D
102
{ACAD_REACTORS
330
47
102
}
330
47
100
AcDbScale
 70
     0
300
3/32" = 1'-0"
140
0.09375
141
12.0
290
     0
  0
SCALE
  5
5E
102
{ACAD_REACTORS
330
47
102
}
330
47
100
AcDbScale
 70
     0
300
1/8" = 1'-0"
140
0.125
141
12.0
290
     0
  0
SCALE
  5
5F
102
{ACAD_REACTORS
330
47
102
}
330
47
100
AcDbScale
 70
     0
300
3/16" = 1'-0"
140
0.1875
141
12.0
290
     0
  0
SCALE
  5
60
102
{ACAD_REACTORS
330
47
102
}
330
47
100
AcDbScale
 70
     0
300
1/4" = 1'-0"
140
0.25
141
12.0
290
     0
  0
SCALE
  5
61
102
{ACAD_REACTORS
330
47
102
}
330
47
100
AcDbScale
 70
     0
300
3/8" = 1'-0"
140
0.375
141
12.0
290
     0
  0
SCALE
  5
62
102
{ACAD_REACTORS
330
47
102
}
330
47
100
AcDbScale
 70
     0
300
1/2" = 1'-0"
140
0.5
141
12.0
290
     0
  0
SCALE
  5
63
102
{ACAD_REACTORS
330
47
102
}
330
47
100
AcDbScale
 70
     0
300
3/4" = 1'-0"
140
0.75
141
12.0
290
     0
  0
SCALE
  5
64
102
{ACAD_REACTORS
330
47
102
}
330
47
100
AcDbScale
 70
     0
300
1" = 1'-0"
140
1.0
141
12.0
290
     0
  0
SCALE
  5
65
102
{ACAD_REACTORS
330
47
102
}
330
47
100
AcDbScale
 70
     0
300
1-1/2" = 1'-0"
140
1.5
141
12.0
290
     0
  0
SCALE
  5
66
102
{ACAD_REACTORS
330
47
102
}
330
47
100
AcDbScale
 70
     0
300
3" = 1'-0"
140
3.0
141
12.0
290
     0
  0
SCALE
  5
67
102
{ACAD_REACTORS
330
47
102
}
330
47
100
AcDbScale
 70
     0
300
6" = 1'-0"
140
6.0
141
12.0
290
     0
  0
SCALE
  5
68
102
{ACAD_REACTORS
330
47
102
}
330
47
100
AcDbScale
 70
     0
300
1'-0" = 1'-0"
140
12.0
141
12.0
290
     0
  0
ENDSEC
  0
EOF
