  0
SECTION
  2
HEADER
  9
$ACADVER
  1
AC1015
  9
$ACADMAINTVER
 70
     6
  9
$DWGCODEPAGE
  3
ANSI_1252
  9
$INSBASE
 10
0.0
 20
0.0
 30
0.0
  9
$EXTMIN
 10
0.0
 20
0.0
 30
0.0
  9
$EXTMAX
 10
297.0
 20
210.0
 30
0.0
  9
$LIMMIN
 10
0.0
 20
0.0
  9
$LIMMAX
 10
297.0
 20
210.0
  9
$ORTHOMODE
 70
     0
  9
$REGENMODE
 70
     1
  9
$FILLMODE
 70
     1
  9
$QTEXTMODE
 70
     0
  9
$MIRRTEXT
 70
     1
  9
$LTSCALE
 40
1.0
  9
$ATTMODE
 70
     1
  9
$TEXTSIZE
 40
3.8805555556
  9
$TRACEWID
 40
1.0
  9
$TEXTSTYLE
  7
Standard
  9
$CLAYER
  8
0
  9
$CELTYPE
  6
ByLayer
  9
$CECOLOR
 62
   256
  9
$CELTSCALE
 40
1.0
  9
$DISPSILH
 70
     0
  9
$DIMSCALE
 40
1.0
  9
$DIMASZ
 40
3.302
  9
$DIMEXO
 40
1.0
  9
$DIMDLI
 40
3.75
  9
$DIMRND
 40
0.0
  9
$DIMDLE
 40
0.0
  9
$DIMEXE
 40
1.0
  9
$DIMTP
 40
0.0
  9
$DIMTM
 40
0.0
  9
$DIMTXT
 40
3.8805555556
  9
$DIMCEN
 40
2.5
  9
$DIMTSZ
 40
0.0
  9
$DIMTOL
 70
     0
  9
$DIMLIM
 70
     0
  9
$DIMTIH
 70
     1
  9
$DIMTOH
 70
     1
  9
$DIMSE1
 70
     0
  9
$DIMSE2
 70
     0
  9
$DIMTAD
 70
     1
  9
$DIMZIN
 70
     0
  9
$DIMBLK
  1

  9
$DIMASO
 70
     1
  9
$DIMSHO
 70
     1
  9
$DIMPOST
  1

  9
$DIMAPOST
  1

  9
$DIMALT
 70
     0
  9
$DIMALTD
 70
     3
  9
$DIMALTF
 40
0.0393700787
  9
$DIMLFAC
 40
1.0
  9
$DIMTOFL
 70
     1
  9
$DIMTVP
 40
0.0
  9
$DIMTIX
 70
     0
  9
$DIMSOXD
 70
     0
  9
$DIMSAH
 70
     0
  9
$DIMBLK1
  1

  9
$DIMBLK2
  1

  9
$DIMSTYLE
  2
ISO-25
  9
$DIMCLRD
 70
     0
  9
$DIMCLRE
 70
     0
  9
$DIMCLRT
 70
     0
  9
$DIMTFAC
 40
1.0
  9
$DIMGAP
 40
1.524
  9
$DIMJUST
 70
     0
  9
$DIMSD1
 70
     0
  9
$DIMSD2
 70
     0
  9
$DIMTOLJ
 70
     0
  9
$DIMTZIN
 70
     0
  9
$DIMALTZ
 70
     0
  9
$DIMALTTZ
 70
     0
  9
$DIMUPT
 70
     0
  9
$DIMDEC
 70
     2
  9
$DIMTDEC
 70
     2
  9
$DIMALTU
 70
     2
  9
$DIMALTTD
 70
     3
  9
$DIMTXSTY
  7
Standard
  9
$DIMAUNIT
 70
     0
  9
$DIMADEC
 70
     2
  9
$DIMALTRND
 40
0.0
  9
$DIMAZIN
 70
     0
  9
$DIMDSEP
 70
    44
  9
$DIMATFIT
 70
     3
  9
$DIMFRAC
 70
     0
  9
$DIMLDRBLK
  1

  9
$DIMLUNIT
 70
     2
  9
$DIMLWD
 70
    -2
  9
$DIMLWE
 70
    -2
  9
$DIMTMOVE
 70
     0
  9
$LUNITS
 70
     2
  9
$LUPREC
 70
     2
  9
$SKETCHINC
 40
1.0
  9
$FILLETRAD
 40
10.0
  9
$AUNITS
 70
     1
  9
$AUPREC
 70
     2
  9
$MENU
  1
.
  9
$ELEVATION
 40
0.0
  9
$PELEVATION
 40
0.0
  9
$THICKNESS
 40
0.0
  9
$LIMCHECK
 70
     0
  9
$CHAMFERA
 40
0.0
  9
$CHAMFERB
 40
0.0
  9
$CHAMFERC
 40
0.0
  9
$CHAMFERD
 40
0.0
  9
$SKPOLY
 70
     0
  9
$TDCREATE
 40
2458631.677380532
  9
$TDUCREATE
 40
2458631.448213866
  9
$TDUPDATE
 40
2458631.677381458
  9
$TDUUPDATE
 40
2458631.448214792
  9
$TDINDWG
 40
0.0000000116
  9
$TDUSRTIMER
 40
0.0000000116
  9
$USRTIMER
 70
     1
  9
$ANGBASE
 50
0.0
  9
$ANGDIR
 70
     0
  9
$PDMODE
 70
     0
  9
$PDSIZE
 40
-1.0
  9
$PLINEWID
 40
0.0
  9
$SPLFRAME
 70
     0
  9
$SPLINETYPE
 70
     6
  9
$SPLINESEGS
 70
     8
  9
$HANDSEED
  5
185
  9
$SURFTAB1
 70
     6
  9
$SURFTAB2
 70
     6
  9
$SURFTYPE
 70
     6
  9
$SURFU
 70
     6
  9
$SURFV
 70
     6
  9
$UCSBASE
  2

  9
$UCSNAME
  2

  9
$UCSORG
 10
0.0
 20
0.0
 30
0.0
  9
$UCSXDIR
 10
1.0
 20
0.0
 30
0.0
  9
$UCSYDIR
 10
0.0
 20
1.0
 30
0.0
  9
$UCSORTHOREF
  2

  9
$UCSORTHOVIEW
 70
     0
  9
$UCSORGTOP
 10
0.0
 20
0.0
 30
0.0
  9
$UCSORGBOTTOM
 10
0.0
 20
0.0
 30
0.0
  9
$UCSORGLEFT
 10
0.0
 20
0.0
 30
0.0
  9
$UCSORGRIGHT
 10
0.0
 20
0.0
 30
0.0
  9
$UCSORGFRONT
 10
0.0
 20
0.0
 30
0.0
  9
$UCSORGBACK
 10
0.0
 20
0.0
 30
0.0
  9
$PUCSBASE
  2

  9
$PUCSNAME
  2

  9
$PUCSORG
 10
0.0
 20
0.0
 30
0.0
  9
$PUCSXDIR
 10
1.0
 20
0.0
 30
0.0
  9
$PUCSYDIR
 10
0.0
 20
1.0
 30
0.0
  9
$PUCSORTHOREF
  2

  9
$PUCSORTHOVIEW
 70
     0
  9
$PUCSORGTOP
 10
0.0
 20
0.0
 30
0.0
  9
$PUCSORGBOTTOM
 10
0.0
 20
0.0
 30
0.0
  9
$PUCSORGLEFT
 10
0.0
 20
0.0
 30
0.0
  9
$PUCSORGRIGHT
 10
0.0
 20
0.0
 30
0.0
  9
$PUCSORGFRONT
 10
0.0
 20
0.0
 30
0.0
  9
$PUCSORGBACK
 10
0.0
 20
0.0
 30
0.0
  9
$USERI1
 70
     0
  9
$USERI2
 70
     0
  9
$USERI3
 70
     0
  9
$USERI4
 70
     0
  9
$USERI5
 70
     0
  9
$USERR1
 40
0.0
  9
$USERR2
 40
0.0
  9
$USERR3
 40
0.0
  9
$USERR4
 40
0.0
  9
$USERR5
 40
0.0
  9
$WORLDVIEW
 70
     1
  9
$SHADEDGE
 70
     3
  9
$SHADEDIF
 70
    70
  9
$TILEMODE
 70
     1
  9
$MAXACTVP
 70
    64
  9
$PINSBASE
 10
0.0
 20
0.0
 30
0.0
  9
$PLIMCHECK
 70
     0
  9
$PEXTMIN
 10
1.0000000000E+20
 20
1.0000000000E+20
 30
1.0000000000E+20
  9
$PEXTMAX
 10
-1.0000000000E+20
 20
-1.0000000000E+20
 30
-1.0000000000E+20
  9
$PLIMMIN
 10
0.0
 20
0.0
  9
$PLIMMAX
 10
420.0
 20
297.0
  9
$UNITMODE
 70
     0
  9
$VISRETAIN
 70
     1
  9
$PLINEGEN
 70
     0
  9
$PSLTSCALE
 70
     1
  9
$TREEDEPTH
 70
  3020
  9
$CMLSTYLE
  2
Standard
  9
$CMLJUST
 70
     0
  9
$CMLSCALE
 40
20.0
  9
$PROXYGRAPHICS
 70
     1
  9
$MEASUREMENT
 70
     1
  9
$CELWEIGHT
370
    -1
  9
$ENDCAPS
280
     0
  9
$JOINSTYLE
280
     0
  9
$LWDISPLAY
290
     1
  9
$INSUNITS
 70
     4
  9
$HYPERLINKBASE
  1

  9
$STYLESHEET
  1

  9
$XEDIT
290
     1
  9
$CEPSNTYPE
380
     0
  9
$PSTYLEMODE
290
     1
  9
$FINGERPRINTGUID
  2
{CF1430EC-115A-4706-9E09-FB90A1375744}
  9
$VERSIONGUID
  2
{FAEB1C32-E019-11D5-929B-00C0DF256EC4}
  9
$EXTNAMES
290
     1
  9
$PSVPSCALE
 40
0.0
  9
$OLESTARTUP
290
     0
  0
ENDSEC
  0
SECTION
  2
CLASSES
  0
CLASS
  1
ACDBDICTIONARYWDFLT
  2
AcDbDictionaryWithDefault
  3
ObjectDBX Classes
 90
        0
280
     0
281
     0
  0
CLASS
  1
VISUALSTYLE
  2
AcDbVisualStyle
  3
ObjectDBX Classes
 90
     4095
280
     0
281
     0
  0
CLASS
  1
MATERIAL
  2
AcDbMaterial
  3
ObjectDBX Classes
 90
     1153
280
     0
281
     0
  0
CLASS
  1
SCALE
  2
AcDbScale
  3
ObjectDBX Classes
 90
     1153
280
     0
281
     0
  0
CLASS
  1
SUN
  2
AcDbSun
  3
SCENEOE
 90
     1153
280
     0
281
     0
  0
CLASS
  1
ACDBPLACEHOLDER
  2
AcDbPlaceHolder
  3
ObjectDBX Classes
 90
        0
280
     0
281
     0
  0
CLASS
  1
LAYOUT
  2
AcDbLayout
  3
ObjectDBX Classes
 90
        0
280
     0
281
     0
  0
ENDSEC
  0
SECTION
  2
TABLES
  0
TABLE
  2
VPORT
  5
8
330
0
100
AcDbSymbolTable
 70
     1
  0
VPORT
  5
29
330
8
100
AcDbSymbolTableRecord
100
AcDbViewportTableRecord
  2
*Active
 70
     0
 10
0.0
 20
0.0
 11
1.0
 21
1.0
 12
148.5
 22
105.0
 13
0.0
 23
0.0
 14
10.0
 24
10.0
 15
10.0
 25
10.0
 16
0.0
 26
0.0
 36
1.0
 17
0.0
 27
0.0
 37
0.0
 40
210.0
 41
1.4142857143
 42
50.0
 43
0.0
 44
0.0
 50
0.0
 51
0.0
 71
     0
 72
  2000
 73
     1
 74
     3
 75
     0
 76
     0
 77
     0
 78
     0
281
     0
 65
     1
110
0.0
120
0.0
130
0.0
111
1.0
121
0.0
131
0.0
112
0.0
122
1.0
132
0.0
 79
     0
146
0.0
  0
ENDTAB
  0
TABLE
  2
LTYPE
  5
5
330
0
100
AcDbSymbolTable
 70
     6
  0
LTYPE
  5
14
330
5
100
AcDbSymbolTableRecord
100
AcDbLinetypeTableRecord
  2
ByBlock
 70
     0
  3

 72
    65
 73
     0
 40
0.0
  0
LTYPE
  5
15
330
5
100
AcDbSymbolTableRecord
100
AcDbLinetypeTableRecord
  2
ByLayer
 70
     0
  3

 72
    65
 73
     0
 40
0.0
  0
LTYPE
  5
16
330
5
100
AcDbSymbolTableRecord
100
AcDbLinetypeTableRecord
  2
Continuous
 70
     0
  3
Solid line
 72
    65
 73
     0
 40
0.0
  0
LTYPE
  5
6A
330
5
100
AcDbSymbolTableRecord
100
AcDbLinetypeTableRecord
  2
HIDDEN
 70
     0
  3
Hidden __ __ __ __ __ __ __ __ __ __ __ __ __ __
 72
    65
 73
     2
 40
1.905
 49
1.27
 74
     0
 49
-0.635
 74
     0
  0
LTYPE
  5
6B
330
5
100
AcDbSymbolTableRecord
100
AcDbLinetypeTableRecord
  2
PHANTOM
 70
     0
  3
Phantom ______  __  __  ______  __  __  ______
 72
    65
 73
     6
 40
12.7
 49
6.35
 74
     0
 49
-1.27
 74
     0
 49
1.27
 74
     0
 49
-1.27
 74
     0
 49
1.27
 74
     0
 49
-1.27
 74
     0
  0
LTYPE
  5
6C
330
5
100
AcDbSymbolTableRecord
100
AcDbLinetypeTableRecord
  2
CENTER
 70
     0
  3
Center ____ _ ____ _ ____ _ ____ _ ____ _ ____
 72
    65
 73
     4
 40
10.16
 49
6.35
 74
     0
 49
-1.27
 74
     0
 49
1.27
 74
     0
 49
-1.27
 74
     0
  0
LTYPE
  5
6D
330
5
100
AcDbSymbolTableRecord
100
AcDbLinetypeTableRecord
  2
CENTERX2
 70
     0
  3
Center (2x) ________  __  ________  __  _____
 72
    65
 73
     4
 40
20.32
 49
12.7
 74
     0
 49
-2.54
 74
     0
 49
2.54
 74
     0
 49
-2.54
 74
     0
  0
LTYPE
  5
6E
330
5
100
AcDbSymbolTableRecord
100
AcDbLinetypeTableRecord
  2
DOT2
 70
     0
  3
Dot (.5x) ........................................
 72
    65
 73
     2
 40
0.635
 49
0.0
 74
     0
 49
-0.635
 74
     0
  0
ENDTAB
  0
TABLE
  2
LAYER
  5
2
330
0
100
AcDbSymbolTable
 70
     8
  0
LAYER
  5
10
330
2
100
AcDbSymbolTableRecord
100
AcDbLayerTableRecord
  2
0
 70
     0
 62
     7
  6
Continuous
370
    -3
390
F
  0
LAYER
  5
6F
330
2
100
AcDbSymbolTableRecord
100
AcDbLayerTableRecord
  2
FORMAT
 70
     0
 62
     7
  6
Continuous
370
    -3
390
F
  0
LAYER
  5
70
330
2
100
AcDbSymbolTableRecord
100
AcDbLayerTableRecord
  2
SLD-0
 70
     0
 62
     2
  6
Continuous
370
    -3
390
F
  0
LAYER
  5
71
330
2
100
AcDbSymbolTableRecord
100
AcDbLayerTableRecord
  2
DIM
 70
     0
 62
   179
  6
Continuous
370
    -3
390
F
  0
LAYER
  5
72
330
2
100
AcDbSymbolTableRecord
100
AcDbLayerTableRecord
  2
SLD-DEFPOINTS
 70
     0
 62
   179
  6
Continuous
370
    -3
390
F
  0
LAYER
  5
73
330
2
100
AcDbSymbolTableRecord
100
AcDbLayerTableRecord
  2
HAT
 70
     0
 62
   135
  6
Continuous
370
    -3
390
F
  0
LAYER
  5
74
330
2
100
AcDbSymbolTableRecord
100
AcDbLayerTableRecord
  2
JOB
 70
     0
 62
   201
  6
Continuous
370
    -3
390
F
  0
LAYER
  5
75
330
2
100
AcDbSymbolTableRecord
100
AcDbLayerTableRecord
  2
INSPECTION_REPORT
 70
     0
 62
   255
  6
Continuous
370
    -3
390
F
  0
ENDTAB
  0
TABLE
  2
STYLE
  5
3
330
0
100
AcDbSymbolTable
 70
     4
  0
STYLE
  5
11
330
3
100
AcDbSymbolTableRecord
100
AcDbTextStyleTableRecord
  2
Standard
 70
     0
 40
0.0
 41
1.0
 50
0.0
 71
     0
 42
3.8805555556
  3
txt
  4

  0
STYLE
  5
96
330
3
100
AcDbSymbolTableRecord
100
AcDbTextStyleTableRecord
  2
SLDTEXTSTYLE0
 70
     0
 40
0.0
 41
0.7
 50
0.0
 71
     0
 42
3.8805555556
  3
TXT
  4

  0
STYLE
  5
98
330
3
100
AcDbSymbolTableRecord
100
AcDbTextStyleTableRecord
  2
SLDTEXTSTYLE1
 70
     0
 40
0.0
 41
0.75
 50
0.0
 71
     0
 42
3.8805555556
  3
TXT
  4

  0
STYLE
  5
AB
330
3
100
AcDbSymbolTableRecord
100
AcDbTextStyleTableRecord
  2
SLDTEXTSTYLE2
 70
     0
 40
0.0
 41
0.6875
 50
0.0
 71
     0
 42
3.8805555556
  3
TXT
  4

  0
ENDTAB
  0
TABLE
  2
VIEW
  5
6
330
0
100
AcDbSymbolTable
 70
     0
  0
ENDTAB
  0
TABLE
  2
UCS
  5
7
330
0
100
AcDbSymbolTable
 70
     0
  0
ENDTAB
  0
TABLE
  2
APPID
  5
9
330
0
100
AcDbSymbolTable
 70
     1
  0
APPID
  5
12
330
9
100
AcDbSymbolTableRecord
100
AcDbRegAppTableRecord
  2
ACAD
 70
     0
  0
ENDTAB
  0
TABLE
  2
DIMSTYLE
  5
A
330
0
100
AcDbSymbolTable
 70
     4
100
AcDbDimStyleTable
  0
DIMSTYLE
105
27
330
A
100
AcDbSymbolTableRecord
100
AcDbDimStyleTableRecord
  2
ISO-25
 70
     0
 41
2.5
 42
0.625
 43
3.75
 44
1.25
 73
     0
 74
     0
 77
     1
 78
     8
140
2.5
141
2.5
143
0.0393700787
147
0.625
171
     3
172
     1
178
     0
271
     2
272
     2
274
     3
278
    44
283
     0
284
     8
340
11
  0
DIMSTYLE
105
13F
102
{ACAD_REACTORS
330
13E
330
14C
102
}
330
A
100
AcDbSymbolTableRecord
100
AcDbDimStyleTableRecord
  2
SLDDIMSTYLE0
 70
     0
 41
3.302
 44
0.0
 45
0.000000001
 73
     0
 74
     0
 77
     1
 78
    12
 79
     3
140
2.9104166667
147
0.7276041667
172
     1
173
     1
178
     0
271
     2
272
     2
276
     2
284
    12
289
     0
340
96
  0
DIMSTYLE
105
15A
102
{ACAD_REACTORS
330
159
330
164
330
179
102
}
330
A
100
AcDbSymbolTableRecord
100
AcDbDimStyleTableRecord
  2
SLDDIMSTYLE1
 70
     0
 41
3.302
 44
0.0
 45
0.000000001
 73
     0
 74
     0
 77
     1
 78
    12
 79
     3
140
2.9104166667
147
0.7276041667
173
     1
178
     0
271
     2
272
     2
276
     2
284
    12
340
96
  0
DIMSTYLE
105
16F
102
{ACAD_REACTORS
330
16E
102
}
330
A
100
AcDbSymbolTableRecord
100
AcDbDimStyleTableRecord
  2
SLDDIMSTYLE2
 70
     0
 41
3.302
 44
0.0
 45
0.000000001
 73
     0
 74
     0
 77
     1
 78
     4
 79
     1
140
2.9104166667
147
0.7276041667
173
     1
178
     0
271
     2
272
     2
276
     2
284
    12
340
96
  0
ENDTAB
  0
TABLE
  2
BLOCK_RECORD
  5
1
330
0
100
AcDbSymbolTable
 70
     7
  0
BLOCK_RECORD
  5
1F
330
1
100
AcDbSymbolTableRecord
100
AcDbBlockTableRecord
  2
*Model_Space
340
22
  0
BLOCK_RECORD
  5
1B
330
1
100
AcDbSymbolTableRecord
100
AcDbBlockTableRecord
  2
*Paper_Space
340
1E
  0
BLOCK_RECORD
  5
23
330
1
100
AcDbSymbolTableRecord
100
AcDbBlockTableRecord
  2
*Paper_Space0
340
26
  0
BLOCK_RECORD
  5
140
330
1
100
AcDbSymbolTableRecord
100
AcDbBlockTableRecord
  2
_D
340
0
  0
BLOCK_RECORD
  5
14D
330
1
100
AcDbSymbolTableRecord
100
AcDbBlockTableRecord
  2
_D_1
340
0
  0
BLOCK_RECORD
  5
15B
330
1
100
AcDbSymbolTableRecord
100
AcDbBlockTableRecord
  2
_D_2
340
0
  0
BLOCK_RECORD
  5
165
330
1
100
AcDbSymbolTableRecord
100
AcDbBlockTableRecord
  2
_D_3
340
0
  0
BLOCK_RECORD
  5
170
330
1
100
AcDbSymbolTableRecord
100
AcDbBlockTableRecord
  2
_D_4
340
0
  0
BLOCK_RECORD
  5
17A
330
1
100
AcDbSymbolTableRecord
100
AcDbBlockTableRecord
  2
_D_5
340
0
  0
ENDTAB
  0
ENDSEC
  0
SECTION
  2
BLOCKS
  0
BLOCK
  5
20
330
1F
100
AcDbEntity
  8
0
100
AcDbBlockBegin
  2
*Model_Space
 70
     0
 10
0.0
 20
0.0
 30
0.0
  3
*Model_Space
  1
*Model_Space
  0
ENDBLK
  5
21
330
1F
100
AcDbEntity
  8
0
100
AcDbBlockEnd
  0
BLOCK
  5
1C
330
1B
100
AcDbEntity
 67
     1
  8
0
100
AcDbBlockBegin
  2
*Paper_Space
 70
     0
 10
0.0
 20
0.0
 30
0.0
  3
*Paper_Space
  1
*Paper_Space
  0
ENDBLK
  5
1D
330
1B
100
AcDbEntity
 67
     1
  8
0
100
AcDbBlockEnd
  0
BLOCK
  5
24
330
23
100
AcDbEntity
  8
0
100
AcDbBlockBegin
  2
*Paper_Space0
 70
     0
 10
0.0
 20
0.0
 30
0.0
  3
*Paper_Space0
  1
*Paper_Space0
  0
ENDBLK
  5
25
330
23
100
AcDbEntity
  8
0
100
AcDbBlockEnd
  0
BLOCK
  5
141
330
140
100
AcDbEntity
  8
0
100
AcDbBlockBegin
  2
_D
 70
     0
 10
0.0
 20
0.0
 30
0.0
  3
_D
  1
_D
  0
SOLID
  5
143
330
140
100
AcDbEntity
  8
DIM
100
AcDbTrace
 10
243.9288566274
 20
121.1715212394
 30
0.0
 11
244.4368566274
 21
124.4735212394
 31
0.0
 12
243.4208566274
 22
124.4735212394
 32
0.0
 13
243.4208566274
 23
124.4735212394
 33
0.0
  0
SOLID
  5
144
330
140
100
AcDbEntity
  8
DIM
100
AcDbTrace
 10
243.9288566274
 20
94.1715212394
 30
0.0
 11
243.4208566274
 21
90.8695212394
 31
0.0
 12
244.4368566274
 22
90.8695212394
 32
0.0
 13
244.4368566274
 23
90.8695212394
 33
0.0
  0
LINE
  5
145
330
140
100
AcDbEntity
  8
DIM
100
AcDbLine
 10
223.4972697783
 20
121.1715212394
 30
0.0
 11
244.9288566274
 21
121.1715212394
 31
0.0
  0
LINE
  5
146
330
140
100
AcDbEntity
  8
DIM
100
AcDbLine
 10
223.4972697783
 20
94.1715212394
 30
0.0
 11
244.9288566274
 21
94.1715212394
 31
0.0
  0
LINE
  5
147
330
140
100
AcDbEntity
  8
DIM
100
AcDbLine
 10
243.9288566274
 20
121.1715212394
 30
0.0
 11
243.9288566274
 21
127.5215212394
 31
0.0
  0
LINE
  5
148
330
140
100
AcDbEntity
  8
DIM
100
AcDbLine
 10
243.9288566274
 20
121.1715212394
 30
0.0
 11
243.9288566274
 21
94.1715212394
 31
0.0
  0
LINE
  5
149
330
140
100
AcDbEntity
  8
DIM
100
AcDbLine
 10
243.9288566274
 20
94.1715212394
 30
0.0
 11
243.9288566274
 21
87.8215212394
 31
0.0
  0
MTEXT
  5
14A
330
140
100
AcDbEntity
  8
DIM
100
AcDbMText
 10
240.1771321603
 20
103.4539771345
 30
0.0
 40
2.9104166667
 41
0.0
 71
     1
 72
     1
  1
%%c
  7
SLDTEXTSTYLE0
 11
-7.044195017643634E-15
 21
1.0
 31
0.0
 73
     1
 44
1.0
  0
MTEXT
  5
14B
330
140
100
AcDbEntity
  8
DIM
100
AcDbMText
 10
240.1771321603
 20
107.9546130341
 30
0.0
 40
2.9104166667
 41
0.0
 71
     1
 72
     1
  1
27
  7
SLDTEXTSTYLE0
 11
-7.044195017643634E-15
 21
1.0
 31
0.0
 73
     1
 44
1.0
  0
ENDBLK
  5
142
330
140
100
AcDbEntity
  8
0
100
AcDbBlockEnd
  0
BLOCK
  5
14E
330
14D
100
AcDbEntity
  8
0
100
AcDbBlockBegin
  2
_D_1
 70
     0
 10
0.0
 20
0.0
 30
0.0
  3
_D_1
  1
_D_1
  0
SOLID
  5
150
330
14D
100
AcDbEntity
  8
DIM
100
AcDbTrace
 10
248.7070247072
 20
131.6715212394
 30
0.0
 11
249.2150247072
 21
134.9735212394
 31
0.0
 12
248.1990247072
 22
134.9735212394
 32
0.0
 13
248.1990247072
 23
134.9735212394
 33
0.0
  0
SOLID
  5
151
330
14D
100
AcDbEntity
  8
DIM
100
AcDbTrace
 10
248.7070247072
 20
83.6715212394
 30
0.0
 11
248.1990247072
 21
80.3695212394
 31
0.0
 12
249.2150247072
 22
80.3695212394
 32
0.0
 13
249.2150247072
 23
80.3695212394
 33
0.0
  0
LINE
  5
152
330
14D
100
AcDbEntity
  8
DIM
100
AcDbLine
 10
209.6495129643
 20
131.6715212394
 30
0.0
 11
249.7070247072
 21
131.6715212394
 31
0.0
  0
LINE
  5
153
330
14D
100
AcDbEntity
  8
DIM
100
AcDbLine
 10
209.6495129643
 20
83.6715212394
 30
0.0
 11
249.7070247072
 21
83.6715212394
 31
0.0
  0
LINE
  5
154
330
14D
100
AcDbEntity
  8
DIM
100
AcDbLine
 10
248.7070247072
 20
131.6715212394
 30
0.0
 11
248.7070247072
 21
138.0215212394
 31
0.0
  0
LINE
  5
155
330
14D
100
AcDbEntity
  8
DIM
100
AcDbLine
 10
248.7070247072
 20
131.6715212394
 30
0.0
 11
248.7070247072
 21
83.6715212394
 31
0.0
  0
LINE
  5
156
330
14D
100
AcDbEntity
  8
DIM
100
AcDbLine
 10
248.7070247072
 20
83.6715212394
 30
0.0
 11
248.7070247072
 21
77.3215212394
 31
0.0
  0
MTEXT
  5
157
330
14D
100
AcDbEntity
  8
DIM
100
AcDbMText
 10
244.9553002401
 20
103.4539771345
 30
0.0
 40
2.9104166667
 41
0.0
 71
     1
 72
     1
  1
%%c
  7
SLDTEXTSTYLE0
 11
-7.044195017643634E-15
 21
1.0
 31
0.0
 73
     1
 44
1.0
  0
MTEXT
  5
158
330
14D
100
AcDbEntity
  8
DIM
100
AcDbMText
 10
244.9553002401
 20
107.9546130341
 30
0.0
 40
2.9104166667
 41
0.0
 71
     1
 72
     1
  1
48
  7
SLDTEXTSTYLE0
 11
-7.044195017643634E-15
 21
1.0
 31
0.0
 73
     1
 44
1.0
  0
ENDBLK
  5
14F
330
14D
100
AcDbEntity
  8
0
100
AcDbBlockEnd
  0
BLOCK
  5
15C
330
15B
100
AcDbEntity
  8
0
100
AcDbBlockBegin
  2
_D_2
 70
     0
 10
0.0
 20
0.0
 30
0.0
  3
_D_2
  1
_D_2
  0
SOLID
  5
15E
330
15B
100
AcDbEntity
  8
DIM
100
AcDbTrace
 10
223.9695129643
 20
66.1714962394
 30
0.0
 11
220.6675129643
 21
66.6794962394
 31
0.0
 12
220.6675129643
 22
65.6634962394
 32
0.0
 13
220.6675129643
 23
65.6634962394
 33
0.0
  0
SOLID
  5
15F
330
15B
100
AcDbEntity
  8
DIM
100
AcDbTrace
 10
202.9695129606
 20
66.1714962394
 30
0.0
 11
206.2715129606
 21
65.6634962394
 31
0.0
 12
206.2715129606
 22
66.6794962394
 32
0.0
 13
206.2715129606
 23
66.6794962394
 33
0.0
  0
LINE
  5
160
330
15B
100
AcDbEntity
  8
DIM
100
AcDbLine
 10
223.9695129643
 20
94.0215212394
 30
0.0
 11
223.9695129643
 21
65.1714962394
 31
0.0
  0
LINE
  5
161
330
15B
100
AcDbEntity
  8
DIM
100
AcDbLine
 10
202.9695129606
 20
83.4336211623
 30
0.0
 11
202.9695129606
 21
65.1714962394
 31
0.0
  0
LINE
  5
162
330
15B
100
AcDbEntity
  8
DIM
100
AcDbLine
 10
223.9695129643
 20
66.1714962394
 30
0.0
 11
202.9695129606
 21
66.1714962394
 31
0.0
  0
MTEXT
  5
163
330
15B
100
AcDbEntity
  8
DIM
100
AcDbMText
 10
211.5022868074
 20
69.9232207065
 30
0.0
 40
2.9104166667
 41
0.0
 71
     1
 72
     1
  1
21
  7
SLDTEXTSTYLE0
 73
     1
 44
1.0
  0
ENDBLK
  5
15D
330
15B
100
AcDbEntity
  8
0
100
AcDbBlockEnd
  0
BLOCK
  5
166
330
165
100
AcDbEntity
  8
0
100
AcDbBlockBegin
  2
_D_3
 70
     0
 10
0.0
 20
0.0
 30
0.0
  3
_D_3
  1
_D_3
  0
SOLID
  5
168
330
165
100
AcDbEntity
  8
DIM
100
AcDbTrace
 10
202.9695129606
 20
66.1714962394
 30
0.0
 11
199.6675129606
 21
66.6794962394
 31
0.0
 12
199.6675129606
 22
65.6634962394
 32
0.0
 13
199.6675129606
 23
65.6634962394
 33
0.0
  0
SOLID
  5
169
330
165
100
AcDbEntity
  8
DIM
100
AcDbTrace
 10
102.9695129643
 20
66.1714962394
 30
0.0
 11
106.2715129643
 21
65.6634962394
 31
0.0
 12
106.2715129643
 22
66.6794962394
 32
0.0
 13
106.2715129643
 23
66.6794962394
 33
0.0
  0
LINE
  5
16A
330
165
100
AcDbEntity
  8
DIM
100
AcDbLine
 10
202.9695129606
 20
83.4336211623
 30
0.0
 11
202.9695129606
 21
65.1714962394
 31
0.0
  0
LINE
  5
16B
330
165
100
AcDbEntity
  8
DIM
100
AcDbLine
 10
102.9695129643
 20
84.4465212394
 30
0.0
 11
102.9695129643
 21
65.1714962394
 31
0.0
  0
LINE
  5
16C
330
165
100
AcDbEntity
  8
DIM
100
AcDbLine
 10
202.9695129606
 20
66.1714962394
 30
0.0
 11
102.9695129643
 21
66.1714962394
 31
0.0
  0
MTEXT
  5
16D
330
165
100
AcDbEntity
  8
DIM
100
AcDbMText
 10
150.0186737298
 20
69.9232207065
 30
0.0
 40
2.9104166667
 41
0.0
 71
     1
 72
     1
  1
100
  7
SLDTEXTSTYLE0
 73
     1
 44
1.0
  0
ENDBLK
  5
167
330
165
100
AcDbEntity
  8
0
100
AcDbBlockEnd
  0
BLOCK
  5
171
330
170
100
AcDbEntity
  8
0
100
AcDbBlockBegin
  2
_D_4
 70
     0
 10
0.0
 20
0.0
 30
0.0
  3
_D_4
  1
_D_4
  0
SOLID
  5
173
330
170
100
AcDbEntity
  8
DIM
100
AcDbTrace
 10
237.9695129643
 20
60.1714962394
 30
0.0
 11
234.6675129643
 21
60.6794962394
 31
0.0
 12
234.6675129643
 22
59.6634962394
 32
0.0
 13
234.6675129643
 23
59.6634962394
 33
0.0
  0
SOLID
  5
174
330
170
100
AcDbEntity
  8
DIM
100
AcDbTrace
 10
37.5695129645
 20
60.1714962394
 30
0.0
 11
40.8715129645
 21
59.6634962394
 31
0.0
 12
40.8715129645
 22
60.6794962394
 32
0.0
 13
40.8715129645
 23
60.6794962394
 33
0.0
  0
LINE
  5
175
330
170
100
AcDbEntity
  8
DIM
100
AcDbLine
 10
237.9695129643
 20
89.9215212394
 30
0.0
 11
237.9695129643
 21
59.1714962394
 31
0.0
  0
LINE
  5
176
330
170
100
AcDbEntity
  8
DIM
100
AcDbLine
 10
37.5695129645
 20
106.6715212394
 30
0.0
 11
37.5695129645
 21
59.1714962394
 31
0.0
  0
LINE
  5
177
330
170
100
AcDbEntity
  8
DIM
100
AcDbLine
 10
237.9695129643
 20
60.1714962394
 30
0.0
 11
37.5695129645
 21
60.1714962394
 31
0.0
  0
MTEXT
  5
178
330
170
100
AcDbEntity
  8
DIM
100
AcDbMText
 10
132.3340401445
 20
63.9232207065
 30
0.0
 40
2.9104166667
 41
0.0
 71
     1
 72
     1
  1
200.40
  7
SLDTEXTSTYLE0
 73
     1
 44
1.0
  0
ENDBLK
  5
172
330
170
100
AcDbEntity
  8
0
100
AcDbBlockEnd
  0
BLOCK
  5
17B
330
17A
100
AcDbEntity
  8
0
100
AcDbBlockBegin
  2
_D_5
 70
     0
 10
0.0
 20
0.0
 30
0.0
  3
_D_5
  1
_D_5
  0
SOLID
  5
17D
330
17A
100
AcDbEntity
  8
DIM
100
AcDbTrace
 10
33.8047780918
 20
139.1715212394
 30
0.0
 11
33.2967780918
 21
135.8695212394
 31
0.0
 12
34.3127780918
 22
135.8695212394
 32
0.0
 13
34.3127780918
 23
135.8695212394
 33
0.0
  0
SOLID
  5
17E
330
17A
100
AcDbEntity
  8
DIM
100
AcDbTrace
 10
33.8047780918
 20
76.1715212394
 30
0.0
 11
34.3127780918
 21
79.4735212394
 31
0.0
 12
33.2967780918
 22
79.4735212394
 32
0.0
 13
33.2967780918
 23
79.4735212394
 33
0.0
  0
LINE
  5
17F
330
17A
100
AcDbEntity
  8
DIM
100
AcDbLine
 10
105.1351983893
 20
139.1715212394
 30
0.0
 11
32.8047780918
 21
139.1715212394
 31
0.0
  0
LINE
  5
180
330
17A
100
AcDbEntity
  8
DIM
100
AcDbLine
 10
105.1351983893
 20
76.1715212394
 30
0.0
 11
32.8047780918
 21
76.1715212394
 31
0.0
  0
LINE
  5
181
330
17A
100
AcDbEntity
  8
DIM
100
AcDbLine
 10
33.8047780918
 20
139.1715212394
 30
0.0
 11
33.8047780918
 21
76.1715212394
 31
0.0
  0
MTEXT
  5
182
330
17A
100
AcDbEntity
  8
DIM
100
AcDbMText
 10
30.0530536246
 20
103.4539771345
 30
0.0
 40
2.9104166667
 41
0.0
 71
     1
 72
     1
  1
%%c
  7
SLDTEXTSTYLE0
 11
-7.044195017643634E-15
 21
1.0
 31
0.0
 73
     1
 44
1.0
  0
MTEXT
  5
183
330
17A
100
AcDbEntity
  8
DIM
100
AcDbMText
 10
30.0530536246
 20
107.9546130341
 30
0.0
 40
2.9104166667
 41
0.0
 71
     1
 72
     1
  1
63
  7
SLDTEXTSTYLE0
 11
-7.044195017643634E-15
 21
1.0
 31
0.0
 73
     1
 44
1.0
  0
ENDBLK
  5
17C
330
17A
100
AcDbEntity
  8
0
100
AcDbBlockEnd
  0
ENDSEC
  0
SECTION
  2
ENTITIES
  0
LINE
  5
76
330
1F
100
AcDbEntity
  8
DIM
100
AcDbLine
 10
104.704424689
 20
9.7909914569
 30
0.0
 11
104.704424689
 21
4.7909914569
 31
0.0
  0
LINE
  5
77
330
1F
100
AcDbEntity
  8
DIM
100
AcDbLine
 10
254.4696016953
 20
9.7909914569
 30
0.0
 11
254.4696016953
 21
4.7909914569
 31
0.0
  0
LINE
  5
78
330
1F
100
AcDbEntity
  8
DIM
100
AcDbLine
 10
237.4517099316
 20
9.7909914569
 30
0.0
 11
237.4517099316
 21
4.7909914569
 31
0.0
  0
LINE
  5
79
330
1F
100
AcDbEntity
  8
DIM
100
AcDbLine
 10
278.904424689
 20
4.7909914569
 30
0.0
 11
278.904424689
 21
9.7909914569
 31
0.0
  0
LINE
  5
7A
330
1F
100
AcDbEntity
  8
DIM
100
AcDbLine
 10
112.504424689
 20
9.7909914569
 30
0.0
 11
112.504424689
 21
4.7909914569
 31
0.0
  0
LINE
  5
7B
330
1F
100
AcDbEntity
  8
DIM
100
AcDbLine
 10
131.6953771228
 20
9.7909914569
 30
0.0
 11
131.6953771228
 21
4.7909914569
 31
0.0
  0
LINE
  5
7C
330
1F
100
AcDbEntity
  8
DIM
100
AcDbLine
 10
291.904424689
 20
4.7909914569
 30
0.0
 11
291.904424689
 21
77.0409914569
 31
0.0
  0
LINE
  5
7D
330
1F
100
AcDbEntity
  8
DIM
100
AcDbLine
 10
285.8190046947
 20
60.0409914569
 30
0.0
 11
291.904424689
 21
60.0409914569
 31
0.0
  0
LINE
  5
7E
330
1F
100
AcDbEntity
  8
DIM
100
AcDbLine
 10
149.1033508525
 20
9.0409914569
 30
0.0
 11
149.1033508525
 21
4.7909914569
 31
0.0
  0
LINE
  5
7F
330
1F
100
AcDbEntity
  8
DIM
100
AcDbLine
 10
196.7639491604
 20
9.7909914569
 30
0.0
 11
196.7639491604
 21
4.7909914569
 31
0.0
  0
LINE
  5
80
330
1F
100
AcDbEntity
  8
DIM
100
AcDbLine
 10
149.1033508525
 20
9.7909914569
 30
0.0
 11
149.1033508525
 21
9.0409914569
 31
0.0
  0
LINE
  5
81
330
1F
100
AcDbEntity
  8
DIM
100
AcDbLine
 10
286.904424689
 20
17.5409194569
 30
0.0
 11
291.904424689
 21
17.5409194569
 31
0.0
  0
LINE
  5
82
330
1F
100
AcDbEntity
  8
DIM
100
AcDbLine
 10
286.904424689
 20
199.7909914569
 30
0.0
 11
9.904424689
 21
199.7909914569
 31
0.0
  0
LINE
  5
83
330
1F
100
AcDbEntity
  8
DIM
100
AcDbLine
 10
291.904424689
 20
204.7909914569
 30
0.0
 11
4.904424689
 21
204.7909914569
 31
0.0
  0
LINE
  5
84
330
1F
100
AcDbEntity
  8
DIM
100
AcDbLine
 10
9.904424689
 20
199.7909914569
 30
0.0
 11
9.904424689
 21
9.7909914569
 31
0.0
  0
LINE
  5
85
330
1F
100
AcDbEntity
  8
DIM
100
AcDbLine
 10
4.904424689
 20
204.7909914569
 30
0.0
 11
4.904424689
 21
4.7909914569
 31
0.0
  0
LINE
  5
86
330
1F
100
AcDbEntity
  8
DIM
100
AcDbLine
 10
9.904424689
 20
54.7909914569
 30
0.0
 11
4.904424689
 21
54.7909914569
 31
0.0
  0
LINE
  5
87
330
1F
100
AcDbEntity
  8
DIM
100
AcDbLine
 10
4.904424689
 20
104.7909914569
 30
0.0
 11
9.904424689
 21
104.7909914569
 31
0.0
  0
LINE
  5
88
330
1F
100
AcDbEntity
  8
DIM
100
AcDbLine
 10
4.904424689
 20
4.7909914569
 30
0.0
 11
291.904424689
 21
4.7909914569
 31
0.0
  0
LINE
  5
89
330
1F
100
AcDbEntity
  8
DIM
100
AcDbLine
 10
9.904424689
 20
9.7909914569
 30
0.0
 11
291.904424689
 21
9.7909914569
 31
0.0
  0
LINE
  5
8A
330
1F
100
AcDbEntity
  8
DIM
100
AcDbLine
 10
48.404424689
 20
4.7909914569
 30
0.0
 11
48.404424689
 21
9.7909914569
 31
0.0
  0
LINE
  5
8B
330
1F
100
AcDbEntity
  8
DIM
100
AcDbLine
 10
98.404424689
 20
9.7909914569
 30
0.0
 11
98.404424689
 21
4.7909914569
 31
0.0
  0
LINE
  5
8C
330
1F
100
AcDbEntity
  8
DIM
100
AcDbLine
 10
9.904424689
 20
154.7909914569
 30
0.0
 11
4.904424689
 21
154.7909914569
 31
0.0
  0
LINE
  5
8D
330
1F
100
AcDbEntity
  8
DIM
100
AcDbLine
 10
48.404424689
 20
199.7909914569
 30
0.0
 11
48.404424689
 21
204.7909914569
 31
0.0
  0
LINE
  5
8E
330
1F
100
AcDbEntity
  8
DIM
100
AcDbLine
 10
98.404424689
 20
204.7909914569
 30
0.0
 11
98.404424689
 21
199.7909914569
 31
0.0
  0
LINE
  5
8F
330
1F
100
AcDbEntity
  8
DIM
100
AcDbLine
 10
148.404424689
 20
204.7909914569
 30
0.0
 11
148.404424689
 21
199.7909914569
 31
0.0
  0
LINE
  5
90
330
1F
100
AcDbEntity
  8
DIM
100
AcDbLine
 10
286.904424689
 20
9.7909914569
 30
0.0
 11
286.904424689
 21
199.7909914569
 31
0.0
  0
LINE
  5
91
330
1F
100
AcDbEntity
  8
DIM
100
AcDbLine
 10
291.904424689
 20
77.0409914569
 30
0.0
 11
291.904424689
 21
204.7909914569
 31
0.0
  0
LINE
  5
92
330
1F
100
AcDbEntity
  8
DIM
100
AcDbLine
 10
291.904424689
 20
104.7909914569
 30
0.0
 11
286.904424689
 21
104.7909914569
 31
0.0
  0
LINE
  5
93
330
1F
100
AcDbEntity
  8
DIM
100
AcDbLine
 10
198.404424689
 20
204.7909914569
 30
0.0
 11
198.404424689
 21
199.7909914569
 31
0.0
  0
LINE
  5
94
330
1F
100
AcDbEntity
  8
DIM
100
AcDbLine
 10
248.404424689
 20
199.7909914569
 30
0.0
 11
248.404424689
 21
204.7909914569
 31
0.0
  0
LINE
  5
95
330
1F
100
AcDbEntity
  8
DIM
100
AcDbLine
 10
286.904424689
 20
154.7909914569
 30
0.0
 11
291.904424689
 21
154.7909914569
 31
0.0
  0
MTEXT
  5
97
330
1F
100
AcDbEntity
  8
DIM
100
AcDbMText
 10
16.7039741965
 20
192.951218434
 30
0.0
 40
4.2333333333
 41
0.0
 71
     1
 72
     1
  1
BT40 CSMA27 100 AD/6.3G 15000 SL SP.S
  7
SLDTEXTSTYLE0
 73
     1
 44
1.0
  0
MTEXT
  5
99
330
1F
100
AcDbEntity
  8
DIM
 62
     7
100
AcDbMText
 10
197.7327786466
 20
7.8019515263
 30
0.0
 40
1.4986
 41
0.0
 71
     1
 72
     1
  1
WEIGHT:
  7
SLDTEXTSTYLE1
 73
     1
 44
1.0
  0
MTEXT
  5
9A
330
1F
100
AcDbEntity
  8
DIM
 62
     7
100
AcDbMText
 10
288.5970767548
 20
81.9406135082
 30
0.0
 40
1.8520833333
 41
0.0
 71
     1
 72
     1
  1
C
  7
SLDTEXTSTYLE1
 73
     1
 44
1.0
  0
MTEXT
  5
9B
330
1F
100
AcDbEntity
  8
DIM
 62
     7
100
AcDbMText
 10
283.0435806195
 20
14.8539819836
 30
0.0
 40
2.9104166667
 41
0.0
 71
     1
 72
     1
  1
A4
  7
SLDTEXTSTYLE1
 73
     1
 44
1.0
  0
MTEXT
  5
9C
330
1F
100
AcDbEntity
  8
DIM
 62
     7
100
AcDbMText
 10
272.5710953557
 20
203.4590078604
 30
0.0
 40
1.8520833333
 41
0.0
 71
     1
 72
     1
  1
6
  7
SLDTEXTSTYLE1
 73
     1
 44
1.0
  0
MTEXT
  5
9D
330
1F
100
AcDbEntity
  8
DIM
 62
     7
100
AcDbMText
 10
222.5710953557
 20
203.4590078604
 30
0.0
 40
1.8520833333
 41
0.0
 71
     1
 72
     1
  1
5
  7
SLDTEXTSTYLE1
 73
     1
 44
1.0
  0
MTEXT
  5
9E
330
1F
100
AcDbEntity
  8
DIM
 62
     7
100
AcDbMText
 10
288.5710993557
 20
180.9590078604
 30
0.0
 40
1.8520833333
 41
0.0
 71
     1
 72
     1
  1
A
  7
SLDTEXTSTYLE1
 73
     1
 44
1.0
  0
MTEXT
  5
9F
330
1F
100
AcDbEntity
  8
DIM
 62
     7
100
AcDbMText
 10
288.5710993557
 20
130.9590078604
 30
0.0
 40
1.8520833333
 41
0.0
 71
     1
 72
     1
  1
B
  7
SLDTEXTSTYLE1
 73
     1
 44
1.0
  0
MTEXT
  5
A0
330
1F
100
AcDbEntity
  8
DIM
 62
     7
100
AcDbMText
 10
172.5710953557
 20
203.4590078604
 30
0.0
 40
1.8520833333
 41
0.0
 71
     1
 72
     1
  1
4
  7
SLDTEXTSTYLE1
 73
     1
 44
1.0
  0
MTEXT
  5
A1
330
1F
100
AcDbEntity
  8
DIM
 62
     7
100
AcDbMText
 10
22.9877620223
 20
203.4590078604
 30
0.0
 40
1.8520833333
 41
0.0
 71
     1
 72
     1
  1
1
  7
SLDTEXTSTYLE1
 73
     1
 44
1.0
  0
MTEXT
  5
A2
330
1F
100
AcDbEntity
  8
DIM
 62
     7
100
AcDbMText
 10
72.5710953557
 20
203.4590078604
 30
0.0
 40
1.8520833333
 41
0.0
 71
     1
 72
     1
  1
2
  7
SLDTEXTSTYLE1
 73
     1
 44
1.0
  0
MTEXT
  5
A3
330
1F
100
AcDbEntity
  8
DIM
 62
     7
100
AcDbMText
 10
122.5710953557
 20
203.4590078604
 30
0.0
 40
1.8520833333
 41
0.0
 71
     1
 72
     1
  1
3
  7
SLDTEXTSTYLE1
 73
     1
 44
1.0
  0
MTEXT
  5
A4
330
1F
100
AcDbEntity
  8
DIM
 62
     7
100
AcDbMText
 10
6.5710913557
 20
180.9590078604
 30
0.0
 40
1.8520833333
 41
0.0
 71
     1
 72
     1
  1
A
  7
SLDTEXTSTYLE1
 73
     1
 44
1.0
  0
MTEXT
  5
A5
330
1F
100
AcDbEntity
  8
DIM
 62
     7
100
AcDbMText
 10
72.5710953557
 20
8.4590078604
 30
0.0
 40
1.8520833333
 41
0.0
 71
     1
 72
     1
  1
2
  7
SLDTEXTSTYLE1
 73
     1
 44
1.0
  0
MTEXT
  5
A6
330
1F
100
AcDbEntity
  8
DIM
 62
     7
100
AcDbMText
 10
22.9877620223
 20
8.4590078604
 30
0.0
 40
1.8520833333
 41
0.0
 71
     1
 72
     1
  1
1
  7
SLDTEXTSTYLE1
 73
     1
 44
1.0
  0
MTEXT
  5
A7
330
1F
100
AcDbEntity
  8
DIM
 62
     7
100
AcDbMText
 10
6.5710913557
 20
30.9590078604
 30
0.0
 40
1.8520833333
 41
0.0
 71
     1
 72
     1
  1
D
  7
SLDTEXTSTYLE1
 73
     1
 44
1.0
  0
MTEXT
  5
A8
330
1F
100
AcDbEntity
  8
DIM
 62
     7
100
AcDbMText
 10
6.5710913557
 20
80.9590078604
 30
0.0
 40
1.8520833333
 41
0.0
 71
     1
 72
     1
  1
C
  7
SLDTEXTSTYLE1
 73
     1
 44
1.0
  0
MTEXT
  5
A9
330
1F
100
AcDbEntity
  8
DIM
 62
     7
100
AcDbMText
 10
6.5710913557
 20
130.9590078604
 30
0.0
 40
1.8520833333
 41
0.0
 71
     1
 72
     1
  1
B
  7
SLDTEXTSTYLE1
 73
     1
 44
1.0
  0
MTEXT
  5
AA
330
1F
100
AcDbEntity
  8
DIM
 62
     7
100
AcDbMText
 10
288.5970767548
 20
81.9406135082
 30
0.0
 40
1.8520833333
 41
0.0
 71
     1
 72
     1
  1
C
  7
SLDTEXTSTYLE1
 73
     1
 44
1.0
  0
MTEXT
  5
AC
330
1F
100
AcDbEntity
  8
DIM
 62
     7
100
AcDbMText
 10
256.5253658125
 20
7.6910787314
 30
0.0
 40
1.5
 41
0.0
 71
     1
 72
     1
  1
SHEET 1 OF 1
  7
SLDTEXTSTYLE2
 73
     1
 44
1.0
  0
MTEXT
  5
AD
330
1F
100
AcDbEntity
  8
DIM
 62
     7
100
AcDbMText
 10
150.3717803834
 20
7.8533674836
 30
0.0
 40
1.5
 41
0.0
 71
     1
 72
     1
  1
MATERIAL:
  7
SLDTEXTSTYLE1
 73
     1
 44
1.0
  0
MTEXT
  5
AE
330
1F
100
AcDbEntity
  8
DIM
 62
     7
100
AcDbMText
 10
272.5710953557
 20
203.4590078604
 30
0.0
 40
1.8520833333
 41
0.0
 71
     1
 72
     1
  1
6
  7
SLDTEXTSTYLE1
 73
     1
 44
1.0
  0
MTEXT
  5
AF
330
1F
100
AcDbEntity
  8
DIM
 62
     7
100
AcDbMText
 10
222.5710953557
 20
203.4590078604
 30
0.0
 40
1.8520833333
 41
0.0
 71
     1
 72
     1
  1
5
  7
SLDTEXTSTYLE1
 73
     1
 44
1.0
  0
MTEXT
  5
B0
330
1F
100
AcDbEntity
  8
DIM
 62
     7
100
AcDbMText
 10
288.5710993557
 20
180.9590078604
 30
0.0
 40
1.8520833333
 41
0.0
 71
     1
 72
     1
  1
A
  7
SLDTEXTSTYLE1
 73
     1
 44
1.0
  0
MTEXT
  5
B1
330
1F
100
AcDbEntity
  8
DIM
 62
     7
100
AcDbMText
 10
288.5710993557
 20
130.9590078604
 30
0.0
 40
1.8520833333
 41
0.0
 71
     1
 72
     1
  1
B
  7
SLDTEXTSTYLE1
 73
     1
 44
1.0
  0
MTEXT
  5
B2
330
1F
100
AcDbEntity
  8
DIM
 62
     7
100
AcDbMText
 10
172.5710953557
 20
203.4590078604
 30
0.0
 40
1.8520833333
 41
0.0
 71
     1
 72
     1
  1
4
  7
SLDTEXTSTYLE1
 73
     1
 44
1.0
  0
MTEXT
  5
B3
330
1F
100
AcDbEntity
  8
DIM
 62
     7
100
AcDbMText
 10
22.9877620223
 20
203.4590078604
 30
0.0
 40
1.8520833333
 41
0.0
 71
     1
 72
     1
  1
1
  7
SLDTEXTSTYLE1
 73
     1
 44
1.0
  0
MTEXT
  5
B4
330
1F
100
AcDbEntity
  8
DIM
 62
     7
100
AcDbMText
 10
72.5710953557
 20
203.4590078604
 30
0.0
 40
1.8520833333
 41
0.0
 71
     1
 72
     1
  1
2
  7
SLDTEXTSTYLE1
 73
     1
 44
1.0
  0
MTEXT
  5
B5
330
1F
100
AcDbEntity
  8
DIM
 62
     7
100
AcDbMText
 10
122.5710953557
 20
203.4590078604
 30
0.0
 40
1.8520833333
 41
0.0
 71
     1
 72
     1
  1
3
  7
SLDTEXTSTYLE1
 73
     1
 44
1.0
  0
MTEXT
  5
B6
330
1F
100
AcDbEntity
  8
DIM
 62
     7
100
AcDbMText
 10
6.5710913557
 20
180.9590078604
 30
0.0
 40
1.8520833333
 41
0.0
 71
     1
 72
     1
  1
A
  7
SLDTEXTSTYLE1
 73
     1
 44
1.0
  0
MTEXT
  5
B7
330
1F
100
AcDbEntity
  8
DIM
 62
     7
100
AcDbMText
 10
72.5710953557
 20
8.4590078604
 30
0.0
 40
1.8520833333
 41
0.0
 71
     1
 72
     1
  1
2
  7
SLDTEXTSTYLE1
 73
     1
 44
1.0
  0
MTEXT
  5
B8
330
1F
100
AcDbEntity
  8
DIM
 62
     7
100
AcDbMText
 10
22.9877620223
 20
8.4590078604
 30
0.0
 40
1.8520833333
 41
0.0
 71
     1
 72
     1
  1
1
  7
SLDTEXTSTYLE1
 73
     1
 44
1.0
  0
MTEXT
  5
B9
330
1F
100
AcDbEntity
  8
DIM
 62
     7
100
AcDbMText
 10
6.5710913557
 20
30.9590078604
 30
0.0
 40
1.8520833333
 41
0.0
 71
     1
 72
     1
  1
D
  7
SLDTEXTSTYLE1
 73
     1
 44
1.0
  0
MTEXT
  5
BA
330
1F
100
AcDbEntity
  8
DIM
 62
     7
100
AcDbMText
 10
6.5710913557
 20
80.9590078604
 30
0.0
 40
1.8520833333
 41
0.0
 71
     1
 72
     1
  1
C
  7
SLDTEXTSTYLE1
 73
     1
 44
1.0
  0
MTEXT
  5
BB
330
1F
100
AcDbEntity
  8
DIM
 62
     7
100
AcDbMText
 10
6.5710913557
 20
130.9590078604
 30
0.0
 40
1.8520833333
 41
0.0
 71
     1
 72
     1
  1
B
  7
SLDTEXTSTYLE1
 73
     1
 44
1.0
  0
LINE
  5
BC
330
1F
100
AcDbEntity
  8
0
  6
Continuous
 62
     7
370
    15
100
AcDbLine
 10
124.5504010053
 20
76.1715212394
 30
0.0
 11
128.8038275393
 21
76.1715212394
 31
0.0
  0
LINE
  5
BD
330
1F
100
AcDbEntity
  8
0
  6
Continuous
 62
     7
370
    15
100
AcDbLine
 10
128.8038275393
 20
139.1715212394
 30
0.0
 11
124.5504010053
 21
139.1715212394
 31
0.0
  0
SPLINE
  5
BE
330
1F
100
AcDbEntity
  8
0
  6
Continuous
 62
     7
370
    15
100
AcDbSpline
210
0.0
220
0.0
230
1.0
 70
     8
 71
     3
 72
    11
 73
     7
 74
     0
 42
0.000000001
 43
0.00000001
 40
0.0
 40
0.0
 40
0.0
 40
0.0
 40
0.2475748616108597
 40
0.5000000007985717
 40
0.7524251395541847
 40
1.0
 40
1.0
 40
1.0
 40
1.0
 10
128.8038275393021
 20
76.17152123948095
 30
0.0
 10
128.8297627686834
 20
76.17297228833344
 30
0.0
 10
128.8821413285538
 20
76.17590281376192
 30
0.0
 10
128.9577754893126
 20
76.19985801196533
 30
0.0
 10
129.0281958002079
 20
76.2364005569084
 30
0.0
 10
129.0673052292099
 20
76.27136559743904
 30
0.0
 10
129.0866702520954
 20
76.2886785275264
 30
0.0
  0
SPLINE
  5
BF
330
1F
100
AcDbEntity
  8
0
  6
Continuous
 62
     7
370
    15
100
AcDbSpline
210
0.0
220
0.0
230
1.0
 70
     8
 71
     3
 72
    11
 73
     7
 74
     0
 42
0.000000001
 43
0.00000001
 40
0.0
 40
0.0
 40
0.0
 40
0.0
 40
0.2475748604355619
 40
0.4999999991910863
 40
0.7524251383840247
 40
1.0
 40
1.0
 40
1.0
 40
1.0
 10
129.0866702522122
 20
139.0543639511446
 30
0.0
 10
129.067305229324
 20
139.0716768812479
 30
0.0
 10
129.0281958003157
 20
139.1066419218113
 30
0.0
 10
128.9577754893928
 20
139.143184466792
 30
0.0
 10
128.8821413285967
 20
139.1671396650212
 30
0.0
 10
128.8297627686976
 20
139.1700701904529
 30
0.0
 10
128.8038275393021
 20
139.1715212393069
 30
0.0
  0
LINE
  5
C0
330
1F
100
AcDbEntity
  8
0
  6
Continuous
 62
     7
370
    15
100
AcDbLine
 10
124.5504010053
 20
139.1715212394
 30
0.0
 11
122.0695129643
 21
134.8744973568
 31
0.0
  0
LINE
  5
C1
330
1F
100
AcDbEntity
  8
0
  6
Continuous
 62
     7
370
    15
100
AcDbLine
 10
122.0695129643
 20
80.468545122
 30
0.0
 11
124.5504010053
 21
76.1715212394
 31
0.0
  0
LINE
  5
C2
330
1F
100
AcDbEntity
  8
0
  6
Continuous
 62
     7
370
    15
100
AcDbLine
 10
114.5842855458
 20
76.1715212394
 30
0.0
 11
117.0695129643
 21
80.4760613967
 31
0.0
  0
LINE
  5
C3
330
1F
100
AcDbEntity
  8
0
  6
Continuous
 62
     7
370
    15
100
AcDbLine
 10
117.0695129643
 20
134.8669810821
 30
0.0
 11
114.5842855458
 21
139.1715212394
 31
0.0
  0
LINE
  5
C4
330
1F
100
AcDbEntity
  8
0
  6
Continuous
 62
     7
370
    15
100
AcDbLine
 10
106.1351983893
 20
76.1715212394
 30
0.0
 11
114.5842855458
 21
76.1715212394
 31
0.0
  0
LINE
  5
C5
330
1F
100
AcDbEntity
  8
0
  6
Continuous
 62
     7
370
    15
100
AcDbLine
 10
114.5842855458
 20
139.1715212394
 30
0.0
 11
106.1351983893
 21
139.1715212394
 31
0.0
  0
LINE
  5
C6
330
1F
100
AcDbEntity
  8
0
  6
Continuous
 62
     7
370
    15
100
AcDbLine
 10
129.0866702523
 20
76.2886785274
 30
0.0
 11
129.8523556771
 21
77.0543639521
 31
0.0
  0
LINE
  5
C7
330
1F
100
AcDbEntity
  8
0
  6
Continuous
 62
     7
370
    15
100
AcDbLine
 10
129.8523556771
 20
138.2886785267
 30
0.0
 11
129.0866702523
 21
139.0543639514
 31
0.0
  0
LINE
  5
C8
330
1F
100
AcDbEntity
  8
0
  6
Continuous
 62
     7
370
    15
100
AcDbLine
 10
105.8523556772
 20
139.0543639523
 30
0.0
 11
105.0866702517
 21
138.2886785267
 31
0.0
  0
LINE
  5
C9
330
1F
100
AcDbEntity
  8
0
  6
Continuous
 62
     7
370
    15
100
AcDbLine
 10
105.0866702517
 20
77.054363952
 30
0.0
 11
105.8523556772
 21
76.2886785265
 31
0.0
  0
LINE
  5
CA
330
1F
100
AcDbEntity
  8
0
  6
Continuous
 62
     7
370
    15
100
AcDbLine
 10
117.0695129643
 20
81.1715212394
 30
0.0
 11
122.0695129643
 21
81.1715212394
 31
0.0
  0
LINE
  5
CB
330
1F
100
AcDbEntity
  8
0
  6
Continuous
 62
     7
370
    15
100
AcDbLine
 10
122.0695129643
 20
134.1715212394
 30
0.0
 11
117.0695129643
 21
134.1715212394
 31
0.0
  0
SPLINE
  5
CC
330
1F
100
AcDbEntity
  8
0
  6
Continuous
 62
     7
370
    15
100
AcDbSpline
210
0.0
220
0.0
230
1.0
 70
     8
 71
     3
 72
    13
 73
     9
 74
     0
 42
0.000000001
 43
0.00000001
 40
0.0
 40
0.0
 40
0.0
 40
0.0
 40
0.2394568445117073
 40
0.3683606603932421
 40
0.5000000001715998
 40
0.6316393399245738
 40
0.7605431557335808
 40
1.0
 40
1.0
 40
1.0
 40
1.0
 10
129.9695129645476
 20
82.8715212397994
 30
0.0
 10
129.9801993566402
 20
82.97215829636858
 30
0.0
 10
129.9966384208752
 20
83.12697004415318
 30
0.0
 10
130.0963964990406
 20
83.3132229102915
 30
0.0
 10
130.1996459134295
 20
83.44138829089938
 30
0.0
 10
130.3278112940937
 20
83.54463770516921
 30
0.0
 10
130.5140641601863
 20
83.64439578311773
 30
0.0
 10
130.6688759078542
 20
83.66083484719142
 30
0.0
 10
130.7695129643311
 20
83.67152123917741
 30
0.0
  0
SPLINE
  5
CD
330
1F
100
AcDbEntity
  8
0
  6
Continuous
 62
     7
370
    15
100
AcDbSpline
210
0.0
220
0.0
230
1.0
 70
     8
 71
     3
 72
    13
 73
     9
 74
     0
 42
0.000000001
 43
0.00000001
 40
0.0
 40
0.0
 40
0.0
 40
0.0
 40
0.2394568442664137
 40
0.3683606600754228
 40
0.4999999998283968
 40
0.6316393396067626
 40
0.7605431554882897
 40
1.0
 40
1.0
 40
1.0
 40
1.0
 10
130.7695129643311
 20
131.6715212396105
 30
0.0
 10
130.6688759078542
 20
131.6822076315965
 30
0.0
 10
130.5140641601863
 20
131.6986466956702
 30
0.0
 10
130.3278112940937
 20
131.7984047736187
 30
0.0
 10
130.1996459134295
 20
131.9016541878885
 30
0.0
 10
130.0963964990406
 20
132.0298195684964
 30
0.0
 10
129.9966384208752
 20
132.2160724346347
 30
0.0
 10
129.9801993566402
 20
132.3708841824193
 30
0.0
 10
129.9695129645476
 20
132.4715212389885
 30
0.0
  0
LINE
  5
CE
330
1F
100
AcDbEntity
  8
0
  6
Continuous
 62
     7
370
    15
100
AcDbLine
 10
130.7695129643
 20
83.6715212394
 30
0.0
 11
189.9695129643
 21
83.6715212394
 31
0.0
  0
LINE
  5
CF
330
1F
100
AcDbEntity
  8
0
  6
Continuous
 62
     7
370
    15
100
AcDbLine
 10
189.9695129643
 20
131.6715212394
 30
0.0
 11
130.7695129643
 21
131.6715212394
 31
0.0
  0
LINE
  5
D0
330
1F
100
AcDbEntity
  8
0
  6
Continuous
 62
     7
370
    15
100
AcDbLine
 10
189.9695129643
 20
83.6715212394
 30
0.0
 11
190.9695129643
 21
84.6715212394
 31
0.0
  0
LINE
  5
D1
330
1F
100
AcDbEntity
  8
0
  6
Continuous
 62
     7
370
    15
100
AcDbLine
 10
190.9695129643
 20
130.6715212394
 30
0.0
 11
189.9695129643
 21
131.6715212394
 31
0.0
  0
ARC
  5
D2
330
1F
100
AcDbEntity
  8
0
  6
Continuous
 62
     7
370
    15
100
AcDbCircle
 10
104.569512964
 20
85.2715212391
 30
0.0
 40
0.4000000002167212
100
AcDbArc
 50
359.9999985623
 51
89.9999999705
  0
ARC
  5
D3
330
1F
100
AcDbEntity
  8
0
  6
Continuous
 62
     7
370
    15
100
AcDbCircle
 10
104.569512964
 20
130.0715212397
 30
0.0
 40
0.4000000002166928
100
AcDbArc
 50
270.0000000295
 51
0.0000014378
  0
LINE
  5
D4
330
1F
100
AcDbEntity
  8
0
  6
Continuous
 62
     7
370
    15
100
AcDbLine
 10
102.9695129643
 20
129.8965212394
 30
0.0
 11
38.4252047373
 21
120.4837207464
 31
0.0
  0
LINE
  5
D5
330
1F
100
AcDbEntity
  8
0
  6
Continuous
 62
     7
370
    15
100
AcDbLine
 10
38.4252047373
 20
94.8593217324
 30
0.0
 11
102.9695129643
 21
85.4465212394
 31
0.0
  0
LINE
  5
D6
330
1F
100
AcDbEntity
  8
0
  6
Continuous
 62
     7
370
    15
100
AcDbLine
 10
102.9695129643
 20
85.4465212394
 30
0.0
 11
103.4520270213
 21
85.6715212394
 31
0.0
  0
LINE
  5
D7
330
1F
100
AcDbEntity
  8
0
  6
Continuous
 62
     7
370
    15
100
AcDbLine
 10
103.4520270213
 20
129.6715212394
 30
0.0
 11
102.9695129643
 21
129.8965212394
 31
0.0
  0
LINE
  5
D8
330
1F
100
AcDbEntity
  8
0
  6
Continuous
 62
     7
370
    15
100
AcDbLine
 10
103.4520270213
 20
85.6715212394
 30
0.0
 11
104.5695129642
 21
85.6715212394
 31
0.0
  0
LINE
  5
D9
330
1F
100
AcDbEntity
  8
0
  6
Continuous
 62
     7
370
    15
100
AcDbLine
 10
104.5695129642
 20
129.6715212394
 30
0.0
 11
103.4520270213
 21
129.6715212394
 31
0.0
  0
LINE
  5
DA
330
1F
100
AcDbEntity
  8
0
  6
Continuous
 62
     7
370
    15
100
AcDbLine
 10
229.7195129643
 20
125.1715212394
 30
0.0
 11
228.9695129643
 21
124.4215212394
 31
0.0
  0
LINE
  5
DB
330
1F
100
AcDbEntity
  8
0
  6
Continuous
 62
     7
370
    15
100
AcDbLine
 10
228.9695129643
 20
90.9215212394
 30
0.0
 11
229.7195129643
 21
90.1715212394
 31
0.0
  0
LINE
  5
DC
330
1F
100
AcDbEntity
  8
0
  6
Continuous
 62
     7
370
    15
100
AcDbLine
 10
237.2195129643
 20
90.1715212394
 30
0.0
 11
237.9695129643
 21
90.9215212394
 31
0.0
  0
LINE
  5
DD
330
1F
100
AcDbEntity
  8
0
  6
Continuous
 62
     7
370
    15
100
AcDbLine
 10
237.9695129643
 20
124.4215212394
 30
0.0
 11
237.2195129643
 21
125.1715212394
 31
0.0
  0
LINE
  5
DE
330
1F
100
AcDbEntity
  8
0
  6
Continuous
 62
     7
370
    15
100
AcDbLine
 10
229.7195129643
 20
90.1715212394
 30
0.0
 11
237.2195129643
 21
90.1715212394
 31
0.0
  0
LINE
  5
DF
330
1F
100
AcDbEntity
  8
0
  6
Continuous
 62
     7
370
    15
100
AcDbLine
 10
237.2195129643
 20
125.1715212394
 30
0.0
 11
229.7195129643
 21
125.1715212394
 31
0.0
  0
LINE
  5
E0
330
1F
100
AcDbEntity
  8
0
  6
Continuous
 62
     7
370
    15
100
AcDbLine
 10
190.9695129643
 20
94.1715212394
 30
0.0
 11
191.1495129643
 21
94.1715212394
 31
0.0
  0
LINE
  5
E1
330
1F
100
AcDbEntity
  8
0
  6
Continuous
 62
     7
370
    15
100
AcDbLine
 10
209.4495129643
 20
94.1715212394
 30
0.0
 11
222.4972697783
 21
94.1715212394
 31
0.0
  0
LINE
  5
E2
330
1F
100
AcDbEntity
  8
0
  6
Continuous
 62
     7
370
    15
100
AcDbLine
 10
222.4972697783
 20
121.1715212394
 30
0.0
 11
209.4495129643
 21
121.1715212394
 31
0.0
  0
LINE
  5
E3
330
1F
100
AcDbEntity
  8
0
  6
Continuous
 62
     7
370
    15
100
AcDbLine
 10
191.1495129643
 20
121.1715212394
 30
0.0
 11
190.9695129643
 21
121.1715212394
 31
0.0
  0
LINE
  5
E4
330
1F
100
AcDbEntity
  8
0
  6
Continuous
 62
     7
370
    15
100
AcDbLine
 10
222.4972697783
 20
94.1715212394
 30
0.0
 11
223.9695129643
 21
95.0215212394
 31
0.0
  0
LINE
  5
E5
330
1F
100
AcDbEntity
  8
0
  6
Continuous
 62
     7
370
    15
100
AcDbLine
 10
223.9695129643
 20
120.3215212394
 30
0.0
 11
222.4972697783
 21
121.1715212394
 31
0.0
  0
SPLINE
  5
E6
330
1F
100
AcDbEntity
  8
0
  6
Continuous
 62
     7
370
    15
100
AcDbSpline
210
0.0
220
0.0
230
1.0
 70
     8
 71
     3
 72
    11
 73
     7
 74
     0
 42
0.000000001
 43
0.00000001
 40
0.0
 40
0.0
 40
0.0
 40
0.0
 40
0.2418856031637876
 40
0.4999999999875866
 40
0.7581143967975822
 40
1.0
 40
1.0
 40
1.0
 40
1.0
 10
37.56951296461639
 20
95.84885451883942
 30
0.0
 10
37.58109011705862
 20
95.73382764838387
 30
0.0
 10
37.6050211660556
 20
95.49605642730214
 30
0.0
 10
37.79760805915306
 20
95.18135498175376
 30
0.0
 10
38.08122358431837
 20
94.94536992894686
 30
0.0
 10
38.31305255605817
 20
94.88737702805918
 30
0.0
 10
38.42520473739354
 20
94.85932173243452
 30
0.0
  0
SPLINE
  5
E7
330
1F
100
AcDbEntity
  8
0
  6
Continuous
 62
     7
370
    15
100
AcDbSpline
210
0.0
220
0.0
230
1.0
 70
     8
 71
     3
 72
    11
 73
     7
 74
     0
 42
0.000000001
 43
0.00000001
 40
0.0
 40
0.0
 40
0.0
 40
0.0
 40
0.2418856032047779
 40
0.5000000000148352
 40
0.7581143968373897
 40
1.0
 40
1.0
 40
1.0
 40
1.0
 10
38.42520473734383
 20
120.4837207463461
 30
0.0
 10
38.31305255601265
 20
120.4556654507168
 30
0.0
 10
38.0812235842827
 20
120.3976725498199
 30
0.0
 10
37.79760805913563
 20
120.1616874970114
 30
0.0
 10
37.60502116605267
 20
119.8469860514716
 30
0.0
 10
37.58109011705768
 20
119.6092148303994
 30
0.0
 10
37.56951296461641
 20
119.4941879599485
 30
0.0
  0
ARC
  5
E8
330
1F
100
AcDbEntity
  8
0
  6
Continuous
 62
     7
370
    15
100
AcDbCircle
 10
105.3695129625
 20
138.0058358151
 30
0.0
 40
0.3999999981924887
100
AcDbArc
 50
134.9999999264
 51
180.0000004793
  0
ARC
  5
E9
330
1F
100
AcDbEntity
  8
0
  6
Continuous
 62
     7
370
    15
100
AcDbCircle
 10
105.3695129625
 20
77.3372066637
 30
0.0
 40
0.3999999981924844
100
AcDbArc
 50
179.9999995207
 51
225.0000000736
  0
ARC
  5
EA
330
1F
100
AcDbEntity
  8
0
  6
Continuous
 62
     7
370
    15
100
AcDbCircle
 10
106.1351983886
 20
76.5715212375
 30
0.0
 40
0.3999999981380995
100
AcDbArc
 50
224.9999999501
 51
270.0000001043
  0
ARC
  5
EB
330
1F
100
AcDbEntity
  8
0
  6
Continuous
 62
     7
370
    15
100
AcDbCircle
 10
106.1351983886
 20
138.7715212413
 30
0.0
 40
0.3999999981380711
100
AcDbArc
 50
89.9999998957
 51
135.00000005
  0
ARC
  5
EC
330
1F
100
AcDbEntity
  8
0
  6
Continuous
 62
     7
370
    15
100
AcDbCircle
 10
228.569512964
 20
101.2715212391
 30
0.0
 40
0.4000000002709214
100
AcDbArc
 50
359.9999999986
 51
89.9999999533
  0
ARC
  5
ED
330
1F
100
AcDbEntity
  8
0
  6
Continuous
 62
     7
370
    15
100
AcDbCircle
 10
228.569512964
 20
114.0715212397
 30
0.0
 40
0.4000000002709072
100
AcDbArc
 50
270.0000000467
 51
0.0000000014
  0
LINE
  5
EE
330
1F
100
AcDbEntity
  8
0
  6
Continuous
 62
     7
370
    15
100
AcDbLine
 10
223.9695129643
 20
101.6715212394
 30
0.0
 11
228.5695129643
 21
101.6715212394
 31
0.0
  0
LINE
  5
EF
330
1F
100
AcDbEntity
  8
0
  6
Continuous
 62
     7
370
    15
100
AcDbLine
 10
228.5695129643
 20
113.6715212394
 30
0.0
 11
223.9695129643
 21
113.6715212394
 31
0.0
  0
LINE
  5
F0
330
1F
100
AcDbEntity
  8
0
  6
Continuous
 62
     7
370
    15
100
AcDbLine
 10
191.1495129643
 20
83.6715212394
 30
0.0
 11
208.6495129643
 21
83.6715212394
 31
0.0
  0
LINE
  5
F1
330
1F
100
AcDbEntity
  8
0
  6
Continuous
 62
     7
370
    15
100
AcDbLine
 10
208.6495129643
 20
131.6715212394
 30
0.0
 11
191.1495129643
 21
131.6715212394
 31
0.0
  0
LINE
  5
F2
330
1F
100
AcDbEntity
  8
0
  6
Continuous
 62
     7
370
    15
100
AcDbLine
 10
208.6495129643
 20
83.6715212394
 30
0.0
 11
209.4495129643
 21
84.4715212394
 31
0.0
  0
LINE
  5
F3
330
1F
100
AcDbEntity
  8
0
  6
Continuous
 62
     7
370
    15
100
AcDbLine
 10
209.4495129643
 20
130.8715212394
 30
0.0
 11
208.6495129643
 21
131.6715212394
 31
0.0
  0
SPLINE
  5
F4
330
1F
100
AcDbEntity
  8
0
  6
Continuous
 62
     7
370
    15
100
AcDbSpline
210
0.0
220
0.0
230
1.0
 70
     8
 71
     3
 72
    10
 73
     6
 74
     0
 42
0.000000001
 43
0.00000001
 40
0.0
 40
0.0
 40
0.0
 40
0.0
 40
0.5
 40
0.5
 40
1.0
 40
1.0
 40
1.0
 40
1.0
 10
105.8523556750379
 20
77.48349408299849
 30
0.0
 10
105.8855419424604
 20
77.46031338248234
 30
0.0
 10
105.9262704359683
 20
77.4400225080673
 30
0.0
 10
106.022562833473
 20
77.41056898745114
 30
0.0
 10
106.078127352515
 20
77.40180028425236
 30
0.0
 10
106.1351983909638
 20
77.40180028421791
 30
0.0
  0
LINE
  5
F5
330
1F
100
AcDbEntity
  8
0
  6
Continuous
 62
     7
370
    15
100
AcDbLine
 10
105.8523556768
 20
137.8595483982
 30
0.0
 11
105.8523556757
 21
77.4834940804
 31
0.0
  0
SPLINE
  5
F6
330
1F
100
AcDbEntity
  8
0
  6
Continuous
 62
     7
370
    15
100
AcDbSpline
210
0.0
220
0.0
230
1.0
 70
     8
 71
     3
 72
    10
 73
     6
 74
     0
 42
0.000000001
 43
0.00000001
 40
0.0
 40
0.0
 40
0.0
 40
0.0
 40
0.5
 40
0.5
 40
1.0
 40
1.0
 40
1.0
 40
1.0
 10
106.1351983909638
 20
137.94124219457
 30
0.0
 10
106.0781337075138
 20
137.9412421945355
 30
0.0
 10
106.0226896326582
 20
137.9325059184501
 30
0.0
 10
105.9262596056704
 20
137.9030230080496
 30
0.0
 10
105.8855468560781
 20
137.8827325285424
 30
0.0
 10
105.852355674667
 20
137.8595483955303
 30
0.0
  0
LINE
  5
F7
330
1F
100
AcDbEntity
  8
0
  6
Continuous
 62
     7
370
    15
100
AcDbLine
 10
106.1351983901
 20
77.4018002843
 30
0.0
 11
106.1351983901
 21
137.9412421945
 31
0.0
  0
SPLINE
  5
F8
330
1F
100
AcDbEntity
  8
0
  6
Continuous
 62
     7
370
    15
100
AcDbSpline
210
0.0
220
0.0
230
1.0
 70
     8
 71
     3
 72
    10
 73
     6
 74
     0
 42
0.000000001
 43
0.00000001
 40
0.0
 40
0.0
 40
0.0
 40
0.0
 40
0.5
 40
0.5
 40
1.0
 40
1.0
 40
1.0
 40
1.0
 10
105.0866702501577
 20
137.0464143787084
 30
0.0
 10
105.0540162719775
 20
137.0027829466075
 30
0.0
 10
105.026036090492
 20
136.9541207750411
 30
0.0
 10
104.9833907881423
 20
136.8424644951852
 30
0.0
 10
104.9695129641996
 20
136.7804301099655
 30
0.0
 10
104.9695129643148
 20
136.7164543731939
 30
0.0
  0
LINE
  5
F9
330
1F
100
AcDbEntity
  8
0
  6
Continuous
 62
     7
370
    15
100
AcDbLine
 10
105.0866702553
 20
78.2966280958
 30
0.0
 11
105.0866702486
 21
137.0464143785
 31
0.0
  0
SPLINE
  5
FA
330
1F
100
AcDbEntity
  8
0
  6
Continuous
 62
     7
370
    15
100
AcDbSpline
210
0.0
220
0.0
230
1.0
 70
     8
 71
     3
 72
    10
 73
     6
 74
     0
 42
0.000000001
 43
0.00000001
 40
0.0
 40
0.0
 40
0.0
 40
0.0
 40
0.5
 40
0.5
 40
1.0
 40
1.0
 40
1.0
 40
1.0
 10
104.9695129643131
 20
78.62658810559508
 30
0.0
 10
104.9695129641975
 20
78.56255311496888
 30
0.0
 10
104.9833536151067
 20
78.50090420000113
 30
0.0
 10
105.0255072484292
 20
78.39008050630896
 30
0.0
 10
105.0539946399535
 20
78.34028843592108
 30
0.0
 10
105.0866702519311
 20
78.29662809771
 30
0.0
  0
SPLINE
  5
FB
330
1F
100
AcDbEntity
  8
0
  6
Continuous
 62
     7
370
    15
100
AcDbSpline
210
0.0
220
0.0
230
1.0
 70
    24
 71
     3
 72
    42
 73
    38
 74
     0
 42
0.000000001
 43
0.00000001
 40
0.0
 40
0.0
 40
0.0
 40
0.0
 40
0.0069985947135735
 40
0.0139918792821596
 40
0.020982087080567
 40
0.0279714544330482
 40
0.0349622184704246
 40
0.0419566149833442
 40
0.0489568762819628
 40
0.0755911739048965
 40
0.102232329143274
 40
0.1310491090290789
 40
0.1598727972892751
 40
0.2216873695506707
 40
0.2873422798676737
 40
0.3214548353067461
 40
0.3562714579994508
 40
0.3916725895398671
 40
0.4275251326164896
 40
0.4636850603189123
 40
0.5000006632425802
 40
0.5363162661662483
 40
0.572476193868671
 40
0.6083287369452932
 40
0.6437298684857098
 40
0.6785464911784144
 40
0.7126590466174868
 40
0.7783139569344899
 40
0.8401285291958854
 40
0.8689453090318924
 40
0.8977689973620018
 40
0.924403295029578
 40
0.9510444504325821
 40
0.9632880566994538
 40
0.975520523354195
 40
0.9877538415653533
 40
1.0
 40
1.0
 40
1.0
 40
1.0
 10
104.9695129643312
 20
78.62658810040149
 30
0.0
 10
104.9695129643312
 20
78.67963657132196
 30
0.0
 10
104.9695129643312
 20
78.78569326292933
 30
0.0
 10
104.9695129643312
 20
78.95643351593145
 30
0.0
 10
104.9695129643312
 20
79.13560797036982
 30
0.0
 10
104.9695129643312
 20
79.32405839371992
 30
0.0
 10
104.9695129643312
 20
79.52155820603437
 30
0.0
 10
104.9695129643312
 20
79.72817203112137
 30
0.0
 10
104.9695129643312
 20
80.1454208709755
 30
0.0
 10
104.9695129643312
 20
80.82566993002574
 30
0.0
 10
104.9695129643312
 20
81.8801625943608
 30
0.0
 10
104.9695129643312
 20
83.09382978004878
 30
0.0
 10
104.9695129643312
 20
84.99822267878537
 30
0.0
 10
104.9695129643312
 20
87.85078490662463
 30
0.0
 10
104.9695129643312
 20
91.24749712676247
 30
0.0
 10
104.9695129643312
 20
94.30234792431085
 30
0.0
 10
104.9695129643312
 20
96.77581317302824
 30
0.0
 10
104.9695129643312
 20
99.37882515205345
 30
0.0
 10
104.9695129643312
 20
102.0840240450547
 30
0.0
 10
104.9695129643312
 20
104.8597551696167
 30
0.0
 10
104.9695129643312
 20
107.6715212393741
 30
0.0
 10
104.9695129643312
 20
110.4832873092506
 30
0.0
 10
104.9695129643312
 20
113.2590184334576
 30
0.0
 10
104.9695129643312
 20
115.9642173277435
 30
0.0
 10
104.9695129643312
 20
118.5672293020727
 30
0.0
 10
104.9695129643312
 20
121.0406945678745
 30
0.0
 10
104.9695129643312
 20
124.0955452840503
 30
0.0
 10
104.9695129643312
 20
127.4922580839728
 30
0.0
 10
104.9695129643312
 20
130.3446923554234
 30
0.0
 10
104.9695129643312
 20
132.2491098107091
 30
0.0
 10
104.9695129643312
 20
133.4626834188039
 30
0.0
 10
104.9695129643312
 20
134.5173205147312
 30
0.0
 10
104.9695129643312
 20
135.2566379495333
 30
0.0
 10
104.9695129643312
 20
135.7737321172698
 30
0.0
 10
104.9695129643312
 20
136.1170603308684
 30
0.0
 10
104.9695129643312
 20
136.4345691804379
 30
0.0
 10
104.9695129643312
 20
136.6224597943065
 30
0.0
 10
104.9695129643312
 20
136.7164543783864
 30
0.0
  0
LINE
  5
FC
330
1F
100
AcDbEntity
  8
0
  6
Continuous
 62
     7
370
    15
100
AcDbLine
 10
124.5504010053
 20
107.6715212394
 30
0.0
 11
124.5504010053
 21
76.1715212394
 31
0.0
  0
LINE
  5
FD
330
1F
100
AcDbEntity
  8
0
  6
Continuous
 62
     7
370
    15
100
AcDbLine
 10
124.5504010053
 20
139.1715212394
 30
0.0
 11
124.5504010053
 21
107.6715212394
 31
0.0
  0
SPLINE
  5
FE
330
1F
100
AcDbEntity
  8
0
  6
Continuous
 62
     7
370
    15
100
AcDbSpline
210
0.0
220
0.0
230
1.0
 70
    24
 71
     3
 72
    10
 73
     6
 74
     0
 42
0.000000001
 43
0.00000001
 40
0.0
 40
0.0
 40
0.0
 40
0.0
 40
0.5
 40
0.5
 40
1.0
 40
1.0
 40
1.0
 40
1.0
 10
128.8038275393053
 20
107.6715212393939
 30
0.0
 10
128.854851997149
 20
107.6715212393939
 30
0.0
 10
128.9078952951487
 20
107.6715212393939
 30
0.0
 10
129.0059065296534
 20
107.6715212393939
 30
0.0
 10
129.0505905116613
 20
107.6715212393939
 30
0.0
 10
129.0866702514828
 20
107.6715212393939
 30
0.0
  0
LINE
  5
FF
330
1F
100
AcDbEntity
  8
0
  6
Continuous
 62
     7
370
    15
100
AcDbLine
 10
122.0695129643
 20
107.6715212394
 30
0.0
 11
122.0695129643
 21
80.468545122
 31
0.0
  0
LINE
  5
100
330
1F
100
AcDbEntity
  8
0
  6
Continuous
 62
     7
370
    15
100
AcDbLine
 10
122.0695129643
 20
134.8744973568
 30
0.0
 11
122.0695129643
 21
107.6715212394
 31
0.0
  0
LINE
  5
101
330
1F
100
AcDbEntity
  8
0
  6
Continuous
 62
     7
370
    15
100
AcDbLine
 10
114.5842855458
 20
107.6715212394
 30
0.0
 11
114.5842855458
 21
76.1715212394
 31
0.0
  0
LINE
  5
102
330
1F
100
AcDbEntity
  8
0
  6
Continuous
 62
     7
370
    15
100
AcDbLine
 10
114.5842855458
 20
139.1715212394
 30
0.0
 11
114.5842855458
 21
107.6715212394
 31
0.0
  0
LINE
  5
103
330
1F
100
AcDbEntity
  8
0
  6
Continuous
 62
     7
370
    15
100
AcDbLine
 10
117.0695129643
 20
107.6715212394
 30
0.0
 11
117.0695129643
 21
80.4760613967
 31
0.0
  0
LINE
  5
104
330
1F
100
AcDbEntity
  8
0
  6
Continuous
 62
     7
370
    15
100
AcDbLine
 10
117.0695129643
 20
134.8669810821
 30
0.0
 11
117.0695129643
 21
107.6715212394
 31
0.0
  0
SPLINE
  5
105
330
1F
100
AcDbEntity
  8
0
  6
Continuous
 62
     7
370
    15
100
AcDbSpline
210
0.0
220
0.0
230
1.0
 70
    24
 71
     3
 72
    10
 73
     6
 74
     0
 42
0.000000001
 43
0.00000001
 40
0.0
 40
0.0
 40
0.0
 40
0.0
 40
0.5
 40
0.5
 40
1.0
 40
1.0
 40
1.0
 40
1.0
 10
129.852355677074
 20
107.6715212393939
 30
0.0
 10
129.8884354169215
 20
107.6715212393939
 30
0.0
 10
129.9187659860996
 20
107.6715212393939
 30
0.0
 10
129.9593635687756
 20
107.6715212393939
 30
0.0
 10
129.9695129644605
 20
107.6715212393939
 30
0.0
 10
129.9695129643493
 20
107.6715212393939
 30
0.0
  0
SPLINE
  5
106
330
1F
100
AcDbEntity
  8
0
  6
Continuous
 62
     7
370
    15
100
AcDbSpline
210
0.0
220
0.0
230
1.0
 70
    24
 71
     3
 72
    36
 73
    32
 74
     0
 42
0.000000001
 43
0.00000001
 40
0.0
 40
0.0
 40
0.0
 40
0.0
 40
0.0091574914098502
 40
0.0183076636670498
 40
0.0274530496706367
 40
0.0365961862974195
 40
0.0457396122965004
 40
0.0548858661760161
 40
0.064037484090881
 40
0.0731969977403078
 40
0.1145981391471788
 40
0.1560085593964779
 40
0.2026687078268458
 40
0.2493380826174221
 40
0.3001319459910547
 40
0.3537068320759774
 40
0.4100221171689301
 40
0.4689756520191585
 40
0.530395199192124
 40
0.5940327686277181
 40
0.6595633177033128
 40
0.7265890526719669
 40
0.7946499953859905
 40
0.8289570591285538
 40
0.8632740865222682
 40
0.8975811503014232
 40
0.9318981777344112
 40
0.9489281030620823
 40
0.9659441473268439
 40
0.9829626641419905
 40
1.0
 40
1.0
 40
1.0
 40
1.0
 10
129.9695129643312
 20
107.6715212393939
 30
0.0
 10
129.9695129643312
 20
107.5031013995324
 30
0.0
 10
129.9695129643312
 20
107.1663963298746
 30
0.0
 10
129.9695129643312
 20
106.6616333824018
 30
0.0
 10
129.9695129643312
 20
106.1574136085758
 30
0.0
 10
129.9695129643312
 20
105.6537372378748
 30
0.0
 10
129.9695129643312
 20
105.1506039216243
 30
0.0
 10
129.9695129643312
 20
104.6480155245541
 30
0.0
 10
129.9695129643312
 20
104.1459656271965
 30
0.0
 10
129.9695129643312
 20
103.0563091809335
 30
0.0
 10
129.9695129643312
 20
101.3875900481803
 30
0.0
 10
129.9695129643312
 20
99.0762495694829
 30
0.0
 10
129.9695129643312
 20
96.72583957165124
 30
0.0
 10
129.9695129643312
 20
94.29343243439911
 30
0.0
 10
129.9695129643312
 20
91.85188116362174
 30
0.0
 10
129.9695129643312
 20
89.40029074733567
 30
0.0
 10
129.9695129643312
 20
87.01057793962028
 30
0.0
 10
129.9695129643312
 20
84.74136007654612
 30
0.0
 10
129.9695129643312
 20
82.65768747406435
 30
0.0
 10
129.9695129643312
 20
80.82788038324036
 30
0.0
 10
129.9695129643312
 20
79.31905247196596
 30
0.0
 10
129.9695129643312
 20
78.19173443576223
 30
0.0
 10
129.9695129643312
 20
77.61179839493168
 30
0.0
 10
129.9695129643312
 20
77.37652662239492
 30
0.0
 10
129.9695129643312
 20
77.3175605363604
 30
0.0
 10
129.9695129643312
 20
77.37647123025954
 30
0.0
 10
129.9695129643312
 20
77.52407311969925
 30
0.0
 10
129.9695129643312
 20
77.69972931050518
 30
0.0
 10
129.9695129643312
 20
77.86023631747517
 30
0.0
 10
129.9695129643312
 20
78.04738577755569
 30
0.0
 10
129.9695129643312
 20
78.19614798396685
 30
0.0
 10
129.9695129643312
 20
78.27057018968667
 30
0.0
  0
SPLINE
  5
107
330
1F
100
AcDbEntity
  8
0
  6
Continuous
 62
     7
370
    15
100
AcDbSpline
210
0.0
220
0.0
230
1.0
 70
    24
 71
     3
 72
    35
 73
    31
 74
     0
 42
0.000000001
 43
0.00000001
 40
0.0
 40
0.0
 40
0.0
 40
0.0
 40
0.0097343062289011
 40
0.0194617938948283
 40
0.0291855111022076
 40
0.0389085094873338
 40
0.0486338413631624
 40
0.058364556846754
 40
0.0681037009970362
 40
0.1024107879240909
 40
0.1367278385098947
 40
0.1710349254748393
 40
0.2053519760986202
 40
0.2734129648086437
 40
0.3404387450736981
 40
0.4059693384352374
 40
0.4696069508774889
 40
0.5310265395581586
 40
0.5899801142495452
 40
0.6462954374007109
 40
0.6998703596918682
 40
0.7506642573923032
 40
0.7973244369528376
 40
0.843993843117949
 40
0.8853950124414809
 40
0.9268054608558777
 40
0.9451125162754598
 40
0.9634004181265964
 40
0.9816894770910375
 40
0.9999999999999999
 40
0.9999999999999999
 40
0.9999999999999999
 40
0.9999999999999999
 10
129.9695129643312
 20
137.0724722891012
 30
0.0
 10
129.9695129643312
 20
137.1156596384909
 30
0.0
 10
129.9695129643312
 20
137.202004085945
 30
0.0
 10
129.9695129643312
 20
137.3197827067262
 30
0.0
 10
129.9695129643312
 20
137.4288859218074
 30
0.0
 10
129.9695129643312
 20
137.5284779237577
 30
0.0
 10
129.9695129643312
 20
137.6187829022471
 30
0.0
 10
129.9695129643312
 20
137.6997393816994
 30
0.0
 10
129.9695129643312
 20
137.8315655052075
 30
0.0
 10
129.9695129643312
 20
137.9665378394977
 30
0.0
 10
129.9695129643312
 20
138.0254877866969
 30
0.0
 10
129.9695129643312
 20
137.9665259046402
 30
0.0
 10
129.9695129643312
 20
137.7312790059446
 30
0.0
 10
129.9695129643312
 20
137.1513077726237
 30
0.0
 10
129.9695129643312
 20
136.0239900770453
 30
0.0
 10
129.9695129643312
 20
134.5151620776675
 30
0.0
 10
129.9695129643312
 20
132.6853550086326
 30
0.0
 10
129.9695129643312
 20
130.6016824035348
 30
0.0
 10
129.9695129643312
 20
128.3324645308566
 30
0.0
 10
129.9695129643312
 20
125.9427517613072
 30
0.0
 10
129.9695129643312
 20
123.4911612116689
 30
0.0
 10
129.9695129643312
 20
121.0497595484535
 30
0.0
 10
129.9695129643312
 20
118.6173605865577
 30
0.0
 10
129.9695129643312
 20
116.2671247337771
 30
0.0
 10
129.9695129643312
 20
113.9556025188398
 30
0.0
 10
129.9695129643312
 20
112.1209815035063
 30
0.0
 10
129.9695129643312
 20
110.6959015773336
 30
0.0
 10
129.9695129643312
 20
109.6898121355239
 30
0.0
 10
129.9695129643312
 20
108.6814346708751
 30
0.0
 10
129.9695129643312
 20
108.0082906390608
 30
0.0
 10
129.9695129643312
 20
107.6715212393939
 30
0.0
  0
SPLINE
  5
108
330
1F
100
AcDbEntity
  8
0
  6
Continuous
 62
     7
370
    15
100
AcDbSpline
210
0.0
220
0.0
230
1.0
 70
    24
 71
     3
 72
    14
 73
    10
 74
     0
 42
0.000000001
 43
0.00000001
 40
0.0
 40
0.0
 40
0.0
 40
0.0
 40
0.25
 40
0.25
 40
0.5
 40
0.5
 40
0.75
 40
0.75
 40
1.0
 40
1.0
 40
1.0
 40
1.0
 10
129.9695129645476
 20
107.6715212393939
 30
0.0
 10
129.9695129645842
 20
107.6715212393939
 30
0.0
 10
129.9866959556575
 20
107.6715212393939
 30
0.0
 10
130.0646686918288
 20
107.6715212393939
 30
0.0
 10
130.1257226812287
 20
107.6715212393939
 30
0.0
 10
130.2819323977543
 20
107.6715212393939
 30
0.0
 10
130.3765596362745
 20
107.6715212393939
 30
0.0
 10
130.5735147566285
 20
107.6715212393939
 30
0.0
 10
130.6752320596764
 20
107.6715212393939
 30
0.0
 10
130.7695129637125
 20
107.6715212393939
 30
0.0
  0
LINE
  5
109
330
1F
100
AcDbEntity
  8
0
  6
Continuous
 62
     7
370
    15
100
AcDbLine
 10
189.9695129643
 20
83.6715212394
 30
0.0
 11
189.9695129643
 21
131.6715212394
 31
0.0
  0
LINE
  5
10A
330
1F
100
AcDbEntity
  8
0
  6
Continuous
 62
     7
370
    15
100
AcDbLine
 10
190.9695129643
 20
84.6715212394
 30
0.0
 11
190.9695129643
 21
130.6715212394
 31
0.0
  0
LINE
  5
10B
330
1F
100
AcDbEntity
  8
0
  6
Continuous
 62
     7
370
    15
100
AcDbLine
 10
102.9695129643
 20
85.4465212394
 30
0.0
 11
102.9695129643
 21
129.8965212394
 31
0.0
  0
LINE
  5
10C
330
1F
100
AcDbEntity
  8
0
  6
Continuous
 62
     7
370
    15
100
AcDbLine
 10
103.4520270213
 20
85.6715212394
 30
0.0
 11
103.4520270213
 21
129.6715212394
 31
0.0
  0
LINE
  5
10D
330
1F
100
AcDbEntity
  8
0
  6
Continuous
 62
     7
370
    15
100
AcDbLine
 10
228.9695129643
 20
107.6715212394
 30
0.0
 11
228.9695129643
 21
124.4215212394
 31
0.0
  0
LINE
  5
10E
330
1F
100
AcDbEntity
  8
0
  6
Continuous
 62
     7
370
    15
100
AcDbLine
 10
228.9695129643
 20
90.9215212394
 30
0.0
 11
228.9695129643
 21
107.6715212394
 31
0.0
  0
LINE
  5
10F
330
1F
100
AcDbEntity
  8
0
  6
Continuous
 62
     7
370
    15
100
AcDbLine
 10
229.7195129643
 20
107.6715212394
 30
0.0
 11
229.7195129643
 21
90.1715212394
 31
0.0
  0
LINE
  5
110
330
1F
100
AcDbEntity
  8
0
  6
Continuous
 62
     7
370
    15
100
AcDbLine
 10
229.7195129643
 20
125.1715212394
 30
0.0
 11
229.7195129643
 21
107.6715212394
 31
0.0
  0
LINE
  5
111
330
1F
100
AcDbEntity
  8
0
  6
Continuous
 62
     7
370
    15
100
AcDbLine
 10
237.9695129643
 20
124.4215212394
 30
0.0
 11
237.9695129643
 21
90.9215212394
 31
0.0
  0
LINE
  5
112
330
1F
100
AcDbEntity
  8
0
  6
Continuous
 62
     7
370
    15
100
AcDbLine
 10
237.2195129643
 20
125.1715212394
 30
0.0
 11
237.2195129643
 21
90.1715212394
 31
0.0
  0
LINE
  5
113
330
1F
100
AcDbEntity
  8
0
  6
Continuous
 62
     7
370
    15
100
AcDbLine
 10
222.4972697783
 20
94.1715212394
 30
0.0
 11
222.4972697783
 21
121.1715212394
 31
0.0
  0
LINE
  5
114
330
1F
100
AcDbEntity
  8
0
  6
Continuous
 62
     7
370
    15
100
AcDbLine
 10
223.9695129643
 20
120.3215212394
 30
0.0
 11
223.9695129643
 21
95.0215212394
 31
0.0
  0
SPLINE
  5
115
330
1F
100
AcDbEntity
  8
0
  6
Continuous
 62
     7
370
    15
100
AcDbSpline
210
0.0
220
0.0
230
1.0
 70
    24
 71
     3
 72
    14
 73
    10
 74
     0
 42
0.000000001
 43
0.00000001
 40
0.0
 40
0.0
 40
0.0
 40
0.0
 40
0.25
 40
0.25
 40
0.5
 40
0.5
 40
0.75
 40
0.75
 40
1.0
 40
1.0
 40
1.0
 40
1.0
 10
37.56951296461641
 20
107.6715212393939
 30
0.0
 10
37.56951296460832
 20
107.6715212393939
 30
0.0
 10
37.58781714646507
 20
107.6715212393939
 30
0.0
 10
37.66892307059652
 20
107.6715212393939
 30
0.0
 10
37.73190716789711
 20
107.6715212393939
 30
0.0
 10
37.8943013712867
 20
107.6715212393939
 30
0.0
 10
37.99334676732629
 20
107.6715212393939
 30
0.0
 10
38.20510775339238
 20
107.6715212393939
 30
0.0
 10
38.31732928775433
 20
107.6715212393939
 30
0.0
 10
38.42520473734944
 20
107.6715212393939
 30
0.0
  0
SPLINE
  5
116
330
1F
100
AcDbEntity
  8
0
  6
Continuous
 62
     7
370
    15
100
AcDbSpline
210
0.0
220
0.0
230
1.0
 70
    24
 71
     3
 72
    22
 73
    18
 74
     0
 42
0.000000001
 43
0.00000001
 40
0.0
 40
0.0
 40
0.0
 40
0.0
 40
0.125
 40
0.125
 40
0.25
 40
0.25
 40
0.375
 40
0.375
 40
0.5
 40
0.5
 40
0.625
 40
0.625
 40
0.75
 40
0.75
 40
0.875
 40
0.875
 40
1.0
 40
1.0
 40
1.0
 40
1.0
 10
37.56951296461643
 20
107.6715212393939
 30
0.0
 10
37.56951296461641
 20
107.1789101260349
 30
0.0
 10
37.56951296461643
 20
106.6552045998502
 30
0.0
 10
37.56951296461641
 20
105.5490768026664
 30
0.0
 10
37.56951296461644
 20
104.9664950937153
 30
0.0
 10
37.56951296461644
 20
103.7558540215231
 30
0.0
 10
37.56951296461644
 20
103.1276330451648
 30
0.0
 10
37.56951296461643
 20
101.8539711840869
 30
0.0
 10
37.56951296461644
 20
101.2084634321196
 30
0.0
 10
37.56951296461643
 20
99.94737898192167
 30
0.0
 10
37.56951296461644
 20
99.33198207579748
 30
0.0
 10
37.56951296461644
 20
98.19608315274832
 30
0.0
 10
37.56951296461643
 20
97.67611788736899
 30
0.0
 10
37.56951296461644
 20
96.80339508447366
 30
0.0
 10
37.56951296461644
 20
96.45141410077603
 30
0.0
 10
37.56951296461641
 20
95.97384365811386
 30
0.0
 10
37.56951296461643
 20
95.84885451882884
 30
0.0
 10
37.56951296461643
 20
95.84885451883942
 30
0.0
  0
SPLINE
  5
117
330
1F
100
AcDbEntity
  8
0
  6
Continuous
 62
     7
370
    15
100
AcDbSpline
210
0.0
220
0.0
230
1.0
 70
    24
 71
     3
 72
    22
 73
    18
 74
     0
 42
0.000000001
 43
0.00000001
 40
0.0
 40
0.0
 40
0.0
 40
0.0
 40
0.1250000000000001
 40
0.1250000000000001
 40
0.2500000000000002
 40
0.2500000000000002
 40
0.3750000000000002
 40
0.3750000000000002
 40
0.5000000000000002
 40
0.5000000000000002
 40
0.6250000000000002
 40
0.6250000000000002
 40
0.7500000000000002
 40
0.7500000000000002
 40
0.8750000000000001
 40
0.8750000000000001
 40
1.0
 40
1.0
 40
1.0
 40
1.0
 10
37.5695129646164
 20
119.4941879599485
 30
0.0
 10
37.5695129646164
 20
119.4941879599379
 30
0.0
 10
37.56951296461641
 20
119.3691988206345
 30
0.0
 10
37.5695129646164
 20
118.8916283779438
 30
0.0
 10
37.56951296461641
 20
118.539647394236
 30
0.0
 10
37.5695129646164
 20
117.6669245913286
 30
0.0
 10
37.5695129646164
 20
117.1469593259472
 30
0.0
 10
37.56951296461639
 20
116.0110604028999
 30
0.0
 10
37.56951296461641
 20
115.3956634967796
 30
0.0
 10
37.5695129646164
 20
114.1345790465925
 30
0.0
 10
37.56951296461643
 20
113.4890712946322
 30
0.0
 10
37.56951296461641
 20
112.215409433569
 30
0.0
 10
37.56951296461641
 20
111.5871884572184
 30
0.0
 10
37.56951296461639
 20
110.3765473850411
 30
0.0
 10
37.56951296461641
 20
109.7939656760971
 30
0.0
 10
37.5695129646164
 20
108.6878378789264
 30
0.0
 10
37.56951296461639
 20
108.1641323527477
 30
0.0
 10
37.5695129646164
 20
107.6715212393939
 30
0.0
  0
LINE
  5
118
330
1F
100
AcDbEntity
  8
0
  6
Continuous
 62
     7
370
    15
100
AcDbLine
 10
104.9695129643
 20
138.0058358084
 30
0.0
 11
104.9695129643
 21
136.7164543667
 31
0.0
  0
LINE
  5
119
330
1F
100
AcDbEntity
  8
0
  6
Continuous
 62
     7
370
    15
100
AcDbLine
 10
104.9695129643
 20
78.6265881121
 30
0.0
 11
104.9695129643
 21
77.3372066704
 31
0.0
  0
LINE
  5
11A
330
1F
100
AcDbEntity
  8
0
  6
Continuous
 62
     7
370
    15
100
AcDbLine
 10
208.6495129646
 20
131.6715212386
 30
0.0
 11
208.649512965
 21
130.9094213159
 31
0.0
  0
LINE
  5
11B
330
1F
100
AcDbEntity
  8
0
  6
Continuous
 62
     7
370
    15
100
AcDbLine
 10
202.9695129606
 20
130.9094213165
 30
0.0
 11
208.649512965
 21
130.9094213159
 31
0.0
  0
LINE
  5
11C
330
1F
100
AcDbEntity
  8
0
  6
Continuous
 62
     7
370
    15
100
AcDbLine
 10
202.9695129606
 20
130.9094213165
 30
0.0
 11
202.9695129606
 21
84.4336211623
 31
0.0
  0
LINE
  5
11D
330
1F
100
AcDbEntity
  8
0
  6
Continuous
 62
     7
370
    15
100
AcDbLine
 10
202.9695129606
 20
84.4336211623
 30
0.0
 11
208.6495129643
 21
84.4336211623
 31
0.0
  0
LINE
  5
11E
330
1F
100
AcDbEntity
  8
0
  6
Continuous
 62
     7
370
    15
100
AcDbLine
 10
208.6495129643
 20
84.4336211623
 30
0.0
 11
208.6495129643
 21
83.6715212394
 31
0.0
  0
LINE
  5
11F
330
1F
100
AcDbEntity
  8
0
  6
Continuous
 62
     7
370
    15
100
AcDbLine
 10
191.1495129643
 20
131.6715212394
 30
0.0
 11
191.1495129643
 21
83.6715212394
 31
0.0
  0
ARC
  5
120
330
1F
100
AcDbEntity
  8
0
  6
Continuous
 62
     7
370
    15
100
AcDbCircle
 10
214.6495129643
 20
107.6715212394
 30
0.0
 40
13.50000000000001
100
AcDbArc
 50
243.6122000524
 51
247.3447627351
  0
LINE
  5
121
330
1F
100
AcDbEntity
  8
0
  6
Continuous
 62
     7
370
    15
100
AcDbLine
 10
202.9695129612
 20
95.5781346155
 30
0.0
 11
208.6495129672
 21
95.5781346155
 31
0.0
  0
LINE
  5
122
330
1F
100
AcDbEntity
  8
0
  6
Continuous
 62
     7
370
    15
100
AcDbLine
 10
208.6495129661
 20
119.7649078627
 30
0.0
 11
202.9695129612
 21
119.7649078627
 31
0.0
  0
ARC
  5
123
330
1F
100
AcDbEntity
  8
0
  6
Continuous
 62
     7
370
    15
100
AcDbCircle
 10
214.6495129643
 20
107.6715212394
 30
0.0
 40
13.50000000000001
100
AcDbArc
 50
112.6552372649
 51
116.3877999527
  0
SPLINE
  5
124
330
1F
100
AcDbEntity
  8
0
  6
Continuous
 62
     7
370
    15
100
AcDbSpline
210
0.0
220
0.0
230
1.0
 70
     8
 71
     3
 72
     9
 73
     5
 74
     0
 42
0.000000001
 43
0.00000001
 40
0.0
 40
0.0
 40
0.0
 40
0.0
 40
0.5026181531298008
 40
0.9999999999999999
 40
0.9999999999999999
 40
0.9999999999999999
 40
0.9999999999999999
 10
208.649512963599
 20
84.43362116252759
 30
0.0
 10
208.7838684627152
 20
84.53803877946852
 30
0.0
 10
209.0511797372476
 20
84.745786184314
 30
0.0
 10
209.3171995426528
 20
84.95682296016302
 30
0.0
 10
209.4495129647693
 20
85.06178882149233
 30
0.0
  0
LINE
  5
125
330
1F
100
AcDbEntity
  8
0
  6
Continuous
 62
     7
370
    15
100
AcDbLine
 10
209.4495129645
 20
84.47152124
 30
0.0
 11
209.4495129643
 21
85.0617888192
 31
0.0
  0
LINE
  5
126
330
1F
100
AcDbEntity
  8
0
  6
Continuous
 62
     7
370
    15
100
AcDbLine
 10
208.6495129672
 20
95.5781346155
 30
0.0
 11
208.6495129643
 21
84.4336211623
 31
0.0
  0
LINE
  5
127
330
1F
100
AcDbEntity
  8
0
  6
Continuous
 62
     7
370
    15
100
AcDbLine
 10
209.4495129643
 20
85.0617888192
 30
0.0
 11
209.4495129643
 21
95.2131906931
 31
0.0
  0
SPLINE
  5
128
330
1F
100
AcDbEntity
  8
0
  6
Continuous
 62
     7
370
    15
100
AcDbSpline
210
0.0
220
0.0
230
1.0
 70
     8
 71
     3
 72
     9
 73
     5
 74
     0
 42
0.000000001
 43
0.00000001
 40
0.0
 40
0.0
 40
0.0
 40
0.0
 40
0.4964511029551519
 40
1.0
 40
1.0
 40
1.0
 40
1.0
 10
209.4495129653924
 20
130.2812536559505
 30
0.0
 10
209.3174473096155
 20
130.3860236766478
 30
0.0
 10
209.05142784669
 20
130.5970616219229
 30
0.0
 10
208.784117031708
 20
130.804809899266
 30
0.0
 10
208.6495129656556
 20
130.9094213151851
 30
0.0
  0
LINE
  5
129
330
1F
100
AcDbEntity
  8
0
  6
Continuous
 62
     7
370
    15
100
AcDbLine
 10
209.4495129643
 20
120.1298517857
 30
0.0
 11
209.4495129649
 21
130.2812536565
 31
0.0
  0
LINE
  5
12A
330
1F
100
AcDbEntity
  8
0
  6
Continuous
 62
     7
370
    15
100
AcDbLine
 10
208.649512965
 20
130.9094213159
 30
0.0
 11
208.6495129661
 21
119.7649078627
 31
0.0
  0
LINE
  5
12B
330
1F
100
AcDbEntity
  8
0
  6
Continuous
 62
     7
370
    15
100
AcDbLine
 10
209.4495129649
 20
130.2812536565
 30
0.0
 11
209.4495129648
 21
130.8715212389
 31
0.0
  0
LINE
  5
12C
330
1F
100
AcDbEntity
  8
0
  6
Continuous
 62
     8
370
    15
100
AcDbLine
 10
128.8038275393
 20
107.6715212394
 30
0.0
 11
128.8038275393
 21
76.1715212394
 31
0.0
  0
LINE
  5
12D
330
1F
100
AcDbEntity
  8
0
  6
Continuous
 62
     8
370
    15
100
AcDbLine
 10
128.8038275393
 20
139.1715212394
 30
0.0
 11
128.8038275393
 21
107.6715212459
 31
0.0
  0
LINE
  5
12E
330
1F
100
AcDbEntity
  8
0
  6
Continuous
 62
     8
370
    15
100
AcDbLine
 10
129.0866702523
 20
107.6715212523
 30
0.0
 11
129.0866702523
 21
76.2886785274
 31
0.0
  0
LINE
  5
12F
330
1F
100
AcDbEntity
  8
0
  6
Continuous
 62
     8
370
    15
100
AcDbLine
 10
129.0866702523
 20
107.6715212523
 30
0.0
 11
129.0866702523
 21
139.0543639347
 31
0.0
  0
LINE
  5
130
330
1F
100
AcDbEntity
  8
0
  6
Continuous
 62
     8
370
    15
100
AcDbLine
 10
106.1351983901
 20
77.4018002843
 30
0.0
 11
106.1351983893
 21
76.1715212394
 31
0.0
  0
LINE
  5
131
330
1F
100
AcDbEntity
  8
0
  6
Continuous
 62
     8
370
    15
100
AcDbLine
 10
106.1351983893
 20
139.1715212394
 30
0.0
 11
106.1351983893
 21
137.9412421943
 31
0.0
  0
LINE
  5
132
330
1F
100
AcDbEntity
  8
0
  6
Continuous
 62
     8
370
    15
100
AcDbLine
 10
129.8523556771
 20
107.6715212394
 30
0.0
 11
129.8523556771
 21
77.0543639522
 31
0.0
  0
LINE
  5
133
330
1F
100
AcDbEntity
  8
0
  6
Continuous
 62
     8
370
    15
100
AcDbLine
 10
129.8523556771
 20
138.2886785265
 30
0.0
 11
129.8523556771
 21
107.6715212457
 31
0.0
  0
LINE
  5
134
330
1F
100
AcDbEntity
  8
0
  6
Continuous
 62
     8
370
    15
100
AcDbLine
 10
105.0866702517
 20
138.2886785266
 30
0.0
 11
105.0866702517
 21
137.0464143805
 31
0.0
  0
LINE
  5
135
330
1F
100
AcDbEntity
  8
0
  6
Continuous
 62
     8
370
    15
100
AcDbLine
 10
105.0866702517
 20
78.2966280983
 30
0.0
 11
105.0866702517
 21
77.0543639521
 31
0.0
  0
LINE
  5
136
330
1F
100
AcDbEntity
  8
0
  6
Continuous
 62
     8
370
    15
100
AcDbLine
 10
105.8523556772
 20
77.4834940816
 30
0.0
 11
105.8523556772
 21
76.2886785265
 31
0.0
  0
LINE
  5
137
330
1F
100
AcDbEntity
  8
0
  6
Continuous
 62
     8
370
    15
100
AcDbLine
 10
105.8523556772
 20
139.0543639523
 30
0.0
 11
105.8523556772
 21
137.8595483972
 31
0.0
  0
LINE
  5
138
330
1F
100
AcDbEntity
  8
0
  6
Continuous
 62
     8
370
    15
100
AcDbLine
 10
130.7695129643
 20
83.6715212696
 30
0.0
 11
130.7695129643
 21
107.6715212492
 31
0.0
  0
LINE
  5
139
330
1F
100
AcDbEntity
  8
0
  6
Continuous
 62
     8
370
    15
100
AcDbLine
 10
130.7695129643
 20
107.6715212492
 30
0.0
 11
130.7695129643
 21
131.6715212091
 31
0.0
  0
LINE
  5
13A
330
1F
100
AcDbEntity
  8
0
  6
Continuous
 62
     8
370
    15
100
AcDbLine
 10
104.5695129642
 20
85.6715212393
 30
0.0
 11
104.5695129642
 21
129.6715212395
 31
0.0
  0
LINE
  5
13B
330
1F
100
AcDbEntity
  8
0
  6
Continuous
 62
     8
370
    15
100
AcDbLine
 10
38.4252047373
 20
94.8593217324
 30
0.0
 11
38.4252047373
 21
107.6715212394
 31
0.0
  0
LINE
  5
13C
330
1F
100
AcDbEntity
  8
0
  6
Continuous
 62
     8
370
    15
100
AcDbLine
 10
38.4252047373
 20
107.6715212417
 30
0.0
 11
38.4252047373
 21
120.4837207464
 31
0.0
  0
LINE
  5
13D
330
1F
100
AcDbEntity
  8
0
  6
Continuous
 62
     8
370
    15
100
AcDbLine
 10
228.5695129643
 20
113.6715212394
 30
0.0
 11
228.5695129643
 21
101.6715212393
 31
0.0
  0
DIMENSION
  5
13E
330
1F
100
AcDbEntity
  8
DIM
100
AcDbDimension
  2
_D
 10
243.9288566274
 20
94.1715212394
 30
0.0
 11
243.9288566274
 21
107.6715212394
 31
0.0
 70
   160
  1
%%c<>
 71
     2
 42
-1.0
  3
SLDDIMSTYLE0
100
AcDbAlignedDimension
 13
222.4972697783
 23
121.1715212394
 33
0.0
 14
222.4972697783
 24
94.1715212394
 34
0.0
 50
90.0
100
AcDbRotatedDimension
  0
DIMENSION
  5
14C
330
1F
100
AcDbEntity
  8
DIM
100
AcDbDimension
  2
_D_1
 10
248.7070247072
 20
83.6715212394
 30
0.0
 11
248.7070247072
 21
107.6715212394
 31
0.0
 70
   160
  1
%%c<>
 71
     2
 42
-1.0
  3
SLDDIMSTYLE0
100
AcDbAlignedDimension
 13
208.6495129643
 23
131.6715212394
 33
0.0
 14
208.6495129643
 24
83.6715212394
 34
0.0
 50
90.0
100
AcDbRotatedDimension
  0
DIMENSION
  5
159
330
1F
100
AcDbEntity
  8
DIM
100
AcDbDimension
  2
_D_2
 10
202.9695129606
 20
66.1714962394
 30
0.0
 11
213.4695129625
 21
66.1714962394
 31
0.0
 70
   160
  1
<>
 71
     2
 42
-1.0
  3
SLDDIMSTYLE1
100
AcDbAlignedDimension
 13
223.9695129643
 23
95.0215212394
 33
0.0
 14
202.9695129606
 24
84.4336211623
 34
0.0
100
AcDbRotatedDimension
  0
DIMENSION
  5
164
330
1F
100
AcDbEntity
  8
DIM
100
AcDbDimension
  2
_D_3
 10
102.9695129643
 20
66.1714962394
 30
0.0
 11
152.9695129625
 21
66.1714962394
 31
0.0
 70
   160
  1
<>
 71
     2
 42
-1.0
  3
SLDDIMSTYLE1
100
AcDbAlignedDimension
 13
202.9695129606
 23
84.4336211623
 33
0.0
 14
102.9695129643
 24
85.4465212394
 34
0.0
100
AcDbRotatedDimension
  0
DIMENSION
  5
16E
330
1F
100
AcDbEntity
  8
DIM
100
AcDbDimension
  2
_D_4
 10
37.5695129645
 20
60.1714962394
 30
0.0
 11
137.7695129644
 21
60.1714962394
 31
0.0
 70
   160
  1
<>
 71
     2
 42
-1.0
  3
SLDDIMSTYLE2
100
AcDbAlignedDimension
 13
237.9695129643
 23
90.9215212394
 33
0.0
 14
37.5695129645
 24
107.6715212394
 34
0.0
 50
0.0
100
AcDbRotatedDimension
  0
DIMENSION
  5
179
330
1F
100
AcDbEntity
  8
DIM
100
AcDbDimension
  2
_D_5
 10
33.8047780918
 20
76.1715212394
 30
0.0
 11
33.8047780918
 21
107.6715212394
 31
0.0
 70
   160
  1
%%c<>
 71
     2
 42
-1.0
  3
SLDDIMSTYLE1
100
AcDbAlignedDimension
 13
106.1351983893
 23
139.1715212394
 33
0.0
 14
106.1351983893
 24
76.1715212394
 34
0.0
 50
90.0
100
AcDbRotatedDimension
  0
LINE
  5
184
330
1F
100
AcDbEntity
  8
DIM
  6
CENTERX2
370
     0
100
AcDbLine
 10
38.0292728224
 20
107.6715212394
 30
0.0
 11
238.3805572064
 21
107.6715212394
 31
0.0
  0
ENDSEC
  0
SECTION
  2
OBJECTS
  0
DICTIONARY
  5
C
330
0
100
AcDbDictionary
281
     1
  3
ACAD_GROUP
350
D
  3
ACAD_LAYOUT
350
1A
  3
ACAD_MLINESTYLE
350
17
  3
ACAD_PLOTSETTINGS
350
19
  3
ACAD_PLOTSTYLENAME
350
E
  3
ACAD_SCALELIST
350
47
  0
DICTIONARY
  5
D
102
{ACAD_REACTORS
330
C
102
}
330
C
100
AcDbDictionary
281
     1
  0
DICTIONARY
  5
1A
102
{ACAD_REACTORS
330
C
102
}
330
C
100
AcDbDictionary
281
     1
  3
Layout1
350
1E
  3
Layout2
350
26
  3
Model
350
22
  0
DICTIONARY
  5
17
102
{ACAD_REACTORS
330
C
102
}
330
C
100
AcDbDictionary
281
     1
  3
Standard
350
18
  0
DICTIONARY
  5
19
102
{ACAD_REACTORS
330
C
102
}
330
C
100
AcDbDictionary
281
     1
  0
ACDBDICTIONARYWDFLT
  5
E
102
{ACAD_REACTORS
330
C
102
}
330
C
100
AcDbDictionary
281
     1
  3
Normal
350
F
100
AcDbDictionaryWithDefault
340
F
  0
DICTIONARY
  5
47
102
{ACAD_REACTORS
330
C
102
}
330
C
100
AcDbDictionary
281
     1
  3
A0
350
48
  3
A1
350
49
  3
A2
350
4A
  3
A3
350
4B
  3
A4
350
4C
  3
A5
350
4D
  3
A6
350
4E
  3
A7
350
4F
  3
A8
350
50
  3
A9
350
51
  3
B0
350
52
  3
B1
350
53
  3
B2
350
54
  3
B3
350
55
  3
B4
350
56
  3
B5
350
57
  3
B6
350
58
  3
B7
350
59
  3
B8
350
5A
  3
B9
350
5B
  3
C0
350
5C
  3
C1
350
5D
  3
C2
350
5E
  3
C3
350
5F
  3
C4
350
60
  3
C5
350
61
  3
C6
350
62
  3
C7
350
63
  3
C8
350
64
  3
C9
350
65
  3
D0
350
66
  3
D1
350
67
  3
D2
350
68
  0
LAYOUT
  5
1E
102
{ACAD_REACTORS
330
1A
102
}
330
1A
100
AcDbPlotSettings
  1

  2
none_device
  4

  6

 40
0.0
 41
0.0
 42
0.0
 43
0.0
 44
0.0
 45
0.0
 46
0.0
 47
0.0
 48
0.0
 49
0.0
140
0.0
141
0.0
142
1.0
143
1.0
 70
   688
 72
     1
 73
     0
 74
     5
  7

 75
    16
147
1.0
148
0.0
149
0.0
100
AcDbLayout
  1
Layout1
 70
     1
 71
     1
 10
0.0
 20
0.0
 11
420.0
 21
297.0
 12
0.0
 22
0.0
 32
0.0
 14
1.0000000000E+20
 24
1.0000000000E+20
 34
1.0000000000E+20
 15
-1.0000000000E+20
 25
-1.0000000000E+20
 35
-1.0000000000E+20
146
0.0
 13
0.0
 23
0.0
 33
0.0
 16
1.0
 26
0.0
 36
0.0
 17
0.0
 27
1.0
 37
0.0
 76
     0
330
1B
  0
LAYOUT
  5
26
102
{ACAD_REACTORS
330
1A
102
}
330
1A
100
AcDbPlotSettings
  1

  2
none_device
  4

  6

 40
0.0
 41
0.0
 42
0.0
 43
0.0
 44
0.0
 45
0.0
 46
0.0
 47
0.0
 48
0.0
 49
0.0
140
0.0
141
0.0
142
1.0
143
1.0
 70
   688
 72
     1
 73
     0
 74
     5
  7

 75
    16
147
1.0
148
0.0
149
0.0
100
AcDbLayout
  1
Layout2
 70
     1
 71
     2
 10
0.0
 20
0.0
 11
0.0
 21
0.0
 12
0.0
 22
0.0
 32
0.0
 14
0.0
 24
0.0
 34
0.0
 15
0.0
 25
0.0
 35
0.0
146
0.0
 13
0.0
 23
0.0
 33
0.0
 16
1.0
 26
0.0
 36
0.0
 17
0.0
 27
1.0
 37
0.0
 76
     0
330
23
  0
LAYOUT
  5
22
102
{ACAD_REACTORS
330
1A
102
}
330
1A
100
AcDbPlotSettings
  1

  2
none_device
  4
Letter_(8.50_x_11.00_Inches)
  6

 40
6.35
 41
6.35
 42
6.35000508
 43
6.35000508
 44
215.9
 45
279.4
 46
0.0
 47
0.0
 48
0.0
 49
0.0
140
0.0
141
0.0
142
1.0
143
1.0
 70
  1712
 72
     1
 73
     0
 74
     0
  7

 75
     0
147
1.0
148
0.0
149
0.0
100
AcDbLayout
  1
Model
 70
     1
 71
     0
 10
0.0
 20
0.0
 11
297.0
 21
210.0
 12
0.0
 22
0.0
 32
0.0
 14
0.0
 24
0.0
 34
0.0
 15
297.0
 25
210.0
 35
0.0
146
0.0
 13
0.0
 23
0.0
 33
0.0
 16
1.0
 26
0.0
 36
0.0
 17
0.0
 27
1.0
 37
0.0
 76
     0
330
1F
331
29
  0
MLINESTYLE
  5
18
102
{ACAD_REACTORS
330
17
102
}
330
17
100
AcDbMlineStyle
  2
Standard
 70
     0
  3

 62
   256
 51
90.0
 52
90.0
 71
     2
 49
0.5
 62
   256
  6
BYLAYER
 49
-0.5
 62
   256
  6
BYLAYER
  0
ACDBPLACEHOLDER
  5
F
102
{ACAD_REACTORS
330
E
102
}
330
E
  0
SCALE
  5
48
102
{ACAD_REACTORS
330
47
102
}
330
47
100
AcDbScale
 70
     0
300
1:1
140
1.0
141
1.0
290
     1
  0
SCALE
  5
49
102
{ACAD_REACTORS
330
47
102
}
330
47
100
AcDbScale
 70
     0
300
1:2
140
1.0
141
2.0
290
     0
  0
SCALE
  5
4A
102
{ACAD_REACTORS
330
47
102
}
330
47
100
AcDbScale
 70
     0
300
1:4
140
1.0
141
4.0
290
     0
  0
SCALE
  5
4B
102
{ACAD_REACTORS
330
47
102
}
330
47
100
AcDbScale
 70
     0
300
1:5
140
1.0
141
5.0
290
     0
  0
SCALE
  5
4C
102
{ACAD_REACTORS
330
47
102
}
330
47
100
AcDbScale
 70
     0
300
1:8
140
1.0
141
8.0
290
     0
  0
SCALE
  5
4D
102
{ACAD_REACTORS
330
47
102
}
330
47
100
AcDbScale
 70
     0
300
1:10
140
1.0
141
10.0
290
     0
  0
SCALE
  5
4E
102
{ACAD_REACTORS
330
47
102
}
330
47
100
AcDbScale
 70
     0
300
1:16
140
1.0
141
16.0
290
     0
  0
SCALE
  5
4F
102
{ACAD_REACTORS
330
47
102
}
330
47
100
AcDbScale
 70
     0
300
1:20
140
1.0
141
20.0
290
     0
  0
SCALE
  5
50
102
{ACAD_REACTORS
330
47
102
}
330
47
100
AcDbScale
 70
     0
300
1:30
140
1.0
141
30.0
290
     0
  0
SCALE
  5
51
102
{ACAD_REACTORS
330
47
102
}
330
47
100
AcDbScale
 70
     0
300
1:40
140
1.0
141
40.0
290
     0
  0
SCALE
  5
52
102
{ACAD_REACTORS
330
47
102
}
330
47
100
AcDbScale
 70
     0
300
1:50
140
1.0
141
50.0
290
     0
  0
SCALE
  5
53
102
{ACAD_REACTORS
330
47
102
}
330
47
100
AcDbScale
 70
     0
300
1:100
140
1.0
141
100.0
290
     0
  0
SCALE
  5
54
102
{ACAD_REACTORS
330
47
102
}
330
47
100
AcDbScale
 70
     0
300
2:1
140
2.0
141
1.0
290
     0
  0
SCALE
  5
55
102
{ACAD_REACTORS
330
47
102
}
330
47
100
AcDbScale
 70
     0
300
4:1
140
4.0
141
1.0
290
     0
  0
SCALE
  5
56
102
{ACAD_REACTORS
330
47
102
}
330
47
100
AcDbScale
 70
     0
300
8:1
140
8.0
141
1.0
290
     0
  0
SCALE
  5
57
102
{ACAD_REACTORS
330
47
102
}
330
47
100
AcDbScale
 70
     0
300
10:1
140
10.0
141
1.0
290
     0
  0
SCALE
  5
58
102
{ACAD_REACTORS
330
47
102
}
330
47
100
AcDbScale
 70
     0
300
100:1
140
100.0
141
1.0
290
     0
  0
SCALE
  5
59
102
{ACAD_REACTORS
330
47
102
}
330
47
100
AcDbScale
 70
     0
300
1/128" = 1'-0"
140
0.0078125
141
12.0
290
     0
  0
SCALE
  5
5A
102
{ACAD_REACTORS
330
47
102
}
330
47
100
AcDbScale
 70
     0
300
1/64" = 1'-0"
140
0.015625
141
12.0
290
     0
  0
SCALE
  5
5B
102
{ACAD_REACTORS
330
47
102
}
330
47
100
AcDbScale
 70
     0
300
1/32" = 1'-0"
140
0.03125
141
12.0
290
     0
  0
SCALE
  5
5C
102
{ACAD_REACTORS
330
47
102
}
330
47
100
AcDbScale
 70
     0
300
1/16" = 1'-0"
140
0.0625
141
12.0
290
     0
  0
SCALE
  5
5D
102
{ACAD_REACTORS
330
47
102
}
330
47
100
AcDbScale
 70
     0
300
3/32" = 1'-0"
140
0.09375
141
12.0
290
     0
  0
SCALE
  5
5E
102
{ACAD_REACTORS
330
47
102
}
330
47
100
AcDbScale
 70
     0
300
1/8" = 1'-0"
140
0.125
141
12.0
290
     0
  0
SCALE
  5
5F
102
{ACAD_REACTORS
330
47
102
}
330
47
100
AcDbScale
 70
     0
300
3/16" = 1'-0"
140
0.1875
141
12.0
290
     0
  0
SCALE
  5
60
102
{ACAD_REACTORS
330
47
102
}
330
47
100
AcDbScale
 70
     0
300
1/4" = 1'-0"
140
0.25
141
12.0
290
     0
  0
SCALE
  5
61
102
{ACAD_REACTORS
330
47
102
}
330
47
100
AcDbScale
 70
     0
300
3/8" = 1'-0"
140
0.375
141
12.0
290
     0
  0
SCALE
  5
62
102
{ACAD_REACTORS
330
47
102
}
330
47
100
AcDbScale
 70
     0
300
1/2" = 1'-0"
140
0.5
141
12.0
290
     0
  0
SCALE
  5
63
102
{ACAD_REACTORS
330
47
102
}
330
47
100
AcDbScale
 70
     0
300
3/4" = 1'-0"
140
0.75
141
12.0
290
     0
  0
SCALE
  5
64
102
{ACAD_REACTORS
330
47
102
}
330
47
100
AcDbScale
 70
     0
300
1" = 1'-0"
140
1.0
141
12.0
290
     0
  0
SCALE
  5
65
102
{ACAD_REACTORS
330
47
102
}
330
47
100
AcDbScale
 70
     0
300
1-1/2" = 1'-0"
140
1.5
141
12.0
290
     0
  0
SCALE
  5
66
102
{ACAD_REACTORS
330
47
102
}
330
47
100
AcDbScale
 70
     0
300
3" = 1'-0"
140
3.0
141
12.0
290
     0
  0
SCALE
  5
67
102
{ACAD_REACTORS
330
47
102
}
330
47
100
AcDbScale
 70
     0
300
6" = 1'-0"
140
6.0
141
12.0
290
     0
  0
SCALE
  5
68
102
{ACAD_REACTORS
330
47
102
}
330
47
100
AcDbScale
 70
     0
300
1'-0" = 1'-0"
140
12.0
141
12.0
290
     0
  0
ENDSEC
  0
EOF
