  0
SECTION
  2
HEADER
  9
$ACADVER
  1
AC1015
  9
$ACADMAINTVER
 70
     6
  9
$DWGCODEPAGE
  3
ANSI_1252
  9
$INSBASE
 10
0.0
 20
0.0
 30
0.0
  9
$EXTMIN
 10
0.0
 20
0.0
 30
0.0
  9
$EXTMAX
 10
247.5
 20
175.0
 30
0.0
  9
$LIMMIN
 10
0.0
 20
0.0
  9
$LIMMAX
 10
247.5
 20
175.0
  9
$ORTHOMODE
 70
     0
  9
$REGENMODE
 70
     1
  9
$FILLMODE
 70
     1
  9
$QTEXTMODE
 70
     0
  9
$MIRRTEXT
 70
     1
  9
$LTSCALE
 40
0.8333333333
  9
$ATTMODE
 70
     1
  9
$TEXTSIZE
 40
3.2337962963
  9
$TRACEWID
 40
1.0
  9
$TEXTSTYLE
  7
Standard
  9
$CLAYER
  8
0
  9
$CELTYPE
  6
ByLayer
  9
$CECOLOR
 62
   256
  9
$CELTSCALE
 40
1.0
  9
$DISPSILH
 70
     0
  9
$DIMSCALE
 40
1.0
  9
$DIMASZ
 40
2.7516666667
  9
$DIMEXO
 40
0.8333333333
  9
$DIMDLI
 40
3.75
  9
$DIMRND
 40
0.0
  9
$DIMDLE
 40
0.0
  9
$DIMEXE
 40
0.8333333333
  9
$DIMTP
 40
0.0
  9
$DIMTM
 40
0.0
  9
$DIMTXT
 40
3.2337962963
  9
$DIMCEN
 40
2.5
  9
$DIMTSZ
 40
0.0
  9
$DIMTOL
 70
     0
  9
$DIMLIM
 70
     0
  9
$DIMTIH
 70
     1
  9
$DIMTOH
 70
     1
  9
$DIMSE1
 70
     0
  9
$DIMSE2
 70
     0
  9
$DIMTAD
 70
     1
  9
$DIMZIN
 70
     0
  9
$DIMBLK
  1

  9
$DIMASO
 70
     1
  9
$DIMSHO
 70
     1
  9
$DIMPOST
  1

  9
$DIMAPOST
  1

  9
$DIMALT
 70
     0
  9
$DIMALTD
 70
     3
  9
$DIMALTF
 40
0.0393700787
  9
$DIMLFAC
 40
1.0
  9
$DIMTOFL
 70
     1
  9
$DIMTVP
 40
0.0
  9
$DIMTIX
 70
     0
  9
$DIMSOXD
 70
     0
  9
$DIMSAH
 70
     0
  9
$DIMBLK1
  1

  9
$DIMBLK2
  1

  9
$DIMSTYLE
  2
ISO-25
  9
$DIMCLRD
 70
     0
  9
$DIMCLRE
 70
     0
  9
$DIMCLRT
 70
     0
  9
$DIMTFAC
 40
1.0
  9
$DIMGAP
 40
1.27
  9
$DIMJUST
 70
     0
  9
$DIMSD1
 70
     0
  9
$DIMSD2
 70
     0
  9
$DIMTOLJ
 70
     0
  9
$DIMTZIN
 70
     0
  9
$DIMALTZ
 70
     0
  9
$DIMALTTZ
 70
     0
  9
$DIMUPT
 70
     0
  9
$DIMDEC
 70
     2
  9
$DIMTDEC
 70
     2
  9
$DIMALTU
 70
     2
  9
$DIMALTTD
 70
     3
  9
$DIMTXSTY
  7
Standard
  9
$DIMAUNIT
 70
     0
  9
$DIMADEC
 70
     2
  9
$DIMALTRND
 40
0.0
  9
$DIMAZIN
 70
     0
  9
$DIMDSEP
 70
    44
  9
$DIMATFIT
 70
     3
  9
$DIMFRAC
 70
     0
  9
$DIMLDRBLK
  1

  9
$DIMLUNIT
 70
     2
  9
$DIMLWD
 70
    -2
  9
$DIMLWE
 70
    -2
  9
$DIMTMOVE
 70
     0
  9
$LUNITS
 70
     2
  9
$LUPREC
 70
     2
  9
$SKETCHINC
 40
1.0
  9
$FILLETRAD
 40
10.0
  9
$AUNITS
 70
     0
  9
$AUPREC
 70
     2
  9
$MENU
  1
.
  9
$ELEVATION
 40
0.0
  9
$PELEVATION
 40
0.0
  9
$THICKNESS
 40
0.0
  9
$LIMCHECK
 70
     0
  9
$CHAMFERA
 40
0.0
  9
$CHAMFERB
 40
0.0
  9
$CHAMFERC
 40
0.0
  9
$CHAMFERD
 40
0.0
  9
$SKPOLY
 70
     0
  9
$TDCREATE
 40
2458608.38031691
  9
$TDUCREATE
 40
2458608.151150243
  9
$TDUPDATE
 40
2458608.380318067
  9
$TDUUPDATE
 40
2458608.151151401
  9
$TDINDWG
 40
0.0000000116
  9
$TDUSRTIMER
 40
0.0000000116
  9
$USRTIMER
 70
     1
  9
$ANGBASE
 50
0.0
  9
$ANGDIR
 70
     0
  9
$PDMODE
 70
     0
  9
$PDSIZE
 40
-1.0
  9
$PLINEWID
 40
0.0
  9
$SPLFRAME
 70
     0
  9
$SPLINETYPE
 70
     6
  9
$SPLINESEGS
 70
     8
  9
$HANDSEED
  5
15A
  9
$SURFTAB1
 70
     6
  9
$SURFTAB2
 70
     6
  9
$SURFTYPE
 70
     6
  9
$SURFU
 70
     6
  9
$SURFV
 70
     6
  9
$UCSBASE
  2

  9
$UCSNAME
  2

  9
$UCSORG
 10
0.0
 20
0.0
 30
0.0
  9
$UCSXDIR
 10
1.0
 20
0.0
 30
0.0
  9
$UCSYDIR
 10
0.0
 20
1.0
 30
0.0
  9
$UCSORTHOREF
  2

  9
$UCSORTHOVIEW
 70
     0
  9
$UCSORGTOP
 10
0.0
 20
0.0
 30
0.0
  9
$UCSORGBOTTOM
 10
0.0
 20
0.0
 30
0.0
  9
$UCSORGLEFT
 10
0.0
 20
0.0
 30
0.0
  9
$UCSORGRIGHT
 10
0.0
 20
0.0
 30
0.0
  9
$UCSORGFRONT
 10
0.0
 20
0.0
 30
0.0
  9
$UCSORGBACK
 10
0.0
 20
0.0
 30
0.0
  9
$PUCSBASE
  2

  9
$PUCSNAME
  2

  9
$PUCSORG
 10
0.0
 20
0.0
 30
0.0
  9
$PUCSXDIR
 10
1.0
 20
0.0
 30
0.0
  9
$PUCSYDIR
 10
0.0
 20
1.0
 30
0.0
  9
$PUCSORTHOREF
  2

  9
$PUCSORTHOVIEW
 70
     0
  9
$PUCSORGTOP
 10
0.0
 20
0.0
 30
0.0
  9
$PUCSORGBOTTOM
 10
0.0
 20
0.0
 30
0.0
  9
$PUCSORGLEFT
 10
0.0
 20
0.0
 30
0.0
  9
$PUCSORGRIGHT
 10
0.0
 20
0.0
 30
0.0
  9
$PUCSORGFRONT
 10
0.0
 20
0.0
 30
0.0
  9
$PUCSORGBACK
 10
0.0
 20
0.0
 30
0.0
  9
$USERI1
 70
     0
  9
$USERI2
 70
     0
  9
$USERI3
 70
     0
  9
$USERI4
 70
     0
  9
$USERI5
 70
     0
  9
$USERR1
 40
0.0
  9
$USERR2
 40
0.0
  9
$USERR3
 40
0.0
  9
$USERR4
 40
0.0
  9
$USERR5
 40
0.0
  9
$WORLDVIEW
 70
     1
  9
$SHADEDGE
 70
     3
  9
$SHADEDIF
 70
    70
  9
$TILEMODE
 70
     1
  9
$MAXACTVP
 70
    64
  9
$PINSBASE
 10
0.0
 20
0.0
 30
0.0
  9
$PLIMCHECK
 70
     0
  9
$PEXTMIN
 10
1.0000000000E+20
 20
1.0000000000E+20
 30
1.0000000000E+20
  9
$PEXTMAX
 10
-1.0000000000E+20
 20
-1.0000000000E+20
 30
-1.0000000000E+20
  9
$PLIMMIN
 10
0.0
 20
0.0
  9
$PLIMMAX
 10
420.0
 20
297.0
  9
$UNITMODE
 70
     0
  9
$VISRETAIN
 70
     1
  9
$PLINEGEN
 70
     0
  9
$PSLTSCALE
 70
     1
  9
$TREEDEPTH
 70
  3020
  9
$CMLSTYLE
  2
Standard
  9
$CMLJUST
 70
     0
  9
$CMLSCALE
 40
20.0
  9
$PROXYGRAPHICS
 70
     1
  9
$MEASUREMENT
 70
     1
  9
$CELWEIGHT
370
    -1
  9
$ENDCAPS
280
     0
  9
$JOINSTYLE
280
     0
  9
$LWDISPLAY
290
     1
  9
$INSUNITS
 70
     4
  9
$HYPERLINKBASE
  1

  9
$STYLESHEET
  1

  9
$XEDIT
290
     1
  9
$CEPSNTYPE
380
     0
  9
$PSTYLEMODE
290
     1
  9
$FINGERPRINTGUID
  2
{AC6F8312-AA4E-4CD2-BC6E-ECE9F66ABBFD}
  9
$VERSIONGUID
  2
{FAEB1C32-E019-11D5-929B-00C0DF256EC4}
  9
$EXTNAMES
290
     1
  9
$PSVPSCALE
 40
0.0
  9
$OLESTARTUP
290
     0
  0
ENDSEC
  0
SECTION
  2
CLASSES
  0
CLASS
  1
ACDBDICTIONARYWDFLT
  2
AcDbDictionaryWithDefault
  3
ObjectDBX Classes
 90
        0
280
     0
281
     0
  0
CLASS
  1
VISUALSTYLE
  2
AcDbVisualStyle
  3
ObjectDBX Classes
 90
     4095
280
     0
281
     0
  0
CLASS
  1
MATERIAL
  2
AcDbMaterial
  3
ObjectDBX Classes
 90
     1153
280
     0
281
     0
  0
CLASS
  1
SCALE
  2
AcDbScale
  3
ObjectDBX Classes
 90
     1153
280
     0
281
     0
  0
CLASS
  1
SUN
  2
AcDbSun
  3
SCENEOE
 90
     1153
280
     0
281
     0
  0
CLASS
  1
ACDBPLACEHOLDER
  2
AcDbPlaceHolder
  3
ObjectDBX Classes
 90
        0
280
     0
281
     0
  0
CLASS
  1
LAYOUT
  2
AcDbLayout
  3
ObjectDBX Classes
 90
        0
280
     0
281
     0
  0
ENDSEC
  0
SECTION
  2
TABLES
  0
TABLE
  2
VPORT
  5
8
330
0
100
AcDbSymbolTable
 70
     1
  0
VPORT
  5
29
330
8
100
AcDbSymbolTableRecord
100
AcDbViewportTableRecord
  2
*Active
 70
     0
 10
0.0
 20
0.0
 11
1.0
 21
1.0
 12
123.75
 22
87.5
 13
0.0
 23
0.0
 14
10.0
 24
10.0
 15
10.0
 25
10.0
 16
0.0
 26
0.0
 36
1.0
 17
0.0
 27
0.0
 37
0.0
 40
175.0
 41
1.4142857143
 42
50.0
 43
0.0
 44
0.0
 50
0.0
 51
0.0
 71
     0
 72
  2000
 73
     1
 74
     3
 75
     0
 76
     0
 77
     0
 78
     0
281
     0
 65
     1
110
0.0
120
0.0
130
0.0
111
1.0
121
0.0
131
0.0
112
0.0
122
1.0
132
0.0
 79
     0
146
0.0
  0
ENDTAB
  0
TABLE
  2
LTYPE
  5
5
330
0
100
AcDbSymbolTable
 70
     6
  0
LTYPE
  5
14
330
5
100
AcDbSymbolTableRecord
100
AcDbLinetypeTableRecord
  2
ByBlock
 70
     0
  3

 72
    65
 73
     0
 40
0.0
  0
LTYPE
  5
15
330
5
100
AcDbSymbolTableRecord
100
AcDbLinetypeTableRecord
  2
ByLayer
 70
     0
  3

 72
    65
 73
     0
 40
0.0
  0
LTYPE
  5
16
330
5
100
AcDbSymbolTableRecord
100
AcDbLinetypeTableRecord
  2
Continuous
 70
     0
  3
Solid line
 72
    65
 73
     0
 40
0.0
  0
LTYPE
  5
6A
330
5
100
AcDbSymbolTableRecord
100
AcDbLinetypeTableRecord
  2
HIDDEN
 70
     0
  3
Hidden __ __ __ __ __ __ __ __ __ __ __ __ __ __
 72
    65
 73
     2
 40
1.905
 49
1.27
 74
     0
 49
-0.635
 74
     0
  0
LTYPE
  5
6B
330
5
100
AcDbSymbolTableRecord
100
AcDbLinetypeTableRecord
  2
PHANTOM
 70
     0
  3
Phantom ______  __  __  ______  __  __  ______
 72
    65
 73
     6
 40
12.7
 49
6.35
 74
     0
 49
-1.27
 74
     0
 49
1.27
 74
     0
 49
-1.27
 74
     0
 49
1.27
 74
     0
 49
-1.27
 74
     0
  0
LTYPE
  5
6C
330
5
100
AcDbSymbolTableRecord
100
AcDbLinetypeTableRecord
  2
CENTER
 70
     0
  3
Center ____ _ ____ _ ____ _ ____ _ ____ _ ____
 72
    65
 73
     4
 40
10.16
 49
6.35
 74
     0
 49
-1.27
 74
     0
 49
1.27
 74
     0
 49
-1.27
 74
     0
  0
LTYPE
  5
6D
330
5
100
AcDbSymbolTableRecord
100
AcDbLinetypeTableRecord
  2
CENTERX2
 70
     0
  3
Center (2x) ________  __  ________  __  _____
 72
    65
 73
     4
 40
20.32
 49
12.7
 74
     0
 49
-2.54
 74
     0
 49
2.54
 74
     0
 49
-2.54
 74
     0
  0
LTYPE
  5
6E
330
5
100
AcDbSymbolTableRecord
100
AcDbLinetypeTableRecord
  2
DOT2
 70
     0
  3
Dot (.5x) ........................................
 72
    65
 73
     2
 40
0.635
 49
0.0
 74
     0
 49
-0.635
 74
     0
  0
ENDTAB
  0
TABLE
  2
LAYER
  5
2
330
0
100
AcDbSymbolTable
 70
     8
  0
LAYER
  5
10
330
2
100
AcDbSymbolTableRecord
100
AcDbLayerTableRecord
  2
0
 70
     0
 62
     7
  6
Continuous
370
    -3
390
F
  0
LAYER
  5
6F
330
2
100
AcDbSymbolTableRecord
100
AcDbLayerTableRecord
  2
FORMAT
 70
     0
 62
     7
  6
Continuous
370
    -3
390
F
  0
LAYER
  5
70
330
2
100
AcDbSymbolTableRecord
100
AcDbLayerTableRecord
  2
SLD-0
 70
     0
 62
     2
  6
Continuous
370
    -3
390
F
  0
LAYER
  5
71
330
2
100
AcDbSymbolTableRecord
100
AcDbLayerTableRecord
  2
DIM
 70
     0
 62
   179
  6
Continuous
370
    -3
390
F
  0
LAYER
  5
72
330
2
100
AcDbSymbolTableRecord
100
AcDbLayerTableRecord
  2
SLD-DEFPOINTS
 70
     0
 62
   179
  6
Continuous
370
    -3
390
F
  0
LAYER
  5
73
330
2
100
AcDbSymbolTableRecord
100
AcDbLayerTableRecord
  2
HAT
 70
     0
 62
   135
  6
Continuous
370
    -3
390
F
  0
LAYER
  5
74
330
2
100
AcDbSymbolTableRecord
100
AcDbLayerTableRecord
  2
JOB
 70
     0
 62
   201
  6
Continuous
370
    -3
390
F
  0
LAYER
  5
75
330
2
100
AcDbSymbolTableRecord
100
AcDbLayerTableRecord
  2
INSPECTION_REPORT
 70
     0
 62
   255
  6
Continuous
370
    -3
390
F
  0
ENDTAB
  0
TABLE
  2
STYLE
  5
3
330
0
100
AcDbSymbolTable
 70
     4
  0
STYLE
  5
11
330
3
100
AcDbSymbolTableRecord
100
AcDbTextStyleTableRecord
  2
Standard
 70
     0
 40
0.0
 41
1.0
 50
0.0
 71
     0
 42
3.2337962963
  3
txt
  4

  0
STYLE
  5
92
330
3
100
AcDbSymbolTableRecord
100
AcDbTextStyleTableRecord
  2
SLDTEXTSTYLE0
 70
     0
 40
0.0
 41
0.7
 50
0.0
 71
     0
 42
3.2337962963
  3
TXT
  4

  0
STYLE
  5
94
330
3
100
AcDbSymbolTableRecord
100
AcDbTextStyleTableRecord
  2
SLDTEXTSTYLE1
 70
     0
 40
0.0
 41
0.75
 50
0.0
 71
     0
 42
3.2337962963
  3
TXT
  4

  0
STYLE
  5
A7
330
3
100
AcDbSymbolTableRecord
100
AcDbTextStyleTableRecord
  2
SLDTEXTSTYLE2
 70
     0
 40
0.0
 41
0.6875
 50
0.0
 71
     0
 42
3.2337962963
  3
TXT
  4

  0
ENDTAB
  0
TABLE
  2
VIEW
  5
6
330
0
100
AcDbSymbolTable
 70
     0
  0
ENDTAB
  0
TABLE
  2
UCS
  5
7
330
0
100
AcDbSymbolTable
 70
     0
  0
ENDTAB
  0
TABLE
  2
APPID
  5
9
330
0
100
AcDbSymbolTable
 70
     1
  0
APPID
  5
12
330
9
100
AcDbSymbolTableRecord
100
AcDbRegAppTableRecord
  2
ACAD
 70
     0
  0
ENDTAB
  0
TABLE
  2
DIMSTYLE
  5
A
330
0
100
AcDbSymbolTable
 70
     3
100
AcDbDimStyleTable
  0
DIMSTYLE
105
27
330
A
100
AcDbSymbolTableRecord
100
AcDbDimStyleTableRecord
  2
ISO-25
 70
     0
 41
2.5
 42
0.625
 43
3.75
 44
1.25
 73
     0
 74
     0
 77
     1
 78
     8
140
2.5
141
2.5
143
0.0393700787
147
0.625
171
     3
172
     1
178
     0
271
     2
272
     2
274
     3
278
    44
283
     0
284
     8
340
11
  0
DIMSTYLE
105
12E
102
{ACAD_REACTORS
330
12D
330
14E
102
}
330
A
100
AcDbSymbolTableRecord
100
AcDbDimStyleTableRecord
  2
SLDDIMSTYLE0
 70
     0
 41
2.7516666667
 44
0.0
 45
0.000000001
 73
     0
 74
     0
 77
     1
 78
    12
 79
     3
140
2.4253472222
147
0.6063368056
173
     1
178
     0
271
     2
272
     2
276
     2
284
    12
340
92
  0
DIMSTYLE
105
139
102
{ACAD_REACTORS
330
138
330
144
102
}
330
A
100
AcDbSymbolTableRecord
100
AcDbDimStyleTableRecord
  2
SLDDIMSTYLE1
 70
     0
 41
2.7516666667
 44
0.0
 45
0.000000001
 73
     0
 74
     0
 77
     1
 78
     4
 79
     1
140
2.4253472222
147
0.6063368056
173
     1
178
     0
271
     2
272
     2
276
     2
284
    12
340
92
  0
ENDTAB
  0
TABLE
  2
BLOCK_RECORD
  5
1
330
0
100
AcDbSymbolTable
 70
     5
  0
BLOCK_RECORD
  5
1F
330
1
100
AcDbSymbolTableRecord
100
AcDbBlockTableRecord
  2
*Model_Space
340
22
  0
BLOCK_RECORD
  5
1B
330
1
100
AcDbSymbolTableRecord
100
AcDbBlockTableRecord
  2
*Paper_Space
340
1E
  0
BLOCK_RECORD
  5
23
330
1
100
AcDbSymbolTableRecord
100
AcDbBlockTableRecord
  2
*Paper_Space0
340
26
  0
BLOCK_RECORD
  5
12F
330
1
100
AcDbSymbolTableRecord
100
AcDbBlockTableRecord
  2
_D
340
0
  0
BLOCK_RECORD
  5
13A
330
1
100
AcDbSymbolTableRecord
100
AcDbBlockTableRecord
  2
_D_1
340
0
  0
BLOCK_RECORD
  5
145
330
1
100
AcDbSymbolTableRecord
100
AcDbBlockTableRecord
  2
_D_2
340
0
  0
BLOCK_RECORD
  5
14F
330
1
100
AcDbSymbolTableRecord
100
AcDbBlockTableRecord
  2
_D_3
340
0
  0
ENDTAB
  0
ENDSEC
  0
SECTION
  2
BLOCKS
  0
BLOCK
  5
20
330
1F
100
AcDbEntity
  8
0
100
AcDbBlockBegin
  2
*Model_Space
 70
     0
 10
0.0
 20
0.0
 30
0.0
  3
*Model_Space
  1
*Model_Space
  0
ENDBLK
  5
21
330
1F
100
AcDbEntity
  8
0
100
AcDbBlockEnd
  0
BLOCK
  5
1C
330
1B
100
AcDbEntity
 67
     1
  8
0
100
AcDbBlockBegin
  2
*Paper_Space
 70
     0
 10
0.0
 20
0.0
 30
0.0
  3
*Paper_Space
  1
*Paper_Space
  0
ENDBLK
  5
1D
330
1B
100
AcDbEntity
 67
     1
  8
0
100
AcDbBlockEnd
  0
BLOCK
  5
24
330
23
100
AcDbEntity
  8
0
100
AcDbBlockBegin
  2
*Paper_Space0
 70
     0
 10
0.0
 20
0.0
 30
0.0
  3
*Paper_Space0
  1
*Paper_Space0
  0
ENDBLK
  5
25
330
23
100
AcDbEntity
  8
0
100
AcDbBlockEnd
  0
BLOCK
  5
130
330
12F
100
AcDbEntity
  8
0
100
AcDbBlockBegin
  2
_D
 70
     0
 10
0.0
 20
0.0
 30
0.0
  3
_D
  1
_D
  0
SOLID
  5
132
330
12F
100
AcDbEntity
  8
DIM
100
AcDbTrace
 10
99.3732607881
 20
47.6732620076
 30
0.0
 11
102.1249274548
 21
47.2499286743
 31
0.0
 12
102.1249274548
 22
48.096595341
 32
0.0
 13
102.1249274548
 23
48.096595341
 33
0.0
  0
SOLID
  5
133
330
12F
100
AcDbEntity
  8
DIM
100
AcDbTrace
 10
204.3732607881
 20
47.6732620076
 30
0.0
 11
201.6215941214
 21
48.096595341
 31
0.0
 12
201.6215941214
 22
47.2499286743
 32
0.0
 13
201.6215941214
 23
47.2499286743
 33
0.0
  0
LINE
  5
134
330
12F
100
AcDbEntity
  8
DIM
100
AcDbLine
 10
99.3732607881
 20
69.9482620076
 30
0.0
 11
99.3732607881
 21
46.8399286743
 31
0.0
  0
LINE
  5
135
330
12F
100
AcDbEntity
  8
DIM
100
AcDbLine
 10
204.3732607881
 20
92.1732620076
 30
0.0
 11
204.3732607881
 21
46.8399286743
 31
0.0
  0
LINE
  5
136
330
12F
100
AcDbEntity
  8
DIM
100
AcDbLine
 10
99.3732607881
 20
47.6732620076
 30
0.0
 11
204.3732607881
 21
47.6732620076
 31
0.0
  0
MTEXT
  5
137
330
12F
100
AcDbEntity
  8
DIM
100
AcDbMText
 10
151.1285895802
 20
50.7996990636
 30
0.0
 40
2.4253472222
 41
0.0
 71
     1
 72
     1
  1
105
  7
SLDTEXTSTYLE0
 73
     1
 44
1.0
  0
ENDBLK
  5
131
330
12F
100
AcDbEntity
  8
0
100
AcDbBlockEnd
  0
BLOCK
  5
13B
330
13A
100
AcDbEntity
  8
0
100
AcDbBlockBegin
  2
_D_1
 70
     0
 10
0.0
 20
0.0
 30
0.0
  3
_D_1
  1
_D_1
  0
SOLID
  5
13D
330
13A
100
AcDbEntity
  8
DIM
100
AcDbTrace
 10
25.2650075243
 20
124.756595341
 30
0.0
 11
24.8416741909
 21
122.0049286743
 31
0.0
 12
25.6883408576
 22
122.0049286743
 32
0.0
 13
25.6883408576
 23
122.0049286743
 33
0.0
  0
SOLID
  5
13E
330
13A
100
AcDbEntity
  8
DIM
100
AcDbTrace
 10
25.2650075243
 20
61.256595341
 30
0.0
 11
25.6883408576
 21
64.0082620076
 31
0.0
 12
24.8416741909
 22
64.0082620076
 32
0.0
 13
24.8416741909
 23
64.0082620076
 33
0.0
  0
LINE
  5
13F
330
13A
100
AcDbEntity
  8
DIM
100
AcDbLine
 10
102.9056128797
 20
124.756595341
 30
0.0
 11
24.4316741909
 21
124.756595341
 31
0.0
  0
LINE
  5
140
330
13A
100
AcDbEntity
  8
DIM
100
AcDbLine
 10
102.9056128797
 20
61.256595341
 30
0.0
 11
24.4316741909
 21
61.256595341
 31
0.0
  0
LINE
  5
141
330
13A
100
AcDbEntity
  8
DIM
100
AcDbLine
 10
25.2650075243
 20
124.756595341
 30
0.0
 11
25.2650075243
 21
61.256595341
 31
0.0
  0
MTEXT
  5
142
330
13A
100
AcDbEntity
  8
DIM
100
AcDbMText
 10
22.1385704683
 20
86.4666169149
 30
0.0
 40
2.4253472222
 41
0.0
 71
     1
 72
     1
  1
%%c
  7
SLDTEXTSTYLE0
 11
-7.044195017643634E-15
 21
1.0
 31
0.0
 73
     1
 44
1.0
  0
MTEXT
  5
143
330
13A
100
AcDbEntity
  8
DIM
100
AcDbMText
 10
22.1385704683
 20
90.2171468312
 30
0.0
 40
2.4253472222
 41
0.0
 71
     1
 72
     1
  1
63.50
  7
SLDTEXTSTYLE0
 11
-7.044195017643634E-15
 21
1.0
 31
0.0
 73
     1
 44
1.0
  0
ENDBLK
  5
13C
330
13A
100
AcDbEntity
  8
0
100
AcDbBlockEnd
  0
BLOCK
  5
146
330
145
100
AcDbEntity
  8
0
100
AcDbBlockBegin
  2
_D_2
 70
     0
 10
0.0
 20
0.0
 30
0.0
  3
_D_2
  1
_D_2
  0
SOLID
  5
148
330
145
100
AcDbEntity
  8
DIM
100
AcDbTrace
 10
30.9732607881
 20
37.6732620076
 30
0.0
 11
33.7249274548
 21
37.2499286743
 31
0.0
 12
33.7249274548
 22
38.096595341
 32
0.0
 13
33.7249274548
 23
38.096595341
 33
0.0
  0
SOLID
  5
149
330
145
100
AcDbEntity
  8
DIM
100
AcDbTrace
 10
204.3732607881
 20
37.6732620076
 30
0.0
 11
201.6215941214
 21
38.096595341
 31
0.0
 12
201.6215941214
 22
37.2499286743
 32
0.0
 13
201.6215941214
 23
37.2499286743
 33
0.0
  0
LINE
  5
14A
330
145
100
AcDbEntity
  8
DIM
100
AcDbLine
 10
30.9732607881
 20
92.1732620076
 30
0.0
 11
30.9732607881
 21
36.8399286743
 31
0.0
  0
LINE
  5
14B
330
145
100
AcDbEntity
  8
DIM
100
AcDbLine
 10
204.3732607881
 20
92.1732620076
 30
0.0
 11
204.3732607881
 21
36.8399286743
 31
0.0
  0
LINE
  5
14C
330
145
100
AcDbEntity
  8
DIM
100
AcDbLine
 10
30.9732607881
 20
37.6732620076
 30
0.0
 11
204.3732607881
 21
37.6732620076
 31
0.0
  0
MTEXT
  5
14D
330
145
100
AcDbEntity
  8
DIM
100
AcDbMText
 10
102.1724828507
 20
40.7996990636
 30
0.0
 40
2.4253472222
 41
0.0
 71
     1
 72
     1
  1
173.40
  7
SLDTEXTSTYLE0
 73
     1
 44
1.0
  0
ENDBLK
  5
147
330
145
100
AcDbEntity
  8
0
100
AcDbBlockEnd
  0
BLOCK
  5
150
330
14F
100
AcDbEntity
  8
0
100
AcDbBlockBegin
  2
_D_3
 70
     0
 10
0.0
 20
0.0
 30
0.0
  3
_D_3
  1
_D_3
  0
SOLID
  5
152
330
14F
100
AcDbEntity
  8
DIM
100
AcDbTrace
 10
209.9437349459
 20
129.006595962
 30
0.0
 11
209.5204016126
 21
126.2549292953
 31
0.0
 12
210.3670682792
 22
126.2549292953
 32
0.0
 13
210.3670682792
 23
126.2549292953
 33
0.0
  0
SOLID
  5
153
330
14F
100
AcDbEntity
  8
DIM
100
AcDbTrace
 10
209.9437349459
 20
57.0065947199
 30
0.0
 11
210.3670682792
 21
59.7582613866
 31
0.0
 12
209.5204016126
 22
59.7582613866
 32
0.0
 13
209.5204016126
 23
59.7582613866
 33
0.0
  0
LINE
  5
154
330
14F
100
AcDbEntity
  8
DIM
100
AcDbLine
 10
197.7424901887
 20
129.006595962
 30
0.0
 11
210.7770682792
 21
129.006595962
 31
0.0
  0
LINE
  5
155
330
14F
100
AcDbEntity
  8
DIM
100
AcDbLine
 10
197.7424901887
 20
57.0065947199
 30
0.0
 11
210.7770682792
 21
57.0065947199
 31
0.0
  0
LINE
  5
156
330
14F
100
AcDbEntity
  8
DIM
100
AcDbLine
 10
209.9437349459
 20
129.006595962
 30
0.0
 11
209.9437349459
 21
57.0065947199
 31
0.0
  0
MTEXT
  5
157
330
14F
100
AcDbEntity
  8
DIM
100
AcDbMText
 10
206.81729789
 20
88.4618040789
 30
0.0
 40
2.4253472222
 41
0.0
 71
     1
 72
     1
  1
%%c
  7
SLDTEXTSTYLE0
 11
-7.044195017643634E-15
 21
1.0
 31
0.0
 73
     1
 44
1.0
  0
MTEXT
  5
158
330
14F
100
AcDbEntity
  8
DIM
100
AcDbMText
 10
206.81729789
 20
92.2123339952
 30
0.0
 40
2.4253472222
 41
0.0
 71
     1
 72
     1
  1
72
  7
SLDTEXTSTYLE0
 11
-7.044195017643634E-15
 21
1.0
 31
0.0
 73
     1
 44
1.0
  0
ENDBLK
  5
151
330
14F
100
AcDbEntity
  8
0
100
AcDbBlockEnd
  0
ENDSEC
  0
SECTION
  2
ENTITIES
  0
LINE
  5
76
330
1F
100
AcDbEntity
  8
DIM
100
AcDbLine
 10
87.2536872408
 20
8.1591595474
 30
0.0
 11
87.2536872408
 21
3.9924928807
 31
0.0
  0
LINE
  5
77
330
1F
100
AcDbEntity
  8
DIM
100
AcDbLine
 10
212.0580014127
 20
8.1591595474
 30
0.0
 11
212.0580014127
 21
3.9924928807
 31
0.0
  0
LINE
  5
78
330
1F
100
AcDbEntity
  8
DIM
100
AcDbLine
 10
197.876424943
 20
8.1591595474
 30
0.0
 11
197.876424943
 21
3.9924928807
 31
0.0
  0
LINE
  5
79
330
1F
100
AcDbEntity
  8
DIM
100
AcDbLine
 10
232.4203539075
 20
3.9924928807
 30
0.0
 11
232.4203539075
 21
8.1591595474
 31
0.0
  0
LINE
  5
7A
330
1F
100
AcDbEntity
  8
DIM
100
AcDbLine
 10
93.7536872408
 20
8.1591595474
 30
0.0
 11
93.7536872408
 21
3.9924928807
 31
0.0
  0
LINE
  5
7B
330
1F
100
AcDbEntity
  8
DIM
100
AcDbLine
 10
109.7461476023
 20
8.1591595474
 30
0.0
 11
109.7461476023
 21
3.9924928807
 31
0.0
  0
LINE
  5
7C
330
1F
100
AcDbEntity
  8
DIM
100
AcDbLine
 10
243.2536872408
 20
3.9924928807
 30
0.0
 11
243.2536872408
 21
64.200826214
 31
0.0
  0
LINE
  5
7D
330
1F
100
AcDbEntity
  8
DIM
100
AcDbLine
 10
124.2527923771
 20
7.5341595474
 30
0.0
 11
124.2527923771
 21
3.9924928807
 31
0.0
  0
LINE
  5
7E
330
1F
100
AcDbEntity
  8
DIM
100
AcDbLine
 10
239.0870205742
 20
166.4924928807
 30
0.0
 11
8.2536872408
 21
166.4924928807
 31
0.0
  0
LINE
  5
7F
330
1F
100
AcDbEntity
  8
DIM
100
AcDbLine
 10
243.2536872408
 20
170.6591595474
 30
0.0
 11
4.0870205742
 21
170.6591595474
 31
0.0
  0
LINE
  5
80
330
1F
100
AcDbEntity
  8
DIM
100
AcDbLine
 10
8.2536872408
 20
166.4924928807
 30
0.0
 11
8.2536872408
 21
8.1591595474
 31
0.0
  0
LINE
  5
81
330
1F
100
AcDbEntity
  8
DIM
100
AcDbLine
 10
4.0870205742
 20
170.6591595474
 30
0.0
 11
4.0870205742
 21
3.9924928807
 31
0.0
  0
LINE
  5
82
330
1F
100
AcDbEntity
  8
DIM
100
AcDbLine
 10
8.2536872408
 20
45.6591595474
 30
0.0
 11
4.0870205742
 21
45.6591595474
 31
0.0
  0
LINE
  5
83
330
1F
100
AcDbEntity
  8
DIM
100
AcDbLine
 10
4.0870205742
 20
87.325826214
 30
0.0
 11
8.2536872408
 21
87.325826214
 31
0.0
  0
LINE
  5
84
330
1F
100
AcDbEntity
  8
DIM
100
AcDbLine
 10
4.0870205742
 20
3.9924928807
 30
0.0
 11
243.2536872408
 21
3.9924928807
 31
0.0
  0
LINE
  5
85
330
1F
100
AcDbEntity
  8
DIM
100
AcDbLine
 10
8.2536872408
 20
8.1591595474
 30
0.0
 11
243.2536872408
 21
8.1591595474
 31
0.0
  0
LINE
  5
86
330
1F
100
AcDbEntity
  8
DIM
100
AcDbLine
 10
40.3370205742
 20
3.9924928807
 30
0.0
 11
40.3370205742
 21
8.1591595474
 31
0.0
  0
LINE
  5
87
330
1F
100
AcDbEntity
  8
DIM
100
AcDbLine
 10
82.0036872408
 20
8.1591595474
 30
0.0
 11
82.0036872408
 21
3.9924928807
 31
0.0
  0
LINE
  5
88
330
1F
100
AcDbEntity
  8
DIM
100
AcDbLine
 10
8.2536872408
 20
128.9924928807
 30
0.0
 11
4.0870205742
 21
128.9924928807
 31
0.0
  0
LINE
  5
89
330
1F
100
AcDbEntity
  8
DIM
100
AcDbLine
 10
40.3370205742
 20
166.4924928807
 30
0.0
 11
40.3370205742
 21
170.6591595474
 31
0.0
  0
LINE
  5
8A
330
1F
100
AcDbEntity
  8
DIM
100
AcDbLine
 10
82.0036872408
 20
170.6591595474
 30
0.0
 11
82.0036872408
 21
166.4924928807
 31
0.0
  0
LINE
  5
8B
330
1F
100
AcDbEntity
  8
DIM
100
AcDbLine
 10
123.6703539075
 20
170.6591595474
 30
0.0
 11
123.6703539075
 21
166.4924928807
 31
0.0
  0
LINE
  5
8C
330
1F
100
AcDbEntity
  8
DIM
100
AcDbLine
 10
239.0870205742
 20
8.1591595474
 30
0.0
 11
239.0870205742
 21
166.4924928807
 31
0.0
  0
LINE
  5
8D
330
1F
100
AcDbEntity
  8
DIM
100
AcDbLine
 10
243.2536872408
 20
64.200826214
 30
0.0
 11
243.2536872408
 21
170.6591595474
 31
0.0
  0
LINE
  5
8E
330
1F
100
AcDbEntity
  8
DIM
100
AcDbLine
 10
243.2536872408
 20
87.325826214
 30
0.0
 11
239.0870205742
 21
87.325826214
 31
0.0
  0
LINE
  5
8F
330
1F
100
AcDbEntity
  8
DIM
100
AcDbLine
 10
165.3370205742
 20
170.6591595474
 30
0.0
 11
165.3370205742
 21
166.4924928807
 31
0.0
  0
LINE
  5
90
330
1F
100
AcDbEntity
  8
DIM
100
AcDbLine
 10
207.0036872408
 20
166.4924928807
 30
0.0
 11
207.0036872408
 21
170.6591595474
 31
0.0
  0
LINE
  5
91
330
1F
100
AcDbEntity
  8
DIM
100
AcDbLine
 10
239.0870205742
 20
128.9924928807
 30
0.0
 11
243.2536872408
 21
128.9924928807
 31
0.0
  0
MTEXT
  5
93
330
1F
100
AcDbEntity
  8
DIM
100
AcDbMText
 10
11.1834951495
 20
159.6132098447
 30
0.0
 40
3.5277777778
 41
0.0
 71
     1
 72
     1
  1
SK 40 C32 105 AD/6.3G15000 SL
  7
SLDTEXTSTYLE0
 73
     1
 44
1.0
  0
MTEXT
  5
95
330
1F
100
AcDbEntity
  8
DIM
 62
     7
100
AcDbMText
 10
164.7773155389
 20
6.5016262719
 30
0.0
 40
1.2488333333
 41
0.0
 71
     1
 72
     1
  1
WEIGHT:
  7
SLDTEXTSTYLE1
 73
     1
 44
1.0
  0
MTEXT
  5
96
330
1F
100
AcDbEntity
  8
DIM
 62
     7
100
AcDbMText
 10
240.4975639623
 20
68.2838445902
 30
0.0
 40
1.5434027778
 41
0.0
 71
     1
 72
     1
  1
C
  7
SLDTEXTSTYLE1
 73
     1
 44
1.0
  0
MTEXT
  5
97
330
1F
100
AcDbEntity
  8
DIM
 62
     7
100
AcDbMText
 10
236.1140221762
 20
7.5574266928
 30
0.0
 40
2.4253472222
 41
0.0
 71
     1
 72
     1
  1
A4
  7
SLDTEXTSTYLE1
 73
     1
 44
1.0
  0
MTEXT
  5
98
330
1F
100
AcDbEntity
  8
DIM
 62
     7
100
AcDbMText
 10
227.1425794631
 20
169.549173217
 30
0.0
 40
1.5434027778
 41
0.0
 71
     1
 72
     1
  1
6
  7
SLDTEXTSTYLE1
 73
     1
 44
1.0
  0
MTEXT
  5
99
330
1F
100
AcDbEntity
  8
DIM
 62
     7
100
AcDbMText
 10
185.4759127964
 20
169.549173217
 30
0.0
 40
1.5434027778
 41
0.0
 71
     1
 72
     1
  1
5
  7
SLDTEXTSTYLE1
 73
     1
 44
1.0
  0
MTEXT
  5
9A
330
1F
100
AcDbEntity
  8
DIM
 62
     7
100
AcDbMText
 10
240.4759161297
 20
150.799173217
 30
0.0
 40
1.5434027778
 41
0.0
 71
     1
 72
     1
  1
A
  7
SLDTEXTSTYLE1
 73
     1
 44
1.0
  0
MTEXT
  5
9B
330
1F
100
AcDbEntity
  8
DIM
 62
     7
100
AcDbMText
 10
240.4759161297
 20
109.1325065503
 30
0.0
 40
1.5434027778
 41
0.0
 71
     1
 72
     1
  1
B
  7
SLDTEXTSTYLE1
 73
     1
 44
1.0
  0
MTEXT
  5
9C
330
1F
100
AcDbEntity
  8
DIM
 62
     7
100
AcDbMText
 10
143.8092461297
 20
169.549173217
 30
0.0
 40
1.5434027778
 41
0.0
 71
     1
 72
     1
  1
4
  7
SLDTEXTSTYLE1
 73
     1
 44
1.0
  0
MTEXT
  5
9D
330
1F
100
AcDbEntity
  8
DIM
 62
     7
100
AcDbMText
 10
19.1564683519
 20
169.549173217
 30
0.0
 40
1.5434027778
 41
0.0
 71
     1
 72
     1
  1
1
  7
SLDTEXTSTYLE1
 73
     1
 44
1.0
  0
MTEXT
  5
9E
330
1F
100
AcDbEntity
  8
DIM
 62
     7
100
AcDbMText
 10
60.4759127964
 20
169.549173217
 30
0.0
 40
1.5434027778
 41
0.0
 71
     1
 72
     1
  1
2
  7
SLDTEXTSTYLE1
 73
     1
 44
1.0
  0
MTEXT
  5
9F
330
1F
100
AcDbEntity
  8
DIM
 62
     7
100
AcDbMText
 10
102.1425794631
 20
169.549173217
 30
0.0
 40
1.5434027778
 41
0.0
 71
     1
 72
     1
  1
3
  7
SLDTEXTSTYLE1
 73
     1
 44
1.0
  0
MTEXT
  5
A0
330
1F
100
AcDbEntity
  8
DIM
 62
     7
100
AcDbMText
 10
5.4759094631
 20
150.799173217
 30
0.0
 40
1.5434027778
 41
0.0
 71
     1
 72
     1
  1
A
  7
SLDTEXTSTYLE1
 73
     1
 44
1.0
  0
MTEXT
  5
A1
330
1F
100
AcDbEntity
  8
DIM
 62
     7
100
AcDbMText
 10
60.4759127964
 20
7.049173217
 30
0.0
 40
1.5434027778
 41
0.0
 71
     1
 72
     1
  1
2
  7
SLDTEXTSTYLE1
 73
     1
 44
1.0
  0
MTEXT
  5
A2
330
1F
100
AcDbEntity
  8
DIM
 62
     7
100
AcDbMText
 10
19.1564683519
 20
7.049173217
 30
0.0
 40
1.5434027778
 41
0.0
 71
     1
 72
     1
  1
1
  7
SLDTEXTSTYLE1
 73
     1
 44
1.0
  0
MTEXT
  5
A3
330
1F
100
AcDbEntity
  8
DIM
 62
     7
100
AcDbMText
 10
5.4759094631
 20
25.799173217
 30
0.0
 40
1.5434027778
 41
0.0
 71
     1
 72
     1
  1
D
  7
SLDTEXTSTYLE1
 73
     1
 44
1.0
  0
MTEXT
  5
A4
330
1F
100
AcDbEntity
  8
DIM
 62
     7
100
AcDbMText
 10
5.4759094631
 20
67.4658398837
 30
0.0
 40
1.5434027778
 41
0.0
 71
     1
 72
     1
  1
C
  7
SLDTEXTSTYLE1
 73
     1
 44
1.0
  0
MTEXT
  5
A5
330
1F
100
AcDbEntity
  8
DIM
 62
     7
100
AcDbMText
 10
5.4759094631
 20
109.1325065503
 30
0.0
 40
1.5434027778
 41
0.0
 71
     1
 72
     1
  1
B
  7
SLDTEXTSTYLE1
 73
     1
 44
1.0
  0
MTEXT
  5
A6
330
1F
100
AcDbEntity
  8
DIM
 62
     7
100
AcDbMText
 10
240.4975639623
 20
68.2838445902
 30
0.0
 40
1.5434027778
 41
0.0
 71
     1
 72
     1
  1
C
  7
SLDTEXTSTYLE1
 73
     1
 44
1.0
  0
MTEXT
  5
A8
330
1F
100
AcDbEntity
  8
DIM
 62
     7
100
AcDbMText
 10
213.7711381771
 20
6.4092322762
 30
0.0
 40
1.25
 41
0.0
 71
     1
 72
     1
  1
SHEET 1 OF 1
  7
SLDTEXTSTYLE2
 73
     1
 44
1.0
  0
MTEXT
  5
A9
330
1F
100
AcDbEntity
  8
DIM
 62
     7
100
AcDbMText
 10
125.3098169862
 20
6.544472903
 30
0.0
 40
1.25
 41
0.0
 71
     1
 72
     1
  1
MATERIAL:
  7
SLDTEXTSTYLE1
 73
     1
 44
1.0
  0
MTEXT
  5
AA
330
1F
100
AcDbEntity
  8
DIM
 62
     7
100
AcDbMText
 10
227.1425794631
 20
169.549173217
 30
0.0
 40
1.5434027778
 41
0.0
 71
     1
 72
     1
  1
6
  7
SLDTEXTSTYLE1
 73
     1
 44
1.0
  0
MTEXT
  5
AB
330
1F
100
AcDbEntity
  8
DIM
 62
     7
100
AcDbMText
 10
185.4759127964
 20
169.549173217
 30
0.0
 40
1.5434027778
 41
0.0
 71
     1
 72
     1
  1
5
  7
SLDTEXTSTYLE1
 73
     1
 44
1.0
  0
MTEXT
  5
AC
330
1F
100
AcDbEntity
  8
DIM
 62
     7
100
AcDbMText
 10
240.4759161297
 20
150.799173217
 30
0.0
 40
1.5434027778
 41
0.0
 71
     1
 72
     1
  1
A
  7
SLDTEXTSTYLE1
 73
     1
 44
1.0
  0
MTEXT
  5
AD
330
1F
100
AcDbEntity
  8
DIM
 62
     7
100
AcDbMText
 10
240.4759161297
 20
109.1325065503
 30
0.0
 40
1.5434027778
 41
0.0
 71
     1
 72
     1
  1
B
  7
SLDTEXTSTYLE1
 73
     1
 44
1.0
  0
MTEXT
  5
AE
330
1F
100
AcDbEntity
  8
DIM
 62
     7
100
AcDbMText
 10
143.8092461297
 20
169.549173217
 30
0.0
 40
1.5434027778
 41
0.0
 71
     1
 72
     1
  1
4
  7
SLDTEXTSTYLE1
 73
     1
 44
1.0
  0
MTEXT
  5
AF
330
1F
100
AcDbEntity
  8
DIM
 62
     7
100
AcDbMText
 10
19.1564683519
 20
169.549173217
 30
0.0
 40
1.5434027778
 41
0.0
 71
     1
 72
     1
  1
1
  7
SLDTEXTSTYLE1
 73
     1
 44
1.0
  0
MTEXT
  5
B0
330
1F
100
AcDbEntity
  8
DIM
 62
     7
100
AcDbMText
 10
60.4759127964
 20
169.549173217
 30
0.0
 40
1.5434027778
 41
0.0
 71
     1
 72
     1
  1
2
  7
SLDTEXTSTYLE1
 73
     1
 44
1.0
  0
MTEXT
  5
B1
330
1F
100
AcDbEntity
  8
DIM
 62
     7
100
AcDbMText
 10
102.1425794631
 20
169.549173217
 30
0.0
 40
1.5434027778
 41
0.0
 71
     1
 72
     1
  1
3
  7
SLDTEXTSTYLE1
 73
     1
 44
1.0
  0
MTEXT
  5
B2
330
1F
100
AcDbEntity
  8
DIM
 62
     7
100
AcDbMText
 10
5.4759094631
 20
150.799173217
 30
0.0
 40
1.5434027778
 41
0.0
 71
     1
 72
     1
  1
A
  7
SLDTEXTSTYLE1
 73
     1
 44
1.0
  0
MTEXT
  5
B3
330
1F
100
AcDbEntity
  8
DIM
 62
     7
100
AcDbMText
 10
60.4759127964
 20
7.049173217
 30
0.0
 40
1.5434027778
 41
0.0
 71
     1
 72
     1
  1
2
  7
SLDTEXTSTYLE1
 73
     1
 44
1.0
  0
MTEXT
  5
B4
330
1F
100
AcDbEntity
  8
DIM
 62
     7
100
AcDbMText
 10
19.1564683519
 20
7.049173217
 30
0.0
 40
1.5434027778
 41
0.0
 71
     1
 72
     1
  1
1
  7
SLDTEXTSTYLE1
 73
     1
 44
1.0
  0
MTEXT
  5
B5
330
1F
100
AcDbEntity
  8
DIM
 62
     7
100
AcDbMText
 10
5.4759094631
 20
25.799173217
 30
0.0
 40
1.5434027778
 41
0.0
 71
     1
 72
     1
  1
D
  7
SLDTEXTSTYLE1
 73
     1
 44
1.0
  0
MTEXT
  5
B6
330
1F
100
AcDbEntity
  8
DIM
 62
     7
100
AcDbMText
 10
5.4759094631
 20
67.4658398837
 30
0.0
 40
1.5434027778
 41
0.0
 71
     1
 72
     1
  1
C
  7
SLDTEXTSTYLE1
 73
     1
 44
1.0
  0
MTEXT
  5
B7
330
1F
100
AcDbEntity
  8
DIM
 62
     7
100
AcDbMText
 10
5.4759094631
 20
109.1325065503
 30
0.0
 40
1.5434027778
 41
0.0
 71
     1
 72
     1
  1
B
  7
SLDTEXTSTYLE1
 73
     1
 44
1.0
  0
LINE
  5
B8
330
1F
100
AcDbEntity
  8
0
  6
Continuous
 62
     7
370
    15
100
AcDbLine
 10
146.8732607881
 20
56.006595341
 30
0.0
 11
180.3732607807
 21
56.006595341
 31
0.0
  0
LINE
  5
B9
330
1F
100
AcDbEntity
  8
0
  6
Continuous
 62
     7
370
    15
100
AcDbLine
 10
180.3732607807
 20
130.006595341
 30
0.0
 11
146.8732607881
 21
130.006595341
 31
0.0
  0
LINE
  5
BA
330
1F
100
AcDbEntity
  8
0
  6
Continuous
 62
     7
370
    15
100
AcDbLine
 10
146.8732607881
 20
130.006595341
 30
0.0
 11
146.3732607881
 21
129.506595341
 31
0.0
  0
LINE
  5
BB
330
1F
100
AcDbEntity
  8
0
  6
Continuous
 62
     7
370
    15
100
AcDbLine
 10
146.3732607881
 20
56.506595341
 30
0.0
 11
146.8732607881
 21
56.006595341
 31
0.0
  0
LINE
  5
BC
330
1F
100
AcDbEntity
  8
0
  6
Continuous
 62
     7
370
    15
100
AcDbLine
 10
180.3732609471
 20
57.0065947199
 30
0.0
 11
196.9091568553
 21
57.0065947199
 31
0.0
  0
LINE
  5
BD
330
1F
100
AcDbEntity
  8
0
  6
Continuous
 62
     7
370
    15
100
AcDbLine
 10
196.9091568553
 20
129.006595962
 30
0.0
 11
180.3732609471
 21
129.006595962
 31
0.0
  0
LINE
  5
BE
330
1F
100
AcDbEntity
  8
0
  6
Continuous
 62
     7
370
    15
100
AcDbLine
 10
196.9091568553
 20
57.0065947199
 30
0.0
 11
203.6320798332
 21
58.8079965026
 31
0.0
  0
LINE
  5
BF
330
1F
100
AcDbEntity
  8
0
  6
Continuous
 62
     7
370
    15
100
AcDbLine
 10
203.6320798332
 20
127.2051941793
 30
0.0
 11
196.9091568553
 21
129.006595962
 31
0.0
  0
ARC
  5
C0
330
1F
100
AcDbEntity
  8
0
  6
Continuous
 62
     7
370
    15
100
AcDbCircle
 10
203.3732607881
 20
59.7739223289
 30
0.0
 40
1.000000000000028
100
AcDbArc
 50
285.0
 51
0.0
  0
ARC
  5
C1
330
1F
100
AcDbEntity
  8
0
  6
Continuous
 62
     7
370
    15
100
AcDbCircle
 10
203.3732607881
 20
126.239268353
 30
0.0
 40
1.000000000000028
100
AcDbArc
 50
0.0
 51
75.0
  0
ARC
  5
C2
330
1F
100
AcDbEntity
  8
0
  6
Continuous
 62
     7
370
    15
100
AcDbCircle
 10
145.8732607881
 20
59.506595341
 30
0.0
 40
0.5000000000000071
100
AcDbArc
 50
0.0
 51
90.0
  0
ARC
  5
C3
330
1F
100
AcDbEntity
  8
0
  6
Continuous
 62
     7
370
    15
100
AcDbCircle
 10
145.8732607881
 20
126.506595341
 30
0.0
 40
0.5000000000000142
100
AcDbArc
 50
270.0
 51
0.0
  0
LINE
  5
C4
330
1F
100
AcDbEntity
  8
0
  6
Continuous
 62
     7
370
    15
100
AcDbLine
 10
143.8732607881
 20
60.006595341
 30
0.0
 11
145.8732607881
 21
60.006595341
 31
0.0
  0
LINE
  5
C5
330
1F
100
AcDbEntity
  8
0
  6
Continuous
 62
     7
370
    15
100
AcDbLine
 10
145.8732607881
 20
126.006595341
 30
0.0
 11
143.8732607881
 21
126.006595341
 31
0.0
  0
LINE
  5
C6
330
1F
100
AcDbEntity
  8
0
  6
Continuous
 62
     7
370
    15
100
AcDbLine
 10
143.8732607881
 20
126.006595341
 30
0.0
 11
143.3732607881
 21
125.506595341
 31
0.0
  0
LINE
  5
C7
330
1F
100
AcDbEntity
  8
0
  6
Continuous
 62
     7
370
    15
100
AcDbLine
 10
143.3732607881
 20
60.506595341
 30
0.0
 11
143.8732607881
 21
60.006595341
 31
0.0
  0
LINE
  5
C8
330
1F
100
AcDbEntity
  8
0
  6
Continuous
 62
     7
370
    15
100
AcDbLine
 10
113.9950974302
 20
124.756595341
 30
0.0
 11
112.3732607881
 21
121.9474918753
 31
0.0
  0
LINE
  5
C9
330
1F
100
AcDbEntity
  8
0
  6
Continuous
 62
     7
370
    15
100
AcDbLine
 10
112.3732607881
 20
64.0656988066
 30
0.0
 11
113.9950974302
 21
61.256595341
 31
0.0
  0
LINE
  5
CA
330
1F
100
AcDbEntity
  8
0
  6
Continuous
 62
     7
370
    15
100
AcDbLine
 10
113.9950974302
 20
61.256595341
 30
0.0
 11
117.3075753632
 21
61.256595341
 31
0.0
  0
LINE
  5
CB
330
1F
100
AcDbEntity
  8
0
  6
Continuous
 62
     7
370
    15
100
AcDbLine
 10
117.3075753632
 20
124.756595341
 30
0.0
 11
113.9950974302
 21
124.756595341
 31
0.0
  0
LINE
  5
CC
330
1F
100
AcDbEntity
  8
0
  6
Continuous
 62
     7
370
    15
100
AcDbLine
 10
103.7389462131
 20
61.256595341
 30
0.0
 11
106.9514241461
 21
61.256595341
 31
0.0
  0
LINE
  5
CD
330
1F
100
AcDbEntity
  8
0
  6
Continuous
 62
     7
370
    15
100
AcDbLine
 10
106.9514241461
 20
124.756595341
 30
0.0
 11
103.7389462131
 21
124.756595341
 31
0.0
  0
LINE
  5
CE
330
1F
100
AcDbEntity
  8
0
  6
Continuous
 62
     7
370
    15
100
AcDbLine
 10
106.9514241461
 20
61.256595341
 30
0.0
 11
108.5732607881
 21
64.0656988066
 31
0.0
  0
LINE
  5
CF
330
1F
100
AcDbEntity
  8
0
  6
Continuous
 62
     7
370
    15
100
AcDbLine
 10
108.5732607881
 20
121.9474918753
 30
0.0
 11
106.9514241461
 21
124.756595341
 31
0.0
  0
LINE
  5
D0
330
1F
100
AcDbEntity
  8
0
  6
Continuous
 62
     7
370
    15
100
AcDbLine
 10
103.4561035006
 20
124.6394380534
 30
0.0
 11
102.6904180756
 21
123.8737526285
 31
0.0
  0
LINE
  5
D1
330
1F
100
AcDbEntity
  8
0
  6
Continuous
 62
     7
370
    15
100
AcDbLine
 10
102.6904180756
 20
62.1394380534
 30
0.0
 11
103.4561035006
 21
61.3737526285
 31
0.0
  0
LINE
  5
D2
330
1F
100
AcDbEntity
  8
0
  6
Continuous
 62
     7
370
    15
100
AcDbLine
 10
117.5904180756
 20
61.3737526285
 30
0.0
 11
118.3561035006
 21
62.1394380534
 31
0.0
  0
LINE
  5
D3
330
1F
100
AcDbEntity
  8
0
  6
Continuous
 62
     7
370
    15
100
AcDbLine
 10
118.3561035006
 20
123.8737526285
 30
0.0
 11
117.5904180756
 21
124.6394380534
 31
0.0
  0
ARC
  5
D4
330
1F
100
AcDbEntity
  8
0
  6
Continuous
 62
     7
370
    15
100
AcDbCircle
 10
117.3075753632
 20
61.656595341
 30
0.0
 40
0.4000000000000093
100
AcDbArc
 50
270.0
 51
315.0
  0
ARC
  5
D5
330
1F
100
AcDbEntity
  8
0
  6
Continuous
 62
     7
370
    15
100
AcDbCircle
 10
103.7389462131
 20
61.656595341
 30
0.0
 40
0.3999999999999992
100
AcDbArc
 50
225.0
 51
270.0
  0
ARC
  5
D6
330
1F
100
AcDbEntity
  8
0
  6
Continuous
 62
     7
370
    15
100
AcDbCircle
 10
117.3075753632
 20
124.356595341
 30
0.0
 40
0.4000000000000199
100
AcDbArc
 50
45.0
 51
90.0
  0
ARC
  5
D7
330
1F
100
AcDbEntity
  8
0
  6
Continuous
 62
     7
370
    15
100
AcDbCircle
 10
103.7389462131
 20
124.356595341
 30
0.0
 40
0.4000000000000199
100
AcDbArc
 50
90.0
 51
135.0
  0
ARC
  5
D8
330
1F
100
AcDbEntity
  8
0
  6
Continuous
 62
     7
370
    15
100
AcDbCircle
 10
118.0732607881
 20
62.4222807659
 30
0.0
 40
0.4000000000000057
100
AcDbArc
 50
315.0
 51
0.0
  0
ARC
  5
D9
330
1F
100
AcDbEntity
  8
0
  6
Continuous
 62
     7
370
    15
100
AcDbCircle
 10
118.0732607881
 20
123.590909916
 30
0.0
 40
0.4000000000000057
100
AcDbArc
 50
0.0
 51
45.0
  0
ARC
  5
DA
330
1F
100
AcDbEntity
  8
0
  6
Continuous
 62
     7
370
    15
100
AcDbCircle
 10
102.9732607881
 20
62.4222807659
 30
0.0
 40
0.4000000000000093
100
AcDbArc
 50
180.0
 51
225.0
  0
ARC
  5
DB
330
1F
100
AcDbEntity
  8
0
  6
Continuous
 62
     7
370
    15
100
AcDbCircle
 10
102.9732607881
 20
123.590909916
 30
0.0
 40
0.4000000000000093
100
AcDbArc
 50
135.0
 51
180.0
  0
LINE
  5
DC
330
1F
100
AcDbEntity
  8
0
  6
Continuous
 62
     7
370
    15
100
AcDbLine
 10
108.5732607881
 20
65.006595341
 30
0.0
 11
112.3732607881
 21
65.006595341
 31
0.0
  0
LINE
  5
DD
330
1F
100
AcDbEntity
  8
0
  6
Continuous
 62
     7
370
    15
100
AcDbLine
 10
112.3732607881
 20
121.006595341
 30
0.0
 11
108.5732607881
 21
121.006595341
 31
0.0
  0
LINE
  5
DE
330
1F
100
AcDbEntity
  8
0
  6
Continuous
 62
     7
370
    15
100
AcDbLine
 10
118.4732607881
 20
68.506595341
 30
0.0
 11
133.8732607881
 21
68.506595341
 31
0.0
  0
LINE
  5
DF
330
1F
100
AcDbEntity
  8
0
  6
Continuous
 62
     7
370
    15
100
AcDbLine
 10
133.8732607881
 20
117.506595341
 30
0.0
 11
118.4732607881
 21
117.506595341
 31
0.0
  0
LINE
  5
E0
330
1F
100
AcDbEntity
  8
0
  6
Continuous
 62
     7
370
    15
100
AcDbLine
 10
133.8732607881
 20
68.506595341
 30
0.0
 11
134.8732607881
 21
69.506595341
 31
0.0
  0
LINE
  5
E1
330
1F
100
AcDbEntity
  8
0
  6
Continuous
 62
     7
370
    15
100
AcDbLine
 10
134.8732607881
 20
116.506595341
 30
0.0
 11
133.8732607881
 21
117.506595341
 31
0.0
  0
LINE
  5
E2
330
1F
100
AcDbEntity
  8
0
  6
Continuous
 62
     7
370
    15
100
AcDbLine
 10
134.8732607881
 20
70.006595341
 30
0.0
 11
143.3732607881
 21
70.006595341
 31
0.0
  0
LINE
  5
E3
330
1F
100
AcDbEntity
  8
0
  6
Continuous
 62
     7
370
    15
100
AcDbLine
 10
143.3732607881
 20
116.006595341
 30
0.0
 11
134.8732607881
 21
116.006595341
 31
0.0
  0
ARC
  5
E4
330
1F
100
AcDbEntity
  8
0
  6
Continuous
 62
     7
370
    15
100
AcDbCircle
 10
102.0732607881
 20
70.506595341
 30
0.0
 40
0.5
100
AcDbArc
 50
0.0
 51
90.0
  0
ARC
  5
E5
330
1F
100
AcDbEntity
  8
0
  6
Continuous
 62
     7
370
    15
100
AcDbCircle
 10
102.0732607881
 20
115.506595341
 30
0.0
 40
0.5
100
AcDbArc
 50
270.0
 51
0.0
  0
LINE
  5
E6
330
1F
100
AcDbEntity
  8
0
  6
Continuous
 62
     7
370
    15
100
AcDbLine
 10
99.3732607881
 20
70.781595341
 30
0.0
 11
99.8557748452
 21
71.006595341
 31
0.0
  0
LINE
  5
E7
330
1F
100
AcDbEntity
  8
0
  6
Continuous
 62
     7
370
    15
100
AcDbLine
 10
99.8557748452
 20
115.006595341
 30
0.0
 11
99.3732607881
 21
115.231595341
 31
0.0
  0
LINE
  5
E8
330
1F
100
AcDbEntity
  8
0
  6
Continuous
 62
     7
370
    15
100
AcDbLine
 10
99.3732607881
 20
115.231595341
 30
0.0
 11
31.8289525608
 21
105.3812907171
 31
0.0
  0
LINE
  5
E9
330
1F
100
AcDbEntity
  8
0
  6
Continuous
 62
     7
370
    15
100
AcDbLine
 10
31.8289525608
 20
80.6318999648
 30
0.0
 11
99.3732607881
 21
70.781595341
 31
0.0
  0
LINE
  5
EA
330
1F
100
AcDbEntity
  8
0
  6
Continuous
 62
     7
370
    15
100
AcDbLine
 10
99.8557748452
 20
71.006595341
 30
0.0
 11
102.0732607881
 21
71.006595341
 31
0.0
  0
LINE
  5
EB
330
1F
100
AcDbEntity
  8
0
  6
Continuous
 62
     7
370
    15
100
AcDbLine
 10
102.0732607881
 20
115.006595341
 30
0.0
 11
99.8557748452
 21
115.006595341
 31
0.0
  0
ARC
  5
EC
330
1F
100
AcDbEntity
  8
0
  6
Continuous
 62
     7
370
    15
100
AcDbCircle
 10
31.9732607881
 20
81.6214327513
 30
0.0
 40
1.000000000000017
100
AcDbArc
 50
180.0
 51
261.7027777778
  0
ARC
  5
ED
330
1F
100
AcDbEntity
  8
0
  6
Continuous
 62
     7
370
    15
100
AcDbCircle
 10
31.9732607881
 20
104.3917579306
 30
0.0
 40
1.000000000000003
100
AcDbArc
 50
98.2972222222
 51
180.0
  0
LINE
  5
EE
330
1F
100
AcDbEntity
  8
0
  6
Continuous
 62
     7
370
    15
100
AcDbLine
 10
180.3732607807
 20
93.006595341
 30
0.0
 11
180.3732607807
 21
130.006595341
 31
0.0
  0
LINE
  5
EF
330
1F
100
AcDbEntity
  8
0
  6
Continuous
 62
     7
370
    15
100
AcDbLine
 10
180.3732607807
 20
56.006595341
 30
0.0
 11
180.3732607807
 21
93.006595341
 31
0.0
  0
LINE
  5
F0
330
1F
100
AcDbEntity
  8
0
  6
Continuous
 62
     7
370
    15
100
AcDbLine
 10
146.8732607881
 20
56.006595341
 30
0.0
 11
146.8732607881
 21
130.006595341
 31
0.0
  0
LINE
  5
F1
330
1F
100
AcDbEntity
  8
0
  6
Continuous
 62
     7
370
    15
100
AcDbLine
 10
146.3732607881
 20
129.506595341
 30
0.0
 11
146.3732607881
 21
56.506595341
 31
0.0
  0
LINE
  5
F2
330
1F
100
AcDbEntity
  8
0
  6
Continuous
 62
     7
370
    15
100
AcDbLine
 10
196.9091568553
 20
93.006595341
 30
0.0
 11
196.9091568553
 21
129.006595962
 31
0.0
  0
LINE
  5
F3
330
1F
100
AcDbEntity
  8
0
  6
Continuous
 62
     7
370
    15
100
AcDbLine
 10
196.9091568553
 20
57.0065947199
 30
0.0
 11
196.9091568553
 21
93.006595341
 31
0.0
  0
SPLINE
  5
F4
330
1F
100
AcDbEntity
  8
0
  6
Continuous
 62
     7
370
    15
100
AcDbSpline
210
0.0
220
0.0
230
1.0
 70
    24
 71
     3
 72
    10
 73
     6
 74
     0
 42
0.000000001
 43
0.00000001
 40
0.0
 40
0.0
 40
0.0
 40
0.0
 40
0.4999999999999997
 40
0.4999999999999997
 40
0.9999999999999999
 40
0.9999999999999999
 40
0.9999999999999999
 40
0.9999999999999999
 10
204.3732607881098
 20
59.77392232893254
 30
0.0
 10
204.3732607881098
 20
59.77392232893275
 30
0.0
 10
204.3732607881098
 20
63.27538813446343
 30
0.0
 10
204.3732607881098
 20
75.7397056599338
 30
0.0
 10
204.3732607881098
 20
84.19299189583127
 30
0.0
 10
204.3732607881098
 20
93.0065953409536
 30
0.0
  0
SPLINE
  5
F5
330
1F
100
AcDbEntity
  8
0
  6
Continuous
 62
     7
370
    15
100
AcDbSpline
210
0.0
220
0.0
230
1.0
 70
    24
 71
     3
 72
    10
 73
     6
 74
     0
 42
0.000000001
 43
0.00000001
 40
0.0
 40
0.0
 40
0.0
 40
0.0
 40
0.4999999999999999
 40
0.4999999999999999
 40
0.9999999999999999
 40
0.9999999999999999
 40
0.9999999999999999
 40
0.9999999999999999
 10
204.3732607881098
 20
93.0065953409536
 30
0.0
 10
204.3732607881098
 20
101.8201987860759
 30
0.0
 10
204.3732607881098
 20
110.2734850219741
 30
0.0
 10
204.3732607881098
 20
122.7378025474442
 30
0.0
 10
204.3732607881098
 20
126.2392683529748
 30
0.0
 10
204.3732607881098
 20
126.2392683529746
 30
0.0
  0
LINE
  5
F6
330
1F
100
AcDbEntity
  8
0
  6
Continuous
 62
     7
370
    15
100
AcDbLine
 10
143.8732607881
 20
60.006595341
 30
0.0
 11
143.8732607881
 21
126.006595341
 31
0.0
  0
LINE
  5
F7
330
1F
100
AcDbEntity
  8
0
  6
Continuous
 62
     7
370
    15
100
AcDbLine
 10
143.3732607881
 20
125.506595341
 30
0.0
 11
143.3732607881
 21
60.506595341
 31
0.0
  0
LINE
  5
F8
330
1F
100
AcDbEntity
  8
0
  6
Continuous
 62
     7
370
    15
100
AcDbLine
 10
112.3732607881
 20
121.9474918753
 30
0.0
 11
112.3732607881
 21
64.0656988066
 31
0.0
  0
LINE
  5
F9
330
1F
100
AcDbEntity
  8
0
  6
Continuous
 62
     7
370
    15
100
AcDbLine
 10
113.9950974302
 20
61.256595341
 30
0.0
 11
113.9950974302
 21
124.756595341
 31
0.0
  0
LINE
  5
FA
330
1F
100
AcDbEntity
  8
0
  6
Continuous
 62
     7
370
    15
100
AcDbLine
 10
117.3075753632
 20
84.4061643031
 30
0.0
 11
117.3075753632
 21
101.6070263788
 31
0.0
  0
LINE
  5
FB
330
1F
100
AcDbEntity
  8
0
  6
Continuous
 62
     7
370
    15
100
AcDbLine
 10
106.9514241461
 20
93.006595341
 30
0.0
 11
106.9514241461
 21
124.756595341
 31
0.0
  0
LINE
  5
FC
330
1F
100
AcDbEntity
  8
0
  6
Continuous
 62
     7
370
    15
100
AcDbLine
 10
106.9514241461
 20
61.256595341
 30
0.0
 11
106.9514241461
 21
93.006595341
 31
0.0
  0
LINE
  5
FD
330
1F
100
AcDbEntity
  8
0
  6
Continuous
 62
     7
370
    15
100
AcDbLine
 10
103.7389462131
 20
84.4061643031
 30
0.0
 11
103.7389462131
 21
101.6070263788
 31
0.0
  0
SPLINE
  5
FE
330
1F
100
AcDbEntity
  8
0
  6
Continuous
 62
     7
370
    15
100
AcDbSpline
210
0.0
220
0.0
230
1.0
 70
     8
 71
     3
 72
     8
 73
     4
 74
     0
 42
0.000000001
 43
0.00000001
 40
0.0
 40
0.0
 40
0.0
 40
0.0
 40
1.0
 40
1.0
 40
1.0
 40
1.0
 10
103.7389462130591
 20
101.6070263788393
 30
0.0
 10
103.6303672208761
 20
101.6070263788393
 30
0.0
 10
103.5273179004027
 20
101.5697923180147
 30
0.0
 10
103.4561035005844
 20
101.511990894557
 30
0.0
  0
SPLINE
  5
FF
330
1F
100
AcDbEntity
  8
0
  6
Continuous
 62
     7
370
    15
100
AcDbSpline
210
0.0
220
0.0
230
1.0
 70
     8
 71
     3
 72
     8
 73
     4
 74
     0
 42
0.000000001
 43
0.00000001
 40
0.0
 40
0.0
 40
0.0
 40
0.0
 40
1.0
 40
1.0
 40
1.0
 40
1.0
 10
103.7389462130591
 20
84.40616430306787
 30
0.0
 10
103.6303672208761
 20
84.40616430306787
 30
0.0
 10
103.5273179004027
 20
84.4433983638925
 30
0.0
 10
103.4561035005844
 20
84.5011997873502
 30
0.0
  0
LINE
  5
100
330
1F
100
AcDbEntity
  8
0
  6
Continuous
 62
     7
370
    15
100
AcDbLine
 10
103.4561035006
 20
84.5011997874
 30
0.0
 11
103.4561035006
 21
101.5119908946
 31
0.0
  0
LINE
  5
101
330
1F
100
AcDbEntity
  8
0
  6
Continuous
 62
     7
370
    15
100
AcDbLine
 10
108.5732607881
 20
64.0656988066
 30
0.0
 11
108.5732607881
 21
121.9474918753
 31
0.0
  0
SPLINE
  5
102
330
1F
100
AcDbEntity
  8
0
  6
Continuous
 62
     7
370
    15
100
AcDbSpline
210
0.0
220
0.0
230
1.0
 70
     8
 71
     3
 72
     8
 73
     4
 74
     0
 42
0.000000001
 43
0.00000001
 40
0.0
 40
0.0
 40
0.0
 40
0.0
 40
1.0
 40
1.0
 40
1.0
 40
1.0
 10
117.3075753631606
 20
101.6070263788393
 30
0.0
 10
117.4161543553435
 20
101.6070263788393
 30
0.0
 10
117.5192036758169
 20
101.5697923180147
 30
0.0
 10
117.5904180756352
 20
101.511990894557
 30
0.0
  0
LINE
  5
103
330
1F
100
AcDbEntity
  8
0
  6
Continuous
 62
     7
370
    15
100
AcDbLine
 10
117.5904180756
 20
84.5011997874
 30
0.0
 11
117.5904180756
 21
101.5119908946
 31
0.0
  0
SPLINE
  5
104
330
1F
100
AcDbEntity
  8
0
  6
Continuous
 62
     7
370
    15
100
AcDbSpline
210
0.0
220
0.0
230
1.0
 70
     8
 71
     3
 72
     8
 73
     4
 74
     0
 42
0.000000001
 43
0.00000001
 40
0.0
 40
0.0
 40
0.0
 40
0.0
 40
1.0
 40
1.0
 40
1.0
 40
1.0
 10
117.5904180756352
 20
84.5011997873502
 30
0.0
 10
117.5191727761595
 20
84.44337328407457
 30
0.0
 10
117.4162644124423
 20
84.40616430306787
 30
0.0
 10
117.3075753631606
 20
84.40616430306787
 30
0.0
  0
LINE
  5
105
330
1F
100
AcDbEntity
  8
0
  6
Continuous
 62
     7
370
    15
100
AcDbLine
 10
102.6904180756
 20
84.3737526285
 30
0.0
 11
102.6904180756
 21
101.6394380534
 31
0.0
  0
LINE
  5
106
330
1F
100
AcDbEntity
  8
0
  6
Continuous
 62
     7
370
    15
100
AcDbLine
 10
118.356103503
 20
84.956595341
 30
0.0
 11
118.356103503
 21
101.056595341
 31
0.0
  0
SPLINE
  5
107
330
1F
100
AcDbEntity
  8
0
  6
Continuous
 62
     7
370
    15
100
AcDbSpline
210
0.0
220
0.0
230
1.0
 70
    24
 71
     3
 72
    10
 73
     6
 74
     0
 42
0.000000001
 43
0.00000001
 40
0.0
 40
0.0
 40
0.0
 40
0.0
 40
0.5
 40
0.5
 40
1.0
 40
1.0
 40
1.0
 40
1.0
 10
102.5732607881098
 20
101.7565953409536
 30
0.0
 10
102.5732607881098
 20
101.7565953409536
 30
0.0
 10
102.5870951554073
 20
101.7427609736561
 30
0.0
 10
102.6292491420809
 20
101.7006069869825
 30
0.0
 10
102.6577424135541
 20
101.6721137155094
 30
0.0
 10
102.6904180756352
 20
101.6394380534283
 30
0.0
  0
SPLINE
  5
108
330
1F
100
AcDbEntity
  8
0
  6
Continuous
 62
     7
370
    15
100
AcDbSpline
210
0.0
220
0.0
230
1.0
 70
    24
 71
     3
 72
    10
 73
     6
 74
     0
 42
0.000000001
 43
0.00000001
 40
0.0
 40
0.0
 40
0.0
 40
0.0
 40
0.5
 40
0.5
 40
1.0
 40
1.0
 40
1.0
 40
1.0
 10
102.6904180756352
 20
84.37375262847895
 30
0.0
 10
102.657763450706
 20
84.34109800354976
 30
0.0
 10
102.6297823362918
 20
84.31311688913563
 30
0.0
 10
102.5871361303565
 20
84.27047068320032
 30
0.0
 10
102.5732607881098
 20
84.25659534095357
 30
0.0
 10
102.5732607881098
 20
84.25659534095357
 30
0.0
  0
LINE
  5
109
330
1F
100
AcDbEntity
  8
0
  6
Continuous
 62
     7
370
    15
100
AcDbLine
 10
102.5732607881
 20
84.256595341
 30
0.0
 11
102.5732607881
 21
101.756595341
 31
0.0
  0
SPLINE
  5
10A
330
1F
100
AcDbEntity
  8
0
  6
Continuous
 62
     7
370
    15
100
AcDbSpline
210
0.0
220
0.0
230
1.0
 70
    24
 71
     3
 72
     8
 73
     4
 74
     0
 42
0.000000001
 43
0.00000001
 40
0.0
 40
0.0
 40
0.0
 40
0.0
 40
1.0
 40
1.0
 40
1.0
 40
1.0
 10
118.4732607881098
 20
101.0565953409536
 30
0.0
 10
118.4732607881099
 20
101.0565953409536
 30
0.0
 10
118.4316702653894
 20
101.0565953409536
 30
0.0
 10
118.3561035005844
 20
101.0565953409536
 30
0.0
  0
LINE
  5
10B
330
1F
100
AcDbEntity
  8
0
  6
Continuous
 62
     7
370
    15
100
AcDbLine
 10
118.4732607881
 20
84.9565836999
 30
0.0
 11
118.4732607881
 21
101.0566069814
 31
0.0
  0
SPLINE
  5
10C
330
1F
100
AcDbEntity
  8
0
  6
Continuous
 62
     7
370
    15
100
AcDbSpline
210
0.0
220
0.0
230
1.0
 70
    24
 71
     3
 72
     8
 73
     4
 74
     0
 42
0.000000001
 43
0.00000001
 40
0.0
 40
0.0
 40
0.0
 40
0.0
 40
1.0
 40
1.0
 40
1.0
 40
1.0
 10
118.3561035005844
 20
84.95659534095358
 30
0.0
 10
118.4316462828631
 20
84.95659534095358
 30
0.0
 10
118.4732607881099
 20
84.95659534095358
 30
0.0
 10
118.4732607881098
 20
84.95659534095358
 30
0.0
  0
SPLINE
  5
10D
330
1F
100
AcDbEntity
  8
0
  6
Continuous
 62
     7
370
    15
100
AcDbSpline
210
0.0
220
0.0
230
1.0
 70
    24
 71
     3
 72
    31
 73
    27
 74
     0
 42
0.000000001
 43
0.00000001
 40
0.0
 40
0.0
 40
0.0
 40
0.0
 40
0.0132615207442977
 40
0.0265095384681778
 40
0.0397479986757152
 40
0.052980855419985
 40
0.0662120677777281
 40
0.0794455963015391
 40
0.0926853994654406
 40
0.1059354301197711
 40
0.1191996319712225
 40
0.1812172750696335
 40
0.2432482095398756
 40
0.3070054688904406
 40
0.3707758549323026
 40
0.5000016454769403
 40
0.6292274360215779
 40
0.6929846958538618
 40
0.756755082374765
 40
0.8187727243566626
 40
0.8808036579395964
 40
0.9046617584680593
 40
0.9284873637472372
 40
0.9523035459912107
 40
0.9761334047843963
 40
1.0
 40
1.0
 40
1.0
 40
1.0
 10
118.4732607881098
 20
84.95659534095358
 30
0.0
 10
118.4732607881098
 20
84.78675945065665
 30
0.0
 10
118.4732607881098
 20
84.44726059875914
 30
0.0
 10
118.4732607881098
 20
83.941410793337
 30
0.0
 10
118.4732607881098
 20
83.4384567277135
 30
0.0
 10
118.4732607881098
 20
82.9386159554674
 30
0.0
 10
118.4732607881098
 20
82.44183052387191
 30
0.0
 10
118.4732607881098
 20
81.94811570285691
 30
0.0
 10
118.4732607881098
 20
81.45746913712009
 30
0.0
 10
118.4732607881098
 20
80.96988574937814
 30
0.0
 10
118.4732607881098
 20
79.89206816365886
 30
0.0
 10
118.4732607881098
 20
78.25613271019746
 30
0.0
 10
118.4732607881098
 20
76.11697003830021
 30
0.0
 10
118.4732607881098
 20
74.0709939613759
 30
0.0
 10
118.4732607881098
 20
71.47675221010898
 30
0.0
 10
118.4732607881098
 20
68.58430961146395
 30
0.0
 10
118.4732607881098
 20
66.26978304002272
 30
0.0
 10
118.4732607881098
 20
64.80829648697599
 30
0.0
 10
118.4732607881098
 20
63.92293007361031
 30
0.0
 10
118.4732607881098
 20
63.23957000509614
 30
0.0
 10
118.4732607881098
 20
62.85685191137107
 30
0.0
 10
118.4732607881098
 20
62.65342025810676
 30
0.0
 10
118.4732607881098
 20
62.5500203459118
 30
0.0
 10
118.4732607881098
 20
62.47670116119774
 30
0.0
 10
118.4732607881098
 20
62.43078742646902
 30
0.0
 10
118.4732607881098
 20
62.42511777503771
 30
0.0
 10
118.4732607881098
 20
62.42228076590283
 30
0.0
  0
SPLINE
  5
10E
330
1F
100
AcDbEntity
  8
0
  6
Continuous
 62
     7
370
    15
100
AcDbSpline
210
0.0
220
0.0
230
1.0
 70
    24
 71
     3
 72
    18
 73
    14
 74
     0
 42
0.000000001
 43
0.00000001
 40
0.0
 40
0.0
 40
0.0
 40
0.0
 40
0.0665912235947862
 40
0.1598334488045346
 40
0.2510077520776224
 40
0.3421820553507101
 40
0.4354242805604583
 40
0.5300979332371613
 40
0.6255038760388114
 40
0.7209098188404615
 40
0.8155834715171643
 40
0.9088256967269123
 40
1.0
 40
1.0
 40
1.0
 40
1.0
 10
118.4732607881098
 20
123.5422699981609
 30
0.0
 10
118.4732607881098
 20
123.5394087743696
 30
0.0
 10
118.4732607881098
 20
123.5325412137261
 30
0.0
 10
118.4732607881098
 20
122.9964490170493
 30
0.0
 10
118.4732607881098
 20
122.0371973096085
 30
0.0
 10
118.4732607881098
 20
120.6485892656128
 30
0.0
 10
118.4732607881098
 20
118.8435035835633
 30
0.0
 10
118.4732607881098
 20
116.6200568087455
 30
0.0
 10
118.4732607881098
 20
114.016709306201
 30
0.0
 10
118.4732607881098
 20
111.0897108804632
 30
0.0
 10
118.4732607881098
 20
107.9069151941485
 30
0.0
 10
118.4732607881098
 20
104.5590281332581
 30
0.0
 10
118.4732607881098
 20
102.2153126595398
 30
0.0
 10
118.4732607881098
 20
101.0565953409536
 30
0.0
  0
SPLINE
  5
10F
330
1F
100
AcDbEntity
  8
0
  6
Continuous
 62
     7
370
    15
100
AcDbSpline
210
0.0
220
0.0
230
1.0
 70
    24
 71
     3
 72
    31
 73
    27
 74
     0
 42
0.000000001
 43
0.00000001
 40
0.0
 40
0.0
 40
0.0
 40
0.0
 40
0.0132831470198811
 40
0.026553527635498
 40
0.0398149668668419
 40
0.0530712974737058
 40
0.0663263566474295
 40
0.0795839826833349
 40
0.0928480116483783
 40
0.1061222740584583
 40
0.1194105915797401
 40
0.1814480340973106
 40
0.2434985684732742
 40
0.3072097122479105
 40
0.3709343011151123
 40
0.5000015948939112
 40
0.6290688886727099
 40
0.6927800329027357
 40
0.7565046222254121
 40
0.8185420654252676
 40
0.8805926004833313
 40
0.9044943901584622
 40
0.9283636595453264
 40
0.9522227660580523
 40
0.9760940956658254
 40
0.9999999999999999
 40
0.9999999999999999
 40
0.9999999999999999
 40
0.9999999999999999
 10
102.5732607881098
 20
62.42228076590283
 30
0.0
 10
102.5732607881098
 20
62.42312433252968
 30
0.0
 10
102.5732607881098
 20
62.4248106550333
 30
0.0
 10
102.5732607881098
 20
62.4385085246637
 30
0.0
 10
102.5732607881098
 20
62.46038550083553
 30
0.0
 10
102.5732607881098
 20
62.49124115368202
 30
0.0
 10
102.5732607881098
 20
62.53086136361714
 30
0.0
 10
102.5732607881098
 20
62.57930369555773
 30
0.0
 10
102.5732607881098
 20
62.63655184911531
 30
0.0
 10
102.5732607881098
 20
62.70261334694468
 30
0.0
 10
102.5732607881098
 20
62.86897604057628
 30
0.0
 10
102.5732607881098
 20
63.21217745679122
 30
0.0
 10
102.5732607881098
 20
63.87174384218232
 30
0.0
 10
102.5732607881098
 20
64.72615387778403
 30
0.0
 10
102.5732607881098
 20
66.13574995405209
 30
0.0
 10
102.5732607881098
 20
68.3685861445551
 30
0.0
 10
102.5732607881098
 20
71.16179290199327
 30
0.0
 10
102.5732607881098
 20
73.67100958725862
 30
0.0
 10
102.5732607881098
 20
75.65292921193479
 30
0.0
 10
102.5732607881098
 20
77.72855012028309
 30
0.0
 10
102.5732607881098
 20
79.44135652831547
 30
0.0
 10
102.5732607881098
 20
80.74554830419363
 30
0.0
 10
102.5732607881098
 20
81.60766988477859
 30
0.0
 10
102.5732607881098
 20
82.48023894031793
 30
0.0
 10
102.5732607881098
 20
83.36253059699243
 30
0.0
 10
102.5732607881098
 20
83.95843001572237
 30
0.0
 10
102.5732607881098
 20
84.25659534095358
 30
0.0
  0
SPLINE
  5
110
330
1F
100
AcDbEntity
  8
0
  6
Continuous
 62
     7
370
    15
100
AcDbSpline
210
0.0
220
0.0
230
1.0
 70
    24
 71
     3
 72
    21
 73
    17
 74
     0
 42
0.000000001
 43
0.00000001
 40
0.0
 40
0.0
 40
0.0
 40
0.0
 40
0.06194669537391
 40
0.1237009100850975
 40
0.1856534064816786
 40
0.2808681129662254
 40
0.3768008191274
 40
0.4407635380533519
 40
0.504519314840883
 40
0.5680147513825862
 40
0.6608043833087789
 40
0.7536073735568412
 40
0.8155510694331228
 40
0.8773052841443101
 40
0.9392608376165729
 40
1.0
 40
1.0
 40
1.0
 40
1.0
 10
102.5732607881098
 20
101.7565953409536
 30
0.0
 10
102.5732607881098
 20
102.5262236532317
 30
0.0
 10
102.5732607881098
 20
104.0630888900519
 30
0.0
 10
102.5732607881098
 20
106.2854555456002
 30
0.0
 10
102.5732607881098
 20
108.8116076029815
 30
0.0
 10
102.5732607881098
 20
111.5654457690747
 30
0.0
 10
102.5732607881098
 20
114.0941432766588
 30
0.0
 10
102.5732607881098
 20
116.1009116152211
 30
0.0
 10
102.5732607881098
 20
117.662923439968
 30
0.0
 10
102.5732607881098
 20
119.2711242500876
 30
0.0
 10
102.5732607881098
 20
120.8176314089987
 30
0.0
 10
102.5732607881098
 20
122.0007512097959
 30
0.0
 10
102.5732607881098
 20
122.7746635596998
 30
0.0
 10
102.5732607881098
 20
123.2407538872485
 30
0.0
 10
102.5732607881098
 20
123.5512088560303
 30
0.0
 10
102.5732607881098
 20
123.5426339301699
 30
0.0
 10
102.5732607881098
 20
123.5383889729962
 30
0.0
  0
LINE
  5
111
330
1F
100
AcDbEntity
  8
0
  6
Continuous
 62
     7
370
    15
100
AcDbLine
 10
133.8732607881
 20
93.006595341
 30
0.0
 11
133.8732607881
 21
117.506595341
 31
0.0
  0
LINE
  5
112
330
1F
100
AcDbEntity
  8
0
  6
Continuous
 62
     7
370
    15
100
AcDbLine
 10
133.8732607881
 20
68.506595341
 30
0.0
 11
133.8732607881
 21
93.006595341
 31
0.0
  0
LINE
  5
113
330
1F
100
AcDbEntity
  8
0
  6
Continuous
 62
     7
370
    15
100
AcDbLine
 10
134.8732607881
 20
93.006595341
 30
0.0
 11
134.8732607881
 21
116.506595341
 31
0.0
  0
LINE
  5
114
330
1F
100
AcDbEntity
  8
0
  6
Continuous
 62
     7
370
    15
100
AcDbLine
 10
134.8732607881
 20
69.506595341
 30
0.0
 11
134.8732607881
 21
93.006595341
 31
0.0
  0
LINE
  5
115
330
1F
100
AcDbEntity
  8
0
  6
Continuous
 62
     7
370
    15
100
AcDbLine
 10
99.8557748452
 20
93.006595341
 30
0.0
 11
99.8557748452
 21
115.006595341
 31
0.0
  0
LINE
  5
116
330
1F
100
AcDbEntity
  8
0
  6
Continuous
 62
     7
370
    15
100
AcDbLine
 10
99.8557748452
 20
71.006595341
 30
0.0
 11
99.8557748452
 21
93.006595341
 31
0.0
  0
LINE
  5
117
330
1F
100
AcDbEntity
  8
0
  6
Continuous
 62
     7
370
    15
100
AcDbLine
 10
99.3732607881
 20
70.781595341
 30
0.0
 11
99.3732607881
 21
115.231595341
 31
0.0
  0
SPLINE
  5
118
330
1F
100
AcDbEntity
  8
0
  6
Continuous
 62
     7
370
    15
100
AcDbSpline
210
0.0
220
0.0
230
1.0
 70
    24
 71
     3
 72
    10
 73
     6
 74
     0
 42
0.000000001
 43
0.00000001
 40
0.0
 40
0.0
 40
0.0
 40
0.0
 40
0.4999999999999997
 40
0.4999999999999997
 40
0.9999999999999999
 40
0.9999999999999999
 40
0.9999999999999999
 40
0.9999999999999999
 10
30.97326078810982
 20
104.3917579305725
 30
0.0
 10
30.97326078810982
 20
104.3917579305725
 30
0.0
 10
30.97326078810982
 20
103.1921927471297
 30
0.0
 10
30.97326078810982
 20
98.92204927883918
 30
0.0
 10
30.97326078810982
 20
96.02604274402125
 30
0.0
 10
30.97326078810982
 20
93.0065953409536
 30
0.0
  0
SPLINE
  5
119
330
1F
100
AcDbEntity
  8
0
  6
Continuous
 62
     7
370
    15
100
AcDbSpline
210
0.0
220
0.0
230
1.0
 70
    24
 71
     3
 72
    10
 73
     6
 74
     0
 42
0.000000001
 43
0.00000001
 40
0.0
 40
0.0
 40
0.0
 40
0.0
 40
0.5
 40
0.5
 40
1.0
 40
1.0
 40
1.0
 40
1.0
 10
30.97326078810982
 20
93.0065953409536
 30
0.0
 10
30.97326078810982
 20
89.98714793788595
 30
0.0
 10
30.97326078810982
 20
87.09114140306778
 30
0.0
 10
30.97326078810982
 20
82.82099793477734
 30
0.0
 10
30.97326078810982
 20
81.6214327513346
 30
0.0
 10
30.97326078810982
 20
81.62143275133467
 30
0.0
  0
LINE
  5
11A
330
1F
100
AcDbEntity
  8
0
  6
Continuous
 62
     8
370
    15
100
AcDbLine
 10
203.6320798332
 20
93.006595341
 30
0.0
 11
203.6320798332
 21
127.2051941793
 31
0.0
  0
LINE
  5
11B
330
1F
100
AcDbEntity
  8
0
  6
Continuous
 62
     8
370
    15
100
AcDbLine
 10
203.6320798332
 20
58.8079965026
 30
0.0
 11
203.6320798332
 21
93.006595341
 31
0.0
  0
LINE
  5
11C
330
1F
100
AcDbEntity
  8
0
  6
Continuous
 62
     8
370
    15
100
AcDbLine
 10
145.8732607881
 20
93.006595341
 30
0.0
 11
145.8732607881
 21
126.006595341
 31
0.0
  0
LINE
  5
11D
330
1F
100
AcDbEntity
  8
0
  6
Continuous
 62
     8
370
    15
100
AcDbLine
 10
145.8732607881
 20
60.006595341
 30
0.0
 11
145.8732607881
 21
93.006595341
 31
0.0
  0
LINE
  5
11E
330
1F
100
AcDbEntity
  8
0
  6
Continuous
 62
     8
370
    15
100
AcDbLine
 10
117.3075753632
 20
101.6070263788
 30
0.0
 11
117.3075753632
 21
124.756595341
 31
0.0
  0
LINE
  5
11F
330
1F
100
AcDbEntity
  8
0
  6
Continuous
 62
     8
370
    15
100
AcDbLine
 10
117.3075753632
 20
61.256595341
 30
0.0
 11
117.3075753632
 21
84.4061643031
 31
0.0
  0
LINE
  5
120
330
1F
100
AcDbEntity
  8
0
  6
Continuous
 62
     8
370
    15
100
AcDbLine
 10
103.7389462131
 20
61.256595341
 30
0.0
 11
103.7389462131
 21
84.4061643031
 31
0.0
  0
LINE
  5
121
330
1F
100
AcDbEntity
  8
0
  6
Continuous
 62
     8
370
    15
100
AcDbLine
 10
103.7389462131
 20
124.756595341
 30
0.0
 11
103.7389462131
 21
101.6070263788
 31
0.0
  0
LINE
  5
122
330
1F
100
AcDbEntity
  8
0
  6
Continuous
 62
     8
370
    15
100
AcDbLine
 10
102.6904180756
 20
62.1394380534
 30
0.0
 11
102.6904180756
 21
84.3737526285
 31
0.0
  0
LINE
  5
123
330
1F
100
AcDbEntity
  8
0
  6
Continuous
 62
     8
370
    15
100
AcDbLine
 10
102.6904180756
 20
101.6394380534
 30
0.0
 11
102.6904180756
 21
123.8737526285
 31
0.0
  0
LINE
  5
124
330
1F
100
AcDbEntity
  8
0
  6
Continuous
 62
     8
370
    15
100
AcDbLine
 10
103.4561035006
 20
101.5119908946
 30
0.0
 11
103.4561035006
 21
124.6394380534
 31
0.0
  0
LINE
  5
125
330
1F
100
AcDbEntity
  8
0
  6
Continuous
 62
     8
370
    15
100
AcDbLine
 10
103.4561035006
 20
61.3737526285
 30
0.0
 11
103.4561035006
 21
84.5011997874
 31
0.0
  0
LINE
  5
126
330
1F
100
AcDbEntity
  8
0
  6
Continuous
 62
     8
370
    15
100
AcDbLine
 10
118.3561035006
 20
123.8737526285
 30
0.0
 11
118.3561035006
 21
101.056595341
 31
0.0
  0
LINE
  5
127
330
1F
100
AcDbEntity
  8
0
  6
Continuous
 62
     8
370
    15
100
AcDbLine
 10
118.3561035006
 20
84.9565953403
 30
0.0
 11
118.3561035006
 21
62.1394380534
 31
0.0
  0
LINE
  5
128
330
1F
100
AcDbEntity
  8
0
  6
Continuous
 62
     8
370
    15
100
AcDbLine
 10
117.5904180756
 20
101.5119908946
 30
0.0
 11
117.5904180756
 21
124.6394380534
 31
0.0
  0
LINE
  5
129
330
1F
100
AcDbEntity
  8
0
  6
Continuous
 62
     8
370
    15
100
AcDbLine
 10
117.5904180756
 20
84.5011997874
 30
0.0
 11
117.5904180756
 21
61.3737526285
 31
0.0
  0
LINE
  5
12A
330
1F
100
AcDbEntity
  8
0
  6
Continuous
 62
     8
370
    15
100
AcDbLine
 10
102.0732607881
 20
93.006595341
 30
0.0
 11
102.0732607881
 21
115.006595341
 31
0.0
  0
LINE
  5
12B
330
1F
100
AcDbEntity
  8
0
  6
Continuous
 62
     8
370
    15
100
AcDbLine
 10
102.0732607881
 20
71.006595341
 30
0.0
 11
102.0732607881
 21
93.006595341
 31
0.0
  0
LINE
  5
12C
330
1F
100
AcDbEntity
  8
0
  6
Continuous
 62
     8
370
    15
100
AcDbLine
 10
31.8289525608
 20
105.3812907171
 30
0.0
 11
31.8289525608
 21
80.6318999648
 31
0.0
  0
DIMENSION
  5
12D
330
1F
100
AcDbEntity
  8
DIM
100
AcDbDimension
  2
_D
 10
204.3732607881
 20
47.6732620076
 30
0.0
 11
153.5876222741
 21
47.6732620076
 31
0.0
 70
   160
  1
<>
 71
     2
 42
-1.0
  3
SLDDIMSTYLE0
100
AcDbAlignedDimension
 13
99.3732607881
 23
70.781595341
 33
0.0
 14
204.3732607881
 24
93.006595341
 34
0.0
 50
0.0
100
AcDbRotatedDimension
  0
DIMENSION
  5
138
330
1F
100
AcDbEntity
  8
DIM
100
AcDbDimension
  2
_D_1
 10
25.2650075243
 20
61.256595341
 30
0.0
 11
25.2650075243
 21
92.0517649917
 31
0.0
 70
   160
  1
%%c<>
 71
     2
 42
-1.0
  3
SLDDIMSTYLE1
100
AcDbAlignedDimension
 13
103.7389462131
 23
124.756595341
 33
0.0
 14
103.7389462131
 24
61.256595341
 34
0.0
 50
90.0
100
AcDbRotatedDimension
  0
DIMENSION
  5
144
330
1F
100
AcDbEntity
  8
DIM
100
AcDbDimension
  2
_D_2
 10
204.3732607881
 20
37.6732620076
 30
0.0
 11
106.702043534
 21
37.6732620076
 31
0.0
 70
   160
  1
<>
 71
     2
 42
-1.0
  3
SLDDIMSTYLE1
100
AcDbAlignedDimension
 13
30.9732607881
 23
93.006595341
 33
0.0
 14
204.3732607881
 24
93.006595341
 34
0.0
 50
0.0
100
AcDbRotatedDimension
  0
DIMENSION
  5
14E
330
1F
100
AcDbEntity
  8
DIM
100
AcDbDimension
  2
_D_3
 10
209.9437349459
 20
57.0065947199
 30
0.0
 11
209.9437349459
 21
91.9764241663
 31
0.0
 70
   160
  1
%%c<>
 71
     2
 42
-1.0
  3
SLDDIMSTYLE0
100
AcDbAlignedDimension
 13
196.9091568553
 23
129.006595962
 33
0.0
 14
196.9091568553
 24
57.0065947199
 34
0.0
 50
90.0
100
AcDbRotatedDimension
  0
LINE
  5
159
330
1F
100
AcDbEntity
  8
DIM
  6
CENTERX2
370
     0
100
AcDbLine
 10
30.187338634
 20
93.006595341
 30
0.0
 11
206.5390137476
 21
93.006595341
 31
0.0
  0
ENDSEC
  0
SECTION
  2
OBJECTS
  0
DICTIONARY
  5
C
330
0
100
AcDbDictionary
281
     1
  3
ACAD_GROUP
350
D
  3
ACAD_LAYOUT
350
1A
  3
ACAD_MLINESTYLE
350
17
  3
ACAD_PLOTSETTINGS
350
19
  3
ACAD_PLOTSTYLENAME
350
E
  3
ACAD_SCALELIST
350
47
  0
DICTIONARY
  5
D
102
{ACAD_REACTORS
330
C
102
}
330
C
100
AcDbDictionary
281
     1
  0
DICTIONARY
  5
1A
102
{ACAD_REACTORS
330
C
102
}
330
C
100
AcDbDictionary
281
     1
  3
Layout1
350
1E
  3
Layout2
350
26
  3
Model
350
22
  0
DICTIONARY
  5
17
102
{ACAD_REACTORS
330
C
102
}
330
C
100
AcDbDictionary
281
     1
  3
Standard
350
18
  0
DICTIONARY
  5
19
102
{ACAD_REACTORS
330
C
102
}
330
C
100
AcDbDictionary
281
     1
  0
ACDBDICTIONARYWDFLT
  5
E
102
{ACAD_REACTORS
330
C
102
}
330
C
100
AcDbDictionary
281
     1
  3
Normal
350
F
100
AcDbDictionaryWithDefault
340
F
  0
DICTIONARY
  5
47
102
{ACAD_REACTORS
330
C
102
}
330
C
100
AcDbDictionary
281
     1
  3
A0
350
48
  3
A1
350
49
  3
A2
350
4A
  3
A3
350
4B
  3
A4
350
4C
  3
A5
350
4D
  3
A6
350
4E
  3
A7
350
4F
  3
A8
350
50
  3
A9
350
51
  3
B0
350
52
  3
B1
350
53
  3
B2
350
54
  3
B3
350
55
  3
B4
350
56
  3
B5
350
57
  3
B6
350
58
  3
B7
350
59
  3
B8
350
5A
  3
B9
350
5B
  3
C0
350
5C
  3
C1
350
5D
  3
C2
350
5E
  3
C3
350
5F
  3
C4
350
60
  3
C5
350
61
  3
C6
350
62
  3
C7
350
63
  3
C8
350
64
  3
C9
350
65
  3
D0
350
66
  3
D1
350
67
  3
D2
350
68
  0
LAYOUT
  5
1E
102
{ACAD_REACTORS
330
1A
102
}
330
1A
100
AcDbPlotSettings
  1

  2
none_device
  4

  6

 40
0.0
 41
0.0
 42
0.0
 43
0.0
 44
0.0
 45
0.0
 46
0.0
 47
0.0
 48
0.0
 49
0.0
140
0.0
141
0.0
142
1.0
143
1.0
 70
   688
 72
     1
 73
     0
 74
     5
  7

 75
    16
147
1.0
148
0.0
149
0.0
100
AcDbLayout
  1
Layout1
 70
     1
 71
     1
 10
0.0
 20
0.0
 11
420.0
 21
297.0
 12
0.0
 22
0.0
 32
0.0
 14
1.0000000000E+20
 24
1.0000000000E+20
 34
1.0000000000E+20
 15
-1.0000000000E+20
 25
-1.0000000000E+20
 35
-1.0000000000E+20
146
0.0
 13
0.0
 23
0.0
 33
0.0
 16
1.0
 26
0.0
 36
0.0
 17
0.0
 27
1.0
 37
0.0
 76
     0
330
1B
  0
LAYOUT
  5
26
102
{ACAD_REACTORS
330
1A
102
}
330
1A
100
AcDbPlotSettings
  1

  2
none_device
  4

  6

 40
0.0
 41
0.0
 42
0.0
 43
0.0
 44
0.0
 45
0.0
 46
0.0
 47
0.0
 48
0.0
 49
0.0
140
0.0
141
0.0
142
1.0
143
1.0
 70
   688
 72
     1
 73
     0
 74
     5
  7

 75
    16
147
1.0
148
0.0
149
0.0
100
AcDbLayout
  1
Layout2
 70
     1
 71
     2
 10
0.0
 20
0.0
 11
0.0
 21
0.0
 12
0.0
 22
0.0
 32
0.0
 14
0.0
 24
0.0
 34
0.0
 15
0.0
 25
0.0
 35
0.0
146
0.0
 13
0.0
 23
0.0
 33
0.0
 16
1.0
 26
0.0
 36
0.0
 17
0.0
 27
1.0
 37
0.0
 76
     0
330
23
  0
LAYOUT
  5
22
102
{ACAD_REACTORS
330
1A
102
}
330
1A
100
AcDbPlotSettings
  1

  2
none_device
  4
Letter_(8.50_x_11.00_Inches)
  6

 40
6.35
 41
6.35
 42
6.35000508
 43
6.35000508
 44
215.9
 45
279.4
 46
0.0
 47
0.0
 48
0.0
 49
0.0
140
0.0
141
0.0
142
1.0
143
1.0
 70
  1712
 72
     1
 73
     0
 74
     0
  7

 75
     0
147
1.0
148
0.0
149
0.0
100
AcDbLayout
  1
Model
 70
     1
 71
     0
 10
0.0
 20
0.0
 11
247.5
 21
175.0
 12
0.0
 22
0.0
 32
0.0
 14
0.0
 24
0.0
 34
0.0
 15
247.5
 25
175.0
 35
0.0
146
0.0
 13
0.0
 23
0.0
 33
0.0
 16
1.0
 26
0.0
 36
0.0
 17
0.0
 27
1.0
 37
0.0
 76
     0
330
1F
331
29
  0
MLINESTYLE
  5
18
102
{ACAD_REACTORS
330
17
102
}
330
17
100
AcDbMlineStyle
  2
Standard
 70
     0
  3

 62
   256
 51
90.0
 52
90.0
 71
     2
 49
0.5
 62
   256
  6
BYLAYER
 49
-0.5
 62
   256
  6
BYLAYER
  0
ACDBPLACEHOLDER
  5
F
102
{ACAD_REACTORS
330
E
102
}
330
E
  0
SCALE
  5
48
102
{ACAD_REACTORS
330
47
102
}
330
47
100
AcDbScale
 70
     0
300
1:1
140
1.0
141
1.0
290
     1
  0
SCALE
  5
49
102
{ACAD_REACTORS
330
47
102
}
330
47
100
AcDbScale
 70
     0
300
1:2
140
1.0
141
2.0
290
     0
  0
SCALE
  5
4A
102
{ACAD_REACTORS
330
47
102
}
330
47
100
AcDbScale
 70
     0
300
1:4
140
1.0
141
4.0
290
     0
  0
SCALE
  5
4B
102
{ACAD_REACTORS
330
47
102
}
330
47
100
AcDbScale
 70
     0
300
1:5
140
1.0
141
5.0
290
     0
  0
SCALE
  5
4C
102
{ACAD_REACTORS
330
47
102
}
330
47
100
AcDbScale
 70
     0
300
1:8
140
1.0
141
8.0
290
     0
  0
SCALE
  5
4D
102
{ACAD_REACTORS
330
47
102
}
330
47
100
AcDbScale
 70
     0
300
1:10
140
1.0
141
10.0
290
     0
  0
SCALE
  5
4E
102
{ACAD_REACTORS
330
47
102
}
330
47
100
AcDbScale
 70
     0
300
1:16
140
1.0
141
16.0
290
     0
  0
SCALE
  5
4F
102
{ACAD_REACTORS
330
47
102
}
330
47
100
AcDbScale
 70
     0
300
1:20
140
1.0
141
20.0
290
     0
  0
SCALE
  5
50
102
{ACAD_REACTORS
330
47
102
}
330
47
100
AcDbScale
 70
     0
300
1:30
140
1.0
141
30.0
290
     0
  0
SCALE
  5
51
102
{ACAD_REACTORS
330
47
102
}
330
47
100
AcDbScale
 70
     0
300
1:40
140
1.0
141
40.0
290
     0
  0
SCALE
  5
52
102
{ACAD_REACTORS
330
47
102
}
330
47
100
AcDbScale
 70
     0
300
1:50
140
1.0
141
50.0
290
     0
  0
SCALE
  5
53
102
{ACAD_REACTORS
330
47
102
}
330
47
100
AcDbScale
 70
     0
300
1:100
140
1.0
141
100.0
290
     0
  0
SCALE
  5
54
102
{ACAD_REACTORS
330
47
102
}
330
47
100
AcDbScale
 70
     0
300
2:1
140
2.0
141
1.0
290
     0
  0
SCALE
  5
55
102
{ACAD_REACTORS
330
47
102
}
330
47
100
AcDbScale
 70
     0
300
4:1
140
4.0
141
1.0
290
     0
  0
SCALE
  5
56
102
{ACAD_REACTORS
330
47
102
}
330
47
100
AcDbScale
 70
     0
300
8:1
140
8.0
141
1.0
290
     0
  0
SCALE
  5
57
102
{ACAD_REACTORS
330
47
102
}
330
47
100
AcDbScale
 70
     0
300
10:1
140
10.0
141
1.0
290
     0
  0
SCALE
  5
58
102
{ACAD_REACTORS
330
47
102
}
330
47
100
AcDbScale
 70
     0
300
100:1
140
100.0
141
1.0
290
     0
  0
SCALE
  5
59
102
{ACAD_REACTORS
330
47
102
}
330
47
100
AcDbScale
 70
     0
300
1/128" = 1'-0"
140
0.0078125
141
12.0
290
     0
  0
SCALE
  5
5A
102
{ACAD_REACTORS
330
47
102
}
330
47
100
AcDbScale
 70
     0
300
1/64" = 1'-0"
140
0.015625
141
12.0
290
     0
  0
SCALE
  5
5B
102
{ACAD_REACTORS
330
47
102
}
330
47
100
AcDbScale
 70
     0
300
1/32" = 1'-0"
140
0.03125
141
12.0
290
     0
  0
SCALE
  5
5C
102
{ACAD_REACTORS
330
47
102
}
330
47
100
AcDbScale
 70
     0
300
1/16" = 1'-0"
140
0.0625
141
12.0
290
     0
  0
SCALE
  5
5D
102
{ACAD_REACTORS
330
47
102
}
330
47
100
AcDbScale
 70
     0
300
3/32" = 1'-0"
140
0.09375
141
12.0
290
     0
  0
SCALE
  5
5E
102
{ACAD_REACTORS
330
47
102
}
330
47
100
AcDbScale
 70
     0
300
1/8" = 1'-0"
140
0.125
141
12.0
290
     0
  0
SCALE
  5
5F
102
{ACAD_REACTORS
330
47
102
}
330
47
100
AcDbScale
 70
     0
300
3/16" = 1'-0"
140
0.1875
141
12.0
290
     0
  0
SCALE
  5
60
102
{ACAD_REACTORS
330
47
102
}
330
47
100
AcDbScale
 70
     0
300
1/4" = 1'-0"
140
0.25
141
12.0
290
     0
  0
SCALE
  5
61
102
{ACAD_REACTORS
330
47
102
}
330
47
100
AcDbScale
 70
     0
300
3/8" = 1'-0"
140
0.375
141
12.0
290
     0
  0
SCALE
  5
62
102
{ACAD_REACTORS
330
47
102
}
330
47
100
AcDbScale
 70
     0
300
1/2" = 1'-0"
140
0.5
141
12.0
290
     0
  0
SCALE
  5
63
102
{ACAD_REACTORS
330
47
102
}
330
47
100
AcDbScale
 70
     0
300
3/4" = 1'-0"
140
0.75
141
12.0
290
     0
  0
SCALE
  5
64
102
{ACAD_REACTORS
330
47
102
}
330
47
100
AcDbScale
 70
     0
300
1" = 1'-0"
140
1.0
141
12.0
290
     0
  0
SCALE
  5
65
102
{ACAD_REACTORS
330
47
102
}
330
47
100
AcDbScale
 70
     0
300
1-1/2" = 1'-0"
140
1.5
141
12.0
290
     0
  0
SCALE
  5
66
102
{ACAD_REACTORS
330
47
102
}
330
47
100
AcDbScale
 70
     0
300
3" = 1'-0"
140
3.0
141
12.0
290
     0
  0
SCALE
  5
67
102
{ACAD_REACTORS
330
47
102
}
330
47
100
AcDbScale
 70
     0
300
6" = 1'-0"
140
6.0
141
12.0
290
     0
  0
SCALE
  5
68
102
{ACAD_REACTORS
330
47
102
}
330
47
100
AcDbScale
 70
     0
300
1'-0" = 1'-0"
140
12.0
141
12.0
290
     0
  0
ENDSEC
  0
EOF
