  0
SECTION
  2
HEADER
  9
$ACADVER
  1
AC1015
  9
$ACADMAINTVER
 70
     6
  9
$DWGCODEPAGE
  3
ANSI_1252
  9
$INSBASE
 10
0.0
 20
0.0
 30
0.0
  9
$EXTMIN
 10
0.0
 20
0.0
 30
0.0
  9
$EXTMAX
 10
247.5
 20
175.0
 30
0.0
  9
$LIMMIN
 10
0.0
 20
0.0
  9
$LIMMAX
 10
247.5
 20
175.0
  9
$ORTHOMODE
 70
     0
  9
$REGENMODE
 70
     1
  9
$FILLMODE
 70
     1
  9
$QTEXTMODE
 70
     0
  9
$MIRRTEXT
 70
     1
  9
$LTSCALE
 40
0.8333333333
  9
$ATTMODE
 70
     1
  9
$TEXTSIZE
 40
3.2337962963
  9
$TRACEWID
 40
1.0
  9
$TEXTSTYLE
  7
Standard
  9
$CLAYER
  8
0
  9
$CELTYPE
  6
ByLayer
  9
$CECOLOR
 62
   256
  9
$CELTSCALE
 40
1.0
  9
$DISPSILH
 70
     0
  9
$DIMSCALE
 40
1.0
  9
$DIMASZ
 40
2.7516666667
  9
$DIMEXO
 40
0.8333333333
  9
$DIMDLI
 40
3.75
  9
$DIMRND
 40
0.0
  9
$DIMDLE
 40
0.0
  9
$DIMEXE
 40
0.8333333333
  9
$DIMTP
 40
0.0
  9
$DIMTM
 40
0.0
  9
$DIMTXT
 40
3.2337962963
  9
$DIMCEN
 40
2.5
  9
$DIMTSZ
 40
0.0
  9
$DIMTOL
 70
     0
  9
$DIMLIM
 70
     0
  9
$DIMTIH
 70
     1
  9
$DIMTOH
 70
     1
  9
$DIMSE1
 70
     0
  9
$DIMSE2
 70
     0
  9
$DIMTAD
 70
     1
  9
$DIMZIN
 70
     0
  9
$DIMBLK
  1

  9
$DIMASO
 70
     1
  9
$DIMSHO
 70
     1
  9
$DIMPOST
  1

  9
$DIMAPOST
  1

  9
$DIMALT
 70
     0
  9
$DIMALTD
 70
     3
  9
$DIMALTF
 40
0.0393700787
  9
$DIMLFAC
 40
1.0
  9
$DIMTOFL
 70
     1
  9
$DIMTVP
 40
0.0
  9
$DIMTIX
 70
     0
  9
$DIMSOXD
 70
     0
  9
$DIMSAH
 70
     0
  9
$DIMBLK1
  1

  9
$DIMBLK2
  1

  9
$DIMSTYLE
  2
ISO-25
  9
$DIMCLRD
 70
     0
  9
$DIMCLRE
 70
     0
  9
$DIMCLRT
 70
     0
  9
$DIMTFAC
 40
1.0
  9
$DIMGAP
 40
1.27
  9
$DIMJUST
 70
     0
  9
$DIMSD1
 70
     0
  9
$DIMSD2
 70
     0
  9
$DIMTOLJ
 70
     0
  9
$DIMTZIN
 70
     0
  9
$DIMALTZ
 70
     0
  9
$DIMALTTZ
 70
     0
  9
$DIMUPT
 70
     0
  9
$DIMDEC
 70
     2
  9
$DIMTDEC
 70
     2
  9
$DIMALTU
 70
     2
  9
$DIMALTTD
 70
     3
  9
$DIMTXSTY
  7
Standard
  9
$DIMAUNIT
 70
     0
  9
$DIMADEC
 70
     2
  9
$DIMALTRND
 40
0.0
  9
$DIMAZIN
 70
     0
  9
$DIMDSEP
 70
    44
  9
$DIMATFIT
 70
     3
  9
$DIMFRAC
 70
     0
  9
$DIMLDRBLK
  1

  9
$DIMLUNIT
 70
     2
  9
$DIMLWD
 70
    -2
  9
$DIMLWE
 70
    -2
  9
$DIMTMOVE
 70
     0
  9
$LUNITS
 70
     2
  9
$LUPREC
 70
     2
  9
$SKETCHINC
 40
1.0
  9
$FILLETRAD
 40
10.0
  9
$AUNITS
 70
     1
  9
$AUPREC
 70
     2
  9
$MENU
  1
.
  9
$ELEVATION
 40
0.0
  9
$PELEVATION
 40
0.0
  9
$THICKNESS
 40
0.0
  9
$LIMCHECK
 70
     0
  9
$CHAMFERA
 40
0.0
  9
$CHAMFERB
 40
0.0
  9
$CHAMFERC
 40
0.0
  9
$CHAMFERD
 40
0.0
  9
$SKPOLY
 70
     0
  9
$TDCREATE
 40
2458607.440558403
  9
$TDUCREATE
 40
2458607.211391736
  9
$TDUPDATE
 40
2458607.440570498
  9
$TDUUPDATE
 40
2458607.211403831
  9
$TDINDWG
 40
0.0000000116
  9
$TDUSRTIMER
 40
0.0000000116
  9
$USRTIMER
 70
     1
  9
$ANGBASE
 50
0.0
  9
$ANGDIR
 70
     0
  9
$PDMODE
 70
     0
  9
$PDSIZE
 40
-1.0
  9
$PLINEWID
 40
0.0
  9
$SPLFRAME
 70
     0
  9
$SPLINETYPE
 70
     6
  9
$SPLINESEGS
 70
     8
  9
$HANDSEED
  5
17A
  9
$SURFTAB1
 70
     6
  9
$SURFTAB2
 70
     6
  9
$SURFTYPE
 70
     6
  9
$SURFU
 70
     6
  9
$SURFV
 70
     6
  9
$UCSBASE
  2

  9
$UCSNAME
  2

  9
$UCSORG
 10
0.0
 20
0.0
 30
0.0
  9
$UCSXDIR
 10
1.0
 20
0.0
 30
0.0
  9
$UCSYDIR
 10
0.0
 20
1.0
 30
0.0
  9
$UCSORTHOREF
  2

  9
$UCSORTHOVIEW
 70
     0
  9
$UCSORGTOP
 10
0.0
 20
0.0
 30
0.0
  9
$UCSORGBOTTOM
 10
0.0
 20
0.0
 30
0.0
  9
$UCSORGLEFT
 10
0.0
 20
0.0
 30
0.0
  9
$UCSORGRIGHT
 10
0.0
 20
0.0
 30
0.0
  9
$UCSORGFRONT
 10
0.0
 20
0.0
 30
0.0
  9
$UCSORGBACK
 10
0.0
 20
0.0
 30
0.0
  9
$PUCSBASE
  2

  9
$PUCSNAME
  2

  9
$PUCSORG
 10
0.0
 20
0.0
 30
0.0
  9
$PUCSXDIR
 10
1.0
 20
0.0
 30
0.0
  9
$PUCSYDIR
 10
0.0
 20
1.0
 30
0.0
  9
$PUCSORTHOREF
  2

  9
$PUCSORTHOVIEW
 70
     0
  9
$PUCSORGTOP
 10
0.0
 20
0.0
 30
0.0
  9
$PUCSORGBOTTOM
 10
0.0
 20
0.0
 30
0.0
  9
$PUCSORGLEFT
 10
0.0
 20
0.0
 30
0.0
  9
$PUCSORGRIGHT
 10
0.0
 20
0.0
 30
0.0
  9
$PUCSORGFRONT
 10
0.0
 20
0.0
 30
0.0
  9
$PUCSORGBACK
 10
0.0
 20
0.0
 30
0.0
  9
$USERI1
 70
     0
  9
$USERI2
 70
     0
  9
$USERI3
 70
     0
  9
$USERI4
 70
     0
  9
$USERI5
 70
     0
  9
$USERR1
 40
0.0
  9
$USERR2
 40
0.0
  9
$USERR3
 40
0.0
  9
$USERR4
 40
0.0
  9
$USERR5
 40
0.0
  9
$WORLDVIEW
 70
     1
  9
$SHADEDGE
 70
     3
  9
$SHADEDIF
 70
    70
  9
$TILEMODE
 70
     1
  9
$MAXACTVP
 70
    64
  9
$PINSBASE
 10
0.0
 20
0.0
 30
0.0
  9
$PLIMCHECK
 70
     0
  9
$PEXTMIN
 10
1.0000000000E+20
 20
1.0000000000E+20
 30
1.0000000000E+20
  9
$PEXTMAX
 10
-1.0000000000E+20
 20
-1.0000000000E+20
 30
-1.0000000000E+20
  9
$PLIMMIN
 10
0.0
 20
0.0
  9
$PLIMMAX
 10
420.0
 20
297.0
  9
$UNITMODE
 70
     0
  9
$VISRETAIN
 70
     1
  9
$PLINEGEN
 70
     0
  9
$PSLTSCALE
 70
     1
  9
$TREEDEPTH
 70
  3020
  9
$CMLSTYLE
  2
Standard
  9
$CMLJUST
 70
     0
  9
$CMLSCALE
 40
20.0
  9
$PROXYGRAPHICS
 70
     1
  9
$MEASUREMENT
 70
     1
  9
$CELWEIGHT
370
    -1
  9
$ENDCAPS
280
     0
  9
$JOINSTYLE
280
     0
  9
$LWDISPLAY
290
     1
  9
$INSUNITS
 70
     4
  9
$HYPERLINKBASE
  1

  9
$STYLESHEET
  1

  9
$XEDIT
290
     1
  9
$CEPSNTYPE
380
     0
  9
$PSTYLEMODE
290
     1
  9
$FINGERPRINTGUID
  2
{33017ED3-DC0A-4079-A999-2621C40CACE0}
  9
$VERSIONGUID
  2
{FAEB1C32-E019-11D5-929B-00C0DF256EC4}
  9
$EXTNAMES
290
     1
  9
$PSVPSCALE
 40
0.0
  9
$OLESTARTUP
290
     0
  0
ENDSEC
  0
SECTION
  2
CLASSES
  0
CLASS
  1
ACDBDICTIONARYWDFLT
  2
AcDbDictionaryWithDefault
  3
ObjectDBX Classes
 90
        0
280
     0
281
     0
  0
CLASS
  1
VISUALSTYLE
  2
AcDbVisualStyle
  3
ObjectDBX Classes
 90
     4095
280
     0
281
     0
  0
CLASS
  1
MATERIAL
  2
AcDbMaterial
  3
ObjectDBX Classes
 90
     1153
280
     0
281
     0
  0
CLASS
  1
SCALE
  2
AcDbScale
  3
ObjectDBX Classes
 90
     1153
280
     0
281
     0
  0
CLASS
  1
SUN
  2
AcDbSun
  3
SCENEOE
 90
     1153
280
     0
281
     0
  0
CLASS
  1
ACDBPLACEHOLDER
  2
AcDbPlaceHolder
  3
ObjectDBX Classes
 90
        0
280
     0
281
     0
  0
CLASS
  1
LAYOUT
  2
AcDbLayout
  3
ObjectDBX Classes
 90
        0
280
     0
281
     0
  0
ENDSEC
  0
SECTION
  2
TABLES
  0
TABLE
  2
VPORT
  5
8
330
0
100
AcDbSymbolTable
 70
     1
  0
VPORT
  5
29
330
8
100
AcDbSymbolTableRecord
100
AcDbViewportTableRecord
  2
*Active
 70
     0
 10
0.0
 20
0.0
 11
1.0
 21
1.0
 12
123.75
 22
87.5
 13
0.0
 23
0.0
 14
10.0
 24
10.0
 15
10.0
 25
10.0
 16
0.0
 26
0.0
 36
1.0
 17
0.0
 27
0.0
 37
0.0
 40
175.0
 41
1.4142857143
 42
50.0
 43
0.0
 44
0.0
 50
0.0
 51
0.0
 71
     0
 72
  2000
 73
     1
 74
     3
 75
     0
 76
     0
 77
     0
 78
     0
281
     0
 65
     1
110
0.0
120
0.0
130
0.0
111
1.0
121
0.0
131
0.0
112
0.0
122
1.0
132
0.0
 79
     0
146
0.0
  0
ENDTAB
  0
TABLE
  2
LTYPE
  5
5
330
0
100
AcDbSymbolTable
 70
     6
  0
LTYPE
  5
14
330
5
100
AcDbSymbolTableRecord
100
AcDbLinetypeTableRecord
  2
ByBlock
 70
     0
  3

 72
    65
 73
     0
 40
0.0
  0
LTYPE
  5
15
330
5
100
AcDbSymbolTableRecord
100
AcDbLinetypeTableRecord
  2
ByLayer
 70
     0
  3

 72
    65
 73
     0
 40
0.0
  0
LTYPE
  5
16
330
5
100
AcDbSymbolTableRecord
100
AcDbLinetypeTableRecord
  2
Continuous
 70
     0
  3
Solid line
 72
    65
 73
     0
 40
0.0
  0
LTYPE
  5
6A
330
5
100
AcDbSymbolTableRecord
100
AcDbLinetypeTableRecord
  2
HIDDEN
 70
     0
  3
Hidden __ __ __ __ __ __ __ __ __ __ __ __ __ __
 72
    65
 73
     2
 40
1.905
 49
1.27
 74
     0
 49
-0.635
 74
     0
  0
LTYPE
  5
6B
330
5
100
AcDbSymbolTableRecord
100
AcDbLinetypeTableRecord
  2
PHANTOM
 70
     0
  3
Phantom ______  __  __  ______  __  __  ______
 72
    65
 73
     6
 40
12.7
 49
6.35
 74
     0
 49
-1.27
 74
     0
 49
1.27
 74
     0
 49
-1.27
 74
     0
 49
1.27
 74
     0
 49
-1.27
 74
     0
  0
LTYPE
  5
6C
330
5
100
AcDbSymbolTableRecord
100
AcDbLinetypeTableRecord
  2
CENTER
 70
     0
  3
Center ____ _ ____ _ ____ _ ____ _ ____ _ ____
 72
    65
 73
     4
 40
10.16
 49
6.35
 74
     0
 49
-1.27
 74
     0
 49
1.27
 74
     0
 49
-1.27
 74
     0
  0
LTYPE
  5
6D
330
5
100
AcDbSymbolTableRecord
100
AcDbLinetypeTableRecord
  2
CENTERX2
 70
     0
  3
Center (2x) ________  __  ________  __  _____
 72
    65
 73
     4
 40
20.32
 49
12.7
 74
     0
 49
-2.54
 74
     0
 49
2.54
 74
     0
 49
-2.54
 74
     0
  0
LTYPE
  5
6E
330
5
100
AcDbSymbolTableRecord
100
AcDbLinetypeTableRecord
  2
DOT2
 70
     0
  3
Dot (.5x) ........................................
 72
    65
 73
     2
 40
0.635
 49
0.0
 74
     0
 49
-0.635
 74
     0
  0
ENDTAB
  0
TABLE
  2
LAYER
  5
2
330
0
100
AcDbSymbolTable
 70
     8
  0
LAYER
  5
10
330
2
100
AcDbSymbolTableRecord
100
AcDbLayerTableRecord
  2
0
 70
     0
 62
     7
  6
Continuous
370
    -3
390
F
  0
LAYER
  5
6F
330
2
100
AcDbSymbolTableRecord
100
AcDbLayerTableRecord
  2
FORMAT
 70
     0
 62
     7
  6
Continuous
370
    -3
390
F
  0
LAYER
  5
70
330
2
100
AcDbSymbolTableRecord
100
AcDbLayerTableRecord
  2
SLD-0
 70
     0
 62
     2
  6
Continuous
370
    -3
390
F
  0
LAYER
  5
71
330
2
100
AcDbSymbolTableRecord
100
AcDbLayerTableRecord
  2
DIM
 70
     0
 62
   179
  6
Continuous
370
    -3
390
F
  0
LAYER
  5
72
330
2
100
AcDbSymbolTableRecord
100
AcDbLayerTableRecord
  2
SLD-DEFPOINTS
 70
     0
 62
   179
  6
Continuous
370
    -3
390
F
  0
LAYER
  5
73
330
2
100
AcDbSymbolTableRecord
100
AcDbLayerTableRecord
  2
HAT
 70
     0
 62
   135
  6
Continuous
370
    -3
390
F
  0
LAYER
  5
74
330
2
100
AcDbSymbolTableRecord
100
AcDbLayerTableRecord
  2
JOB
 70
     0
 62
   201
  6
Continuous
370
    -3
390
F
  0
LAYER
  5
75
330
2
100
AcDbSymbolTableRecord
100
AcDbLayerTableRecord
  2
INSPECTION_REPORT
 70
     0
 62
   255
  6
Continuous
370
    -3
390
F
  0
ENDTAB
  0
TABLE
  2
STYLE
  5
3
330
0
100
AcDbSymbolTable
 70
     4
  0
STYLE
  5
11
330
3
100
AcDbSymbolTableRecord
100
AcDbTextStyleTableRecord
  2
Standard
 70
     0
 40
0.0
 41
1.0
 50
0.0
 71
     0
 42
3.2337962963
  3
txt
  4

  0
STYLE
  5
96
330
3
100
AcDbSymbolTableRecord
100
AcDbTextStyleTableRecord
  2
SLDTEXTSTYLE0
 70
     0
 40
0.0
 41
0.7
 50
0.0
 71
     0
 42
3.2337962963
  3
TXT
  4

  0
STYLE
  5
98
330
3
100
AcDbSymbolTableRecord
100
AcDbTextStyleTableRecord
  2
SLDTEXTSTYLE1
 70
     0
 40
0.0
 41
0.75
 50
0.0
 71
     0
 42
3.2337962963
  3
TXT
  4

  0
STYLE
  5
AB
330
3
100
AcDbSymbolTableRecord
100
AcDbTextStyleTableRecord
  2
SLDTEXTSTYLE2
 70
     0
 40
0.0
 41
0.6875
 50
0.0
 71
     0
 42
3.2337962963
  3
TXT
  4

  0
ENDTAB
  0
TABLE
  2
VIEW
  5
6
330
0
100
AcDbSymbolTable
 70
     0
  0
ENDTAB
  0
TABLE
  2
UCS
  5
7
330
0
100
AcDbSymbolTable
 70
     0
  0
ENDTAB
  0
TABLE
  2
APPID
  5
9
330
0
100
AcDbSymbolTable
 70
     1
  0
APPID
  5
12
330
9
100
AcDbSymbolTableRecord
100
AcDbRegAppTableRecord
  2
ACAD
 70
     0
  0
ENDTAB
  0
TABLE
  2
DIMSTYLE
  5
A
330
0
100
AcDbSymbolTable
 70
     3
100
AcDbDimStyleTable
  0
DIMSTYLE
105
27
330
A
100
AcDbSymbolTableRecord
100
AcDbDimStyleTableRecord
  2
ISO-25
 70
     0
 41
2.5
 42
0.625
 43
3.75
 44
1.25
 73
     0
 74
     0
 77
     1
 78
     8
140
2.5
141
2.5
143
0.0393700787
147
0.625
171
     3
172
     1
178
     0
271
     2
272
     2
274
     3
278
    44
283
     0
284
     8
340
11
  0
DIMSTYLE
105
14E
102
{ACAD_REACTORS
330
14D
330
158
102
}
330
A
100
AcDbSymbolTableRecord
100
AcDbDimStyleTableRecord
  2
SLDDIMSTYLE0
 70
     0
 41
2.7516666667
 44
0.0
 45
0.000000001
 73
     0
 74
     0
 77
     1
 78
    12
 79
     3
140
2.4253472222
147
0.6063368056
173
     1
178
     0
271
     2
272
     2
276
     2
284
    12
340
96
  0
DIMSTYLE
105
164
102
{ACAD_REACTORS
330
163
330
16E
102
}
330
A
100
AcDbSymbolTableRecord
100
AcDbDimStyleTableRecord
  2
SLDDIMSTYLE1
 70
     0
 41
2.7516666667
 44
0.0
 45
0.000000001
 73
     0
 74
     0
 77
     1
 78
     4
 79
     1
140
2.4253472222
147
0.6063368056
173
     1
178
     0
271
     2
272
     2
276
     2
284
    12
340
96
  0
ENDTAB
  0
TABLE
  2
BLOCK_RECORD
  5
1
330
0
100
AcDbSymbolTable
 70
     6
  0
BLOCK_RECORD
  5
1F
330
1
100
AcDbSymbolTableRecord
100
AcDbBlockTableRecord
  2
*Model_Space
340
22
  0
BLOCK_RECORD
  5
1B
330
1
100
AcDbSymbolTableRecord
100
AcDbBlockTableRecord
  2
*Paper_Space
340
1E
  0
BLOCK_RECORD
  5
23
330
1
100
AcDbSymbolTableRecord
100
AcDbBlockTableRecord
  2
*Paper_Space0
340
26
  0
BLOCK_RECORD
  5
E7
330
1
100
AcDbSymbolTableRecord
100
AcDbBlockTableRecord
  2
SW_CENTERMARKSYMBOL_0
340
0
102
{BLKREFS
331
F2
102
}
  0
BLOCK_RECORD
  5
14F
330
1
100
AcDbSymbolTableRecord
100
AcDbBlockTableRecord
  2
_D
340
0
  0
BLOCK_RECORD
  5
159
330
1
100
AcDbSymbolTableRecord
100
AcDbBlockTableRecord
  2
_D_1
340
0
  0
BLOCK_RECORD
  5
165
330
1
100
AcDbSymbolTableRecord
100
AcDbBlockTableRecord
  2
_D_2
340
0
  0
BLOCK_RECORD
  5
16F
330
1
100
AcDbSymbolTableRecord
100
AcDbBlockTableRecord
  2
_D_3
340
0
  0
ENDTAB
  0
ENDSEC
  0
SECTION
  2
BLOCKS
  0
BLOCK
  5
20
330
1F
100
AcDbEntity
  8
0
100
AcDbBlockBegin
  2
*Model_Space
 70
     0
 10
0.0
 20
0.0
 30
0.0
  3
*Model_Space
  1
*Model_Space
  0
ENDBLK
  5
21
330
1F
100
AcDbEntity
  8
0
100
AcDbBlockEnd
  0
BLOCK
  5
1C
330
1B
100
AcDbEntity
 67
     1
  8
0
100
AcDbBlockBegin
  2
*Paper_Space
 70
     0
 10
0.0
 20
0.0
 30
0.0
  3
*Paper_Space
  1
*Paper_Space
  0
ENDBLK
  5
1D
330
1B
100
AcDbEntity
 67
     1
  8
0
100
AcDbBlockEnd
  0
BLOCK
  5
24
330
23
100
AcDbEntity
  8
0
100
AcDbBlockBegin
  2
*Paper_Space0
 70
     0
 10
0.0
 20
0.0
 30
0.0
  3
*Paper_Space0
  1
*Paper_Space0
  0
ENDBLK
  5
25
330
23
100
AcDbEntity
  8
0
100
AcDbBlockEnd
  0
BLOCK
  5
E8
330
E7
100
AcDbEntity
  8
0
100
AcDbBlockBegin
  2
SW_CENTERMARKSYMBOL_0
 70
     0
 10
0.0
 20
0.0
 30
0.0
  3
SW_CENTERMARKSYMBOL_0
  1
SW_CENTERMARKSYMBOL_0
  0
LINE
  5
EA
330
E7
100
AcDbEntity
  8
DIM
 62
     0
100
AcDbLine
 10
0.0
 20
0.0
 30
0.0
 11
0.0
 21
2.5
 31
0.0
  0
LINE
  5
EB
330
E7
100
AcDbEntity
  8
DIM
 62
     0
100
AcDbLine
 10
0.0
 20
0.0
 30
0.0
 11
-2.5
 21
0.0
 31
0.0
  0
LINE
  5
EC
330
E7
100
AcDbEntity
  8
DIM
 62
     0
100
AcDbLine
 10
0.0
 20
0.0
 30
0.0
 11
0.0
 21
-2.5
 31
0.0
  0
LINE
  5
ED
330
E7
100
AcDbEntity
  8
DIM
 62
     0
100
AcDbLine
 10
0.0
 20
0.0
 30
0.0
 11
2.5
 21
0.0
 31
0.0
  0
LINE
  5
EE
330
E7
100
AcDbEntity
  8
DIM
 62
     0
100
AcDbLine
 10
0.0
 20
5.0
 30
0.0
 11
0.0
 21
36.1885535049
 31
0.0
  0
LINE
  5
EF
330
E7
100
AcDbEntity
  8
DIM
 62
     0
100
AcDbLine
 10
-5.0
 20
0.0
 30
0.0
 11
-35.0338115789
 21
0.0
 31
0.0
  0
LINE
  5
F0
330
E7
100
AcDbEntity
  8
DIM
 62
     0
100
AcDbLine
 10
0.0
 20
-5.0
 30
0.0
 11
0.0
 21
-33.845211834
 31
0.0
  0
LINE
  5
F1
330
E7
100
AcDbEntity
  8
DIM
 62
     0
100
AcDbLine
 10
5.0
 20
0.0
 30
0.0
 11
31.4277482801
 21
0.0
 31
0.0
  0
ENDBLK
  5
E9
330
E7
100
AcDbEntity
  8
0
100
AcDbBlockEnd
  0
BLOCK
  5
150
330
14F
100
AcDbEntity
  8
0
100
AcDbBlockBegin
  2
_D
 70
     0
 10
0.0
 20
0.0
 30
0.0
  3
_D
  1
_D
  0
SOLID
  5
152
330
14F
100
AcDbEntity
  8
DIM
100
AcDbTrace
 10
163.4892765072
 20
50.3281964049
 30
0.0
 11
166.2409431739
 21
49.9048630715
 31
0.0
 12
166.2409431739
 22
50.7515297382
 32
0.0
 13
166.2409431739
 23
50.7515297382
 33
0.0
  0
SOLID
  5
153
330
14F
100
AcDbEntity
  8
DIM
100
AcDbTrace
 10
213.4892765072
 20
50.3281964049
 30
0.0
 11
210.7376098405
 21
50.7515297382
 31
0.0
 12
210.7376098405
 22
49.9048630715
 32
0.0
 13
210.7376098405
 23
49.9048630715
 33
0.0
  0
LINE
  5
154
330
14F
100
AcDbEntity
  8
DIM
100
AcDbLine
 10
163.4892765072
 20
64.4108088317
 30
0.0
 11
163.4892765072
 21
49.4948630715
 31
0.0
  0
LINE
  5
155
330
14F
100
AcDbEntity
  8
DIM
100
AcDbLine
 10
213.4892765072
 20
75.6358088317
 30
0.0
 11
213.4892765072
 21
49.4948630715
 31
0.0
  0
LINE
  5
156
330
14F
100
AcDbEntity
  8
DIM
100
AcDbLine
 10
163.4892765072
 20
50.3281964049
 30
0.0
 11
213.4892765072
 21
50.3281964049
 31
0.0
  0
MTEXT
  5
157
330
14F
100
AcDbEntity
  8
DIM
100
AcDbMText
 10
186.4776407694
 20
53.4546334608
 30
0.0
 40
2.4253472222
 41
0.0
 71
     1
 72
     1
  1
50
  7
SLDTEXTSTYLE0
 73
     1
 44
1.0
  0
ENDBLK
  5
151
330
14F
100
AcDbEntity
  8
0
100
AcDbBlockEnd
  0
BLOCK
  5
15A
330
159
100
AcDbEntity
  8
0
100
AcDbBlockBegin
  2
_D_1
 70
     0
 10
0.0
 20
0.0
 30
0.0
  3
_D_1
  1
_D_1
  0
SOLID
  5
15C
330
159
100
AcDbEntity
  8
DIM
100
AcDbTrace
 10
218.4946073687
 20
99.9691421651
 30
0.0
 11
218.0712740353
 21
97.2174754984
 31
0.0
 12
218.917940702
 22
97.2174754984
 32
0.0
 13
218.917940702
 23
97.2174754984
 33
0.0
  0
SOLID
  5
15D
330
159
100
AcDbEntity
  8
DIM
100
AcDbTrace
 10
218.4946073687
 20
74.9691421651
 30
0.0
 11
218.917940702
 21
77.7208088317
 31
0.0
 12
218.0712740353
 22
77.7208088317
 32
0.0
 13
218.0712740353
 23
77.7208088317
 33
0.0
  0
LINE
  5
15E
330
159
100
AcDbEntity
  8
DIM
100
AcDbLine
 10
213.4565844367
 20
99.9691421651
 30
0.0
 11
219.327940702
 21
99.9691421651
 31
0.0
  0
LINE
  5
15F
330
159
100
AcDbEntity
  8
DIM
100
AcDbLine
 10
213.4565844367
 20
74.9691421651
 30
0.0
 11
219.327940702
 21
74.9691421651
 31
0.0
  0
LINE
  5
160
330
159
100
AcDbEntity
  8
DIM
100
AcDbLine
 10
218.4946073687
 20
99.9691421651
 30
0.0
 11
218.4946073687
 21
74.9691421651
 31
0.0
  0
MTEXT
  5
161
330
159
100
AcDbEntity
  8
DIM
100
AcDbMText
 10
215.3681703127
 20
82.3641868421
 30
0.0
 40
2.4253472222
 41
0.0
 71
     1
 72
     1
  1
%%c
  7
SLDTEXTSTYLE0
 11
-7.044195017643634E-15
 21
1.0
 31
0.0
 73
     1
 44
1.0
  0
MTEXT
  5
162
330
159
100
AcDbEntity
  8
DIM
100
AcDbMText
 10
215.3681703127
 20
86.1147167585
 30
0.0
 40
2.4253472222
 41
0.0
 71
     1
 72
     1
  1
25
  7
SLDTEXTSTYLE0
 11
-7.044195017643634E-15
 21
1.0
 31
0.0
 73
     1
 44
1.0
  0
ENDBLK
  5
15B
330
159
100
AcDbEntity
  8
0
100
AcDbBlockEnd
  0
BLOCK
  5
166
330
165
100
AcDbEntity
  8
0
100
AcDbBlockBegin
  2
_D_2
 70
     0
 10
0.0
 20
0.0
 30
0.0
  3
_D_2
  1
_D_2
  0
SOLID
  5
168
330
165
100
AcDbEntity
  8
DIM
100
AcDbTrace
 10
213.4892765072
 20
43.6808795707
 30
0.0
 11
210.7376098405
 21
44.104212904
 31
0.0
 12
210.7376098405
 22
43.2575462373
 32
0.0
 13
210.7376098405
 23
43.2575462373
 33
0.0
  0
SOLID
  5
169
330
165
100
AcDbEntity
  8
DIM
100
AcDbTrace
 10
95.0892765072
 20
43.6808795707
 30
0.0
 11
97.8409431739
 21
43.2575462373
 31
0.0
 12
97.8409431739
 22
44.104212904
 32
0.0
 13
97.8409431739
 23
44.104212904
 33
0.0
  0
LINE
  5
16A
330
165
100
AcDbEntity
  8
DIM
100
AcDbLine
 10
213.4892765072
 20
75.6358088317
 30
0.0
 11
213.4892765072
 21
42.8475462373
 31
0.0
  0
LINE
  5
16B
330
165
100
AcDbEntity
  8
DIM
100
AcDbLine
 10
95.0892765072
 20
86.6358088317
 30
0.0
 11
95.0892765072
 21
42.8475462373
 31
0.0
  0
LINE
  5
16C
330
165
100
AcDbEntity
  8
DIM
100
AcDbLine
 10
213.4892765072
 20
43.6808795707
 30
0.0
 11
95.0892765072
 21
43.6808795707
 31
0.0
  0
MTEXT
  5
16D
330
165
100
AcDbEntity
  8
DIM
100
AcDbMText
 10
154.0718144411
 20
46.8073166266
 30
0.0
 40
2.4253472222
 41
0.0
 71
     1
 72
     1
  1
118.40
  7
SLDTEXTSTYLE0
 73
     1
 44
1.0
  0
ENDBLK
  5
167
330
165
100
AcDbEntity
  8
0
100
AcDbBlockEnd
  0
BLOCK
  5
170
330
16F
100
AcDbEntity
  8
0
100
AcDbBlockBegin
  2
_D_3
 70
     0
 10
0.0
 20
0.0
 30
0.0
  3
_D_3
  1
_D_3
  0
SOLID
  5
172
330
16F
100
AcDbEntity
  8
DIM
100
AcDbTrace
 10
91.0988989118
 20
119.2191421651
 30
0.0
 11
90.6755655785
 21
116.4674754984
 31
0.0
 12
91.5222322452
 22
116.4674754984
 32
0.0
 13
91.5222322452
 23
116.4674754984
 33
0.0
  0
SOLID
  5
173
330
16F
100
AcDbEntity
  8
DIM
100
AcDbTrace
 10
91.0988989118
 20
55.7191421651
 30
0.0
 11
91.5222322452
 21
58.4708088317
 31
0.0
 12
90.6755655785
 22
58.4708088317
 32
0.0
 13
90.6755655785
 23
58.4708088317
 33
0.0
  0
LINE
  5
174
330
16F
100
AcDbEntity
  8
DIM
100
AcDbLine
 10
167.0216285988
 20
119.2191421651
 30
0.0
 11
90.2655655785
 21
119.2191421651
 31
0.0
  0
LINE
  5
175
330
16F
100
AcDbEntity
  8
DIM
100
AcDbLine
 10
167.0216285988
 20
55.7191421651
 30
0.0
 11
90.2655655785
 21
55.7191421651
 31
0.0
  0
LINE
  5
176
330
16F
100
AcDbEntity
  8
DIM
100
AcDbLine
 10
91.0988989118
 20
119.2191421651
 30
0.0
 11
91.0988989118
 21
55.7191421651
 31
0.0
  0
MTEXT
  5
177
330
16F
100
AcDbEntity
  8
DIM
100
AcDbMText
 10
87.9724618559
 20
80.2936588527
 30
0.0
 40
2.4253472222
 41
0.0
 71
     1
 72
     1
  1
%%c
  7
SLDTEXTSTYLE0
 11
-7.044195017643634E-15
 21
1.0
 31
0.0
 73
     1
 44
1.0
  0
MTEXT
  5
178
330
16F
100
AcDbEntity
  8
DIM
100
AcDbMText
 10
87.9724618559
 20
84.0441887691
 30
0.0
 40
2.4253472222
 41
0.0
 71
     1
 72
     1
  1
63.50
  7
SLDTEXTSTYLE0
 11
-7.044195017643634E-15
 21
1.0
 31
0.0
 73
     1
 44
1.0
  0
ENDBLK
  5
171
330
16F
100
AcDbEntity
  8
0
100
AcDbBlockEnd
  0
ENDSEC
  0
SECTION
  2
ENTITIES
  0
LINE
  5
76
330
1F
100
AcDbEntity
  8
DIM
100
AcDbLine
 10
87.2536872408
 20
8.1591595474
 30
0.0
 11
87.2536872408
 21
3.9924928807
 31
0.0
  0
LINE
  5
77
330
1F
100
AcDbEntity
  8
DIM
100
AcDbLine
 10
212.0580014127
 20
8.1591595474
 30
0.0
 11
212.0580014127
 21
3.9924928807
 31
0.0
  0
LINE
  5
78
330
1F
100
AcDbEntity
  8
DIM
100
AcDbLine
 10
197.876424943
 20
8.1591595474
 30
0.0
 11
197.876424943
 21
3.9924928807
 31
0.0
  0
LINE
  5
79
330
1F
100
AcDbEntity
  8
DIM
100
AcDbLine
 10
232.4203539075
 20
3.9924928807
 30
0.0
 11
232.4203539075
 21
8.1591595474
 31
0.0
  0
LINE
  5
7A
330
1F
100
AcDbEntity
  8
DIM
100
AcDbLine
 10
93.7536872408
 20
8.1591595474
 30
0.0
 11
93.7536872408
 21
3.9924928807
 31
0.0
  0
LINE
  5
7B
330
1F
100
AcDbEntity
  8
DIM
100
AcDbLine
 10
109.7461476023
 20
8.1591595474
 30
0.0
 11
109.7461476023
 21
3.9924928807
 31
0.0
  0
LINE
  5
7C
330
1F
100
AcDbEntity
  8
DIM
100
AcDbLine
 10
243.2536872408
 20
3.9924928807
 30
0.0
 11
243.2536872408
 21
64.200826214
 31
0.0
  0
LINE
  5
7D
330
1F
100
AcDbEntity
  8
DIM
100
AcDbLine
 10
238.1825039122
 20
50.0341595474
 30
0.0
 11
243.2536872408
 21
50.0341595474
 31
0.0
  0
LINE
  5
7E
330
1F
100
AcDbEntity
  8
DIM
100
AcDbLine
 10
124.2527923771
 20
7.5341595474
 30
0.0
 11
124.2527923771
 21
3.9924928807
 31
0.0
  0
LINE
  5
7F
330
1F
100
AcDbEntity
  8
DIM
100
AcDbLine
 10
163.9699576337
 20
8.1591595474
 30
0.0
 11
163.9699576337
 21
3.9924928807
 31
0.0
  0
LINE
  5
80
330
1F
100
AcDbEntity
  8
DIM
100
AcDbLine
 10
124.2527923771
 20
8.1591595474
 30
0.0
 11
124.2527923771
 21
7.5341595474
 31
0.0
  0
LINE
  5
81
330
1F
100
AcDbEntity
  8
DIM
100
AcDbLine
 10
239.0870205742
 20
14.6174328807
 30
0.0
 11
243.2536872408
 21
14.6174328807
 31
0.0
  0
LINE
  5
82
330
1F
100
AcDbEntity
  8
DIM
100
AcDbLine
 10
239.0870205742
 20
166.4924928807
 30
0.0
 11
8.2536872408
 21
166.4924928807
 31
0.0
  0
LINE
  5
83
330
1F
100
AcDbEntity
  8
DIM
100
AcDbLine
 10
243.2536872408
 20
170.6591595474
 30
0.0
 11
4.0870205742
 21
170.6591595474
 31
0.0
  0
LINE
  5
84
330
1F
100
AcDbEntity
  8
DIM
100
AcDbLine
 10
8.2536872408
 20
166.4924928807
 30
0.0
 11
8.2536872408
 21
8.1591595474
 31
0.0
  0
LINE
  5
85
330
1F
100
AcDbEntity
  8
DIM
100
AcDbLine
 10
4.0870205742
 20
170.6591595474
 30
0.0
 11
4.0870205742
 21
3.9924928807
 31
0.0
  0
LINE
  5
86
330
1F
100
AcDbEntity
  8
DIM
100
AcDbLine
 10
8.2536872408
 20
45.6591595474
 30
0.0
 11
4.0870205742
 21
45.6591595474
 31
0.0
  0
LINE
  5
87
330
1F
100
AcDbEntity
  8
DIM
100
AcDbLine
 10
4.0870205742
 20
87.325826214
 30
0.0
 11
8.2536872408
 21
87.325826214
 31
0.0
  0
LINE
  5
88
330
1F
100
AcDbEntity
  8
DIM
100
AcDbLine
 10
4.0870205742
 20
3.9924928807
 30
0.0
 11
243.2536872408
 21
3.9924928807
 31
0.0
  0
LINE
  5
89
330
1F
100
AcDbEntity
  8
DIM
100
AcDbLine
 10
8.2536872408
 20
8.1591595474
 30
0.0
 11
243.2536872408
 21
8.1591595474
 31
0.0
  0
LINE
  5
8A
330
1F
100
AcDbEntity
  8
DIM
100
AcDbLine
 10
40.3370205742
 20
3.9924928807
 30
0.0
 11
40.3370205742
 21
8.1591595474
 31
0.0
  0
LINE
  5
8B
330
1F
100
AcDbEntity
  8
DIM
100
AcDbLine
 10
82.0036872408
 20
8.1591595474
 30
0.0
 11
82.0036872408
 21
3.9924928807
 31
0.0
  0
LINE
  5
8C
330
1F
100
AcDbEntity
  8
DIM
100
AcDbLine
 10
8.2536872408
 20
128.9924928807
 30
0.0
 11
4.0870205742
 21
128.9924928807
 31
0.0
  0
LINE
  5
8D
330
1F
100
AcDbEntity
  8
DIM
100
AcDbLine
 10
40.3370205742
 20
166.4924928807
 30
0.0
 11
40.3370205742
 21
170.6591595474
 31
0.0
  0
LINE
  5
8E
330
1F
100
AcDbEntity
  8
DIM
100
AcDbLine
 10
82.0036872408
 20
170.6591595474
 30
0.0
 11
82.0036872408
 21
166.4924928807
 31
0.0
  0
LINE
  5
8F
330
1F
100
AcDbEntity
  8
DIM
100
AcDbLine
 10
123.6703539075
 20
170.6591595474
 30
0.0
 11
123.6703539075
 21
166.4924928807
 31
0.0
  0
LINE
  5
90
330
1F
100
AcDbEntity
  8
DIM
100
AcDbLine
 10
239.0870205742
 20
8.1591595474
 30
0.0
 11
239.0870205742
 21
166.4924928807
 31
0.0
  0
LINE
  5
91
330
1F
100
AcDbEntity
  8
DIM
100
AcDbLine
 10
243.2536872408
 20
64.200826214
 30
0.0
 11
243.2536872408
 21
170.6591595474
 31
0.0
  0
LINE
  5
92
330
1F
100
AcDbEntity
  8
DIM
100
AcDbLine
 10
243.2536872408
 20
87.325826214
 30
0.0
 11
239.0870205742
 21
87.325826214
 31
0.0
  0
LINE
  5
93
330
1F
100
AcDbEntity
  8
DIM
100
AcDbLine
 10
165.3370205742
 20
170.6591595474
 30
0.0
 11
165.3370205742
 21
166.4924928807
 31
0.0
  0
LINE
  5
94
330
1F
100
AcDbEntity
  8
DIM
100
AcDbLine
 10
207.0036872408
 20
166.4924928807
 30
0.0
 11
207.0036872408
 21
170.6591595474
 31
0.0
  0
LINE
  5
95
330
1F
100
AcDbEntity
  8
DIM
100
AcDbLine
 10
239.0870205742
 20
128.9924928807
 30
0.0
 11
243.2536872408
 21
128.9924928807
 31
0.0
  0
MTEXT
  5
97
330
1F
100
AcDbEntity
  8
DIM
100
AcDbMText
 10
16.3617231951
 20
160.0458267961
 30
0.0
 40
3.5277777778
 41
0.0
 71
     1
 72
     1
  1
SK40 MT01 050 6.3G15000 SL
  7
SLDTEXTSTYLE0
 73
     1
 44
1.0
  0
MTEXT
  5
99
330
1F
100
AcDbEntity
  8
DIM
 62
     7
100
AcDbMText
 10
164.7773155389
 20
6.5016262719
 30
0.0
 40
1.2488333333
 41
0.0
 71
     1
 72
     1
  1
WEIGHT:
  7
SLDTEXTSTYLE1
 73
     1
 44
1.0
  0
MTEXT
  5
9A
330
1F
100
AcDbEntity
  8
DIM
 62
     7
100
AcDbMText
 10
240.4975639623
 20
68.2838445902
 30
0.0
 40
1.5434027778
 41
0.0
 71
     1
 72
     1
  1
C
  7
SLDTEXTSTYLE1
 73
     1
 44
1.0
  0
MTEXT
  5
9B
330
1F
100
AcDbEntity
  8
DIM
 62
     7
100
AcDbMText
 10
235.8696505162
 20
12.3783183197
 30
0.0
 40
2.4253472222
 41
0.0
 71
     1
 72
     1
  1
A4
  7
SLDTEXTSTYLE1
 73
     1
 44
1.0
  0
MTEXT
  5
9C
330
1F
100
AcDbEntity
  8
DIM
 62
     7
100
AcDbMText
 10
227.1425794631
 20
169.549173217
 30
0.0
 40
1.5434027778
 41
0.0
 71
     1
 72
     1
  1
6
  7
SLDTEXTSTYLE1
 73
     1
 44
1.0
  0
MTEXT
  5
9D
330
1F
100
AcDbEntity
  8
DIM
 62
     7
100
AcDbMText
 10
185.4759127964
 20
169.549173217
 30
0.0
 40
1.5434027778
 41
0.0
 71
     1
 72
     1
  1
5
  7
SLDTEXTSTYLE1
 73
     1
 44
1.0
  0
MTEXT
  5
9E
330
1F
100
AcDbEntity
  8
DIM
 62
     7
100
AcDbMText
 10
240.4759161297
 20
150.799173217
 30
0.0
 40
1.5434027778
 41
0.0
 71
     1
 72
     1
  1
A
  7
SLDTEXTSTYLE1
 73
     1
 44
1.0
  0
MTEXT
  5
9F
330
1F
100
AcDbEntity
  8
DIM
 62
     7
100
AcDbMText
 10
240.4759161297
 20
109.1325065503
 30
0.0
 40
1.5434027778
 41
0.0
 71
     1
 72
     1
  1
B
  7
SLDTEXTSTYLE1
 73
     1
 44
1.0
  0
MTEXT
  5
A0
330
1F
100
AcDbEntity
  8
DIM
 62
     7
100
AcDbMText
 10
143.8092461297
 20
169.549173217
 30
0.0
 40
1.5434027778
 41
0.0
 71
     1
 72
     1
  1
4
  7
SLDTEXTSTYLE1
 73
     1
 44
1.0
  0
MTEXT
  5
A1
330
1F
100
AcDbEntity
  8
DIM
 62
     7
100
AcDbMText
 10
19.1564683519
 20
169.549173217
 30
0.0
 40
1.5434027778
 41
0.0
 71
     1
 72
     1
  1
1
  7
SLDTEXTSTYLE1
 73
     1
 44
1.0
  0
MTEXT
  5
A2
330
1F
100
AcDbEntity
  8
DIM
 62
     7
100
AcDbMText
 10
60.4759127964
 20
169.549173217
 30
0.0
 40
1.5434027778
 41
0.0
 71
     1
 72
     1
  1
2
  7
SLDTEXTSTYLE1
 73
     1
 44
1.0
  0
MTEXT
  5
A3
330
1F
100
AcDbEntity
  8
DIM
 62
     7
100
AcDbMText
 10
102.1425794631
 20
169.549173217
 30
0.0
 40
1.5434027778
 41
0.0
 71
     1
 72
     1
  1
3
  7
SLDTEXTSTYLE1
 73
     1
 44
1.0
  0
MTEXT
  5
A4
330
1F
100
AcDbEntity
  8
DIM
 62
     7
100
AcDbMText
 10
5.4759094631
 20
150.799173217
 30
0.0
 40
1.5434027778
 41
0.0
 71
     1
 72
     1
  1
A
  7
SLDTEXTSTYLE1
 73
     1
 44
1.0
  0
MTEXT
  5
A5
330
1F
100
AcDbEntity
  8
DIM
 62
     7
100
AcDbMText
 10
60.4759127964
 20
7.049173217
 30
0.0
 40
1.5434027778
 41
0.0
 71
     1
 72
     1
  1
2
  7
SLDTEXTSTYLE1
 73
     1
 44
1.0
  0
MTEXT
  5
A6
330
1F
100
AcDbEntity
  8
DIM
 62
     7
100
AcDbMText
 10
19.1564683519
 20
7.049173217
 30
0.0
 40
1.5434027778
 41
0.0
 71
     1
 72
     1
  1
1
  7
SLDTEXTSTYLE1
 73
     1
 44
1.0
  0
MTEXT
  5
A7
330
1F
100
AcDbEntity
  8
DIM
 62
     7
100
AcDbMText
 10
5.4759094631
 20
25.799173217
 30
0.0
 40
1.5434027778
 41
0.0
 71
     1
 72
     1
  1
D
  7
SLDTEXTSTYLE1
 73
     1
 44
1.0
  0
MTEXT
  5
A8
330
1F
100
AcDbEntity
  8
DIM
 62
     7
100
AcDbMText
 10
5.4759094631
 20
67.4658398837
 30
0.0
 40
1.5434027778
 41
0.0
 71
     1
 72
     1
  1
C
  7
SLDTEXTSTYLE1
 73
     1
 44
1.0
  0
MTEXT
  5
A9
330
1F
100
AcDbEntity
  8
DIM
 62
     7
100
AcDbMText
 10
5.4759094631
 20
109.1325065503
 30
0.0
 40
1.5434027778
 41
0.0
 71
     1
 72
     1
  1
B
  7
SLDTEXTSTYLE1
 73
     1
 44
1.0
  0
MTEXT
  5
AA
330
1F
100
AcDbEntity
  8
DIM
 62
     7
100
AcDbMText
 10
240.4975639623
 20
68.2838445902
 30
0.0
 40
1.5434027778
 41
0.0
 71
     1
 72
     1
  1
C
  7
SLDTEXTSTYLE1
 73
     1
 44
1.0
  0
MTEXT
  5
AC
330
1F
100
AcDbEntity
  8
DIM
 62
     7
100
AcDbMText
 10
213.7711381771
 20
6.4092322762
 30
0.0
 40
1.25
 41
0.0
 71
     1
 72
     1
  1
SHEET 1 OF 1
  7
SLDTEXTSTYLE2
 73
     1
 44
1.0
  0
MTEXT
  5
AD
330
1F
100
AcDbEntity
  8
DIM
 62
     7
100
AcDbMText
 10
125.3098169862
 20
6.544472903
 30
0.0
 40
1.25
 41
0.0
 71
     1
 72
     1
  1
MATERIAL:
  7
SLDTEXTSTYLE1
 73
     1
 44
1.0
  0
MTEXT
  5
AE
330
1F
100
AcDbEntity
  8
DIM
 62
     7
100
AcDbMText
 10
227.1425794631
 20
169.549173217
 30
0.0
 40
1.5434027778
 41
0.0
 71
     1
 72
     1
  1
6
  7
SLDTEXTSTYLE1
 73
     1
 44
1.0
  0
MTEXT
  5
AF
330
1F
100
AcDbEntity
  8
DIM
 62
     7
100
AcDbMText
 10
185.4759127964
 20
169.549173217
 30
0.0
 40
1.5434027778
 41
0.0
 71
     1
 72
     1
  1
5
  7
SLDTEXTSTYLE1
 73
     1
 44
1.0
  0
MTEXT
  5
B0
330
1F
100
AcDbEntity
  8
DIM
 62
     7
100
AcDbMText
 10
240.4759161297
 20
150.799173217
 30
0.0
 40
1.5434027778
 41
0.0
 71
     1
 72
     1
  1
A
  7
SLDTEXTSTYLE1
 73
     1
 44
1.0
  0
MTEXT
  5
B1
330
1F
100
AcDbEntity
  8
DIM
 62
     7
100
AcDbMText
 10
240.4759161297
 20
109.1325065503
 30
0.0
 40
1.5434027778
 41
0.0
 71
     1
 72
     1
  1
B
  7
SLDTEXTSTYLE1
 73
     1
 44
1.0
  0
MTEXT
  5
B2
330
1F
100
AcDbEntity
  8
DIM
 62
     7
100
AcDbMText
 10
143.8092461297
 20
169.549173217
 30
0.0
 40
1.5434027778
 41
0.0
 71
     1
 72
     1
  1
4
  7
SLDTEXTSTYLE1
 73
     1
 44
1.0
  0
MTEXT
  5
B3
330
1F
100
AcDbEntity
  8
DIM
 62
     7
100
AcDbMText
 10
19.1564683519
 20
169.549173217
 30
0.0
 40
1.5434027778
 41
0.0
 71
     1
 72
     1
  1
1
  7
SLDTEXTSTYLE1
 73
     1
 44
1.0
  0
MTEXT
  5
B4
330
1F
100
AcDbEntity
  8
DIM
 62
     7
100
AcDbMText
 10
60.4759127964
 20
169.549173217
 30
0.0
 40
1.5434027778
 41
0.0
 71
     1
 72
     1
  1
2
  7
SLDTEXTSTYLE1
 73
     1
 44
1.0
  0
MTEXT
  5
B5
330
1F
100
AcDbEntity
  8
DIM
 62
     7
100
AcDbMText
 10
102.1425794631
 20
169.549173217
 30
0.0
 40
1.5434027778
 41
0.0
 71
     1
 72
     1
  1
3
  7
SLDTEXTSTYLE1
 73
     1
 44
1.0
  0
MTEXT
  5
B6
330
1F
100
AcDbEntity
  8
DIM
 62
     7
100
AcDbMText
 10
5.4759094631
 20
150.799173217
 30
0.0
 40
1.5434027778
 41
0.0
 71
     1
 72
     1
  1
A
  7
SLDTEXTSTYLE1
 73
     1
 44
1.0
  0
MTEXT
  5
B7
330
1F
100
AcDbEntity
  8
DIM
 62
     7
100
AcDbMText
 10
60.4759127964
 20
7.049173217
 30
0.0
 40
1.5434027778
 41
0.0
 71
     1
 72
     1
  1
2
  7
SLDTEXTSTYLE1
 73
     1
 44
1.0
  0
MTEXT
  5
B8
330
1F
100
AcDbEntity
  8
DIM
 62
     7
100
AcDbMText
 10
19.1564683519
 20
7.049173217
 30
0.0
 40
1.5434027778
 41
0.0
 71
     1
 72
     1
  1
1
  7
SLDTEXTSTYLE1
 73
     1
 44
1.0
  0
MTEXT
  5
B9
330
1F
100
AcDbEntity
  8
DIM
 62
     7
100
AcDbMText
 10
5.4759094631
 20
25.799173217
 30
0.0
 40
1.5434027778
 41
0.0
 71
     1
 72
     1
  1
D
  7
SLDTEXTSTYLE1
 73
     1
 44
1.0
  0
MTEXT
  5
BA
330
1F
100
AcDbEntity
  8
DIM
 62
     7
100
AcDbMText
 10
5.4759094631
 20
67.4658398837
 30
0.0
 40
1.5434027778
 41
0.0
 71
     1
 72
     1
  1
C
  7
SLDTEXTSTYLE1
 73
     1
 44
1.0
  0
MTEXT
  5
BB
330
1F
100
AcDbEntity
  8
DIM
 62
     7
100
AcDbMText
 10
5.4759094631
 20
109.1325065503
 30
0.0
 40
1.5434027778
 41
0.0
 71
     1
 72
     1
  1
B
  7
SLDTEXTSTYLE1
 73
     1
 44
1.0
  0
SPLINE
  5
BC
330
1F
100
AcDbEntity
  8
0
  6
Continuous
 62
     7
370
    15
100
AcDbSpline
210
0.0
220
0.0
230
1.0
 70
     8
 71
     3
 72
    14
 73
    10
 74
     0
 42
0.000000001
 43
0.00000001
 40
0.0
 40
0.0
 40
0.0
 40
0.0
 40
0.25
 40
0.25
 40
0.5
 40
0.5
 40
0.75
 40
0.75
 40
1.0
 40
1.0
 40
1.0
 40
1.0
 10
58.17732494145198
 20
87.46914216505898
 30
0.0
 10
58.17732494145198
 20
84.44969476199134
 30
0.0
 10
56.97775975800923
 20
81.55368822717328
 30
0.0
 10
52.70761628971875
 20
77.2835447588828
 30
0.0
 10
49.81160975490069
 20
76.08397957544005
 30
0.0
 10
43.7727149487654
 20
76.08397957544005
 30
0.0
 10
40.87670841394735
 20
77.2835447588828
 30
0.0
 10
36.60656494565686
 20
81.55368822717328
 30
0.0
 10
35.40699976221412
 20
84.44969476199132
 30
0.0
 10
35.40699976221412
 20
87.46914216505898
 30
0.0
  0
SPLINE
  5
BD
330
1F
100
AcDbEntity
  8
0
  6
Continuous
 62
     7
370
    15
100
AcDbSpline
210
0.0
220
0.0
230
1.0
 70
     8
 71
     3
 72
    14
 73
    10
 74
     0
 42
0.000000001
 43
0.00000001
 40
0.0
 40
0.0
 40
0.0
 40
0.0
 40
0.25
 40
0.25
 40
0.5
 40
0.5
 40
0.75
 40
0.75
 40
1.0
 40
1.0
 40
1.0
 40
1.0
 10
35.40699976221412
 20
87.46914216505898
 30
0.0
 10
35.40699976221412
 20
90.48858956812663
 30
0.0
 10
36.60656494565686
 20
93.38459610294468
 30
0.0
 10
40.87670841394735
 20
97.65473957123517
 30
0.0
 10
43.7727149487654
 20
98.85430475467791
 30
0.0
 10
49.81160975490069
 20
98.85430475467791
 30
0.0
 10
52.70761628971874
 20
97.65473957123518
 30
0.0
 10
56.97775975800923
 20
93.3845961029447
 30
0.0
 10
58.17732494145198
 20
90.48858956812664
 30
0.0
 10
58.17732494145198
 20
87.469142165059
 30
0.0
  0
CIRCLE
  5
BE
330
1F
100
AcDbEntity
  8
0
  6
Continuous
 62
     7
370
    15
100
AcDbCircle
 10
46.7921623518
 20
87.4691421651
 30
0.0
 40
12.37469537611111
  0
CIRCLE
  5
BF
330
1F
100
AcDbEntity
  8
0
  6
Continuous
 62
     7
370
    15
100
AcDbCircle
 10
46.7921623518
 20
87.4691421651
 30
0.0
 40
22.225
  0
SPLINE
  5
C0
330
1F
100
AcDbEntity
  8
0
  6
Continuous
 62
     7
370
    15
100
AcDbSpline
210
0.0
220
0.0
230
1.0
 70
     8
 71
     3
 72
    47
 73
    43
 74
     0
 42
0.000000001
 43
0.00000001
 40
0.0
 40
0.0
 40
0.0
 40
0.0
 40
0.0064865025312349
 40
0.01296380985337
 40
0.0194345944002828
 40
0.0259015366923752
 40
0.0323673220287017
 40
0.0388346371494581
 40
0.0453061668895107
 40
0.0517845908437697
 40
0.0582725800650431
 40
0.0891441960345673
 40
0.1200232680067456
 40
0.1521817332805799
 40
0.1843476847367328
 40
0.2171904233650829
 40
0.2500408074748633
 40
0.2828835463218974
 40
0.3157339306502279
 40
0.3478923965265234
 40
0.380058348585491
 40
0.4109299640647371
 40
0.4418090356811825
 40
0.5000011037081205
 40
0.5581931717350583
 40
0.5890647877041075
 40
0.6199438596767664
 40
0.6521023249505026
 40
0.6842682764067516
 40
0.7171110150349558
 40
0.7499613991448837
 40
0.7828041379918462
 40
0.8156545223202474
 40
0.8478129881964224
 40
0.8799789402555108
 40
0.9108505557348588
 40
0.9417296273512041
 40
0.9533981518059652
 40
0.9650437986324314
 40
0.976682212237819
 40
0.9883290661770261
 40
1.0
 40
1.0
 40
1.0
 40
1.0
 10
24.39216235183304
 20
87.46914216505898
 30
0.0
 10
24.39304937480583
 20
87.62122649240476
 30
0.0
 10
24.39482216331542
 20
87.9251795536877
 30
0.0
 10
24.4091908043807
 20
88.38066148367778
 30
0.0
 10
24.4321364168264
 20
88.83530961925962
 30
0.0
 10
24.4644961776084
 20
89.2891238014523
 30
0.0
 10
24.50604597894794
 20
89.74210361181203
 30
0.0
 10
24.55684610853033
 20
90.1942494729184
 30
0.0
 10
24.61687923460478
 20
90.64555870600607
 30
0.0
 10
24.68615416028116
 20
91.09604022772601
 30
0.0
 10
24.86292940686118
 20
92.10856429402185
 30
0.0
 10
25.23008199859028
 20
93.6687561838249
 30
0.0
 10
25.94214231336691
 20
95.75569241906871
 30
0.0
 10
26.86833759531787
 20
97.79084949065391
 30
0.0
 10
28.01978942315598
 20
99.76106444568046
 30
0.0
 10
29.37431317046374
 20
101.6180265950442
 30
0.0
 10
30.924934343701
 20
103.336116562946
 30
0.0
 10
32.64313814595219
 20
104.8868775036772
 30
0.0
 10
34.49993899630369
 20
106.2413210908132
 30
0.0
 10
36.47031379274908
 20
107.3928850672683
 30
0.0
 10
38.50522458597972
 20
108.3190384766758
 30
0.0
 10
40.59260075973984
 20
109.0311532505477
 30
0.0
 10
43.33357601091845
 20
109.6766497449097
 30
0.0
 10
46.79216223383771
 20
109.9949017626848
 30
0.0
 10
50.25057395249672
 20
109.6766652156248
 30
0.0
 10
52.99155457950517
 20
109.0312029280275
 30
0.0
 10
55.07877478442133
 20
108.3191676942813
 30
0.0
 10
57.11385273995259
 20
107.3929654311318
 30
0.0
 10
59.08408927489779
 20
106.2415154826128
 30
0.0
 10
60.94104553726152
 20
104.8869913174403
 30
0.0
 10
62.65913704346296
 20
103.3363698972346
 30
0.0
 10
64.20989775976369
 20
101.6181675035465
 30
0.0
 10
65.564340710862
 20
99.76136130277219
 30
0.0
 10
66.71590739954682
 20
97.7910061050716
 30
0.0
 10
67.64205076339007
 20
95.75602344808308
 30
0.0
 10
68.35420161252587
 20
93.66890516308678
 30
0.0
 10
68.74921631778223
 20
91.99034638232192
 30
0.0
 10
68.95767313638133
 20
90.73676865333518
 30
0.0
 10
69.0625955108535
 20
89.92380272219165
 30
0.0
 10
69.1369852693755
 20
89.1080630659339
 30
0.0
 10
69.18355511209371
 20
88.28952917724628
 30
0.0
 10
69.18929129736621
 20
87.74279270428096
 30
0.0
 10
69.19216235183305
 20
87.46914216505898
 30
0.0
  0
SPLINE
  5
C1
330
1F
100
AcDbEntity
  8
0
  6
Continuous
 62
     7
370
    15
100
AcDbSpline
210
0.0
220
0.0
230
1.0
 70
     8
 71
     3
 72
    47
 73
    43
 74
     0
 42
0.000000001
 43
0.00000001
 40
0.0
 40
0.0
 40
0.0
 40
0.0
 40
0.0064865025312349
 40
0.0129638098533701
 40
0.0194345944002828
 40
0.0259015366923753
 40
0.0323673220287017
 40
0.0388346371494582
 40
0.0453061668895108
 40
0.0517845908437698
 40
0.0582725800650432
 40
0.0891441960348679
 40
0.1200232680067487
 40
0.1521817332809523
 40
0.1843476847367337
 40
0.2171904233653377
 40
0.2500408074748655
 40
0.2828835463223714
 40
0.3157339306502313
 40
0.3478923965270652
 40
0.380058348585494
 40
0.4109299640652716
 40
0.441809035681186
 40
0.5000011037081241
 40
0.5581931717350622
 40
0.5890647877047878
 40
0.6199438596767669
 40
0.6521023249508722
 40
0.6842682764067528
 40
0.7171110150351738
 40
0.7499613991448828
 40
0.782804137992136
 40
0.8156545223202497
 40
0.8478129881967124
 40
0.8799789402555104
 40
0.9108505557349901
 40
0.941729627351205
 40
0.9533981518060494
 40
0.9650437986325576
 40
0.9766822122379453
 40
0.9883290661771104
 40
1.0
 40
1.0
 40
1.0
 40
1.0
 10
69.19216235183305
 20
87.46914216505898
 30
0.0
 10
69.19127532886027
 20
87.31705783771321
 30
0.0
 10
69.18950254035069
 20
87.01310477643028
 30
0.0
 10
69.17513389928538
 20
86.5576228464402
 30
0.0
 10
69.15218828683969
 20
86.10297471085836
 30
0.0
 10
69.11982852605769
 20
85.64916052866566
 30
0.0
 10
69.07827872471816
 20
85.19618071830594
 30
0.0
 10
69.02747859513576
 20
84.74403485719957
 30
0.0
 10
68.96744546906132
 20
84.2927256241119
 30
0.0
 10
68.89817054338495
 20
83.84224410239196
 30
0.0
 10
68.72139529680355
 20
82.82972003608923
 30
0.0
 10
68.35424270507724
 20
81.26952814628534
 30
0.0
 10
67.64218239029313
 20
79.18259191103473
 30
0.0
 10
66.71598710834205
 20
77.1474348394574
 30
0.0
 10
65.56453528050227
 20
75.17721988442521
 30
0.0
 10
64.21001153319956
 20
73.32025773506828
 30
0.0
 10
62.65939035995282
 20
71.60216776716022
 30
0.0
 10
60.94118655770613
 20
70.05140682643264
 30
0.0
 10
59.08438570734249
 20
68.69696323929196
 30
0.0
 10
57.11401091090553
 20
67.54539926284409
 30
0.0
 10
55.07910011766307
 20
66.61924585343294
 30
0.0
 10
52.99172394391427
 20
65.90713107956647
 30
0.0
 10
50.25074869273514
 20
65.26163458520723
 30
0.0
 10
46.79216246982857
 20
64.94338256743386
 30
0.0
 10
43.33375075115295
 20
65.26161911449235
 30
0.0
 10
40.59277012414668
 20
65.90708140209908
 30
0.0
 10
38.50554991922174
 20
66.61911663584502
 30
0.0
 10
36.47047196370557
 20
67.5453188989899
 30
0.0
 10
34.50023542875663
 20
68.6967688475124
 30
0.0
 10
32.6432791664021
 20
70.05129301268286
 30
0.0
 10
30.92518766019483
 20
71.60191443289179
 30
0.0
 10
29.37442694389561
 20
73.32011682657472
 30
0.0
 10
28.0199839927966
 20
75.17692302735712
 30
0.0
 10
26.86841730411902
 20
77.1472782250539
 30
0.0
 10
25.94227394027211
 20
79.1822608820439
 30
0.0
 10
25.23012309113835
 20
81.26937916703389
 30
0.0
 10
24.83510838588222
 20
82.94793794780085
 30
0.0
 10
24.62665156728502
 20
84.2015156767878
 30
0.0
 10
24.52172919281275
 20
85.01448160793423
 30
0.0
 10
24.44733943429069
 20
85.830221264192
 30
0.0
 10
24.40076959157244
 20
86.64875515287663
 30
0.0
 10
24.39503340629991
 20
87.195491625839
 30
0.0
 10
24.39216235183305
 20
87.46914216505898
 30
0.0
  0
SPLINE
  5
C2
330
1F
100
AcDbEntity
  8
0
  6
Continuous
 62
     7
370
    15
100
AcDbSpline
210
0.0
220
0.0
230
1.0
 70
    24
 71
     3
 72
     8
 73
     4
 74
     0
 42
0.000000001
 43
0.00000001
 40
0.0
 40
0.0
 40
0.0
 40
0.0
 40
1.0
 40
1.0
 40
1.0
 40
1.0
 10
28.29216235183306
 20
63.11446503671952
 30
0.0
 10
28.29216235183306
 20
62.98667437714124
 30
0.0
 10
28.29216235183303
 20
62.86027424988877
 30
0.0
 10
28.29216235183303
 20
62.76020857793648
 30
0.0
  0
ARC
  5
C3
330
1F
100
AcDbEntity
  8
0
  6
Continuous
 62
     7
370
    15
100
AcDbCircle
 10
46.7921623518
 20
87.4691421651
 30
0.0
 40
30.86715728752538
100
AcDbArc
 50
216.8228239927
 51
233.1771760073
  0
SPLINE
  5
C4
330
1F
100
AcDbEntity
  8
0
  6
Continuous
 62
     7
370
    15
100
AcDbSpline
210
0.0
220
0.0
230
1.0
 70
    24
 71
     3
 72
     8
 73
     4
 74
     0
 42
0.000000001
 43
0.00000001
 40
0.0
 40
0.0
 40
0.0
 40
0.0
 40
1.0
 40
1.0
 40
1.0
 40
1.0
 10
22.08322876471054
 20
68.96914216505898
 30
0.0
 10
22.18339770435402
 20
68.96914216505898
 30
0.0
 10
22.30963564036221
 20
68.96914216505898
 30
0.0
 10
22.43748522349352
 20
68.96914216505898
 30
0.0
  0
ARC
  5
C5
330
1F
100
AcDbEntity
  8
0
  6
Continuous
 62
     7
370
    15
100
AcDbCircle
 10
46.7921623518
 20
87.4691421651
 30
0.0
 40
30.58431457505076
100
AcDbArc
 50
217.220583198
 51
232.779416802
  0
ARC
  5
C6
330
1F
100
AcDbEntity
  8
0
  6
Continuous
 62
     7
370
    15
100
AcDbCircle
 10
46.7921623518
 20
87.4691421651
 30
0.0
 40
30.58431457505076
100
AcDbArc
 50
253.375724968
 51
286.624275032
  0
SPLINE
  5
C7
330
1F
100
AcDbEntity
  8
0
  6
Continuous
 62
     7
370
    15
100
AcDbSpline
210
0.0
220
0.0
230
1.0
 70
     8
 71
     3
 72
    10
 73
     6
 74
     0
 42
0.000000001
 43
0.00000001
 40
0.0
 40
0.0
 40
0.0
 40
0.0
 40
0.5
 40
0.5
 40
1.0
 40
1.0
 40
1.0
 40
1.0
 10
55.54216235183304
 20
58.16320764616567
 30
0.0
 10
55.54216235183304
 20
58.09924851045173
 30
0.0
 10
55.52832798453555
 20
58.03767144701003
 30
0.0
 10
55.486173997862
 20
57.92701880429219
 30
0.0
 10
55.45768072638881
 20
57.87731989584544
 30
0.0
 10
55.42500506430771
 20
57.83376759825952
 30
0.0
  0
ARC
  5
C8
330
1F
100
AcDbEntity
  8
0
  6
Continuous
 62
     7
370
    15
100
AcDbCircle
 10
46.7921623518
 20
87.4691421651
 30
0.0
 40
30.86715728752538
100
AcDbArc
 50
253.7590550452
 51
286.2409449548
  0
SPLINE
  5
C9
330
1F
100
AcDbEntity
  8
0
  6
Continuous
 62
     7
370
    15
100
AcDbSpline
210
0.0
220
0.0
230
1.0
 70
     8
 71
     3
 72
    10
 73
     6
 74
     0
 42
0.000000001
 43
0.00000001
 40
0.0
 40
0.0
 40
0.0
 40
0.0
 40
0.5
 40
0.5
 40
1.0
 40
1.0
 40
1.0
 40
1.0
 10
38.15931963935845
 20
57.8337675982595
 30
0.0
 10
38.12666501442925
 20
57.87729185612898
 30
0.0
 10
38.09868390001511
 20
57.92585395841259
 30
0.0
 10
38.0560376940798
 20
58.03733226603241
 30
0.0
 10
38.0421623518331
 20
58.09930355499829
 30
0.0
 10
38.0421623518331
 20
58.16320764616567
 30
0.0
  0
ARC
  5
CA
330
1F
100
AcDbEntity
  8
0
  6
Continuous
 62
     7
370
    15
100
AcDbCircle
 10
46.7921623518
 20
87.4691421651
 30
0.0
 40
30.58431457505076
100
AcDbArc
 50
73.375724968
 51
106.624275032
  0
SPLINE
  5
CB
330
1F
100
AcDbEntity
  8
0
  6
Continuous
 62
     7
370
    15
100
AcDbSpline
210
0.0
220
0.0
230
1.0
 70
     8
 71
     3
 72
    10
 73
     6
 74
     0
 42
0.000000001
 43
0.00000001
 40
0.0
 40
0.0
 40
0.0
 40
0.0
 40
0.5
 40
0.5
 40
1.0
 40
1.0
 40
1.0
 40
1.0
 10
38.04216235183304
 20
116.7750766839523
 30
0.0
 10
38.04216235183304
 20
116.8390358196662
 30
0.0
 10
38.05599671913057
 20
116.900612883108
 30
0.0
 10
38.09815070580412
 20
117.0112655258258
 30
0.0
 10
38.12664397727729
 20
117.0609644342725
 30
0.0
 10
38.15931963935839
 20
117.1045167318584
 30
0.0
  0
ARC
  5
CC
330
1F
100
AcDbEntity
  8
0
  6
Continuous
 62
     7
370
    15
100
AcDbCircle
 10
46.7921623518
 20
87.4691421651
 30
0.0
 40
30.86715728752539
100
AcDbArc
 50
73.7590550452
 51
106.2409449548
  0
SPLINE
  5
CD
330
1F
100
AcDbEntity
  8
0
  6
Continuous
 62
     7
370
    15
100
AcDbSpline
210
0.0
220
0.0
230
1.0
 70
     8
 71
     3
 72
    10
 73
     6
 74
     0
 42
0.000000001
 43
0.00000001
 40
0.0
 40
0.0
 40
0.0
 40
0.0
 40
0.5
 40
0.5
 40
1.0
 40
1.0
 40
1.0
 40
1.0
 10
55.42500506430771
 20
117.1045167318584
 30
0.0
 10
55.45765968923691
 20
117.060992473989
 30
0.0
 10
55.48564080365106
 20
117.0124303717054
 30
0.0
 10
55.52828700958636
 20
116.9009520640855
 30
0.0
 10
55.54216235183309
 20
116.8389807751197
 30
0.0
 10
55.54216235183309
 20
116.7750766839523
 30
0.0
  0
SPLINE
  5
CE
330
1F
100
AcDbEntity
  8
0
  6
Continuous
 62
     7
370
    15
100
AcDbSpline
210
0.0
220
0.0
230
1.0
 70
     8
 71
     3
 72
    31
 73
    27
 74
     0
 42
0.000000001
 43
0.00000001
 40
0.0
 40
0.0
 40
0.0
 40
0.0
 40
0.0132844560939203
 40
0.0265558208794219
 40
0.0398179176704315
 40
0.0530745777997424
 40
0.0663296373144985
 40
0.0795869336512742
 40
0.0928503023051324
 40
0.1061235735070975
 40
0.1194105689243986
 40
0.1814480130394505
 40
0.2434985490104037
 40
0.307209694423994
 40
0.3709342849308351
 40
0.5000015820302116
 40
0.6290688791295881
 40
0.6927800250021223
 40
0.7565046159609023
 40
0.8185420607584538
 40
0.8805925974112725
 40
0.9044943877008195
 40
0.9283636577015204
 40
0.9522227648280811
 40
0.9760940950502643
 40
1.0
 40
1.0
 40
1.0
 40
1.0
 10
55.54216235183306
 20
58.16320764616567
 30
0.0
 10
55.70804115477124
 20
58.21361802802097
 30
0.0
 10
56.03963529361864
 20
58.31438911428514
 30
0.0
 10
56.53349139019022
 20
58.47614317989631
 30
0.0
 10
57.02437396222464
 20
58.64554345369399
 30
0.0
 10
57.51205425076892
 20
58.82335583544867
 30
0.0
 10
57.99659323254269
 20
59.0093751493503
 30
0.0
 10
58.47797481404056
 20
59.20365663381782
 30
0.0
 10
58.95620169152962
 20
59.40618413036563
 30
0.0
 10
59.4312784703176
 20
59.61696671101031
 30
0.0
 10
60.48006570740561
 20
60.10372241308132
 30
0.0
 10
62.07007163742126
 20
60.93662766113633
 30
0.0
 10
64.14553967796742
 20
62.2446466256551
 30
0.0
 10
66.12761163362266
 20
63.72812357989461
 30
0.0
 10
68.63684812094752
 20
65.94840247454584
 30
0.0
 10
71.43017171815117
 20
69.11265394896499
 30
0.0
 10
73.66291394926729
 20
72.6943451735483
 30
0.0
 10
75.07253723150552
 20
75.73389595543493
 30
0.0
 10
75.92690587005315
 20
78.05736319730909
 30
0.0
 10
76.58654661210886
 20
80.4204783966616
 30
0.0
 10
76.95626013987267
 20
82.31838761777263
 30
0.0
 10
77.15289785761237
 20
83.73818167150418
 30
0.0
 10
77.2529266757088
 20
84.66777665722387
 30
0.0
 10
77.32385111309482
 20
85.59958503523676
 30
0.0
 10
77.36826062177632
 20
86.53362345528073
 30
0.0
 10
77.37373683753219
 20
87.15715218642937
 30
0.0
 10
77.37647692688383
 20
87.46914216505898
 30
0.0
  0
SPLINE
  5
CF
330
1F
100
AcDbEntity
  8
0
  6
Continuous
 62
     7
370
    15
100
AcDbSpline
210
0.0
220
0.0
230
1.0
 70
     8
 71
     3
 72
    22
 73
    18
 74
     0
 42
0.000000001
 43
0.00000001
 40
0.0
 40
0.0
 40
0.0
 40
0.0
 40
0.0500936294931381
 40
0.1001235566397275
 40
0.1501059026435913
 40
0.2000568347777028
 40
0.249992550826868
 40
0.2999292633826495
 40
0.349883184066359
 40
0.3998705077567667
 40
0.449907396899123
 40
0.5000099659711678
 40
0.6001296041410739
 40
0.7000588625714155
 40
0.7999272374095667
 40
0.899864461477476
 40
1.0
 40
1.0
 40
1.0
 40
1.0
 10
28.29216235183305
 20
63.11446503671952
 30
0.0
 10
28.43892027211828
 20
63.00417554758092
 30
0.0
 10
28.73224948568665
 20
62.78373682065558
 30
0.0
 10
29.17942927260428
 20
62.46331161300443
 30
0.0
 10
29.63144676391491
 20
62.15070450622925
 30
0.0
 10
30.08884244626027
 20
61.84662728432598
 30
0.0
 10
30.55147152348634
 20
61.55088961066075
 30
0.0
 10
31.01937253066653
 20
61.26354255129357
 30
0.0
 10
31.4925351501652
 20
60.98457261447172
 30
0.0
 10
31.97096122612174
 20
60.71398323415765
 30
0.0
 10
32.45465276840443
 20
60.45177462004952
 30
0.0
 10
33.10601961411901
 20
60.11362370338135
 30
0.0
 10
33.93086094310451
 20
59.71314216794789
 30
0.0
 10
34.93634630993754
 20
59.26867477612461
 30
0.0
 10
35.9567968711059
 20
58.86171226498132
 30
0.0
 10
36.99117889341849
 20
58.48884061841078
 30
0.0
 10
37.69160310947885
 20
58.27182367348925
 30
0.0
 10
38.04216235183308
 20
58.16320764616567
 30
0.0
  0
SPLINE
  5
D0
330
1F
100
AcDbEntity
  8
0
  6
Continuous
 62
     7
370
    15
100
AcDbSpline
210
0.0
220
0.0
230
1.0
 70
     8
 71
     3
 72
    43
 73
    39
 74
     0
 42
0.000000001
 43
0.00000001
 40
0.0
 40
0.0
 40
0.0
 40
0.0
 40
0.0095109916350556
 40
0.0190046239323367
 40
0.0284840481312349
 40
0.0379524296572472
 40
0.0474129450202918
 40
0.05686877865776
 40
0.0663231197377792
 40
0.0757791589386288
 40
0.0852400852205245
 40
0.0947090826060835
 40
0.1041893269856751
 40
0.1136839829635729
 40
0.1231962007603477
 40
0.1547901118112536
 40
0.1863927084008155
 40
0.2182250895792245
 40
0.2500662218550339
 40
0.3137096340347759
 40
0.3768767128430006
 40
0.4384349553552173
 40
0.5000020600078245
 40
0.5615603039225129
 40
0.6231274099053415
 40
0.6862944887135662
 40
0.749937900893308
 40
0.781770282103026
 40
0.8136114144100782
 40
0.8452053255517815
 40
0.8768079222326431
 40
0.8944566871224379
 40
0.9120548834396801
 40
0.9296228104671083
 40
0.9471808724728584
 40
0.9647495080969011
 40
0.9823491191414349
 40
1.0
 40
1.0
 40
1.0
 40
1.0
 10
38.04216235183306
 20
116.7750766839523
 30
0.0
 10
37.86316080399786
 20
116.7206113526688
 30
0.0
 10
37.50548441961588
 20
116.6117800995135
 30
0.0
 10
36.97327066111643
 20
116.4363477921026
 30
0.0
 10
36.44492046115916
 20
116.2522015845837
 30
0.0
 10
35.92069765743057
 20
116.0584583526539
 30
0.0
 10
35.40053193821975
 20
115.8553542789527
 30
0.0
 10
34.8844423468637
 20
115.6428262341319
 30
0.0
 10
34.3724240156866
 20
115.4208912058166
 30
0.0
 10
33.86447846914478
 20
115.1895446850591
 30
0.0
 10
33.36060552170346
 20
114.9487881860758
 30
0.0
 10
32.86080540162204
 20
114.69862069114
 30
0.0
 10
32.36507834848548
 20
114.4390453639769
 30
0.0
 10
31.87342409168394
 20
114.1700512153546
 30
0.0
 10
31.00894956629424
 20
113.6765013213168
 30
0.0
 10
29.7949200130392
 20
112.9183346969013
 30
0.0
 10
28.27193657749534
 20
111.832379884704
 30
0.0
 10
26.81414803023697
 20
110.6523856898612
 30
0.0
 10
24.96710835472899
 20
108.9589513787136
 30
0.0
 10
22.86443249633037
 20
106.6409670603117
 30
0.0
 10
20.72418141537772
 20
103.605042262979
 30
0.0
 10
18.98142552683408
 20
100.3713064611371
 30
0.0
 10
17.64975962839276
 20
96.98190557527032
 30
0.0
 10
16.72524354455563
 20
93.45942193115303
 30
0.0
 10
16.22453576353563
 20
89.82025147556675
 30
0.0
 10
16.16150305023996
 20
86.10611129669384
 30
0.0
 10
16.49168347324112
 20
82.99416738116321
 30
0.0
 10
16.98392112601011
 20
80.53714071725521
 30
0.0
 10
17.46475049958847
 20
78.72449571084424
 30
0.0
 10
18.0537866678271
 20
76.94896355182523
 30
0.0
 10
18.64637799435233
 20
75.4719585541644
 30
0.0
 10
19.19315989552546
 20
74.27573119865583
 30
0.0
 10
19.65687977862271
 20
73.3457553116153
 30
0.0
 10
20.15119165236559
 20
72.43372011798294
 30
0.0
 10
20.67589915198854
 20
71.5394714240874
 30
0.0
 10
21.2316787190664
 20
70.66353114818871
 30
0.0
 10
21.81600297522117
 20
69.80398353057618
 30
0.0
 10
22.23012370247234
 20
69.24769231809442
 30
0.0
 10
22.43748522349356
 20
68.96914216505898
 30
0.0
  0
SPLINE
  5
D1
330
1F
100
AcDbEntity
  8
0
  6
Continuous
 62
     7
370
    15
100
AcDbSpline
210
0.0
220
0.0
230
1.0
 70
     8
 71
     3
 72
    31
 73
    27
 74
     0
 42
0.000000001
 43
0.00000001
 40
0.0
 40
0.0
 40
0.0
 40
0.0
 40
0.0132844560931736
 40
0.0265558208781152
 40
0.0398179176687517
 40
0.0530745777978762
 40
0.0663296373126322
 40
0.0795869336495936
 40
0.0928503023038228
 40
0.1061235735063433
 40
0.1194105689243833
 40
0.1814480130365326
 40
0.2434985490103923
 40
0.3072096944238527
 40
0.3709342849308356
 40
0.5000015820302111
 40
0.6290688791295865
 40
0.6927800250010155
 40
0.7565046159609006
 40
0.8185420607578947
 40
0.8805925974112727
 40
0.9044943877007785
 40
0.9283636577014587
 40
0.9522227648280193
 40
0.976094095050223
 40
1.0
 40
1.0
 40
1.0
 40
1.0
 10
77.37647692688383
 20
87.46914216505898
 30
0.0
 10
77.37563061646702
 20
87.64250960034688
 30
0.0
 10
77.37393882963903
 20
87.98907362414381
 30
0.0
 10
77.36023529513807
 20
88.5085641774574
 30
0.0
 10
77.33835444427069
 20
89.0273930323219
 30
0.0
 10
77.30749694412057
 20
89.5455601111843
 30
0.0
 10
77.26787683954187
 20
90.06306514238301
 30
0.0
 10
77.21943659674031
 20
90.57990850849808
 30
0.0
 10
77.16219247018715
 20
91.09608817024495
 30
0.0
 10
77.09613708461514
 20
91.61161113588888
 30
0.0
 10
76.92977918262083
 20
92.75581864791319
 30
0.0
 10
76.5865799016102
 20
94.51765412924297
 30
0.0
 10
75.92701394274545
 20
96.88058746405514
 30
0.0
 10
75.07260379060274
 20
99.20422607693365
 30
0.0
 10
73.66300775303564
 20
102.2437893893577
 30
0.0
 10
71.43017154324171
 20
105.8256306159196
 30
0.0
 10
68.63696479138132
 20
108.9897491250957
 30
0.0
 10
66.12774810539567
 20
111.2100505407295
 30
0.0
 10
64.14582848084613
 20
112.6934386883113
 30
0.0
 10
62.07020757247606
 20
114.0015813406235
 30
0.0
 10
60.35740116446507
 20
114.8988225082394
 30
0.0
 10
59.05320938861084
 20
115.49343612973
 30
0.0
 10
58.19108780803649
 20
115.855235773499
 30
0.0
 10
57.31851875249701
 20
116.1897807965804
 30
0.0
 10
56.43622709581189
 20
116.4995571790322
 30
0.0
 10
55.84032767707134
 20
116.6831925521294
 30
0.0
 10
55.54216235183308
 20
116.7750766839523
 30
0.0
  0
ARC
  5
D2
330
1F
100
AcDbEntity
  8
0
  6
Continuous
 62
     7
370
    15
100
AcDbCircle
 10
46.7921623518
 20
87.4691421651
 30
0.0
 40
30.86715728752539
100
AcDbArc
 50
106.2409449548
 51
216.8228239927
  0
ARC
  5
D3
330
1F
100
AcDbEntity
  8
0
  6
Continuous
 62
     7
370
    15
100
AcDbCircle
 10
46.7921623518
 20
87.4691421651
 30
0.0
 40
30.86715728752538
100
AcDbArc
 50
286.2409449548
 51
73.7590550452
  0
ARC
  5
D4
330
1F
100
AcDbEntity
  8
0
  6
Continuous
 62
     7
370
    15
100
AcDbCircle
 10
46.7921623518
 20
87.4691421651
 30
0.0
 40
30.86715728752538
100
AcDbArc
 50
233.1771760073
 51
253.7590550452
  0
ARC
  5
D5
330
1F
100
AcDbEntity
  8
0
  6
Continuous
 62
     7
370
    15
100
AcDbCircle
 10
46.7921623518
 20
87.4691421651
 30
0.0
 40
31.63284271247469
100
AcDbArc
 50
234.208651263
 51
254.4024500298
  0
ARC
  5
D6
330
1F
100
AcDbEntity
  8
0
  6
Continuous
 62
     7
370
    15
100
AcDbCircle
 10
46.7921623518
 20
87.4691421651
 30
0.0
 40
31.63284271247462
100
AcDbArc
 50
215.791348737
 51
234.208651263
  0
ARC
  5
D7
330
1F
100
AcDbEntity
  8
0
  6
Continuous
 62
     7
370
    15
100
AcDbCircle
 10
46.7921623518
 20
87.4691421651
 30
0.0
 40
31.63284271247463
100
AcDbArc
 50
105.733481737
 51
215.791348737
  0
ARC
  5
D8
330
1F
100
AcDbEntity
  8
0
  6
Continuous
 62
     7
370
    15
100
AcDbCircle
 10
46.7921623518
 20
87.4691421651
 30
0.0
 40
31.63284271247463
100
AcDbArc
 50
74.4024500298
 51
105.733481737
  0
ARC
  5
D9
330
1F
100
AcDbEntity
  8
0
  6
Continuous
 62
     7
370
    15
100
AcDbCircle
 10
46.7921623518
 20
87.4691421651
 30
0.0
 40
31.63284271247463
100
AcDbArc
 50
285.733481737
 51
74.4024500298
  0
ARC
  5
DA
330
1F
100
AcDbEntity
  8
0
  6
Continuous
 62
     7
370
    15
100
AcDbCircle
 10
46.7921623518
 20
87.4691421651
 30
0.0
 40
31.63284271247464
100
AcDbArc
 50
254.4024500298
 51
285.733481737
  0
SPLINE
  5
DB
330
1F
100
AcDbEntity
  8
0
  6
Continuous
 62
     7
370
    15
100
AcDbSpline
210
0.0
220
0.0
230
1.0
 70
    24
 71
     3
 72
    10
 73
     6
 74
     0
 42
0.000000001
 43
0.00000001
 40
0.0
 40
0.0
 40
0.0
 40
0.0
 40
0.5
 40
0.5
 40
1.0
 40
1.0
 40
1.0
 40
1.0
 10
38.21450694331469
 20
117.9168114644467
 30
0.0
 10
38.17471285959999
 20
117.9400770962518
 30
0.0
 10
38.13987819168656
 20
117.9604432030213
 30
0.0
 10
38.089311058153
 20
117.9900073040236
 30
0.0
 10
38.07425531449081
 20
117.9988096524107
 30
0.0
 10
38.07425531449081
 20
117.9988096524107
 30
0.0
  0
ARC
  5
DC
330
1F
100
AcDbEntity
  8
0
  6
Continuous
 62
     7
370
    15
100
AcDbCircle
 10
46.7921623518
 20
87.4691421651
 30
0.0
 40
31.75
100
AcDbArc
 50
74.2833781213
 51
105.9369715324
  0
SPLINE
  5
DD
330
1F
100
AcDbEntity
  8
0
  6
Continuous
 62
     7
370
    15
100
AcDbSpline
210
0.0
220
0.0
230
1.0
 70
    24
 71
     3
 72
     8
 73
     4
 74
     0
 42
0.000000001
 43
0.00000001
 40
0.0
 40
0.0
 40
0.0
 40
0.0
 40
1.0
 40
1.0
 40
1.0
 40
1.0
 10
55.39259338971876
 20
118.0321113592092
 30
0.0
 10
55.39259338971876
 20
118.0321113592092
 30
0.0
 10
55.35535932889417
 20
117.9948772983846
 30
0.0
 10
55.29755790543646
 20
117.9370758749268
 30
0.0
  0
SPLINE
  5
DE
330
1F
100
AcDbEntity
  8
0
  6
Continuous
 62
     7
370
    15
100
AcDbSpline
210
0.0
220
0.0
230
1.0
 70
    24
 71
     3
 72
     8
 73
     4
 74
     0
 42
0.000000001
 43
0.00000001
 40
0.0
 40
0.0
 40
0.0
 40
0.0
 40
1.0
 40
1.0
 40
1.0
 40
1.0
 10
28.29216235183305
 20
61.8100942857599
 30
0.0
 10
28.29216235183305
 20
61.72448070444266
 30
0.0
 10
28.29216235183306
 20
61.66579935836044
 30
0.0
 10
28.29216235183306
 20
61.66579935836046
 30
0.0
  0
ARC
  5
DF
330
1F
100
AcDbEntity
  8
0
  6
Continuous
 62
     7
370
    15
100
AcDbCircle
 10
46.7921623518
 20
87.4691421651
 30
0.0
 40
31.75000000000001
100
AcDbArc
 50
215.6390613326
 51
234.3609386674
  0
SPLINE
  5
E0
330
1F
100
AcDbEntity
  8
0
  6
Continuous
 62
     7
370
    15
100
AcDbSpline
210
0.0
220
0.0
230
1.0
 70
    24
 71
     3
 72
     8
 73
     4
 74
     0
 42
0.000000001
 43
0.00000001
 40
0.0
 40
0.0
 40
0.0
 40
0.0
 40
1.0
 40
1.0
 40
1.0
 40
1.0
 10
20.98881954513453
 20
68.96914216505898
 30
0.0
 10
20.98881954513454
 20
68.96914216505898
 30
0.0
 10
21.04754375367937
 20
68.96914216505898
 30
0.0
 10
21.13311447253403
 20
68.96914216505898
 30
0.0
  0
SPLINE
  5
E1
330
1F
100
AcDbEntity
  8
0
  6
Continuous
 62
     7
370
    15
100
AcDbSpline
210
0.0
220
0.0
230
1.0
 70
    24
 71
     3
 72
    10
 73
     6
 74
     0
 42
0.000000001
 43
0.00000001
 40
0.0
 40
0.0
 40
0.0
 40
0.0
 40
0.5
 40
0.5
 40
1.0
 40
1.0
 40
1.0
 40
1.0
 10
55.36981776035147
 20
57.02147286567133
 30
0.0
 10
55.40961184406617
 20
56.99820723386615
 30
0.0
 10
55.44444651197962
 20
56.97784112709667
 30
0.0
 10
55.49501364551316
 20
56.94827702609438
 30
0.0
 10
55.51006938917534
 20
56.93947467770732
 30
0.0
 10
55.51006938917534
 20
56.93947467770732
 30
0.0
  0
ARC
  5
E2
330
1F
100
AcDbEntity
  8
0
  6
Continuous
 62
     7
370
    15
100
AcDbCircle
 10
46.7921623518
 20
87.4691421651
 30
0.0
 40
31.75
100
AcDbArc
 50
254.2833781213
 51
285.9369715324
  0
SPLINE
  5
E3
330
1F
100
AcDbEntity
  8
0
  6
Continuous
 62
     7
370
    15
100
AcDbSpline
210
0.0
220
0.0
230
1.0
 70
    24
 71
     3
 72
     8
 73
     4
 74
     0
 42
0.000000001
 43
0.00000001
 40
0.0
 40
0.0
 40
0.0
 40
0.0
 40
1.0
 40
1.0
 40
1.0
 40
1.0
 10
38.19173131394742
 20
56.9061729709088
 30
0.0
 10
38.19173131394742
 20
56.9061729709088
 30
0.0
 10
38.228965374772
 20
56.94340703173337
 30
0.0
 10
38.28676679822971
 20
57.00120845519108
 30
0.0
  0
ARC
  5
E4
330
1F
100
AcDbEntity
  8
0
  6
Continuous
 62
     7
370
    15
100
AcDbCircle
 10
46.7921623518
 20
87.4691421651
 30
0.0
 40
31.75
100
AcDbArc
 50
285.9369715324
 51
74.2833781213
  0
ARC
  5
E5
330
1F
100
AcDbEntity
  8
0
  6
Continuous
 62
     7
370
    15
100
AcDbCircle
 10
46.7921623518
 20
87.4691421651
 30
0.0
 40
31.75000000000001
100
AcDbArc
 50
105.9369715324
 51
215.6390613326
  0
ARC
  5
E6
330
1F
100
AcDbEntity
  8
0
  6
Continuous
 62
     7
370
    15
100
AcDbCircle
 10
46.7921623518
 20
87.4691421651
 30
0.0
 40
31.75
100
AcDbArc
 50
234.3609386674
 51
254.2833781213
  0
INSERT
  5
F2
330
1F
100
AcDbEntity
  8
DIM
100
AcDbBlockReference
  2
SW_CENTERMARKSYMBOL_0
 10
46.7921623518
 20
87.4691421651
 30
0.0
  0
LINE
  5
F3
330
1F
100
AcDbEntity
  8
0
  6
Continuous
 62
     7
370
    15
100
AcDbLine
 10
178.1111131492
 20
55.7191421651
 30
0.0
 11
181.4235910822
 21
55.7191421651
 31
0.0
  0
LINE
  5
F4
330
1F
100
AcDbEntity
  8
0
  6
Continuous
 62
     7
370
    15
100
AcDbLine
 10
181.4235910822
 20
119.2191421651
 30
0.0
 11
178.1111131492
 21
119.2191421651
 31
0.0
  0
LINE
  5
F5
330
1F
100
AcDbEntity
  8
0
  6
Continuous
 62
     7
370
    15
100
AcDbLine
 10
178.1111131492
 20
119.2191421651
 30
0.0
 11
176.4892765072
 21
116.4100386994
 31
0.0
  0
LINE
  5
F6
330
1F
100
AcDbEntity
  8
0
  6
Continuous
 62
     7
370
    15
100
AcDbLine
 10
176.4892765072
 20
58.5282456307
 30
0.0
 11
178.1111131492
 21
55.7191421651
 31
0.0
  0
LINE
  5
F7
330
1F
100
AcDbEntity
  8
0
  6
Continuous
 62
     7
370
    15
100
AcDbLine
 10
171.0674398651
 20
55.7191421651
 30
0.0
 11
172.6892765072
 21
58.5282456307
 31
0.0
  0
LINE
  5
F8
330
1F
100
AcDbEntity
  8
0
  6
Continuous
 62
     7
370
    15
100
AcDbLine
 10
172.6892765072
 20
116.4100386994
 30
0.0
 11
171.0674398651
 21
119.2191421651
 31
0.0
  0
LINE
  5
F9
330
1F
100
AcDbEntity
  8
0
  6
Continuous
 62
     7
370
    15
100
AcDbLine
 10
167.8549619321
 20
55.7191421651
 30
0.0
 11
171.0674398651
 21
55.7191421651
 31
0.0
  0
LINE
  5
FA
330
1F
100
AcDbEntity
  8
0
  6
Continuous
 62
     7
370
    15
100
AcDbLine
 10
171.0674398651
 20
119.2191421651
 30
0.0
 11
167.8549619321
 21
119.2191421651
 31
0.0
  0
LINE
  5
FB
330
1F
100
AcDbEntity
  8
0
  6
Continuous
 62
     7
370
    15
100
AcDbLine
 10
181.7064337947
 20
55.8362994526
 30
0.0
 11
182.4721192197
 21
56.6019848775
 31
0.0
  0
LINE
  5
FC
330
1F
100
AcDbEntity
  8
0
  6
Continuous
 62
     7
370
    15
100
AcDbLine
 10
182.4721192197
 20
118.3362994526
 30
0.0
 11
181.7064337947
 21
119.1019848775
 31
0.0
  0
LINE
  5
FD
330
1F
100
AcDbEntity
  8
0
  6
Continuous
 62
     7
370
    15
100
AcDbLine
 10
167.5721192197
 20
119.1019848775
 30
0.0
 11
166.8064337947
 21
118.3362994526
 31
0.0
  0
LINE
  5
FE
330
1F
100
AcDbEntity
  8
0
  6
Continuous
 62
     7
370
    15
100
AcDbLine
 10
166.8064337947
 20
56.6019848775
 30
0.0
 11
167.5721192197
 21
55.8362994526
 31
0.0
  0
LINE
  5
FF
330
1F
100
AcDbEntity
  8
0
  6
Continuous
 62
     7
370
    15
100
AcDbLine
 10
172.6892765072
 20
59.4691421651
 30
0.0
 11
176.4892765072
 21
59.4691421651
 31
0.0
  0
LINE
  5
100
330
1F
100
AcDbEntity
  8
0
  6
Continuous
 62
     7
370
    15
100
AcDbLine
 10
176.4892765072
 20
115.4691421651
 30
0.0
 11
172.6892765072
 21
115.4691421651
 31
0.0
  0
ARC
  5
101
330
1F
100
AcDbEntity
  8
0
  6
Continuous
 62
     7
370
    15
100
AcDbCircle
 10
166.2892765072
 20
65.0691421651
 30
0.0
 40
0.4000000000000057
100
AcDbArc
 50
0.0
 51
90.0
  0
ARC
  5
102
330
1F
100
AcDbEntity
  8
0
  6
Continuous
 62
     7
370
    15
100
AcDbCircle
 10
166.2892765072
 20
109.8691421651
 30
0.0
 40
0.3999999999999773
100
AcDbArc
 50
270.0
 51
0.0
  0
LINE
  5
103
330
1F
100
AcDbEntity
  8
0
  6
Continuous
 62
     7
370
    15
100
AcDbLine
 10
163.4892765072
 20
109.6941421651
 30
0.0
 11
95.9449682799
 21
99.8438375412
 31
0.0
  0
LINE
  5
104
330
1F
100
AcDbEntity
  8
0
  6
Continuous
 62
     7
370
    15
100
AcDbLine
 10
95.9449682799
 20
75.0944467889
 30
0.0
 11
163.4892765072
 21
65.2441421651
 31
0.0
  0
LINE
  5
105
330
1F
100
AcDbEntity
  8
0
  6
Continuous
 62
     7
370
    15
100
AcDbLine
 10
163.4892765072
 20
65.2441421651
 30
0.0
 11
163.9717905643
 21
65.4691421651
 31
0.0
  0
LINE
  5
106
330
1F
100
AcDbEntity
  8
0
  6
Continuous
 62
     7
370
    15
100
AcDbLine
 10
163.9717905643
 20
109.4691421651
 30
0.0
 11
163.4892765072
 21
109.6941421651
 31
0.0
  0
LINE
  5
107
330
1F
100
AcDbEntity
  8
0
  6
Continuous
 62
     7
370
    15
100
AcDbLine
 10
163.9717905643
 20
65.4691421651
 30
0.0
 11
166.2892765072
 21
65.4691421651
 31
0.0
  0
LINE
  5
108
330
1F
100
AcDbEntity
  8
0
  6
Continuous
 62
     7
370
    15
100
AcDbLine
 10
166.2892765072
 20
109.4691421651
 30
0.0
 11
163.9717905643
 21
109.4691421651
 31
0.0
  0
ARC
  5
109
330
1F
100
AcDbEntity
  8
0
  6
Continuous
 62
     7
370
    15
100
AcDbCircle
 10
184.5892765072
 20
101.9691421651
 30
0.0
 40
2.000000000000028
100
AcDbArc
 50
180.0
 51
270.0
  0
ARC
  5
10A
330
1F
100
AcDbEntity
  8
0
  6
Continuous
 62
     7
370
    15
100
AcDbCircle
 10
184.5892765072
 20
72.9691421651
 30
0.0
 40
2.000000000000028
100
AcDbArc
 50
90.0
 51
180.0
  0
LINE
  5
10B
330
1F
100
AcDbEntity
  8
0
  6
Continuous
 62
     7
370
    15
100
AcDbLine
 10
212.6232511034
 20
74.9691421651
 30
0.0
 11
213.4892765072
 21
76.4691421651
 31
0.0
  0
LINE
  5
10C
330
1F
100
AcDbEntity
  8
0
  6
Continuous
 62
     7
370
    15
100
AcDbLine
 10
213.4892765072
 20
98.4691421651
 30
0.0
 11
212.6232511034
 21
99.9691421651
 31
0.0
  0
LINE
  5
10D
330
1F
100
AcDbEntity
  8
0
  6
Continuous
 62
     7
370
    15
100
AcDbLine
 10
184.5892765072
 20
74.9691421651
 30
0.0
 11
212.6232511034
 21
74.9691421651
 31
0.0
  0
LINE
  5
10E
330
1F
100
AcDbEntity
  8
0
  6
Continuous
 62
     7
370
    15
100
AcDbLine
 10
212.6232511034
 20
99.9691421651
 30
0.0
 11
184.5892765072
 21
99.9691421651
 31
0.0
  0
ARC
  5
10F
330
1F
100
AcDbEntity
  8
0
  6
Continuous
 62
     7
370
    15
100
AcDbCircle
 10
96.0892765072
 20
76.0839795754
 30
0.0
 40
1.000000000000002
100
AcDbArc
 50
180.0
 51
261.7027777778
  0
ARC
  5
110
330
1F
100
AcDbEntity
  8
0
  6
Continuous
 62
     7
370
    15
100
AcDbCircle
 10
96.0892765072
 20
98.8543047547
 30
0.0
 40
1.000000000000002
100
AcDbArc
 50
98.2972222222
 51
180.0
  0
ARC
  5
111
330
1F
100
AcDbEntity
  8
0
  6
Continuous
 62
     7
370
    15
100
AcDbCircle
 10
167.0892765072
 20
118.0534567401
 30
0.0
 40
0.4000000000000093
100
AcDbArc
 50
135.0
 51
180.0
  0
ARC
  5
112
330
1F
100
AcDbEntity
  8
0
  6
Continuous
 62
     7
370
    15
100
AcDbCircle
 10
167.0892765072
 20
56.88482759
 30
0.0
 40
0.4000000000000093
100
AcDbArc
 50
180.0
 51
225.0
  0
ARC
  5
113
330
1F
100
AcDbEntity
  8
0
  6
Continuous
 62
     7
370
    15
100
AcDbCircle
 10
167.8549619321
 20
56.1191421651
 30
0.0
 40
0.4000000000000093
100
AcDbArc
 50
225.0
 51
270.0
  0
ARC
  5
114
330
1F
100
AcDbEntity
  8
0
  6
Continuous
 62
     7
370
    15
100
AcDbCircle
 10
181.4235910822
 20
56.1191421651
 30
0.0
 40
0.3999999999999915
100
AcDbArc
 50
270.0
 51
315.0
  0
ARC
  5
115
330
1F
100
AcDbEntity
  8
0
  6
Continuous
 62
     7
370
    15
100
AcDbCircle
 10
181.4235910822
 20
118.8191421651
 30
0.0
 40
0.3999999999999915
100
AcDbArc
 50
45.0
 51
90.0
  0
ARC
  5
116
330
1F
100
AcDbEntity
  8
0
  6
Continuous
 62
     7
370
    15
100
AcDbCircle
 10
167.8549619321
 20
118.8191421651
 30
0.0
 40
0.4000000000000093
100
AcDbArc
 50
90.0
 51
135.0
  0
ARC
  5
117
330
1F
100
AcDbEntity
  8
0
  6
Continuous
 62
     7
370
    15
100
AcDbCircle
 10
182.1892765072
 20
56.88482759
 30
0.0
 40
0.4000000000000093
100
AcDbArc
 50
315.0
 51
0.0
  0
ARC
  5
118
330
1F
100
AcDbEntity
  8
0
  6
Continuous
 62
     7
370
    15
100
AcDbCircle
 10
182.1892765072
 20
118.0534567401
 30
0.0
 40
0.4000000000000093
100
AcDbArc
 50
0.0
 51
45.0
  0
SPLINE
  5
119
330
1F
100
AcDbEntity
  8
0
  6
Continuous
 62
     7
370
    15
100
AcDbSpline
210
0.0
220
0.0
230
1.0
 70
     8
 71
     3
 72
     8
 73
     4
 74
     0
 42
0.000000001
 43
0.00000001
 40
0.0
 40
0.0
 40
0.0
 40
0.0
 40
1.0
 40
1.0
 40
1.0
 40
1.0
 10
181.7064337947163
 20
117.9370758749268
 30
0.0
 10
181.6351884952406
 20
117.9949023782025
 30
0.0
 10
181.5322801315235
 20
118.0321113592092
 30
0.0
 10
181.4235910822417
 20
118.0321113592092
 30
0.0
  0
LINE
  5
11A
330
1F
100
AcDbEntity
  8
0
  6
Continuous
 62
     7
370
    15
100
AcDbLine
 10
181.7064337947
 20
117.9370758749
 30
0.0
 11
181.7064337947
 21
57.0214728657
 31
0.0
  0
SPLINE
  5
11B
330
1F
100
AcDbEntity
  8
0
  6
Continuous
 62
     7
370
    15
100
AcDbSpline
210
0.0
220
0.0
230
1.0
 70
     8
 71
     3
 72
    10
 73
     6
 74
     0
 42
0.000000001
 43
0.00000001
 40
0.0
 40
0.0
 40
0.0
 40
0.0
 40
0.5
 40
0.5
 40
1.0
 40
1.0
 40
1.0
 40
1.0
 10
181.4235910822417
 20
56.9394746777073
 30
0.0
 10
181.4806660222018
 20
56.9394746777073
 30
0.0
 10
181.5360580502363
 20
56.94824535525611
 30
0.0
 10
181.6323069547168
 20
56.97775364387084
 30
0.0
 10
181.6732343476837
 20
56.99819684612454
 30
0.0
 10
181.7064337947163
 20
57.02147286567133
 30
0.0
  0
LINE
  5
11C
330
1F
100
AcDbEntity
  8
0
  6
Continuous
 62
     7
370
    15
100
AcDbLine
 10
181.4235910822
 20
56.9394746777
 30
0.0
 11
181.4235910822
 21
118.0321113592
 31
0.0
  0
LINE
  5
11D
330
1F
100
AcDbEntity
  8
0
  6
Continuous
 62
     7
370
    15
100
AcDbLine
 10
167.8549619321
 20
56.9394746777
 30
0.0
 11
167.8549619321
 21
118.0321113592
 31
0.0
  0
SPLINE
  5
11E
330
1F
100
AcDbEntity
  8
0
  6
Continuous
 62
     7
370
    15
100
AcDbSpline
210
0.0
220
0.0
230
1.0
 70
     8
 71
     3
 72
    10
 73
     6
 74
     0
 42
0.000000001
 43
0.00000001
 40
0.0
 40
0.0
 40
0.0
 40
0.0
 40
0.5
 40
0.5
 40
1.0
 40
1.0
 40
1.0
 40
1.0
 10
167.5721192196656
 20
57.02147286567133
 30
0.0
 10
167.6053038502784
 20
56.99820723386615
 30
0.0
 10
167.6460303987192
 20
56.97784112709667
 30
0.0
 10
167.7423222538104
 20
56.94827702609438
 30
0.0
 10
167.7978883230971
 20
56.93947467770732
 30
0.0
 10
167.8549619321402
 20
56.93947467770732
 30
0.0
  0
LINE
  5
11F
330
1F
100
AcDbEntity
  8
0
  6
Continuous
 62
     7
370
    15
100
AcDbLine
 10
167.5721192197
 20
57.0214728657
 30
0.0
 11
167.5721192197
 21
117.9370758749
 31
0.0
  0
SPLINE
  5
120
330
1F
100
AcDbEntity
  8
0
  6
Continuous
 62
     7
370
    15
100
AcDbSpline
210
0.0
220
0.0
230
1.0
 70
     8
 71
     3
 72
     8
 73
     4
 74
     0
 42
0.000000001
 43
0.00000001
 40
0.0
 40
0.0
 40
0.0
 40
0.0
 40
1.0
 40
1.0
 40
1.0
 40
1.0
 10
167.8549619321402
 20
118.0321113592092
 30
0.0
 10
167.7463829399572
 20
118.0321113592092
 30
0.0
 10
167.6433336194839
 20
117.9948772983846
 30
0.0
 10
167.5721192196656
 20
117.9370758749268
 30
0.0
  0
LINE
  5
121
330
1F
100
AcDbEntity
  8
0
  6
Continuous
 62
     7
370
    15
100
AcDbLine
 10
178.1111131492
 20
56.9394746777
 30
0.0
 11
178.1111131492
 21
119.2191421651
 31
0.0
  0
LINE
  5
122
330
1F
100
AcDbEntity
  8
0
  6
Continuous
 62
     7
370
    15
100
AcDbLine
 10
178.1111131492
 20
55.7191421651
 30
0.0
 11
178.1111131492
 21
56.9394746777
 31
0.0
  0
LINE
  5
123
330
1F
100
AcDbEntity
  8
0
  6
Continuous
 62
     7
370
    15
100
AcDbLine
 10
176.4892765072
 20
116.4100386994
 30
0.0
 11
176.4892765072
 21
58.5282456307
 31
0.0
  0
LINE
  5
124
330
1F
100
AcDbEntity
  8
0
  6
Continuous
 62
     7
370
    15
100
AcDbLine
 10
172.6892765072
 20
58.5282456307
 30
0.0
 11
172.6892765072
 21
116.4100386994
 31
0.0
  0
LINE
  5
125
330
1F
100
AcDbEntity
  8
0
  6
Continuous
 62
     7
370
    15
100
AcDbLine
 10
171.0674398651
 20
118.0321113592
 30
0.0
 11
171.0674398651
 21
119.2191421651
 31
0.0
  0
LINE
  5
126
330
1F
100
AcDbEntity
  8
0
  6
Continuous
 62
     7
370
    15
100
AcDbLine
 10
171.0674398651
 20
55.7191421651
 30
0.0
 11
171.0674398651
 21
118.0321113592
 31
0.0
  0
LINE
  5
127
330
1F
100
AcDbEntity
  8
0
  6
Continuous
 62
     7
370
    15
100
AcDbLine
 10
182.4721192197
 20
117.2681169631
 30
0.0
 11
182.4721192197
 21
57.670167367
 31
0.0
  0
LINE
  5
128
330
1F
100
AcDbEntity
  8
0
  6
Continuous
 62
     7
370
    15
100
AcDbLine
 10
166.8064337947
 20
57.8337675983
 30
0.0
 11
166.8064337947
 21
117.1045167319
 31
0.0
  0
SPLINE
  5
129
330
1F
100
AcDbEntity
  8
0
  6
Continuous
 62
     7
370
    15
100
AcDbSpline
210
0.0
220
0.0
230
1.0
 70
     8
 71
     3
 72
    10
 73
     6
 74
     0
 42
0.000000001
 43
0.00000001
 40
0.0
 40
0.0
 40
0.0
 40
0.0
 40
0.5
 40
0.5
 40
1.0
 40
1.0
 40
1.0
 40
1.0
 10
166.6892765071909
 20
58.16320764616567
 30
0.0
 10
166.6892765071909
 20
58.09924851045173
 30
0.0
 10
166.7031108744885
 20
58.03767144701003
 30
0.0
 10
166.745264861162
 20
57.92701880429219
 30
0.0
 10
166.7737581326352
 20
57.87731989584544
 30
0.0
 10
166.8064337947163
 20
57.83376759825952
 30
0.0
  0
SPLINE
  5
12A
330
1F
100
AcDbEntity
  8
0
  6
Continuous
 62
     7
370
    15
100
AcDbSpline
210
0.0
220
0.0
230
1.0
 70
    24
 71
     3
 72
    31
 73
    27
 74
     0
 42
0.000000001
 43
0.00000001
 40
0.0
 40
0.0
 40
0.0
 40
0.0
 40
0.0132844560939203
 40
0.0265558208794219
 40
0.0398179176704315
 40
0.0530745777997424
 40
0.0663296373144985
 40
0.0795869336512742
 40
0.0928503023051324
 40
0.1061235735070975
 40
0.1194105689243986
 40
0.1814480130394505
 40
0.2434985490104037
 40
0.307209694423994
 40
0.3709342849308351
 40
0.5000015820302116
 40
0.6290688791295881
 40
0.6927800250021223
 40
0.7565046159609023
 40
0.8185420607584538
 40
0.8805925974112725
 40
0.9044943877008195
 40
0.9283636577015204
 40
0.9522227648280811
 40
0.9760940950502643
 40
1.0
 40
1.0
 40
1.0
 40
1.0
 10
166.6892765071909
 20
58.16320764616567
 30
0.0
 10
166.6892765071909
 20
58.21361802802097
 30
0.0
 10
166.6892765071909
 20
58.31438911428514
 30
0.0
 10
166.6892765071909
 20
58.47614317989631
 30
0.0
 10
166.6892765071909
 20
58.64554345369399
 30
0.0
 10
166.689276507191
 20
58.82335583544867
 30
0.0
 10
166.6892765071909
 20
59.0093751493503
 30
0.0
 10
166.6892765071909
 20
59.20365663381782
 30
0.0
 10
166.6892765071909
 20
59.40618413036563
 30
0.0
 10
166.689276507191
 20
59.61696671101031
 30
0.0
 10
166.6892765071909
 20
60.10372241308132
 30
0.0
 10
166.6892765071909
 20
60.93662766113633
 30
0.0
 10
166.6892765071909
 20
62.2446466256551
 30
0.0
 10
166.6892765071909
 20
63.72812357989461
 30
0.0
 10
166.6892765071909
 20
65.94840247454584
 30
0.0
 10
166.689276507191
 20
69.11265394896499
 30
0.0
 10
166.6892765071909
 20
72.6943451735483
 30
0.0
 10
166.689276507191
 20
75.73389595543493
 30
0.0
 10
166.6892765071909
 20
78.05736319730909
 30
0.0
 10
166.6892765071909
 20
80.4204783966616
 30
0.0
 10
166.6892765071909
 20
82.31838761777263
 30
0.0
 10
166.6892765071909
 20
83.73818167150418
 30
0.0
 10
166.6892765071909
 20
84.66777665722387
 30
0.0
 10
166.6892765071909
 20
85.59958503523676
 30
0.0
 10
166.689276507191
 20
86.53362345528073
 30
0.0
 10
166.6892765071909
 20
87.15715218642937
 30
0.0
 10
166.6892765071909
 20
87.46914216505898
 30
0.0
  0
SPLINE
  5
12B
330
1F
100
AcDbEntity
  8
0
  6
Continuous
 62
     7
370
    15
100
AcDbSpline
210
0.0
220
0.0
230
1.0
 70
    24
 71
     3
 72
    31
 73
    27
 74
     0
 42
0.000000001
 43
0.00000001
 40
0.0
 40
0.0
 40
0.0
 40
0.0
 40
0.0132844560931736
 40
0.0265558208781152
 40
0.0398179176687517
 40
0.0530745777978762
 40
0.0663296373126322
 40
0.0795869336495936
 40
0.0928503023038228
 40
0.1061235735063433
 40
0.1194105689243833
 40
0.1814480130365326
 40
0.2434985490103923
 40
0.3072096944238527
 40
0.3709342849308356
 40
0.5000015820302111
 40
0.6290688791295865
 40
0.6927800250010155
 40
0.7565046159609006
 40
0.8185420607578947
 40
0.8805925974112727
 40
0.9044943877007785
 40
0.9283636577014587
 40
0.9522227648280193
 40
0.976094095050223
 40
1.0
 40
1.0
 40
1.0
 40
1.0
 10
166.6892765071909
 20
87.46914216505898
 30
0.0
 10
166.6892765071909
 20
87.64250960034688
 30
0.0
 10
166.6892765071909
 20
87.98907362414381
 30
0.0
 10
166.6892765071909
 20
88.5085641774574
 30
0.0
 10
166.689276507191
 20
89.0273930323219
 30
0.0
 10
166.6892765071909
 20
89.5455601111843
 30
0.0
 10
166.6892765071909
 20
90.06306514238301
 30
0.0
 10
166.6892765071909
 20
90.57990850849808
 30
0.0
 10
166.689276507191
 20
91.09608817024495
 30
0.0
 10
166.6892765071909
 20
91.61161113588888
 30
0.0
 10
166.689276507191
 20
92.75581864791319
 30
0.0
 10
166.6892765071909
 20
94.51765412924297
 30
0.0
 10
166.689276507191
 20
96.88058746405514
 30
0.0
 10
166.6892765071909
 20
99.20422607693365
 30
0.0
 10
166.6892765071909
 20
102.2437893893577
 30
0.0
 10
166.6892765071909
 20
105.8256306159196
 30
0.0
 10
166.6892765071909
 20
108.9897491250957
 30
0.0
 10
166.6892765071909
 20
111.2100505407295
 30
0.0
 10
166.6892765071909
 20
112.6934386883113
 30
0.0
 10
166.6892765071909
 20
114.0015813406235
 30
0.0
 10
166.6892765071909
 20
114.8988225082394
 30
0.0
 10
166.6892765071909
 20
115.49343612973
 30
0.0
 10
166.6892765071909
 20
115.855235773499
 30
0.0
 10
166.6892765071909
 20
116.1897807965804
 30
0.0
 10
166.689276507191
 20
116.4995571790322
 30
0.0
 10
166.6892765071909
 20
116.6831925521294
 30
0.0
 10
166.6892765071909
 20
116.7750766839523
 30
0.0
  0
SPLINE
  5
12C
330
1F
100
AcDbEntity
  8
0
  6
Continuous
 62
     7
370
    15
100
AcDbSpline
210
0.0
220
0.0
230
1.0
 70
     8
 71
     3
 72
    10
 73
     6
 74
     0
 42
0.000000001
 43
0.00000001
 40
0.0
 40
0.0
 40
0.0
 40
0.0
 40
0.5
 40
0.5
 40
1.0
 40
1.0
 40
1.0
 40
1.0
 10
166.8064337947163
 20
117.1045167318584
 30
0.0
 10
166.7737791697871
 20
117.060992473989
 30
0.0
 10
166.745798055373
 20
117.0124303717054
 30
0.0
 10
166.7031518494377
 20
116.9009520640855
 30
0.0
 10
166.6892765071909
 20
116.8389807751197
 30
0.0
 10
166.6892765071909
 20
116.7750766839523
 30
0.0
  0
SPLINE
  5
12D
330
1F
100
AcDbEntity
  8
0
  6
Continuous
 62
     7
370
    15
100
AcDbSpline
210
0.0
220
0.0
230
1.0
 70
     8
 71
     3
 72
     8
 73
     4
 74
     0
 42
0.000000001
 43
0.00000001
 40
0.0
 40
0.0
 40
0.0
 40
0.0
 40
1.0
 40
1.0
 40
1.0
 40
1.0
 10
182.4721192196656
 20
117.2681169630756
 30
0.0
 10
182.5476620019442
 20
117.1898662528302
 30
0.0
 10
182.5892765071909
 20
117.0837470145311
 30
0.0
 10
182.5892765071909
 20
116.9750364579908
 30
0.0
  0
SPLINE
  5
12E
330
1F
100
AcDbEntity
  8
0
  6
Continuous
 62
     7
370
    15
100
AcDbSpline
210
0.0
220
0.0
230
1.0
 70
    24
 71
     3
 72
    31
 73
    27
 74
     0
 42
0.000000001
 43
0.00000001
 40
0.0
 40
0.0
 40
0.0
 40
0.0
 40
0.0132615204097968
 40
0.0265095377996707
 40
0.0397479976735972
 40
0.0529808540845518
 40
0.0662120661091751
 40
0.079445594299962
 40
0.0926853971308347
 40
0.1059354274520315
 40
0.1191996289701444
 40
0.1812172705063804
 40
0.2432482034156669
 40
0.3070054611615154
 40
0.3707758455973491
 40
0.5000016328884954
 40
0.6292274201796418
 40
0.6929846784062125
 40
0.756755063322089
 40
0.8187727037418453
 40
0.8808036357637741
 40
0.9046638208938186
 40
0.92849046716819
 40
0.9523066488125118
 40
0.9761354704521561
 40
1.0
 40
1.0
 40
1.0
 40
1.0
 10
182.5892765071909
 20
116.9750364579907
 30
0.0
 10
182.5892765071909
 20
116.9277938503328
 30
0.0
 10
182.5892765071909
 20
116.8333567379381
 30
0.0
 10
182.5892765071909
 20
116.6806635964299
 30
0.0
 10
182.5892765071909
 20
116.5199980430475
 30
0.0
 10
182.5892765071909
 20
116.3505629975079
 30
0.0
 10
182.5892765071909
 20
116.1725719795328
 30
0.0
 10
182.5892765071909
 20
115.9859675065839
 30
0.0
 10
182.5892765071909
 20
115.7907663837645
 30
0.0
 10
182.5892765071909
 20
115.5869592085926
 30
0.0
 10
182.5892765071909
 20
115.1144692877702
 30
0.0
 10
182.5892765071909
 20
114.2998491703138
 30
0.0
 10
182.5892765071909
 20
113.0079673794011
 30
0.0
 10
182.5892765071909
 20
111.5319991950795
 30
0.0
 10
182.5892765071909
 20
109.30934574423
 30
0.0
 10
182.5892765071909
 20
106.1209904587706
 30
0.0
 10
182.5892765071909
 20
102.4914884561082
 30
0.0
 10
182.5892765071909
 20
99.40371642553083
 30
0.0
 10
182.5892765071909
 20
97.04157492150848
 30
0.0
 10
182.5892765071909
 20
94.6376261087481
 30
0.0
 10
182.5892765071909
 20
92.70669188187192
 30
0.0
 10
182.5892765071909
 20
91.26236196048256
 30
0.0
 10
182.5892765071909
 20
90.31736450133891
 30
0.0
 10
182.5892765071909
 20
89.37003936403634
 30
0.0
 10
182.5892765071909
 20
88.42036906359449
 30
0.0
 10
182.5892765071909
 20
87.7863760209744
 30
0.0
 10
182.5892765071909
 20
87.46914216505898
 30
0.0
  0
SPLINE
  5
12F
330
1F
100
AcDbEntity
  8
0
  6
Continuous
 62
     7
370
    15
100
AcDbSpline
210
0.0
220
0.0
230
1.0
 70
    24
 71
     3
 72
    31
 73
    27
 74
     0
 42
0.000000001
 43
0.00000001
 40
0.0
 40
0.0
 40
0.0
 40
0.0
 40
0.0132615204102289
 40
0.0265095378004267
 40
0.0397479976745689
 40
0.0529808540856311
 40
0.0662120661102543
 40
0.0794455943009333
 40
0.0926853971315909
 40
0.105935427452466
 40
0.1191996289701507
 40
0.1812172705070559
 40
0.2432482034156618
 40
0.3070054611628419
 40
0.3707758455973574
 40
0.5000016328885014
 40
0.6292274201796462
 40
0.6929846784074412
 40
0.756755063322104
 40
0.8187727037442042
 40
0.8808036357637825
 40
0.9046638208943639
 40
0.9284904671690046
 40
0.9523066488133262
 40
0.976135470452699
 40
1.0
 40
1.0
 40
1.0
 40
1.0
 10
182.5892765071909
 20
87.46914216505898
 30
0.0
 10
182.5892765071909
 20
87.29286020835187
 30
0.0
 10
182.5892765071909
 20
86.94047578708627
 30
0.0
 10
182.5892765071909
 20
86.41227265746394
 30
0.0
 10
182.5892765071909
 20
85.88476476908087
 30
0.0
 10
182.5892765071909
 20
85.35795220749142
 30
0.0
 10
182.5892765071909
 20
84.83183526326046
 30
0.0
 10
182.5892765071909
 20
84.30641353809575
 30
0.0
 10
182.5892765071909
 20
83.78168918296194
 30
0.0
 10
182.5892765071909
 20
83.25765482480625
 30
0.0
 10
182.5892765071909
 20
82.09347913184838
 30
0.0
 10
182.5892765071909
 20
80.30081412471205
 30
0.0
 10
182.5892765071909
 20
77.89704745184488
 30
0.0
 10
182.5892765071909
 20
75.5347287683615
 30
0.0
 10
182.5892765071909
 20
72.44694392045649
 30
0.0
 10
182.5892765071909
 20
68.8172936432957
 30
0.0
 10
182.5892765071909
 20
65.62906896253817
 30
0.0
 10
182.5892765071909
 20
63.40639255636725
 30
0.0
 10
182.5892765071909
 20
61.93051310381589
 30
0.0
 10
182.5892765071909
 20
60.63851233826197
 30
0.0
 10
182.5892765071909
 20
59.76105077577547
 30
0.0
 10
182.5892765071909
 20
59.18462780028559
 30
0.0
 10
182.5892765071909
 20
58.83613691694268
 30
0.0
 10
182.5892765071909
 20
58.51606018008523
 30
0.0
 10
182.5892765071909
 20
58.22181075387697
 30
0.0
 10
182.5892765071909
 20
58.04947850763601
 30
0.0
 10
182.5892765071909
 20
57.96324787212724
 30
0.0
  0
SPLINE
  5
130
330
1F
100
AcDbEntity
  8
0
  6
Continuous
 62
     7
370
    15
100
AcDbSpline
210
0.0
220
0.0
230
1.0
 70
     8
 71
     3
 72
     8
 73
     4
 74
     0
 42
0.000000001
 43
0.00000001
 40
0.0
 40
0.0
 40
0.0
 40
0.0
 40
1.0
 40
1.0
 40
1.0
 40
1.0
 10
182.4721192196656
 20
57.67016736704235
 30
0.0
 10
182.5476620019441
 20
57.74841807728778
 30
0.0
 10
182.5892765071909
 20
57.85453731558682
 30
0.0
 10
182.5892765071909
 20
57.96324787212723
 30
0.0
  0
LINE
  5
131
330
1F
100
AcDbEntity
  8
0
  6
Continuous
 62
     7
370
    15
100
AcDbLine
 10
163.4892765072
 20
65.2441421651
 30
0.0
 11
163.4892765072
 21
109.6941421651
 31
0.0
  0
LINE
  5
132
330
1F
100
AcDbEntity
  8
0
  6
Continuous
 62
     7
370
    15
100
AcDbLine
 10
163.9717905643
 20
87.4691421651
 30
0.0
 11
163.9717905643
 21
109.4691421651
 31
0.0
  0
LINE
  5
133
330
1F
100
AcDbEntity
  8
0
  6
Continuous
 62
     7
370
    15
100
AcDbLine
 10
163.9717905643
 20
65.4691421651
 30
0.0
 11
163.9717905643
 21
87.4691421651
 31
0.0
  0
LINE
  5
134
330
1F
100
AcDbEntity
  8
0
  6
Continuous
 62
     7
370
    15
100
AcDbLine
 10
213.4892765072
 20
76.4691421651
 30
0.0
 11
213.4892765072
 21
98.4691421651
 31
0.0
  0
LINE
  5
135
330
1F
100
AcDbEntity
  8
0
  6
Continuous
 62
     7
370
    15
100
AcDbLine
 10
212.6232511034
 20
87.4691421651
 30
0.0
 11
212.6232511034
 21
99.9691421651
 31
0.0
  0
LINE
  5
136
330
1F
100
AcDbEntity
  8
0
  6
Continuous
 62
     7
370
    15
100
AcDbLine
 10
212.6232511034
 20
74.9691421651
 30
0.0
 11
212.6232511034
 21
87.4691421651
 31
0.0
  0
SPLINE
  5
137
330
1F
100
AcDbEntity
  8
0
  6
Continuous
 62
     7
370
    15
100
AcDbSpline
210
0.0
220
0.0
230
1.0
 70
    24
 71
     3
 72
    10
 73
     6
 74
     0
 42
0.000000001
 43
0.00000001
 40
0.0
 40
0.0
 40
0.0
 40
0.0
 40
0.4999999999999997
 40
0.4999999999999997
 40
0.9999999999999999
 40
0.9999999999999999
 40
0.9999999999999999
 40
0.9999999999999999
 10
95.08927650719093
 20
98.85430475467791
 30
0.0
 10
95.08927650719093
 20
98.85430475467784
 30
0.0
 10
95.08927650719093
 20
97.6547395712351
 30
0.0
 10
95.08927650719093
 20
93.38459610294456
 30
0.0
 10
95.08927650719093
 20
90.48858956812663
 30
0.0
 10
95.08927650719093
 20
87.46914216505898
 30
0.0
  0
SPLINE
  5
138
330
1F
100
AcDbEntity
  8
0
  6
Continuous
 62
     7
370
    15
100
AcDbSpline
210
0.0
220
0.0
230
1.0
 70
    24
 71
     3
 72
    10
 73
     6
 74
     0
 42
0.000000001
 43
0.00000001
 40
0.0
 40
0.0
 40
0.0
 40
0.0
 40
0.4999999999999999
 40
0.4999999999999999
 40
0.9999999999999999
 40
0.9999999999999999
 40
0.9999999999999999
 40
0.9999999999999999
 10
95.08927650719093
 20
87.46914216505898
 30
0.0
 10
95.08927650719093
 20
84.44969476199134
 30
0.0
 10
95.08927650719093
 20
81.55368822717317
 30
0.0
 10
95.08927650719093
 20
77.28354475888274
 30
0.0
 10
95.08927650719093
 20
76.08397957543997
 30
0.0
 10
95.08927650719093
 20
76.08397957544005
 30
0.0
  0
LINE
  5
139
330
1F
100
AcDbEntity
  8
0
  6
Continuous
 62
     7
370
    15
100
AcDbLine
 10
166.6892765072
 20
116.775076684
 30
0.0
 11
166.6892765072
 21
118.0534567401
 31
0.0
  0
LINE
  5
13A
330
1F
100
AcDbEntity
  8
0
  6
Continuous
 62
     7
370
    15
100
AcDbLine
 10
166.6892765072
 20
56.88482759
 30
0.0
 11
166.6892765072
 21
58.1632076462
 31
0.0
  0
LINE
  5
13B
330
1F
100
AcDbEntity
  8
0
  6
Continuous
 62
     7
370
    15
100
AcDbLine
 10
182.5892765072
 20
56.88482759
 30
0.0
 11
182.5892765072
 21
57.9632478721
 31
0.0
  0
LINE
  5
13C
330
1F
100
AcDbEntity
  8
0
  6
Continuous
 62
     7
370
    15
100
AcDbLine
 10
182.5892765072
 20
116.975036458
 30
0.0
 11
182.5892765072
 21
118.0534567401
 31
0.0
  0
LINE
  5
13D
330
1F
100
AcDbEntity
  8
0
  6
Continuous
 62
     8
370
    15
100
AcDbLine
 10
181.4235910822
 20
118.0321113592
 30
0.0
 11
181.4235910822
 21
119.2191421651
 31
0.0
  0
LINE
  5
13E
330
1F
100
AcDbEntity
  8
0
  6
Continuous
 62
     8
370
    15
100
AcDbLine
 10
181.4235910822
 20
55.7191421651
 30
0.0
 11
181.4235910822
 21
56.9394746777
 31
0.0
  0
LINE
  5
13F
330
1F
100
AcDbEntity
  8
0
  6
Continuous
 62
     8
370
    15
100
AcDbLine
 10
167.8549619321
 20
118.0321113592
 30
0.0
 11
167.8549619321
 21
119.2191421651
 31
0.0
  0
LINE
  5
140
330
1F
100
AcDbEntity
  8
0
  6
Continuous
 62
     8
370
    15
100
AcDbLine
 10
167.8549619321
 20
55.7191421651
 30
0.0
 11
167.8549619321
 21
56.9394746777
 31
0.0
  0
LINE
  5
141
330
1F
100
AcDbEntity
  8
0
  6
Continuous
 62
     8
370
    15
100
AcDbLine
 10
182.4721192197
 20
117.2681169631
 30
0.0
 11
182.4721192197
 21
118.3362994526
 31
0.0
  0
LINE
  5
142
330
1F
100
AcDbEntity
  8
0
  6
Continuous
 62
     8
370
    15
100
AcDbLine
 10
182.4721192197
 20
56.6019848775
 30
0.0
 11
182.4721192197
 21
57.670167367
 31
0.0
  0
LINE
  5
143
330
1F
100
AcDbEntity
  8
0
  6
Continuous
 62
     8
370
    15
100
AcDbLine
 10
181.7064337947
 20
117.9370758749
 30
0.0
 11
181.7064337947
 21
119.1019848775
 31
0.0
  0
LINE
  5
144
330
1F
100
AcDbEntity
  8
0
  6
Continuous
 62
     8
370
    15
100
AcDbLine
 10
181.7064337947
 20
55.8362994526
 30
0.0
 11
181.7064337947
 21
57.0214728657
 31
0.0
  0
LINE
  5
145
330
1F
100
AcDbEntity
  8
0
  6
Continuous
 62
     8
370
    15
100
AcDbLine
 10
166.8064337947
 20
56.6019848775
 30
0.0
 11
166.8064337947
 21
57.8337675983
 31
0.0
  0
LINE
  5
146
330
1F
100
AcDbEntity
  8
0
  6
Continuous
 62
     8
370
    15
100
AcDbLine
 10
166.8064337947
 20
117.1045167319
 30
0.0
 11
166.8064337947
 21
118.3362994526
 31
0.0
  0
LINE
  5
147
330
1F
100
AcDbEntity
  8
0
  6
Continuous
 62
     8
370
    15
100
AcDbLine
 10
167.5721192197
 20
117.9370758749
 30
0.0
 11
167.5721192197
 21
119.1019848775
 31
0.0
  0
LINE
  5
148
330
1F
100
AcDbEntity
  8
0
  6
Continuous
 62
     8
370
    15
100
AcDbLine
 10
167.5721192197
 20
55.8362994526
 30
0.0
 11
167.5721192197
 21
57.0214728657
 31
0.0
  0
LINE
  5
149
330
1F
100
AcDbEntity
  8
0
  6
Continuous
 62
     8
370
    15
100
AcDbLine
 10
166.2892765072
 20
87.4691421651
 30
0.0
 11
166.2892765072
 21
109.4691421651
 31
0.0
  0
LINE
  5
14A
330
1F
100
AcDbEntity
  8
0
  6
Continuous
 62
     8
370
    15
100
AcDbLine
 10
166.2892765072
 20
65.4691421651
 30
0.0
 11
166.2892765072
 21
87.4691421651
 31
0.0
  0
LINE
  5
14B
330
1F
100
AcDbEntity
  8
0
  6
Continuous
 62
     8
370
    15
100
AcDbLine
 10
95.9449682799
 20
99.8438375412
 30
0.0
 11
95.9449682799
 21
75.0944467889
 31
0.0
  0
LINE
  5
14C
330
1F
100
AcDbEntity
  8
0
  6
Continuous
 62
     8
370
    15
100
AcDbLine
 10
184.5892765072
 20
99.9691421651
 30
0.0
 11
184.5892765072
 21
74.9691421651
 31
0.0
  0
DIMENSION
  5
14D
330
1F
100
AcDbEntity
  8
DIM
100
AcDbDimension
  2
_D
 10
213.4892765072
 20
50.3281964049
 30
0.0
 11
188.1169958986
 21
50.3281964049
 31
0.0
 70
   160
  1
<>
 71
     2
 42
-1.0
  3
SLDDIMSTYLE0
100
AcDbAlignedDimension
 13
163.4892765072
 23
65.2441421651
 33
0.0
 14
213.4892765072
 24
76.4691421651
 34
0.0
100
AcDbRotatedDimension
  0
DIMENSION
  5
158
330
1F
100
AcDbEntity
  8
DIM
100
AcDbDimension
  2
_D_1
 10
218.4946073687
 20
74.9691421651
 30
0.0
 11
218.4946073687
 21
85.8788069296
 31
0.0
 70
   160
  1
%%c<>
 71
     2
 42
-1.0
  3
SLDDIMSTYLE0
100
AcDbAlignedDimension
 13
212.6232511034
 23
99.9691421651
 33
0.0
 14
212.6232511034
 24
74.9691421651
 34
0.0
 50
90.0
100
AcDbRotatedDimension
  0
DIMENSION
  5
163
330
1F
100
AcDbEntity
  8
DIM
100
AcDbDimension
  2
_D_2
 10
95.0892765072
 20
43.6808795707
 30
0.0
 11
158.6013751244
 21
43.6808795707
 31
0.0
 70
   160
  1
<>
 71
     2
 42
-1.0
  3
SLDDIMSTYLE1
100
AcDbAlignedDimension
 13
213.4892765072
 23
76.4691421651
 33
0.0
 14
95.0892765072
 24
87.4691421651
 34
0.0
 50
0.0
100
AcDbRotatedDimension
  0
DIMENSION
  5
16E
330
1F
100
AcDbEntity
  8
DIM
100
AcDbDimension
  2
_D_3
 10
91.0988989118
 20
55.7191421651
 30
0.0
 11
91.0988989118
 21
85.8788069296
 31
0.0
 70
   160
  1
%%c<>
 71
     2
 42
-1.0
  3
SLDDIMSTYLE1
100
AcDbAlignedDimension
 13
167.8549619321
 23
119.2191421651
 33
0.0
 14
167.8549619321
 24
55.7191421651
 34
0.0
 50
90.0
100
AcDbRotatedDimension
  0
LINE
  5
179
330
1F
100
AcDbEntity
  8
DIM
  6
CENTERX2
370
     0
100
AcDbLine
 10
92.7709685301
 20
87.4691421651
 30
0.0
 11
213.4386452025
 21
87.4691421651
 31
0.0
  0
ENDSEC
  0
SECTION
  2
OBJECTS
  0
DICTIONARY
  5
C
330
0
100
AcDbDictionary
281
     1
  3
ACAD_GROUP
350
D
  3
ACAD_LAYOUT
350
1A
  3
ACAD_MLINESTYLE
350
17
  3
ACAD_PLOTSETTINGS
350
19
  3
ACAD_PLOTSTYLENAME
350
E
  3
ACAD_SCALELIST
350
47
  0
DICTIONARY
  5
D
102
{ACAD_REACTORS
330
C
102
}
330
C
100
AcDbDictionary
281
     1
  0
DICTIONARY
  5
1A
102
{ACAD_REACTORS
330
C
102
}
330
C
100
AcDbDictionary
281
     1
  3
Layout1
350
1E
  3
Layout2
350
26
  3
Model
350
22
  0
DICTIONARY
  5
17
102
{ACAD_REACTORS
330
C
102
}
330
C
100
AcDbDictionary
281
     1
  3
Standard
350
18
  0
DICTIONARY
  5
19
102
{ACAD_REACTORS
330
C
102
}
330
C
100
AcDbDictionary
281
     1
  0
ACDBDICTIONARYWDFLT
  5
E
102
{ACAD_REACTORS
330
C
102
}
330
C
100
AcDbDictionary
281
     1
  3
Normal
350
F
100
AcDbDictionaryWithDefault
340
F
  0
DICTIONARY
  5
47
102
{ACAD_REACTORS
330
C
102
}
330
C
100
AcDbDictionary
281
     1
  3
A0
350
48
  3
A1
350
49
  3
A2
350
4A
  3
A3
350
4B
  3
A4
350
4C
  3
A5
350
4D
  3
A6
350
4E
  3
A7
350
4F
  3
A8
350
50
  3
A9
350
51
  3
B0
350
52
  3
B1
350
53
  3
B2
350
54
  3
B3
350
55
  3
B4
350
56
  3
B5
350
57
  3
B6
350
58
  3
B7
350
59
  3
B8
350
5A
  3
B9
350
5B
  3
C0
350
5C
  3
C1
350
5D
  3
C2
350
5E
  3
C3
350
5F
  3
C4
350
60
  3
C5
350
61
  3
C6
350
62
  3
C7
350
63
  3
C8
350
64
  3
C9
350
65
  3
D0
350
66
  3
D1
350
67
  3
D2
350
68
  0
LAYOUT
  5
1E
102
{ACAD_REACTORS
330
1A
102
}
330
1A
100
AcDbPlotSettings
  1

  2
none_device
  4

  6

 40
0.0
 41
0.0
 42
0.0
 43
0.0
 44
0.0
 45
0.0
 46
0.0
 47
0.0
 48
0.0
 49
0.0
140
0.0
141
0.0
142
1.0
143
1.0
 70
   688
 72
     1
 73
     0
 74
     5
  7

 75
    16
147
1.0
148
0.0
149
0.0
100
AcDbLayout
  1
Layout1
 70
     1
 71
     1
 10
0.0
 20
0.0
 11
420.0
 21
297.0
 12
0.0
 22
0.0
 32
0.0
 14
1.0000000000E+20
 24
1.0000000000E+20
 34
1.0000000000E+20
 15
-1.0000000000E+20
 25
-1.0000000000E+20
 35
-1.0000000000E+20
146
0.0
 13
0.0
 23
0.0
 33
0.0
 16
1.0
 26
0.0
 36
0.0
 17
0.0
 27
1.0
 37
0.0
 76
     0
330
1B
  0
LAYOUT
  5
26
102
{ACAD_REACTORS
330
1A
102
}
330
1A
100
AcDbPlotSettings
  1

  2
none_device
  4

  6

 40
0.0
 41
0.0
 42
0.0
 43
0.0
 44
0.0
 45
0.0
 46
0.0
 47
0.0
 48
0.0
 49
0.0
140
0.0
141
0.0
142
1.0
143
1.0
 70
   688
 72
     1
 73
     0
 74
     5
  7

 75
    16
147
1.0
148
0.0
149
0.0
100
AcDbLayout
  1
Layout2
 70
     1
 71
     2
 10
0.0
 20
0.0
 11
0.0
 21
0.0
 12
0.0
 22
0.0
 32
0.0
 14
0.0
 24
0.0
 34
0.0
 15
0.0
 25
0.0
 35
0.0
146
0.0
 13
0.0
 23
0.0
 33
0.0
 16
1.0
 26
0.0
 36
0.0
 17
0.0
 27
1.0
 37
0.0
 76
     0
330
23
  0
LAYOUT
  5
22
102
{ACAD_REACTORS
330
1A
102
}
330
1A
100
AcDbPlotSettings
  1

  2
none_device
  4
Letter_(8.50_x_11.00_Inches)
  6

 40
6.35
 41
6.35
 42
6.35000508
 43
6.35000508
 44
215.9
 45
279.4
 46
0.0
 47
0.0
 48
0.0
 49
0.0
140
0.0
141
0.0
142
1.0
143
1.0
 70
  1712
 72
     1
 73
     0
 74
     0
  7

 75
     0
147
1.0
148
0.0
149
0.0
100
AcDbLayout
  1
Model
 70
     1
 71
     0
 10
0.0
 20
0.0
 11
247.5
 21
175.0
 12
0.0
 22
0.0
 32
0.0
 14
0.0
 24
0.0
 34
0.0
 15
247.5
 25
175.0
 35
0.0
146
0.0
 13
0.0
 23
0.0
 33
0.0
 16
1.0
 26
0.0
 36
0.0
 17
0.0
 27
1.0
 37
0.0
 76
     0
330
1F
331
29
  0
MLINESTYLE
  5
18
102
{ACAD_REACTORS
330
17
102
}
330
17
100
AcDbMlineStyle
  2
Standard
 70
     0
  3

 62
   256
 51
90.0
 52
90.0
 71
     2
 49
0.5
 62
   256
  6
BYLAYER
 49
-0.5
 62
   256
  6
BYLAYER
  0
ACDBPLACEHOLDER
  5
F
102
{ACAD_REACTORS
330
E
102
}
330
E
  0
SCALE
  5
48
102
{ACAD_REACTORS
330
47
102
}
330
47
100
AcDbScale
 70
     0
300
1:1
140
1.0
141
1.0
290
     1
  0
SCALE
  5
49
102
{ACAD_REACTORS
330
47
102
}
330
47
100
AcDbScale
 70
     0
300
1:2
140
1.0
141
2.0
290
     0
  0
SCALE
  5
4A
102
{ACAD_REACTORS
330
47
102
}
330
47
100
AcDbScale
 70
     0
300
1:4
140
1.0
141
4.0
290
     0
  0
SCALE
  5
4B
102
{ACAD_REACTORS
330
47
102
}
330
47
100
AcDbScale
 70
     0
300
1:5
140
1.0
141
5.0
290
     0
  0
SCALE
  5
4C
102
{ACAD_REACTORS
330
47
102
}
330
47
100
AcDbScale
 70
     0
300
1:8
140
1.0
141
8.0
290
     0
  0
SCALE
  5
4D
102
{ACAD_REACTORS
330
47
102
}
330
47
100
AcDbScale
 70
     0
300
1:10
140
1.0
141
10.0
290
     0
  0
SCALE
  5
4E
102
{ACAD_REACTORS
330
47
102
}
330
47
100
AcDbScale
 70
     0
300
1:16
140
1.0
141
16.0
290
     0
  0
SCALE
  5
4F
102
{ACAD_REACTORS
330
47
102
}
330
47
100
AcDbScale
 70
     0
300
1:20
140
1.0
141
20.0
290
     0
  0
SCALE
  5
50
102
{ACAD_REACTORS
330
47
102
}
330
47
100
AcDbScale
 70
     0
300
1:30
140
1.0
141
30.0
290
     0
  0
SCALE
  5
51
102
{ACAD_REACTORS
330
47
102
}
330
47
100
AcDbScale
 70
     0
300
1:40
140
1.0
141
40.0
290
     0
  0
SCALE
  5
52
102
{ACAD_REACTORS
330
47
102
}
330
47
100
AcDbScale
 70
     0
300
1:50
140
1.0
141
50.0
290
     0
  0
SCALE
  5
53
102
{ACAD_REACTORS
330
47
102
}
330
47
100
AcDbScale
 70
     0
300
1:100
140
1.0
141
100.0
290
     0
  0
SCALE
  5
54
102
{ACAD_REACTORS
330
47
102
}
330
47
100
AcDbScale
 70
     0
300
2:1
140
2.0
141
1.0
290
     0
  0
SCALE
  5
55
102
{ACAD_REACTORS
330
47
102
}
330
47
100
AcDbScale
 70
     0
300
4:1
140
4.0
141
1.0
290
     0
  0
SCALE
  5
56
102
{ACAD_REACTORS
330
47
102
}
330
47
100
AcDbScale
 70
     0
300
8:1
140
8.0
141
1.0
290
     0
  0
SCALE
  5
57
102
{ACAD_REACTORS
330
47
102
}
330
47
100
AcDbScale
 70
     0
300
10:1
140
10.0
141
1.0
290
     0
  0
SCALE
  5
58
102
{ACAD_REACTORS
330
47
102
}
330
47
100
AcDbScale
 70
     0
300
100:1
140
100.0
141
1.0
290
     0
  0
SCALE
  5
59
102
{ACAD_REACTORS
330
47
102
}
330
47
100
AcDbScale
 70
     0
300
1/128" = 1'-0"
140
0.0078125
141
12.0
290
     0
  0
SCALE
  5
5A
102
{ACAD_REACTORS
330
47
102
}
330
47
100
AcDbScale
 70
     0
300
1/64" = 1'-0"
140
0.015625
141
12.0
290
     0
  0
SCALE
  5
5B
102
{ACAD_REACTORS
330
47
102
}
330
47
100
AcDbScale
 70
     0
300
1/32" = 1'-0"
140
0.03125
141
12.0
290
     0
  0
SCALE
  5
5C
102
{ACAD_REACTORS
330
47
102
}
330
47
100
AcDbScale
 70
     0
300
1/16" = 1'-0"
140
0.0625
141
12.0
290
     0
  0
SCALE
  5
5D
102
{ACAD_REACTORS
330
47
102
}
330
47
100
AcDbScale
 70
     0
300
3/32" = 1'-0"
140
0.09375
141
12.0
290
     0
  0
SCALE
  5
5E
102
{ACAD_REACTORS
330
47
102
}
330
47
100
AcDbScale
 70
     0
300
1/8" = 1'-0"
140
0.125
141
12.0
290
     0
  0
SCALE
  5
5F
102
{ACAD_REACTORS
330
47
102
}
330
47
100
AcDbScale
 70
     0
300
3/16" = 1'-0"
140
0.1875
141
12.0
290
     0
  0
SCALE
  5
60
102
{ACAD_REACTORS
330
47
102
}
330
47
100
AcDbScale
 70
     0
300
1/4" = 1'-0"
140
0.25
141
12.0
290
     0
  0
SCALE
  5
61
102
{ACAD_REACTORS
330
47
102
}
330
47
100
AcDbScale
 70
     0
300
3/8" = 1'-0"
140
0.375
141
12.0
290
     0
  0
SCALE
  5
62
102
{ACAD_REACTORS
330
47
102
}
330
47
100
AcDbScale
 70
     0
300
1/2" = 1'-0"
140
0.5
141
12.0
290
     0
  0
SCALE
  5
63
102
{ACAD_REACTORS
330
47
102
}
330
47
100
AcDbScale
 70
     0
300
3/4" = 1'-0"
140
0.75
141
12.0
290
     0
  0
SCALE
  5
64
102
{ACAD_REACTORS
330
47
102
}
330
47
100
AcDbScale
 70
     0
300
1" = 1'-0"
140
1.0
141
12.0
290
     0
  0
SCALE
  5
65
102
{ACAD_REACTORS
330
47
102
}
330
47
100
AcDbScale
 70
     0
300
1-1/2" = 1'-0"
140
1.5
141
12.0
290
     0
  0
SCALE
  5
66
102
{ACAD_REACTORS
330
47
102
}
330
47
100
AcDbScale
 70
     0
300
3" = 1'-0"
140
3.0
141
12.0
290
     0
  0
SCALE
  5
67
102
{ACAD_REACTORS
330
47
102
}
330
47
100
AcDbScale
 70
     0
300
6" = 1'-0"
140
6.0
141
12.0
290
     0
  0
SCALE
  5
68
102
{ACAD_REACTORS
330
47
102
}
330
47
100
AcDbScale
 70
     0
300
1'-0" = 1'-0"
140
12.0
141
12.0
290
     0
  0
ENDSEC
  0
EOF
