  0
SECTION
  2
HEADER
  9
$ACADVER
  1
AC1015
  9
$ACADMAINTVER
 70
     6
  9
$DWGCODEPAGE
  3
ANSI_1252
  9
$INSBASE
 10
0.0
 20
0.0
 30
0.0
  9
$EXTMIN
 10
0.0
 20
0.0
 30
0.0
  9
$EXTMAX
 10
267.3
 20
189.0
 30
0.0
  9
$LIMMIN
 10
0.0
 20
0.0
  9
$LIMMAX
 10
267.3
 20
189.0
  9
$ORTHOMODE
 70
     0
  9
$REGENMODE
 70
     1
  9
$FILLMODE
 70
     1
  9
$QTEXTMODE
 70
     0
  9
$MIRRTEXT
 70
     1
  9
$LTSCALE
 40
0.9
  9
$ATTMODE
 70
     1
  9
$TEXTSIZE
 40
3.4925
  9
$TRACEWID
 40
1.0
  9
$TEXTSTYLE
  7
Standard
  9
$CLAYER
  8
0
  9
$CELTYPE
  6
ByLayer
  9
$CECOLOR
 62
   256
  9
$CELTSCALE
 40
1.0
  9
$DISPSILH
 70
     0
  9
$DIMSCALE
 40
1.0
  9
$DIMASZ
 40
2.9718
  9
$DIMEXO
 40
0.9
  9
$DIMDLI
 40
3.75
  9
$DIMRND
 40
0.0
  9
$DIMDLE
 40
0.0
  9
$DIMEXE
 40
0.9
  9
$DIMTP
 40
0.0
  9
$DIMTM
 40
0.0
  9
$DIMTXT
 40
3.4925
  9
$DIMCEN
 40
2.5
  9
$DIMTSZ
 40
0.0
  9
$DIMTOL
 70
     0
  9
$DIMLIM
 70
     0
  9
$DIMTIH
 70
     1
  9
$DIMTOH
 70
     1
  9
$DIMSE1
 70
     0
  9
$DIMSE2
 70
     0
  9
$DIMTAD
 70
     1
  9
$DIMZIN
 70
     0
  9
$DIMBLK
  1

  9
$DIMASO
 70
     1
  9
$DIMSHO
 70
     1
  9
$DIMPOST
  1

  9
$DIMAPOST
  1

  9
$DIMALT
 70
     0
  9
$DIMALTD
 70
     3
  9
$DIMALTF
 40
0.0393700787
  9
$DIMLFAC
 40
1.0
  9
$DIMTOFL
 70
     1
  9
$DIMTVP
 40
0.0
  9
$DIMTIX
 70
     0
  9
$DIMSOXD
 70
     0
  9
$DIMSAH
 70
     0
  9
$DIMBLK1
  1

  9
$DIMBLK2
  1

  9
$DIMSTYLE
  2
ISO-25
  9
$DIMCLRD
 70
     0
  9
$DIMCLRE
 70
     0
  9
$DIMCLRT
 70
     0
  9
$DIMTFAC
 40
1.0
  9
$DIMGAP
 40
1.3716
  9
$DIMJUST
 70
     0
  9
$DIMSD1
 70
     0
  9
$DIMSD2
 70
     0
  9
$DIMTOLJ
 70
     0
  9
$DIMTZIN
 70
     0
  9
$DIMALTZ
 70
     0
  9
$DIMALTTZ
 70
     0
  9
$DIMUPT
 70
     0
  9
$DIMDEC
 70
     2
  9
$DIMTDEC
 70
     2
  9
$DIMALTU
 70
     2
  9
$DIMALTTD
 70
     3
  9
$DIMTXSTY
  7
Standard
  9
$DIMAUNIT
 70
     0
  9
$DIMADEC
 70
     2
  9
$DIMALTRND
 40
0.0
  9
$DIMAZIN
 70
     0
  9
$DIMDSEP
 70
    44
  9
$DIMATFIT
 70
     3
  9
$DIMFRAC
 70
     0
  9
$DIMLDRBLK
  1

  9
$DIMLUNIT
 70
     2
  9
$DIMLWD
 70
    -2
  9
$DIMLWE
 70
    -2
  9
$DIMTMOVE
 70
     0
  9
$LUNITS
 70
     2
  9
$LUPREC
 70
     2
  9
$SKETCHINC
 40
1.0
  9
$FILLETRAD
 40
10.0
  9
$AUNITS
 70
     1
  9
$AUPREC
 70
     2
  9
$MENU
  1
.
  9
$ELEVATION
 40
0.0
  9
$PELEVATION
 40
0.0
  9
$THICKNESS
 40
0.0
  9
$LIMCHECK
 70
     0
  9
$CHAMFERA
 40
0.0
  9
$CHAMFERB
 40
0.0
  9
$CHAMFERC
 40
0.0
  9
$CHAMFERD
 40
0.0
  9
$SKPOLY
 70
     0
  9
$TDCREATE
 40
2458607.469538519
  9
$TDUCREATE
 40
2458607.240371852
  9
$TDUPDATE
 40
2458607.46953956
  9
$TDUUPDATE
 40
2458607.240372893
  9
$TDINDWG
 40
0.0000000116
  9
$TDUSRTIMER
 40
0.0000000116
  9
$USRTIMER
 70
     1
  9
$ANGBASE
 50
0.0
  9
$ANGDIR
 70
     0
  9
$PDMODE
 70
     0
  9
$PDSIZE
 40
-1.0
  9
$PLINEWID
 40
0.0
  9
$SPLFRAME
 70
     0
  9
$SPLINETYPE
 70
     6
  9
$SPLINESEGS
 70
     8
  9
$HANDSEED
  5
17A
  9
$SURFTAB1
 70
     6
  9
$SURFTAB2
 70
     6
  9
$SURFTYPE
 70
     6
  9
$SURFU
 70
     6
  9
$SURFV
 70
     6
  9
$UCSBASE
  2

  9
$UCSNAME
  2

  9
$UCSORG
 10
0.0
 20
0.0
 30
0.0
  9
$UCSXDIR
 10
1.0
 20
0.0
 30
0.0
  9
$UCSYDIR
 10
0.0
 20
1.0
 30
0.0
  9
$UCSORTHOREF
  2

  9
$UCSORTHOVIEW
 70
     0
  9
$UCSORGTOP
 10
0.0
 20
0.0
 30
0.0
  9
$UCSORGBOTTOM
 10
0.0
 20
0.0
 30
0.0
  9
$UCSORGLEFT
 10
0.0
 20
0.0
 30
0.0
  9
$UCSORGRIGHT
 10
0.0
 20
0.0
 30
0.0
  9
$UCSORGFRONT
 10
0.0
 20
0.0
 30
0.0
  9
$UCSORGBACK
 10
0.0
 20
0.0
 30
0.0
  9
$PUCSBASE
  2

  9
$PUCSNAME
  2

  9
$PUCSORG
 10
0.0
 20
0.0
 30
0.0
  9
$PUCSXDIR
 10
1.0
 20
0.0
 30
0.0
  9
$PUCSYDIR
 10
0.0
 20
1.0
 30
0.0
  9
$PUCSORTHOREF
  2

  9
$PUCSORTHOVIEW
 70
     0
  9
$PUCSORGTOP
 10
0.0
 20
0.0
 30
0.0
  9
$PUCSORGBOTTOM
 10
0.0
 20
0.0
 30
0.0
  9
$PUCSORGLEFT
 10
0.0
 20
0.0
 30
0.0
  9
$PUCSORGRIGHT
 10
0.0
 20
0.0
 30
0.0
  9
$PUCSORGFRONT
 10
0.0
 20
0.0
 30
0.0
  9
$PUCSORGBACK
 10
0.0
 20
0.0
 30
0.0
  9
$USERI1
 70
     0
  9
$USERI2
 70
     0
  9
$USERI3
 70
     0
  9
$USERI4
 70
     0
  9
$USERI5
 70
     0
  9
$USERR1
 40
0.0
  9
$USERR2
 40
0.0
  9
$USERR3
 40
0.0
  9
$USERR4
 40
0.0
  9
$USERR5
 40
0.0
  9
$WORLDVIEW
 70
     1
  9
$SHADEDGE
 70
     3
  9
$SHADEDIF
 70
    70
  9
$TILEMODE
 70
     1
  9
$MAXACTVP
 70
    64
  9
$PINSBASE
 10
0.0
 20
0.0
 30
0.0
  9
$PLIMCHECK
 70
     0
  9
$PEXTMIN
 10
1.0000000000E+20
 20
1.0000000000E+20
 30
1.0000000000E+20
  9
$PEXTMAX
 10
-1.0000000000E+20
 20
-1.0000000000E+20
 30
-1.0000000000E+20
  9
$PLIMMIN
 10
0.0
 20
0.0
  9
$PLIMMAX
 10
420.0
 20
297.0
  9
$UNITMODE
 70
     0
  9
$VISRETAIN
 70
     1
  9
$PLINEGEN
 70
     0
  9
$PSLTSCALE
 70
     1
  9
$TREEDEPTH
 70
  3020
  9
$CMLSTYLE
  2
Standard
  9
$CMLJUST
 70
     0
  9
$CMLSCALE
 40
20.0
  9
$PROXYGRAPHICS
 70
     1
  9
$MEASUREMENT
 70
     1
  9
$CELWEIGHT
370
    -1
  9
$ENDCAPS
280
     0
  9
$JOINSTYLE
280
     0
  9
$LWDISPLAY
290
     1
  9
$INSUNITS
 70
     4
  9
$HYPERLINKBASE
  1

  9
$STYLESHEET
  1

  9
$XEDIT
290
     1
  9
$CEPSNTYPE
380
     0
  9
$PSTYLEMODE
290
     1
  9
$FINGERPRINTGUID
  2
{37BF4A88-5623-47E0-A9B8-EEE1E04E7669}
  9
$VERSIONGUID
  2
{FAEB1C32-E019-11D5-929B-00C0DF256EC4}
  9
$EXTNAMES
290
     1
  9
$PSVPSCALE
 40
0.0
  9
$OLESTARTUP
290
     0
  0
ENDSEC
  0
SECTION
  2
CLASSES
  0
CLASS
  1
ACDBDICTIONARYWDFLT
  2
AcDbDictionaryWithDefault
  3
ObjectDBX Classes
 90
        0
280
     0
281
     0
  0
CLASS
  1
VISUALSTYLE
  2
AcDbVisualStyle
  3
ObjectDBX Classes
 90
     4095
280
     0
281
     0
  0
CLASS
  1
MATERIAL
  2
AcDbMaterial
  3
ObjectDBX Classes
 90
     1153
280
     0
281
     0
  0
CLASS
  1
SCALE
  2
AcDbScale
  3
ObjectDBX Classes
 90
     1153
280
     0
281
     0
  0
CLASS
  1
SUN
  2
AcDbSun
  3
SCENEOE
 90
     1153
280
     0
281
     0
  0
CLASS
  1
ACDBPLACEHOLDER
  2
AcDbPlaceHolder
  3
ObjectDBX Classes
 90
        0
280
     0
281
     0
  0
CLASS
  1
LAYOUT
  2
AcDbLayout
  3
ObjectDBX Classes
 90
        0
280
     0
281
     0
  0
ENDSEC
  0
SECTION
  2
TABLES
  0
TABLE
  2
VPORT
  5
8
330
0
100
AcDbSymbolTable
 70
     1
  0
VPORT
  5
29
330
8
100
AcDbSymbolTableRecord
100
AcDbViewportTableRecord
  2
*Active
 70
     0
 10
0.0
 20
0.0
 11
1.0
 21
1.0
 12
133.65
 22
94.5
 13
0.0
 23
0.0
 14
10.0
 24
10.0
 15
10.0
 25
10.0
 16
0.0
 26
0.0
 36
1.0
 17
0.0
 27
0.0
 37
0.0
 40
189.0
 41
1.4142857143
 42
50.0
 43
0.0
 44
0.0
 50
0.0
 51
0.0
 71
     0
 72
  2000
 73
     1
 74
     3
 75
     0
 76
     0
 77
     0
 78
     0
281
     0
 65
     1
110
0.0
120
0.0
130
0.0
111
1.0
121
0.0
131
0.0
112
0.0
122
1.0
132
0.0
 79
     0
146
0.0
  0
ENDTAB
  0
TABLE
  2
LTYPE
  5
5
330
0
100
AcDbSymbolTable
 70
     6
  0
LTYPE
  5
14
330
5
100
AcDbSymbolTableRecord
100
AcDbLinetypeTableRecord
  2
ByBlock
 70
     0
  3

 72
    65
 73
     0
 40
0.0
  0
LTYPE
  5
15
330
5
100
AcDbSymbolTableRecord
100
AcDbLinetypeTableRecord
  2
ByLayer
 70
     0
  3

 72
    65
 73
     0
 40
0.0
  0
LTYPE
  5
16
330
5
100
AcDbSymbolTableRecord
100
AcDbLinetypeTableRecord
  2
Continuous
 70
     0
  3
Solid line
 72
    65
 73
     0
 40
0.0
  0
LTYPE
  5
6A
330
5
100
AcDbSymbolTableRecord
100
AcDbLinetypeTableRecord
  2
HIDDEN
 70
     0
  3
Hidden __ __ __ __ __ __ __ __ __ __ __ __ __ __
 72
    65
 73
     2
 40
1.905
 49
1.27
 74
     0
 49
-0.635
 74
     0
  0
LTYPE
  5
6B
330
5
100
AcDbSymbolTableRecord
100
AcDbLinetypeTableRecord
  2
PHANTOM
 70
     0
  3
Phantom ______  __  __  ______  __  __  ______
 72
    65
 73
     6
 40
12.7
 49
6.35
 74
     0
 49
-1.27
 74
     0
 49
1.27
 74
     0
 49
-1.27
 74
     0
 49
1.27
 74
     0
 49
-1.27
 74
     0
  0
LTYPE
  5
6C
330
5
100
AcDbSymbolTableRecord
100
AcDbLinetypeTableRecord
  2
CENTER
 70
     0
  3
Center ____ _ ____ _ ____ _ ____ _ ____ _ ____
 72
    65
 73
     4
 40
10.16
 49
6.35
 74
     0
 49
-1.27
 74
     0
 49
1.27
 74
     0
 49
-1.27
 74
     0
  0
LTYPE
  5
6D
330
5
100
AcDbSymbolTableRecord
100
AcDbLinetypeTableRecord
  2
CENTERX2
 70
     0
  3
Center (2x) ________  __  ________  __  _____
 72
    65
 73
     4
 40
20.32
 49
12.7
 74
     0
 49
-2.54
 74
     0
 49
2.54
 74
     0
 49
-2.54
 74
     0
  0
LTYPE
  5
6E
330
5
100
AcDbSymbolTableRecord
100
AcDbLinetypeTableRecord
  2
DOT2
 70
     0
  3
Dot (.5x) ........................................
 72
    65
 73
     2
 40
0.635
 49
0.0
 74
     0
 49
-0.635
 74
     0
  0
ENDTAB
  0
TABLE
  2
LAYER
  5
2
330
0
100
AcDbSymbolTable
 70
     8
  0
LAYER
  5
10
330
2
100
AcDbSymbolTableRecord
100
AcDbLayerTableRecord
  2
0
 70
     0
 62
     7
  6
Continuous
370
    -3
390
F
  0
LAYER
  5
6F
330
2
100
AcDbSymbolTableRecord
100
AcDbLayerTableRecord
  2
FORMAT
 70
     0
 62
     7
  6
Continuous
370
    -3
390
F
  0
LAYER
  5
70
330
2
100
AcDbSymbolTableRecord
100
AcDbLayerTableRecord
  2
SLD-0
 70
     0
 62
     2
  6
Continuous
370
    -3
390
F
  0
LAYER
  5
71
330
2
100
AcDbSymbolTableRecord
100
AcDbLayerTableRecord
  2
DIM
 70
     0
 62
   179
  6
Continuous
370
    -3
390
F
  0
LAYER
  5
72
330
2
100
AcDbSymbolTableRecord
100
AcDbLayerTableRecord
  2
SLD-DEFPOINTS
 70
     0
 62
   179
  6
Continuous
370
    -3
390
F
  0
LAYER
  5
73
330
2
100
AcDbSymbolTableRecord
100
AcDbLayerTableRecord
  2
HAT
 70
     0
 62
   135
  6
Continuous
370
    -3
390
F
  0
LAYER
  5
74
330
2
100
AcDbSymbolTableRecord
100
AcDbLayerTableRecord
  2
JOB
 70
     0
 62
   201
  6
Continuous
370
    -3
390
F
  0
LAYER
  5
75
330
2
100
AcDbSymbolTableRecord
100
AcDbLayerTableRecord
  2
INSPECTION_REPORT
 70
     0
 62
   255
  6
Continuous
370
    -3
390
F
  0
ENDTAB
  0
TABLE
  2
STYLE
  5
3
330
0
100
AcDbSymbolTable
 70
     4
  0
STYLE
  5
11
330
3
100
AcDbSymbolTableRecord
100
AcDbTextStyleTableRecord
  2
Standard
 70
     0
 40
0.0
 41
1.0
 50
0.0
 71
     0
 42
3.4925
  3
txt
  4

  0
STYLE
  5
96
330
3
100
AcDbSymbolTableRecord
100
AcDbTextStyleTableRecord
  2
SLDTEXTSTYLE0
 70
     0
 40
0.0
 41
0.7
 50
0.0
 71
     0
 42
3.4925
  3
TXT
  4

  0
STYLE
  5
98
330
3
100
AcDbSymbolTableRecord
100
AcDbTextStyleTableRecord
  2
SLDTEXTSTYLE1
 70
     0
 40
0.0
 41
0.75
 50
0.0
 71
     0
 42
3.4925
  3
TXT
  4

  0
STYLE
  5
AB
330
3
100
AcDbSymbolTableRecord
100
AcDbTextStyleTableRecord
  2
SLDTEXTSTYLE2
 70
     0
 40
0.0
 41
0.6875
 50
0.0
 71
     0
 42
3.4925
  3
TXT
  4

  0
ENDTAB
  0
TABLE
  2
VIEW
  5
6
330
0
100
AcDbSymbolTable
 70
     0
  0
ENDTAB
  0
TABLE
  2
UCS
  5
7
330
0
100
AcDbSymbolTable
 70
     0
  0
ENDTAB
  0
TABLE
  2
APPID
  5
9
330
0
100
AcDbSymbolTable
 70
     1
  0
APPID
  5
12
330
9
100
AcDbSymbolTableRecord
100
AcDbRegAppTableRecord
  2
ACAD
 70
     0
  0
ENDTAB
  0
TABLE
  2
DIMSTYLE
  5
A
330
0
100
AcDbSymbolTable
 70
     3
100
AcDbDimStyleTable
  0
DIMSTYLE
105
27
330
A
100
AcDbSymbolTableRecord
100
AcDbDimStyleTableRecord
  2
ISO-25
 70
     0
 41
2.5
 42
0.625
 43
3.75
 44
1.25
 73
     0
 74
     0
 77
     1
 78
     8
140
2.5
141
2.5
143
0.0393700787
147
0.625
171
     3
172
     1
178
     0
271
     2
272
     2
274
     3
278
    44
283
     0
284
     8
340
11
  0
DIMSTYLE
105
14E
102
{ACAD_REACTORS
330
14D
330
16F
102
}
330
A
100
AcDbSymbolTableRecord
100
AcDbDimStyleTableRecord
  2
SLDDIMSTYLE0
 70
     0
 41
2.9718
 44
0.0
 45
0.000000001
 73
     0
 74
     0
 77
     1
 78
    12
 79
     3
140
2.619375
144
1.0
147
0.65484375
173
     1
178
     0
271
     2
272
     2
276
     2
284
    12
340
96
  0
DIMSTYLE
105
15A
102
{ACAD_REACTORS
330
159
330
165
102
}
330
A
100
AcDbSymbolTableRecord
100
AcDbDimStyleTableRecord
  2
SLDDIMSTYLE1
 70
     0
 41
2.9718
 44
0.0
 45
0.000000001
 73
     0
 74
     0
 77
     1
 78
     4
 79
     1
140
2.619375
144
1.0
147
0.65484375
173
     1
178
     0
271
     2
272
     2
276
     2
284
    12
340
96
  0
ENDTAB
  0
TABLE
  2
BLOCK_RECORD
  5
1
330
0
100
AcDbSymbolTable
 70
     6
  0
BLOCK_RECORD
  5
1F
330
1
100
AcDbSymbolTableRecord
100
AcDbBlockTableRecord
  2
*Model_Space
340
22
  0
BLOCK_RECORD
  5
1B
330
1
100
AcDbSymbolTableRecord
100
AcDbBlockTableRecord
  2
*Paper_Space
340
1E
  0
BLOCK_RECORD
  5
23
330
1
100
AcDbSymbolTableRecord
100
AcDbBlockTableRecord
  2
*Paper_Space0
340
26
  0
BLOCK_RECORD
  5
E7
330
1
100
AcDbSymbolTableRecord
100
AcDbBlockTableRecord
  2
SW_CENTERMARKSYMBOL_0
340
0
102
{BLKREFS
331
F2
102
}
  0
BLOCK_RECORD
  5
14F
330
1
100
AcDbSymbolTableRecord
100
AcDbBlockTableRecord
  2
_D
340
0
  0
BLOCK_RECORD
  5
15B
330
1
100
AcDbSymbolTableRecord
100
AcDbBlockTableRecord
  2
_D_1
340
0
  0
BLOCK_RECORD
  5
166
330
1
100
AcDbSymbolTableRecord
100
AcDbBlockTableRecord
  2
_D_2
340
0
  0
BLOCK_RECORD
  5
170
330
1
100
AcDbSymbolTableRecord
100
AcDbBlockTableRecord
  2
_D_3
340
0
  0
ENDTAB
  0
ENDSEC
  0
SECTION
  2
BLOCKS
  0
BLOCK
  5
20
330
1F
100
AcDbEntity
  8
0
100
AcDbBlockBegin
  2
*Model_Space
 70
     0
 10
0.0
 20
0.0
 30
0.0
  3
*Model_Space
  1
*Model_Space
  0
ENDBLK
  5
21
330
1F
100
AcDbEntity
  8
0
100
AcDbBlockEnd
  0
BLOCK
  5
1C
330
1B
100
AcDbEntity
 67
     1
  8
0
100
AcDbBlockBegin
  2
*Paper_Space
 70
     0
 10
0.0
 20
0.0
 30
0.0
  3
*Paper_Space
  1
*Paper_Space
  0
ENDBLK
  5
1D
330
1B
100
AcDbEntity
 67
     1
  8
0
100
AcDbBlockEnd
  0
BLOCK
  5
24
330
23
100
AcDbEntity
  8
0
100
AcDbBlockBegin
  2
*Paper_Space0
 70
     0
 10
0.0
 20
0.0
 30
0.0
  3
*Paper_Space0
  1
*Paper_Space0
  0
ENDBLK
  5
25
330
23
100
AcDbEntity
  8
0
100
AcDbBlockEnd
  0
BLOCK
  5
E8
330
E7
100
AcDbEntity
  8
0
100
AcDbBlockBegin
  2
SW_CENTERMARKSYMBOL_0
 70
     0
 10
0.0
 20
0.0
 30
0.0
  3
SW_CENTERMARKSYMBOL_0
  1
SW_CENTERMARKSYMBOL_0
  0
LINE
  5
EA
330
E7
100
AcDbEntity
  8
DIM
 62
     0
100
AcDbLine
 10
0.0
 20
0.0
 30
0.0
 11
0.0
 21
2.5
 31
0.0
  0
LINE
  5
EB
330
E7
100
AcDbEntity
  8
DIM
 62
     0
100
AcDbLine
 10
0.0
 20
0.0
 30
0.0
 11
-2.5
 21
0.0
 31
0.0
  0
LINE
  5
EC
330
E7
100
AcDbEntity
  8
DIM
 62
     0
100
AcDbLine
 10
0.0
 20
0.0
 30
0.0
 11
0.0
 21
-2.5
 31
0.0
  0
LINE
  5
ED
330
E7
100
AcDbEntity
  8
DIM
 62
     0
100
AcDbLine
 10
0.0
 20
0.0
 30
0.0
 11
2.5
 21
0.0
 31
0.0
  0
LINE
  5
EE
330
E7
100
AcDbEntity
  8
DIM
 62
     0
100
AcDbLine
 10
0.0
 20
5.0
 30
0.0
 11
0.0
 21
36.1885535049
 31
0.0
  0
LINE
  5
EF
330
E7
100
AcDbEntity
  8
DIM
 62
     0
100
AcDbLine
 10
-5.0
 20
0.0
 30
0.0
 11
-35.0338115789
 21
0.0
 31
0.0
  0
LINE
  5
F0
330
E7
100
AcDbEntity
  8
DIM
 62
     0
100
AcDbLine
 10
0.0
 20
-5.0
 30
0.0
 11
0.0
 21
-33.845211834
 31
0.0
  0
LINE
  5
F1
330
E7
100
AcDbEntity
  8
DIM
 62
     0
100
AcDbLine
 10
5.0
 20
0.0
 30
0.0
 11
31.4277482801
 21
0.0
 31
0.0
  0
ENDBLK
  5
E9
330
E7
100
AcDbEntity
  8
0
100
AcDbBlockEnd
  0
BLOCK
  5
150
330
14F
100
AcDbEntity
  8
0
100
AcDbBlockBegin
  2
_D
 70
     0
 10
0.0
 20
0.0
 30
0.0
  3
_D
  1
_D
  0
SOLID
  5
152
330
14F
100
AcDbEntity
  8
DIM
100
AcDbTrace
 10
230.7998922036
 20
81.6790618944
 30
0.0
 11
231.2570922036
 21
84.6508618944
 31
0.0
 12
230.3426922036
 22
84.6508618944
 32
0.0
 13
230.3426922036
 23
84.6508618944
 33
0.0
  0
SOLID
  5
153
330
14F
100
AcDbEntity
  8
DIM
100
AcDbTrace
 10
230.7998922036
 20
113.6790618944
 30
0.0
 11
230.3426922036
 21
110.7072618944
 31
0.0
 12
231.2570922036
 22
110.7072618944
 32
0.0
 13
231.2570922036
 23
110.7072618944
 33
0.0
  0
LINE
  5
154
330
14F
100
AcDbEntity
  8
DIM
100
AcDbLine
 10
221.8338667998
 20
81.6790618944
 30
0.0
 11
231.6998922036
 21
81.6790618944
 31
0.0
  0
LINE
  5
155
330
14F
100
AcDbEntity
  8
DIM
100
AcDbLine
 10
221.8338667998
 20
113.6790618944
 30
0.0
 11
231.6998922036
 21
113.6790618944
 31
0.0
  0
LINE
  5
156
330
14F
100
AcDbEntity
  8
DIM
100
AcDbLine
 10
230.7998922036
 20
81.6790618944
 30
0.0
 11
230.7998922036
 21
113.6790618944
 31
0.0
  0
MTEXT
  5
157
330
14F
100
AcDbEntity
  8
DIM
100
AcDbMText
 10
227.4233401832
 20
93.8832722
 30
0.0
 40
2.619375
 41
0.0
 71
     1
 72
     1
  1
%%c
  7
SLDTEXTSTYLE0
 11
6.123233995736766E-17
 21
1.0
 31
0.0
 73
     1
 44
1.0
  0
MTEXT
  5
158
330
14F
100
AcDbEntity
  8
DIM
100
AcDbMText
 10
227.4233401832
 20
97.9338445096
 30
0.0
 40
2.619375
 41
0.0
 71
     1
 72
     1
  1
32
  7
SLDTEXTSTYLE0
 11
6.123233995736766E-17
 21
1.0
 31
0.0
 73
     1
 44
1.0
  0
ENDBLK
  5
151
330
14F
100
AcDbEntity
  8
0
100
AcDbBlockEnd
  0
BLOCK
  5
15C
330
15B
100
AcDbEntity
  8
0
100
AcDbBlockBegin
  2
_D_1
 70
     0
 10
0.0
 20
0.0
 30
0.0
  3
_D_1
  1
_D_1
  0
SOLID
  5
15E
330
15B
100
AcDbEntity
  8
DIM
100
AcDbTrace
 10
98.5949969453
 20
65.9290618944
 30
0.0
 11
99.0521969453
 21
68.9008618944
 31
0.0
 12
98.1377969453
 22
68.9008618944
 32
0.0
 13
98.1377969453
 23
68.9008618944
 33
0.0
  0
SOLID
  5
15F
330
15B
100
AcDbEntity
  8
DIM
100
AcDbTrace
 10
98.5949969453
 20
129.4290618944
 30
0.0
 11
98.1377969453
 21
126.4572618944
 31
0.0
 12
99.0521969453
 22
126.4572618944
 32
0.0
 13
99.0521969453
 23
126.4572618944
 33
0.0
  0
LINE
  5
160
330
15B
100
AcDbEntity
  8
DIM
100
AcDbLine
 10
175.2655776286
 20
65.9290618944
 30
0.0
 11
97.6949969453
 21
65.9290618944
 31
0.0
  0
LINE
  5
161
330
15B
100
AcDbEntity
  8
DIM
100
AcDbLine
 10
175.2655776286
 20
129.4290618944
 30
0.0
 11
97.6949969453
 21
129.4290618944
 31
0.0
  0
LINE
  5
162
330
15B
100
AcDbEntity
  8
DIM
100
AcDbLine
 10
98.5949969453
 20
65.9290618944
 30
0.0
 11
98.5949969453
 21
129.4290618944
 31
0.0
  0
MTEXT
  5
163
330
15B
100
AcDbEntity
  8
DIM
100
AcDbMText
 10
95.2184449249
 20
91.6471019714
 30
0.0
 40
2.619375
 41
0.0
 71
     1
 72
     1
  1
%%c
  7
SLDTEXTSTYLE0
 11
6.123233995736766E-17
 21
1.0
 31
0.0
 73
     1
 44
1.0
  0
MTEXT
  5
164
330
15B
100
AcDbEntity
  8
DIM
100
AcDbMText
 10
95.2184449249
 20
95.6976742811
 30
0.0
 40
2.619375
 41
0.0
 71
     1
 72
     1
  1
63.50
  7
SLDTEXTSTYLE0
 11
6.123233995736766E-17
 21
1.0
 31
0.0
 73
     1
 44
1.0
  0
ENDBLK
  5
15D
330
15B
100
AcDbEntity
  8
0
100
AcDbBlockEnd
  0
BLOCK
  5
167
330
166
100
AcDbEntity
  8
0
100
AcDbBlockBegin
  2
_D_2
 70
     0
 10
0.0
 20
0.0
 30
0.0
  3
_D_2
  1
_D_2
  0
SOLID
  5
169
330
166
100
AcDbEntity
  8
DIM
100
AcDbTrace
 10
103.3998922036
 20
51.5290618944
 30
0.0
 11
106.3716922036
 21
51.0718618944
 31
0.0
 12
106.3716922036
 22
51.9862618944
 32
0.0
 13
106.3716922036
 23
51.9862618944
 33
0.0
  0
SOLID
  5
16A
330
166
100
AcDbEntity
  8
DIM
100
AcDbTrace
 10
221.7998922036
 20
51.5290618944
 30
0.0
 11
218.8280922036
 21
51.9862618944
 31
0.0
 12
218.8280922036
 22
51.0718618944
 32
0.0
 13
218.8280922036
 23
51.0718618944
 33
0.0
  0
LINE
  5
16B
330
166
100
AcDbEntity
  8
DIM
100
AcDbLine
 10
103.3998922036
 20
96.7790618944
 30
0.0
 11
103.3998922036
 21
50.6290618944
 31
0.0
  0
LINE
  5
16C
330
166
100
AcDbEntity
  8
DIM
100
AcDbLine
 10
221.7998922036
 20
82.2790618944
 30
0.0
 11
221.7998922036
 21
50.6290618944
 31
0.0
  0
LINE
  5
16D
330
166
100
AcDbEntity
  8
DIM
100
AcDbLine
 10
103.3998922036
 20
51.5290618944
 30
0.0
 11
221.7998922036
 21
51.5290618944
 31
0.0
  0
MTEXT
  5
16E
330
166
100
AcDbEntity
  8
DIM
100
AcDbMText
 10
157.7079666657
 20
54.9056139148
 30
0.0
 40
2.619375
 41
0.0
 71
     1
 72
     1
  1
118.40
  7
SLDTEXTSTYLE0
 73
     1
 44
1.0
  0
ENDBLK
  5
168
330
166
100
AcDbEntity
  8
0
100
AcDbBlockEnd
  0
BLOCK
  5
171
330
170
100
AcDbEntity
  8
0
100
AcDbBlockBegin
  2
_D_3
 70
     0
 10
0.0
 20
0.0
 30
0.0
  3
_D_3
  1
_D_3
  0
SOLID
  5
173
330
170
100
AcDbEntity
  8
DIM
100
AcDbTrace
 10
171.7998922036
 20
60.8669954415
 30
0.0
 11
174.7716922036
 21
60.4097954415
 31
0.0
 12
174.7716922036
 22
61.3241954415
 32
0.0
 13
174.7716922036
 23
61.3241954415
 33
0.0
  0
SOLID
  5
174
330
170
100
AcDbEntity
  8
DIM
100
AcDbTrace
 10
221.7998922036
 20
60.8669954415
 30
0.0
 11
218.8280922036
 21
61.3241954415
 31
0.0
 12
218.8280922036
 22
60.4097954415
 32
0.0
 13
218.8280922036
 23
60.4097954415
 33
0.0
  0
LINE
  5
175
330
170
100
AcDbEntity
  8
DIM
100
AcDbLine
 10
171.7998922036
 20
74.5540618944
 30
0.0
 11
171.7998922036
 21
59.9669954415
 31
0.0
  0
LINE
  5
176
330
170
100
AcDbEntity
  8
DIM
100
AcDbLine
 10
221.7998922036
 20
82.2790618944
 30
0.0
 11
221.7998922036
 21
59.9669954415
 31
0.0
  0
LINE
  5
177
330
170
100
AcDbEntity
  8
DIM
100
AcDbLine
 10
171.7998922036
 20
60.8669954415
 30
0.0
 11
221.7998922036
 21
60.8669954415
 31
0.0
  0
MTEXT
  5
178
330
170
100
AcDbEntity
  8
DIM
100
AcDbMText
 10
195.029388664
 20
64.2435474619
 30
0.0
 40
2.619375
 41
0.0
 71
     1
 72
     1
  1
50
  7
SLDTEXTSTYLE0
 73
     1
 44
1.0
  0
ENDBLK
  5
172
330
170
100
AcDbEntity
  8
0
100
AcDbBlockEnd
  0
ENDSEC
  0
SECTION
  2
ENTITIES
  0
LINE
  5
76
330
1F
100
AcDbEntity
  8
DIM
100
AcDbLine
 10
94.2339822201
 20
8.8118923112
 30
0.0
 11
94.2339822201
 21
4.3118923112
 31
0.0
  0
LINE
  5
77
330
1F
100
AcDbEntity
  8
DIM
100
AcDbLine
 10
229.0226415258
 20
8.8118923112
 30
0.0
 11
229.0226415258
 21
4.3118923112
 31
0.0
  0
LINE
  5
78
330
1F
100
AcDbEntity
  8
DIM
100
AcDbLine
 10
213.7065389384
 20
8.8118923112
 30
0.0
 11
213.7065389384
 21
4.3118923112
 31
0.0
  0
LINE
  5
79
330
1F
100
AcDbEntity
  8
DIM
100
AcDbLine
 10
251.0139822201
 20
4.3118923112
 30
0.0
 11
251.0139822201
 21
8.8118923112
 31
0.0
  0
LINE
  5
7A
330
1F
100
AcDbEntity
  8
DIM
100
AcDbLine
 10
101.2539822201
 20
8.8118923112
 30
0.0
 11
101.2539822201
 21
4.3118923112
 31
0.0
  0
LINE
  5
7B
330
1F
100
AcDbEntity
  8
DIM
100
AcDbLine
 10
118.5258394105
 20
8.8118923112
 30
0.0
 11
118.5258394105
 21
4.3118923112
 31
0.0
  0
LINE
  5
7C
330
1F
100
AcDbEntity
  8
DIM
100
AcDbLine
 10
262.7139822201
 20
4.3118923112
 30
0.0
 11
262.7139822201
 21
69.3368923112
 31
0.0
  0
LINE
  5
7D
330
1F
100
AcDbEntity
  8
DIM
100
AcDbLine
 10
257.2371042252
 20
54.0368923112
 30
0.0
 11
262.7139822201
 21
54.0368923112
 31
0.0
  0
LINE
  5
7E
330
1F
100
AcDbEntity
  8
DIM
100
AcDbLine
 10
134.1930157673
 20
8.1368923112
 30
0.0
 11
134.1930157673
 21
4.3118923112
 31
0.0
  0
LINE
  5
7F
330
1F
100
AcDbEntity
  8
DIM
100
AcDbLine
 10
177.0875542444
 20
8.8118923112
 30
0.0
 11
177.0875542444
 21
4.3118923112
 31
0.0
  0
LINE
  5
80
330
1F
100
AcDbEntity
  8
DIM
100
AcDbLine
 10
134.1930157673
 20
8.8118923112
 30
0.0
 11
134.1930157673
 21
8.1368923112
 31
0.0
  0
LINE
  5
81
330
1F
100
AcDbEntity
  8
DIM
100
AcDbLine
 10
258.2139822201
 20
15.7868275112
 30
0.0
 11
262.7139822201
 21
15.7868275112
 31
0.0
  0
LINE
  5
82
330
1F
100
AcDbEntity
  8
DIM
100
AcDbLine
 10
258.2139822201
 20
179.8118923112
 30
0.0
 11
8.9139822201
 21
179.8118923112
 31
0.0
  0
LINE
  5
83
330
1F
100
AcDbEntity
  8
DIM
100
AcDbLine
 10
262.7139822201
 20
184.3118923112
 30
0.0
 11
4.4139822201
 21
184.3118923112
 31
0.0
  0
LINE
  5
84
330
1F
100
AcDbEntity
  8
DIM
100
AcDbLine
 10
8.9139822201
 20
179.8118923112
 30
0.0
 11
8.9139822201
 21
8.8118923112
 31
0.0
  0
LINE
  5
85
330
1F
100
AcDbEntity
  8
DIM
100
AcDbLine
 10
4.4139822201
 20
184.3118923112
 30
0.0
 11
4.4139822201
 21
4.3118923112
 31
0.0
  0
LINE
  5
86
330
1F
100
AcDbEntity
  8
DIM
100
AcDbLine
 10
8.9139822201
 20
49.3118923112
 30
0.0
 11
4.4139822201
 21
49.3118923112
 31
0.0
  0
LINE
  5
87
330
1F
100
AcDbEntity
  8
DIM
100
AcDbLine
 10
4.4139822201
 20
94.3118923112
 30
0.0
 11
8.9139822201
 21
94.3118923112
 31
0.0
  0
LINE
  5
88
330
1F
100
AcDbEntity
  8
DIM
100
AcDbLine
 10
4.4139822201
 20
4.3118923112
 30
0.0
 11
262.7139822201
 21
4.3118923112
 31
0.0
  0
LINE
  5
89
330
1F
100
AcDbEntity
  8
DIM
100
AcDbLine
 10
8.9139822201
 20
8.8118923112
 30
0.0
 11
262.7139822201
 21
8.8118923112
 31
0.0
  0
LINE
  5
8A
330
1F
100
AcDbEntity
  8
DIM
100
AcDbLine
 10
43.5639822201
 20
4.3118923112
 30
0.0
 11
43.5639822201
 21
8.8118923112
 31
0.0
  0
LINE
  5
8B
330
1F
100
AcDbEntity
  8
DIM
100
AcDbLine
 10
88.5639822201
 20
8.8118923112
 30
0.0
 11
88.5639822201
 21
4.3118923112
 31
0.0
  0
LINE
  5
8C
330
1F
100
AcDbEntity
  8
DIM
100
AcDbLine
 10
8.9139822201
 20
139.3118923112
 30
0.0
 11
4.4139822201
 21
139.3118923112
 31
0.0
  0
LINE
  5
8D
330
1F
100
AcDbEntity
  8
DIM
100
AcDbLine
 10
43.5639822201
 20
179.8118923112
 30
0.0
 11
43.5639822201
 21
184.3118923112
 31
0.0
  0
LINE
  5
8E
330
1F
100
AcDbEntity
  8
DIM
100
AcDbLine
 10
88.5639822201
 20
184.3118923112
 30
0.0
 11
88.5639822201
 21
179.8118923112
 31
0.0
  0
LINE
  5
8F
330
1F
100
AcDbEntity
  8
DIM
100
AcDbLine
 10
133.5639822201
 20
184.3118923112
 30
0.0
 11
133.5639822201
 21
179.8118923112
 31
0.0
  0
LINE
  5
90
330
1F
100
AcDbEntity
  8
DIM
100
AcDbLine
 10
258.2139822201
 20
8.8118923112
 30
0.0
 11
258.2139822201
 21
179.8118923112
 31
0.0
  0
LINE
  5
91
330
1F
100
AcDbEntity
  8
DIM
100
AcDbLine
 10
262.7139822201
 20
69.3368923112
 30
0.0
 11
262.7139822201
 21
184.3118923112
 31
0.0
  0
LINE
  5
92
330
1F
100
AcDbEntity
  8
DIM
100
AcDbLine
 10
262.7139822201
 20
94.3118923112
 30
0.0
 11
258.2139822201
 21
94.3118923112
 31
0.0
  0
LINE
  5
93
330
1F
100
AcDbEntity
  8
DIM
100
AcDbLine
 10
178.5639822201
 20
184.3118923112
 30
0.0
 11
178.5639822201
 21
179.8118923112
 31
0.0
  0
LINE
  5
94
330
1F
100
AcDbEntity
  8
DIM
100
AcDbLine
 10
223.5639822201
 20
179.8118923112
 30
0.0
 11
223.5639822201
 21
184.3118923112
 31
0.0
  0
LINE
  5
95
330
1F
100
AcDbEntity
  8
DIM
100
AcDbLine
 10
258.2139822201
 20
139.3118923112
 30
0.0
 11
262.7139822201
 21
139.3118923112
 31
0.0
  0
MTEXT
  5
97
330
1F
100
AcDbEntity
  8
DIM
100
AcDbMText
 10
17.6706610507
 20
172.8494929398
 30
0.0
 40
3.81
 41
0.0
 71
     1
 72
     1
  1
SK40 MT02 050 6.3G15000 SL
  7
SLDTEXTSTYLE0
 73
     1
 44
1.0
  0
MTEXT
  5
99
330
1F
100
AcDbEntity
  8
DIM
 62
     7
100
AcDbMText
 10
177.959500782
 20
7.0217563737
 30
0.0
 40
1.34874
 41
0.0
 71
     1
 72
     1
  1
WEIGHT:
  7
SLDTEXTSTYLE1
 73
     1
 44
1.0
  0
MTEXT
  5
9A
330
1F
100
AcDbEntity
  8
DIM
 62
     7
100
AcDbMText
 10
259.7373690793
 20
73.7465521574
 30
0.0
 40
1.666875
 41
0.0
 71
     1
 72
     1
  1
C
  7
SLDTEXTSTYLE1
 73
     1
 44
1.0
  0
MTEXT
  5
9B
330
1F
100
AcDbEntity
  8
DIM
 62
     7
100
AcDbMText
 10
254.7392225575
 20
13.3685837853
 30
0.0
 40
2.619375
 41
0.0
 71
     1
 72
     1
  1
A4
  7
SLDTEXTSTYLE1
 73
     1
 44
1.0
  0
MTEXT
  5
9C
330
1F
100
AcDbEntity
  8
DIM
 62
     7
100
AcDbMText
 10
245.3139858201
 20
183.1131070744
 30
0.0
 40
1.666875
 41
0.0
 71
     1
 72
     1
  1
6
  7
SLDTEXTSTYLE1
 73
     1
 44
1.0
  0
MTEXT
  5
9D
330
1F
100
AcDbEntity
  8
DIM
 62
     7
100
AcDbMText
 10
200.3139858201
 20
183.1131070744
 30
0.0
 40
1.666875
 41
0.0
 71
     1
 72
     1
  1
5
  7
SLDTEXTSTYLE1
 73
     1
 44
1.0
  0
MTEXT
  5
9E
330
1F
100
AcDbEntity
  8
DIM
 62
     7
100
AcDbMText
 10
259.7139894201
 20
162.8631070744
 30
0.0
 40
1.666875
 41
0.0
 71
     1
 72
     1
  1
A
  7
SLDTEXTSTYLE1
 73
     1
 44
1.0
  0
MTEXT
  5
9F
330
1F
100
AcDbEntity
  8
DIM
 62
     7
100
AcDbMText
 10
259.7139894201
 20
117.8631070744
 30
0.0
 40
1.666875
 41
0.0
 71
     1
 72
     1
  1
B
  7
SLDTEXTSTYLE1
 73
     1
 44
1.0
  0
MTEXT
  5
A0
330
1F
100
AcDbEntity
  8
DIM
 62
     7
100
AcDbMText
 10
155.3139858201
 20
183.1131070744
 30
0.0
 40
1.666875
 41
0.0
 71
     1
 72
     1
  1
4
  7
SLDTEXTSTYLE1
 73
     1
 44
1.0
  0
MTEXT
  5
A1
330
1F
100
AcDbEntity
  8
DIM
 62
     7
100
AcDbMText
 10
20.6889858201
 20
183.1131070744
 30
0.0
 40
1.666875
 41
0.0
 71
     1
 72
     1
  1
1
  7
SLDTEXTSTYLE1
 73
     1
 44
1.0
  0
MTEXT
  5
A2
330
1F
100
AcDbEntity
  8
DIM
 62
     7
100
AcDbMText
 10
65.3139858201
 20
183.1131070744
 30
0.0
 40
1.666875
 41
0.0
 71
     1
 72
     1
  1
2
  7
SLDTEXTSTYLE1
 73
     1
 44
1.0
  0
MTEXT
  5
A3
330
1F
100
AcDbEntity
  8
DIM
 62
     7
100
AcDbMText
 10
110.3139858201
 20
183.1131070744
 30
0.0
 40
1.666875
 41
0.0
 71
     1
 72
     1
  1
3
  7
SLDTEXTSTYLE1
 73
     1
 44
1.0
  0
MTEXT
  5
A4
330
1F
100
AcDbEntity
  8
DIM
 62
     7
100
AcDbMText
 10
5.9139822201
 20
162.8631070744
 30
0.0
 40
1.666875
 41
0.0
 71
     1
 72
     1
  1
A
  7
SLDTEXTSTYLE1
 73
     1
 44
1.0
  0
MTEXT
  5
A5
330
1F
100
AcDbEntity
  8
DIM
 62
     7
100
AcDbMText
 10
65.3139858201
 20
7.6131070744
 30
0.0
 40
1.666875
 41
0.0
 71
     1
 72
     1
  1
2
  7
SLDTEXTSTYLE1
 73
     1
 44
1.0
  0
MTEXT
  5
A6
330
1F
100
AcDbEntity
  8
DIM
 62
     7
100
AcDbMText
 10
20.6889858201
 20
7.6131070744
 30
0.0
 40
1.666875
 41
0.0
 71
     1
 72
     1
  1
1
  7
SLDTEXTSTYLE1
 73
     1
 44
1.0
  0
MTEXT
  5
A7
330
1F
100
AcDbEntity
  8
DIM
 62
     7
100
AcDbMText
 10
5.9139822201
 20
27.8631070744
 30
0.0
 40
1.666875
 41
0.0
 71
     1
 72
     1
  1
D
  7
SLDTEXTSTYLE1
 73
     1
 44
1.0
  0
MTEXT
  5
A8
330
1F
100
AcDbEntity
  8
DIM
 62
     7
100
AcDbMText
 10
5.9139822201
 20
72.8631070744
 30
0.0
 40
1.666875
 41
0.0
 71
     1
 72
     1
  1
C
  7
SLDTEXTSTYLE1
 73
     1
 44
1.0
  0
MTEXT
  5
A9
330
1F
100
AcDbEntity
  8
DIM
 62
     7
100
AcDbMText
 10
5.9139822201
 20
117.8631070744
 30
0.0
 40
1.666875
 41
0.0
 71
     1
 72
     1
  1
B
  7
SLDTEXTSTYLE1
 73
     1
 44
1.0
  0
MTEXT
  5
AA
330
1F
100
AcDbEntity
  8
DIM
 62
     7
100
AcDbMText
 10
259.7373690793
 20
73.7465521574
 30
0.0
 40
1.666875
 41
0.0
 71
     1
 72
     1
  1
C
  7
SLDTEXTSTYLE1
 73
     1
 44
1.0
  0
MTEXT
  5
AC
330
1F
100
AcDbEntity
  8
DIM
 62
     7
100
AcDbMText
 10
230.8728292313
 20
6.9219708582
 30
0.0
 40
1.35
 41
0.0
 71
     1
 72
     1
  1
SHEET 1 OF 1
  7
SLDTEXTSTYLE2
 73
     1
 44
1.0
  0
MTEXT
  5
AD
330
1F
100
AcDbEntity
  8
DIM
 62
     7
100
AcDbMText
 10
135.3346023451
 20
7.0680307353
 30
0.0
 40
1.35
 41
0.0
 71
     1
 72
     1
  1
MATERIAL:
  7
SLDTEXTSTYLE1
 73
     1
 44
1.0
  0
MTEXT
  5
AE
330
1F
100
AcDbEntity
  8
DIM
 62
     7
100
AcDbMText
 10
245.3139858201
 20
183.1131070744
 30
0.0
 40
1.666875
 41
0.0
 71
     1
 72
     1
  1
6
  7
SLDTEXTSTYLE1
 73
     1
 44
1.0
  0
MTEXT
  5
AF
330
1F
100
AcDbEntity
  8
DIM
 62
     7
100
AcDbMText
 10
200.3139858201
 20
183.1131070744
 30
0.0
 40
1.666875
 41
0.0
 71
     1
 72
     1
  1
5
  7
SLDTEXTSTYLE1
 73
     1
 44
1.0
  0
MTEXT
  5
B0
330
1F
100
AcDbEntity
  8
DIM
 62
     7
100
AcDbMText
 10
259.7139894201
 20
162.8631070744
 30
0.0
 40
1.666875
 41
0.0
 71
     1
 72
     1
  1
A
  7
SLDTEXTSTYLE1
 73
     1
 44
1.0
  0
MTEXT
  5
B1
330
1F
100
AcDbEntity
  8
DIM
 62
     7
100
AcDbMText
 10
259.7139894201
 20
117.8631070744
 30
0.0
 40
1.666875
 41
0.0
 71
     1
 72
     1
  1
B
  7
SLDTEXTSTYLE1
 73
     1
 44
1.0
  0
MTEXT
  5
B2
330
1F
100
AcDbEntity
  8
DIM
 62
     7
100
AcDbMText
 10
155.3139858201
 20
183.1131070744
 30
0.0
 40
1.666875
 41
0.0
 71
     1
 72
     1
  1
4
  7
SLDTEXTSTYLE1
 73
     1
 44
1.0
  0
MTEXT
  5
B3
330
1F
100
AcDbEntity
  8
DIM
 62
     7
100
AcDbMText
 10
20.6889858201
 20
183.1131070744
 30
0.0
 40
1.666875
 41
0.0
 71
     1
 72
     1
  1
1
  7
SLDTEXTSTYLE1
 73
     1
 44
1.0
  0
MTEXT
  5
B4
330
1F
100
AcDbEntity
  8
DIM
 62
     7
100
AcDbMText
 10
65.3139858201
 20
183.1131070744
 30
0.0
 40
1.666875
 41
0.0
 71
     1
 72
     1
  1
2
  7
SLDTEXTSTYLE1
 73
     1
 44
1.0
  0
MTEXT
  5
B5
330
1F
100
AcDbEntity
  8
DIM
 62
     7
100
AcDbMText
 10
110.3139858201
 20
183.1131070744
 30
0.0
 40
1.666875
 41
0.0
 71
     1
 72
     1
  1
3
  7
SLDTEXTSTYLE1
 73
     1
 44
1.0
  0
MTEXT
  5
B6
330
1F
100
AcDbEntity
  8
DIM
 62
     7
100
AcDbMText
 10
5.9139822201
 20
162.8631070744
 30
0.0
 40
1.666875
 41
0.0
 71
     1
 72
     1
  1
A
  7
SLDTEXTSTYLE1
 73
     1
 44
1.0
  0
MTEXT
  5
B7
330
1F
100
AcDbEntity
  8
DIM
 62
     7
100
AcDbMText
 10
65.3139858201
 20
7.6131070744
 30
0.0
 40
1.666875
 41
0.0
 71
     1
 72
     1
  1
2
  7
SLDTEXTSTYLE1
 73
     1
 44
1.0
  0
MTEXT
  5
B8
330
1F
100
AcDbEntity
  8
DIM
 62
     7
100
AcDbMText
 10
20.6889858201
 20
7.6131070744
 30
0.0
 40
1.666875
 41
0.0
 71
     1
 72
     1
  1
1
  7
SLDTEXTSTYLE1
 73
     1
 44
1.0
  0
MTEXT
  5
B9
330
1F
100
AcDbEntity
  8
DIM
 62
     7
100
AcDbMText
 10
5.9139822201
 20
27.8631070744
 30
0.0
 40
1.666875
 41
0.0
 71
     1
 72
     1
  1
D
  7
SLDTEXTSTYLE1
 73
     1
 44
1.0
  0
MTEXT
  5
BA
330
1F
100
AcDbEntity
  8
DIM
 62
     7
100
AcDbMText
 10
5.9139822201
 20
72.8631070744
 30
0.0
 40
1.666875
 41
0.0
 71
     1
 72
     1
  1
C
  7
SLDTEXTSTYLE1
 73
     1
 44
1.0
  0
MTEXT
  5
BB
330
1F
100
AcDbEntity
  8
DIM
 62
     7
100
AcDbMText
 10
5.9139822201
 20
117.8631070744
 30
0.0
 40
1.666875
 41
0.0
 71
     1
 72
     1
  1
B
  7
SLDTEXTSTYLE1
 73
     1
 44
1.0
  0
SPLINE
  5
BC
330
1F
100
AcDbEntity
  8
0
  6
Continuous
 62
     7
370
    15
100
AcDbSpline
210
0.0
220
0.0
230
1.0
 70
     8
 71
     3
 72
    14
 73
    10
 74
     0
 42
0.000000001
 43
0.00000001
 40
0.0
 40
0.0
 40
0.0
 40
0.0
 40
0.25
 40
0.25
 40
0.5
 40
0.5
 40
0.75
 40
0.75
 40
1.0
 40
1.0
 40
1.0
 40
1.0
 10
68.55550126677647
 20
97.67906189441676
 30
0.0
 10
68.55550126677647
 20
94.6596144913491
 30
0.0
 10
67.35593608333373
 20
91.76360795653106
 30
0.0
 10
63.08579261504325
 20
87.49346448824058
 30
0.0
 10
60.1897860802252
 20
86.29389930479783
 30
0.0
 10
54.15089127408991
 20
86.29389930479783
 30
0.0
 10
51.25488473927186
 20
87.49346448824058
 30
0.0
 10
46.98474127098137
 20
91.76360795653106
 30
0.0
 10
45.78517608753862
 20
94.6596144913491
 30
0.0
 10
45.78517608753862
 20
97.67906189441676
 30
0.0
  0
SPLINE
  5
BD
330
1F
100
AcDbEntity
  8
0
  6
Continuous
 62
     7
370
    15
100
AcDbSpline
210
0.0
220
0.0
230
1.0
 70
     8
 71
     3
 72
    14
 73
    10
 74
     0
 42
0.000000001
 43
0.00000001
 40
0.0
 40
0.0
 40
0.0
 40
0.0
 40
0.25
 40
0.25
 40
0.5
 40
0.5
 40
0.75
 40
0.75
 40
1.0
 40
1.0
 40
1.0
 40
1.0
 10
45.78517608753862
 20
97.67906189441676
 30
0.0
 10
45.78517608753862
 20
100.6985092974844
 30
0.0
 10
46.98474127098137
 20
103.5945158323024
 30
0.0
 10
51.25488473927185
 20
107.8646593005929
 30
0.0
 10
54.15089127408991
 20
109.0642244840357
 30
0.0
 10
60.18978608022519
 20
109.0642244840357
 30
0.0
 10
63.08579261504325
 20
107.8646593005929
 30
0.0
 10
67.35593608333373
 20
103.5945158323025
 30
0.0
 10
68.55550126677647
 20
100.6985092974844
 30
0.0
 10
68.55550126677647
 20
97.67906189441676
 30
0.0
  0
CIRCLE
  5
BE
330
1F
100
AcDbEntity
  8
0
  6
Continuous
 62
     7
370
    15
100
AcDbCircle
 10
57.1703386772
 20
97.6790618944
 30
0.0
 40
12.37469537611111
  0
CIRCLE
  5
BF
330
1F
100
AcDbEntity
  8
0
  6
Continuous
 62
     7
370
    15
100
AcDbCircle
 10
57.1703386772
 20
97.6790618944
 30
0.0
 40
22.22500000000001
  0
SPLINE
  5
C0
330
1F
100
AcDbEntity
  8
0
  6
Continuous
 62
     7
370
    15
100
AcDbSpline
210
0.0
220
0.0
230
1.0
 70
     8
 71
     3
 72
    47
 73
    43
 74
     0
 42
0.000000001
 43
0.00000001
 40
0.0
 40
0.0
 40
0.0
 40
0.0
 40
0.0064865025312349
 40
0.01296380985337
 40
0.0194345944002828
 40
0.0259015366923752
 40
0.0323673220287017
 40
0.0388346371494581
 40
0.0453061668895107
 40
0.0517845908437697
 40
0.0582725800650431
 40
0.0891441960345673
 40
0.1200232680067456
 40
0.1521817332805799
 40
0.1843476847367328
 40
0.2171904233650829
 40
0.2500408074748633
 40
0.2828835463218974
 40
0.3157339306502279
 40
0.3478923965265234
 40
0.380058348585491
 40
0.4109299640647371
 40
0.4418090356811825
 40
0.5000011037081205
 40
0.5581931717350583
 40
0.5890647877041075
 40
0.6199438596767664
 40
0.6521023249505026
 40
0.6842682764067516
 40
0.7171110150349558
 40
0.7499613991448837
 40
0.7828041379918462
 40
0.8156545223202474
 40
0.8478129881964224
 40
0.8799789402555108
 40
0.9108505557348588
 40
0.9417296273512041
 40
0.9533981518059652
 40
0.9650437986324314
 40
0.976682212237819
 40
0.9883290661770261
 40
1.0
 40
1.0
 40
1.0
 40
1.0
 10
34.77033867715755
 20
97.67906189441676
 30
0.0
 10
34.77122570013034
 20
97.83114622176254
 30
0.0
 10
34.77299848863992
 20
98.13509928304546
 30
0.0
 10
34.7873671297052
 20
98.59058121303555
 30
0.0
 10
34.81031274215091
 20
99.04522934861738
 30
0.0
 10
34.84267250293291
 20
99.49904353081008
 30
0.0
 10
34.88422230427244
 20
99.9520233411698
 30
0.0
 10
34.93502243385483
 20
100.4041692022762
 30
0.0
 10
34.99505555992928
 20
100.8554784353638
 30
0.0
 10
35.06433048560567
 20
101.3059599570838
 30
0.0
 10
35.24110573218567
 20
102.3184840233796
 30
0.0
 10
35.60825832391478
 20
103.8786759131827
 30
0.0
 10
36.32031863869141
 20
105.9656121484265
 30
0.0
 10
37.24651392064237
 20
108.0007692200117
 30
0.0
 10
38.39796574848048
 20
109.9709841750382
 30
0.0
 10
39.75248949578824
 20
111.8279463244019
 30
0.0
 10
41.30311066902549
 20
113.5460362923038
 30
0.0
 10
43.0213144712767
 20
115.096797233035
 30
0.0
 10
44.8781153216282
 20
116.451240820171
 30
0.0
 10
46.84849011807358
 20
117.6028047966261
 30
0.0
 10
48.88340091130422
 20
118.5289582060336
 30
0.0
 10
50.97077708506434
 20
119.2410729799055
 30
0.0
 10
53.71175233624295
 20
119.8865694742675
 30
0.0
 10
57.17033855916221
 20
120.2048214920426
 30
0.0
 10
60.62875027782123
 20
119.8865849449826
 30
0.0
 10
63.36973090482967
 20
119.2411226573852
 30
0.0
 10
65.45695110974583
 20
118.5290874236391
 30
0.0
 10
67.4920290652771
 20
117.6028851604896
 30
0.0
 10
69.4622656002223
 20
116.4514352119706
 30
0.0
 10
71.31922186258602
 20
115.0969110467981
 30
0.0
 10
73.03731336878747
 20
113.5462896265924
 30
0.0
 10
74.5880740850882
 20
111.8280872329043
 30
0.0
 10
75.9425170361865
 20
109.97128103213
 30
0.0
 10
77.09408372487133
 20
108.0009258344294
 30
0.0
 10
78.02022708871456
 20
105.9659431774409
 30
0.0
 10
78.73237793785037
 20
103.8788248924446
 30
0.0
 10
79.12739264310673
 20
102.2002661116797
 30
0.0
 10
79.33584946170585
 20
100.9466883826929
 30
0.0
 10
79.44077183617802
 20
100.1337224515494
 30
0.0
 10
79.5151615947
 20
99.31798279529168
 30
0.0
 10
79.56173143741822
 20
98.49944890660406
 30
0.0
 10
79.56746762269071
 20
97.95271243363872
 30
0.0
 10
79.57033867715755
 20
97.67906189441676
 30
0.0
  0
SPLINE
  5
C1
330
1F
100
AcDbEntity
  8
0
  6
Continuous
 62
     7
370
    15
100
AcDbSpline
210
0.0
220
0.0
230
1.0
 70
     8
 71
     3
 72
    47
 73
    43
 74
     0
 42
0.000000001
 43
0.00000001
 40
0.0
 40
0.0
 40
0.0
 40
0.0
 40
0.0064865025312349
 40
0.0129638098533701
 40
0.0194345944002828
 40
0.0259015366923753
 40
0.0323673220287017
 40
0.0388346371494582
 40
0.0453061668895108
 40
0.0517845908437698
 40
0.0582725800650432
 40
0.0891441960348679
 40
0.1200232680067487
 40
0.1521817332809523
 40
0.1843476847367337
 40
0.2171904233653377
 40
0.2500408074748655
 40
0.2828835463223714
 40
0.3157339306502313
 40
0.3478923965270652
 40
0.380058348585494
 40
0.4109299640652716
 40
0.441809035681186
 40
0.5000011037081241
 40
0.5581931717350622
 40
0.5890647877047878
 40
0.6199438596767669
 40
0.6521023249508722
 40
0.6842682764067528
 40
0.7171110150351738
 40
0.7499613991448828
 40
0.782804137992136
 40
0.8156545223202497
 40
0.8478129881967124
 40
0.8799789402555104
 40
0.9108505557349901
 40
0.941729627351205
 40
0.9533981518060494
 40
0.9650437986325576
 40
0.9766822122379453
 40
0.9883290661771104
 40
1.0
 40
1.0
 40
1.0
 40
1.0
 10
79.57033867715755
 20
97.67906189441676
 30
0.0
 10
79.56945165418476
 20
97.52697756707097
 30
0.0
 10
79.56767886567519
 20
97.22302450578805
 30
0.0
 10
79.5533102246099
 20
96.76754257579796
 30
0.0
 10
79.53036461216419
 20
96.31289444021613
 30
0.0
 10
79.49800485138219
 20
95.85908025802344
 30
0.0
 10
79.45645505004268
 20
95.4061004476637
 30
0.0
 10
79.40565492046026
 20
94.95395458655734
 30
0.0
 10
79.34562179438582
 20
94.50264535346967
 30
0.0
 10
79.27634686870945
 20
94.05216383174974
 30
0.0
 10
79.09957162212805
 20
93.03963976544699
 30
0.0
 10
78.73241903040174
 20
91.4794478756431
 30
0.0
 10
78.02035871561765
 20
89.39251164039251
 30
0.0
 10
77.09416343366655
 20
87.35735456881518
 30
0.0
 10
75.94271160582677
 20
85.38713961378298
 30
0.0
 10
74.58818785852407
 20
83.53017746442605
 30
0.0
 10
73.03756668527731
 20
81.81208749651799
 30
0.0
 10
71.31936288303064
 20
80.2613265557904
 30
0.0
 10
69.462562032667
 20
78.90688296864974
 30
0.0
 10
67.49218723623004
 20
77.75531899220185
 30
0.0
 10
65.45727644298758
 20
76.82916558279072
 30
0.0
 10
63.36990026923878
 20
76.11705080892423
 30
0.0
 10
60.62892501805964
 20
75.471554314565
 30
0.0
 10
57.17033879515308
 20
75.15330229679164
 30
0.0
 10
53.71192707647745
 20
75.47153884385011
 30
0.0
 10
50.97094644947119
 20
76.11700113145686
 30
0.0
 10
48.88372624454624
 20
76.8290363652028
 30
0.0
 10
46.84864828903007
 20
77.75523862834768
 30
0.0
 10
44.87841175408114
 20
78.9066885768702
 30
0.0
 10
43.02145549172659
 20
80.26121274204064
 30
0.0
 10
41.30336398551934
 20
81.81183416224957
 30
0.0
 10
39.75260326922011
 20
83.5300365559325
 30
0.0
 10
38.39816031812111
 20
85.3868427567149
 30
0.0
 10
37.24659362944353
 20
87.35719795441166
 30
0.0
 10
36.32045026559661
 20
89.39218061140167
 30
0.0
 10
35.60829941646285
 20
91.47929889639167
 30
0.0
 10
35.21328471120672
 20
93.15785767715862
 30
0.0
 10
35.00482789260952
 20
94.41143540614557
 30
0.0
 10
34.89990551813725
 20
95.22440133729201
 30
0.0
 10
34.82551575961519
 20
96.04014099354977
 30
0.0
 10
34.77894591689694
 20
96.85867488223441
 30
0.0
 10
34.77320973162441
 20
97.40541135519676
 30
0.0
 10
34.77033867715755
 20
97.67906189441676
 30
0.0
  0
ARC
  5
C2
330
1F
100
AcDbEntity
  8
0
  6
Continuous
 62
     7
370
    15
100
AcDbCircle
 10
57.1703386772
 20
97.6790618944
 30
0.0
 40
30.58431457505075
100
AcDbArc
 50
217.220583198
 51
232.779416802
  0
SPLINE
  5
C3
330
1F
100
AcDbEntity
  8
0
  6
Continuous
 62
     7
370
    15
100
AcDbSpline
210
0.0
220
0.0
230
1.0
 70
    24
 71
     3
 72
     8
 73
     4
 74
     0
 42
0.000000001
 43
0.00000001
 40
0.0
 40
0.0
 40
0.0
 40
0.0
 40
1.0
 40
1.0
 40
1.0
 40
1.0
 10
38.67033867715756
 20
73.32438476607729
 30
0.0
 10
38.67033867715756
 20
73.19659410649902
 30
0.0
 10
38.67033867715755
 20
73.07019397924654
 30
0.0
 10
38.67033867715755
 20
72.97012830729425
 30
0.0
  0
ARC
  5
C4
330
1F
100
AcDbEntity
  8
0
  6
Continuous
 62
     7
370
    15
100
AcDbCircle
 10
57.1703386772
 20
97.6790618944
 30
0.0
 40
30.86715728752537
100
AcDbArc
 50
216.8228239927
 51
233.1771760073
  0
SPLINE
  5
C5
330
1F
100
AcDbEntity
  8
0
  6
Continuous
 62
     7
370
    15
100
AcDbSpline
210
0.0
220
0.0
230
1.0
 70
    24
 71
     3
 72
     8
 73
     4
 74
     0
 42
0.000000001
 43
0.00000001
 40
0.0
 40
0.0
 40
0.0
 40
0.0
 40
1.0
 40
1.0
 40
1.0
 40
1.0
 10
32.46140509003504
 20
79.17906189441675
 30
0.0
 10
32.56157402967852
 20
79.17906189441675
 30
0.0
 10
32.68781196568671
 20
79.17906189441675
 30
0.0
 10
32.81566154881801
 20
79.17906189441675
 30
0.0
  0
SPLINE
  5
C6
330
1F
100
AcDbEntity
  8
0
  6
Continuous
 62
     7
370
    15
100
AcDbSpline
210
0.0
220
0.0
230
1.0
 70
     8
 71
     3
 72
    10
 73
     6
 74
     0
 42
0.000000001
 43
0.00000001
 40
0.0
 40
0.0
 40
0.0
 40
0.0
 40
0.5
 40
0.5
 40
1.0
 40
1.0
 40
1.0
 40
1.0
 10
65.92033867715755
 20
68.37312737552344
 30
0.0
 10
65.92033867715755
 20
68.3091682398095
 30
0.0
 10
65.90650430986005
 20
68.24759117636779
 30
0.0
 10
65.8643503231865
 20
68.13693853364995
 30
0.0
 10
65.83585705171332
 20
68.0872396252032
 30
0.0
 10
65.80318138963223
 20
68.04368732761729
 30
0.0
  0
ARC
  5
C7
330
1F
100
AcDbEntity
  8
0
  6
Continuous
 62
     7
370
    15
100
AcDbCircle
 10
57.1703386772
 20
97.6790618944
 30
0.0
 40
30.86715728752536
100
AcDbArc
 50
253.7590550452
 51
286.2409449548
  0
SPLINE
  5
C8
330
1F
100
AcDbEntity
  8
0
  6
Continuous
 62
     7
370
    15
100
AcDbSpline
210
0.0
220
0.0
230
1.0
 70
     8
 71
     3
 72
    10
 73
     6
 74
     0
 42
0.000000001
 43
0.00000001
 40
0.0
 40
0.0
 40
0.0
 40
0.0
 40
0.5
 40
0.5
 40
1.0
 40
1.0
 40
1.0
 40
1.0
 10
48.53749596468295
 20
68.04368732761728
 30
0.0
 10
48.50484133975375
 20
68.08721158548674
 30
0.0
 10
48.47686022533961
 20
68.13577368777037
 30
0.0
 10
48.4342140194043
 20
68.24725199539019
 30
0.0
 10
48.4203386771576
 20
68.30922328435607
 30
0.0
 10
48.4203386771576
 20
68.37312737552344
 30
0.0
  0
ARC
  5
C9
330
1F
100
AcDbEntity
  8
0
  6
Continuous
 62
     7
370
    15
100
AcDbCircle
 10
57.1703386772
 20
97.6790618944
 30
0.0
 40
30.58431457505075
100
AcDbArc
 50
253.375724968
 51
286.624275032
  0
SPLINE
  5
CA
330
1F
100
AcDbEntity
  8
0
  6
Continuous
 62
     7
370
    15
100
AcDbSpline
210
0.0
220
0.0
230
1.0
 70
     8
 71
     3
 72
    10
 73
     6
 74
     0
 42
0.000000001
 43
0.00000001
 40
0.0
 40
0.0
 40
0.0
 40
0.0
 40
0.5
 40
0.5
 40
1.0
 40
1.0
 40
1.0
 40
1.0
 10
48.42033867715755
 20
126.9849964133101
 30
0.0
 10
48.42033867715755
 20
127.048955549024
 30
0.0
 10
48.43417304445507
 20
127.1105326124657
 30
0.0
 10
48.47632703112863
 20
127.2211852551836
 30
0.0
 10
48.50482030260179
 20
127.2708841636303
 30
0.0
 10
48.53749596468289
 20
127.3144364612162
 30
0.0
  0
ARC
  5
CB
330
1F
100
AcDbEntity
  8
0
  6
Continuous
 62
     7
370
    15
100
AcDbCircle
 10
57.1703386772
 20
97.6790618944
 30
0.0
 40
30.86715728752535
100
AcDbArc
 50
73.7590550452
 51
106.2409449548
  0
SPLINE
  5
CC
330
1F
100
AcDbEntity
  8
0
  6
Continuous
 62
     7
370
    15
100
AcDbSpline
210
0.0
220
0.0
230
1.0
 70
     8
 71
     3
 72
    10
 73
     6
 74
     0
 42
0.000000001
 43
0.00000001
 40
0.0
 40
0.0
 40
0.0
 40
0.0
 40
0.5
 40
0.5
 40
1.0
 40
1.0
 40
1.0
 40
1.0
 10
65.80318138963221
 20
127.3144364612162
 30
0.0
 10
65.83583601456142
 20
127.2709122033468
 30
0.0
 10
65.86381712897557
 20
127.2223501010631
 30
0.0
 10
65.90646333491087
 20
127.1108717934433
 30
0.0
 10
65.92033867715759
 20
127.0489005044774
 30
0.0
 10
65.92033867715759
 20
126.9849964133101
 30
0.0
  0
ARC
  5
CD
330
1F
100
AcDbEntity
  8
0
  6
Continuous
 62
     7
370
    15
100
AcDbCircle
 10
57.1703386772
 20
97.6790618944
 30
0.0
 40
30.58431457505072
100
AcDbArc
 50
73.375724968
 51
106.624275032
  0
SPLINE
  5
CE
330
1F
100
AcDbEntity
  8
0
  6
Continuous
 62
     7
370
    15
100
AcDbSpline
210
0.0
220
0.0
230
1.0
 70
     8
 71
     3
 72
    31
 73
    27
 74
     0
 42
0.000000001
 43
0.00000001
 40
0.0
 40
0.0
 40
0.0
 40
0.0
 40
0.0132844560939203
 40
0.0265558208794219
 40
0.0398179176704315
 40
0.0530745777997424
 40
0.0663296373144985
 40
0.0795869336512742
 40
0.0928503023051324
 40
0.1061235735070975
 40
0.1194105689243986
 40
0.1814480130394505
 40
0.2434985490104037
 40
0.307209694423994
 40
0.3709342849308351
 40
0.5000015820302116
 40
0.6290688791295881
 40
0.6927800250021223
 40
0.7565046159609023
 40
0.8185420607584538
 40
0.8805925974112725
 40
0.9044943877008195
 40
0.9283636577015204
 40
0.9522227648280811
 40
0.9760940950502643
 40
1.0
 40
1.0
 40
1.0
 40
1.0
 10
65.92033867715756
 20
68.37312737552344
 30
0.0
 10
66.08621748009574
 20
68.42353775737877
 30
0.0
 10
66.41781161894313
 20
68.52430884364291
 30
0.0
 10
66.91166771551471
 20
68.68606290925409
 30
0.0
 10
67.40255028754913
 20
68.85546318305175
 30
0.0
 10
67.89023057609342
 20
69.03327556480643
 30
0.0
 10
68.3747695578672
 20
69.21929487870808
 30
0.0
 10
68.85615113936507
 20
69.4135763631756
 30
0.0
 10
69.33437801685413
 20
69.61610385972341
 30
0.0
 10
69.80945479564211
 20
69.8268864403681
 30
0.0
 10
70.8582420327301
 20
70.31364214243911
 30
0.0
 10
72.44824796274577
 20
71.14654739049409
 30
0.0
 10
74.52371600329192
 20
72.45456635501287
 30
0.0
 10
76.50578795894717
 20
73.93804330925238
 30
0.0
 10
79.01502444627204
 20
76.15832220390361
 30
0.0
 10
81.80834804347568
 20
79.32257367832275
 30
0.0
 10
84.04109027459178
 20
82.90426490290606
 30
0.0
 10
85.45071355683004
 20
85.9438156847927
 30
0.0
 10
86.30508219537766
 20
88.26728292666685
 30
0.0
 10
86.96472293743336
 20
90.63039812601937
 30
0.0
 10
87.33443646519719
 20
92.5283073471304
 30
0.0
 10
87.53107418293686
 20
93.94810140086194
 30
0.0
 10
87.63110300103332
 20
94.87769638658165
 30
0.0
 10
87.70202743841932
 20
95.80950476459452
 30
0.0
 10
87.74643694710083
 20
96.74354318463851
 30
0.0
 10
87.75191316285671
 20
97.36707191578715
 30
0.0
 10
87.75465325220831
 20
97.67906189441676
 30
0.0
  0
SPLINE
  5
CF
330
1F
100
AcDbEntity
  8
0
  6
Continuous
 62
     7
370
    15
100
AcDbSpline
210
0.0
220
0.0
230
1.0
 70
     8
 71
     3
 72
    22
 73
    18
 74
     0
 42
0.000000001
 43
0.00000001
 40
0.0
 40
0.0
 40
0.0
 40
0.0
 40
0.0500936294931381
 40
0.1001235566397275
 40
0.1501059026435913
 40
0.2000568347777028
 40
0.249992550826868
 40
0.2999292633826495
 40
0.349883184066359
 40
0.3998705077567667
 40
0.449907396899123
 40
0.5000099659711678
 40
0.6001296041410739
 40
0.7000588625714155
 40
0.7999272374095667
 40
0.899864461477476
 40
1.0
 40
1.0
 40
1.0
 40
1.0
 10
38.67033867715755
 20
73.32438476607729
 30
0.0
 10
38.81709659744279
 20
73.21409527693869
 30
0.0
 10
39.11042581101116
 20
72.99365655001336
 30
0.0
 10
39.55760559792879
 20
72.6732313423622
 30
0.0
 10
40.00962308923941
 20
72.36062423558704
 30
0.0
 10
40.46701877158478
 20
72.05654701368375
 30
0.0
 10
40.92964784881083
 20
71.76080934001853
 30
0.0
 10
41.39754885599103
 20
71.47346228065135
 30
0.0
 10
41.87071147548971
 20
71.19449234382948
 30
0.0
 10
42.34913755144624
 20
70.92390296351543
 30
0.0
 10
42.83282909372893
 20
70.6616943494073
 30
0.0
 10
43.48419593944352
 20
70.32354343273911
 30
0.0
 10
44.30903726842902
 20
69.92306189730566
 30
0.0
 10
45.31452263526204
 20
69.47859450548239
 30
0.0
 10
46.3349731964304
 20
69.0716319943391
 30
0.0
 10
47.369355218743
 20
68.69876034776854
 30
0.0
 10
48.06977943480335
 20
68.48174340284702
 30
0.0
 10
48.42033867715759
 20
68.37312737552344
 30
0.0
  0
SPLINE
  5
D0
330
1F
100
AcDbEntity
  8
0
  6
Continuous
 62
     7
370
    15
100
AcDbSpline
210
0.0
220
0.0
230
1.0
 70
     8
 71
     3
 72
    43
 73
    39
 74
     0
 42
0.000000001
 43
0.00000001
 40
0.0
 40
0.0
 40
0.0
 40
0.0
 40
0.0095109916350556
 40
0.0190046239323367
 40
0.0284840481312349
 40
0.0379524296572472
 40
0.0474129450202918
 40
0.05686877865776
 40
0.0663231197377792
 40
0.0757791589386288
 40
0.0852400852205245
 40
0.0947090826060835
 40
0.1041893269856751
 40
0.1136839829635729
 40
0.1231962007603477
 40
0.1547901118112536
 40
0.1863927084008155
 40
0.2182250895792245
 40
0.2500662218550339
 40
0.3137096340347759
 40
0.3768767128430006
 40
0.4384349553552173
 40
0.5000020600078245
 40
0.5615603039225129
 40
0.6231274099053415
 40
0.6862944887135662
 40
0.749937900893308
 40
0.781770282103026
 40
0.8136114144100782
 40
0.8452053255517815
 40
0.8768079222326431
 40
0.8944566871224379
 40
0.9120548834396801
 40
0.9296228104671083
 40
0.9471808724728584
 40
0.9647495080969011
 40
0.9823491191414349
 40
1.0
 40
1.0
 40
1.0
 40
1.0
 10
48.42033867715756
 20
126.9849964133101
 30
0.0
 10
48.24133712932237
 20
126.9305310820266
 30
0.0
 10
47.88366074494039
 20
126.8216998288713
 30
0.0
 10
47.35144698644093
 20
126.6462675214604
 30
0.0
 10
46.82309678648367
 20
126.4621213139414
 30
0.0
 10
46.29887398275507
 20
126.2683780820117
 30
0.0
 10
45.77870826354425
 20
126.0652740083105
 30
0.0
 10
45.2626186721882
 20
125.8527459634897
 30
0.0
 10
44.75060034101111
 20
125.6308109351744
 30
0.0
 10
44.24265479446928
 20
125.3994644144168
 30
0.0
 10
43.73878184702797
 20
125.1587079154335
 30
0.0
 10
43.23898172694653
 20
124.9085404204978
 30
0.0
 10
42.74325467380999
 20
124.6489650933347
 30
0.0
 10
42.25160041700845
 20
124.3799709447124
 30
0.0
 10
41.38712589161874
 20
123.8864210506746
 30
0.0
 10
40.17309633836371
 20
123.1282544262591
 30
0.0
 10
38.65011290281984
 20
122.0422996140617
 30
0.0
 10
37.19232435556147
 20
120.8623054192189
 30
0.0
 10
35.3452846800535
 20
119.1688711080713
 30
0.0
 10
33.24260882165488
 20
116.8508867896694
 30
0.0
 10
31.10235774070222
 20
113.8149619923367
 30
0.0
 10
29.35960185215858
 20
110.5812261904949
 30
0.0
 10
28.02793595371726
 20
107.1918253046281
 30
0.0
 10
27.10341986988013
 20
103.6693416605108
 30
0.0
 10
26.60271208886014
 20
100.0301712049245
 30
0.0
 10
26.53967937556447
 20
96.3160310260516
 30
0.0
 10
26.86985979856562
 20
93.20408711052099
 30
0.0
 10
27.36209745133462
 20
90.74706044661298
 30
0.0
 10
27.84292682491296
 20
88.934415440202
 30
0.0
 10
28.43196299315161
 20
87.15888328118301
 30
0.0
 10
29.02455431967683
 20
85.68187828352217
 30
0.0
 10
29.57133622084997
 20
84.4856509280136
 30
0.0
 10
30.03505610394721
 20
83.55567504097309
 30
0.0
 10
30.52936797769009
 20
82.64363984734072
 30
0.0
 10
31.05407547731305
 20
81.74939115344516
 30
0.0
 10
31.60985504439091
 20
80.87345087754649
 30
0.0
 10
32.19417930054568
 20
80.01390325993395
 30
0.0
 10
32.60830002779684
 20
79.45761204745219
 30
0.0
 10
32.81566154881806
 20
79.17906189441675
 30
0.0
  0
SPLINE
  5
D1
330
1F
100
AcDbEntity
  8
0
  6
Continuous
 62
     7
370
    15
100
AcDbSpline
210
0.0
220
0.0
230
1.0
 70
     8
 71
     3
 72
    31
 73
    27
 74
     0
 42
0.000000001
 43
0.00000001
 40
0.0
 40
0.0
 40
0.0
 40
0.0
 40
0.0132844560931736
 40
0.0265558208781152
 40
0.0398179176687517
 40
0.0530745777978762
 40
0.0663296373126322
 40
0.0795869336495936
 40
0.0928503023038228
 40
0.1061235735063433
 40
0.1194105689243833
 40
0.1814480130365326
 40
0.2434985490103923
 40
0.3072096944238527
 40
0.3709342849308356
 40
0.5000015820302111
 40
0.6290688791295865
 40
0.6927800250010155
 40
0.7565046159609006
 40
0.8185420607578947
 40
0.8805925974112727
 40
0.9044943877007785
 40
0.9283636577014587
 40
0.9522227648280193
 40
0.976094095050223
 40
1.0
 40
1.0
 40
1.0
 40
1.0
 10
87.75465325220831
 20
97.67906189441676
 30
0.0
 10
87.75380694179154
 20
97.85242932970466
 30
0.0
 10
87.75211515496353
 20
98.19899335350158
 30
0.0
 10
87.73841162046257
 20
98.71848390681517
 30
0.0
 10
87.71653076959521
 20
99.23731276167968
 30
0.0
 10
87.68567326944508
 20
99.7554798405421
 30
0.0
 10
87.64605316486639
 20
100.2729848717408
 30
0.0
 10
87.5976129220648
 20
100.7898282378559
 30
0.0
 10
87.54036879551165
 20
101.3060078996027
 30
0.0
 10
87.47431340993964
 20
101.8215308652466
 30
0.0
 10
87.30795550794534
 20
102.965738377271
 30
0.0
 10
86.9647562269347
 20
104.7275738586007
 30
0.0
 10
86.30519026806995
 20
107.0905071934129
 30
0.0
 10
85.45078011592726
 20
109.4141458062914
 30
0.0
 10
84.04118407836015
 20
112.4537091187155
 30
0.0
 10
81.80834786856622
 20
116.0355503452773
 30
0.0
 10
79.01514111670582
 20
119.1996688544535
 30
0.0
 10
76.50592443072017
 20
121.4199702700873
 30
0.0
 10
74.52400480617065
 20
122.903358417669
 30
0.0
 10
72.44838389780057
 20
124.2115010699813
 30
0.0
 10
70.73557748978958
 20
125.1087422375972
 30
0.0
 10
69.43138571393536
 20
125.7033558590877
 30
0.0
 10
68.56926413336099
 20
126.0651555028568
 30
0.0
 10
67.69669507782152
 20
126.3997005259381
 30
0.0
 10
66.81440342113639
 20
126.70947690839
 30
0.0
 10
66.21850400239585
 20
126.8931122814871
 30
0.0
 10
65.92033867715759
 20
126.9849964133101
 30
0.0
  0
ARC
  5
D2
330
1F
100
AcDbEntity
  8
0
  6
Continuous
 62
     7
370
    15
100
AcDbCircle
 10
57.1703386772
 20
97.6790618944
 30
0.0
 40
30.86715728752539
100
AcDbArc
 50
106.2409449548
 51
216.8228239927
  0
ARC
  5
D3
330
1F
100
AcDbEntity
  8
0
  6
Continuous
 62
     7
370
    15
100
AcDbCircle
 10
57.1703386772
 20
97.6790618944
 30
0.0
 40
30.86715728752538
100
AcDbArc
 50
286.2409449548
 51
73.7590550452
  0
ARC
  5
D4
330
1F
100
AcDbEntity
  8
0
  6
Continuous
 62
     7
370
    15
100
AcDbCircle
 10
57.1703386772
 20
97.6790618944
 30
0.0
 40
30.8671572875254
100
AcDbArc
 50
233.1771760073
 51
253.7590550452
  0
ARC
  5
D5
330
1F
100
AcDbEntity
  8
0
  6
Continuous
 62
     7
370
    15
100
AcDbCircle
 10
57.1703386772
 20
97.6790618944
 30
0.0
 40
31.6328427124747
100
AcDbArc
 50
234.208651263
 51
254.4024500298
  0
ARC
  5
D6
330
1F
100
AcDbEntity
  8
0
  6
Continuous
 62
     7
370
    15
100
AcDbCircle
 10
57.1703386772
 20
97.6790618944
 30
0.0
 40
31.63284271247462
100
AcDbArc
 50
215.791348737
 51
234.208651263
  0
ARC
  5
D7
330
1F
100
AcDbEntity
  8
0
  6
Continuous
 62
     7
370
    15
100
AcDbCircle
 10
57.1703386772
 20
97.6790618944
 30
0.0
 40
31.63284271247463
100
AcDbArc
 50
105.733481737
 51
215.791348737
  0
ARC
  5
D8
330
1F
100
AcDbEntity
  8
0
  6
Continuous
 62
     7
370
    15
100
AcDbCircle
 10
57.1703386772
 20
97.6790618944
 30
0.0
 40
31.6328427124746
100
AcDbArc
 50
74.4024500298
 51
105.733481737
  0
ARC
  5
D9
330
1F
100
AcDbEntity
  8
0
  6
Continuous
 62
     7
370
    15
100
AcDbCircle
 10
57.1703386772
 20
97.6790618944
 30
0.0
 40
31.63284271247465
100
AcDbArc
 50
285.733481737
 51
74.4024500298
  0
ARC
  5
DA
330
1F
100
AcDbEntity
  8
0
  6
Continuous
 62
     7
370
    15
100
AcDbCircle
 10
57.1703386772
 20
97.6790618944
 30
0.0
 40
31.63284271247461
100
AcDbArc
 50
254.4024500298
 51
285.733481737
  0
SPLINE
  5
DB
330
1F
100
AcDbEntity
  8
0
  6
Continuous
 62
     7
370
    15
100
AcDbSpline
210
0.0
220
0.0
230
1.0
 70
    24
 71
     3
 72
    10
 73
     6
 74
     0
 42
0.000000001
 43
0.00000001
 40
0.0
 40
0.0
 40
0.0
 40
0.0
 40
0.5
 40
0.5
 40
1.0
 40
1.0
 40
1.0
 40
1.0
 10
48.5926832686392
 20
128.1267311938044
 30
0.0
 10
48.5528891849245
 20
128.1499968256096
 30
0.0
 10
48.51805451701106
 20
128.1703629323791
 30
0.0
 10
48.46748738347751
 20
128.1999270333814
 30
0.0
 10
48.45243163981532
 20
128.2087293817684
 30
0.0
 10
48.45243163981532
 20
128.2087293817684
 30
0.0
  0
ARC
  5
DC
330
1F
100
AcDbEntity
  8
0
  6
Continuous
 62
     7
370
    15
100
AcDbCircle
 10
57.1703386772
 20
97.6790618944
 30
0.0
 40
31.75000000000001
100
AcDbArc
 50
74.2833781213
 51
105.9369715324
  0
SPLINE
  5
DD
330
1F
100
AcDbEntity
  8
0
  6
Continuous
 62
     7
370
    15
100
AcDbSpline
210
0.0
220
0.0
230
1.0
 70
    24
 71
     3
 72
     8
 73
     4
 74
     0
 42
0.000000001
 43
0.00000001
 40
0.0
 40
0.0
 40
0.0
 40
0.0
 40
1.0
 40
1.0
 40
1.0
 40
1.0
 10
65.77076971504327
 20
128.2420310885669
 30
0.0
 10
65.77076971504327
 20
128.2420310885669
 30
0.0
 10
65.73353565421868
 20
128.2047970277423
 30
0.0
 10
65.67573423076097
 20
128.1469956042846
 30
0.0
  0
SPLINE
  5
DE
330
1F
100
AcDbEntity
  8
0
  6
Continuous
 62
     7
370
    15
100
AcDbSpline
210
0.0
220
0.0
230
1.0
 70
    24
 71
     3
 72
     8
 73
     4
 74
     0
 42
0.000000001
 43
0.00000001
 40
0.0
 40
0.0
 40
0.0
 40
0.0
 40
1.0
 40
1.0
 40
1.0
 40
1.0
 10
38.67033867715755
 20
72.02001401511768
 30
0.0
 10
38.67033867715755
 20
71.93440043380043
 30
0.0
 10
38.67033867715756
 20
71.87571908771821
 30
0.0
 10
38.67033867715756
 20
71.87571908771822
 30
0.0
  0
ARC
  5
DF
330
1F
100
AcDbEntity
  8
0
  6
Continuous
 62
     7
370
    15
100
AcDbCircle
 10
57.1703386772
 20
97.6790618944
 30
0.0
 40
31.75000000000003
100
AcDbArc
 50
215.6390613326
 51
234.3609386674
  0
SPLINE
  5
E0
330
1F
100
AcDbEntity
  8
0
  6
Continuous
 62
     7
370
    15
100
AcDbSpline
210
0.0
220
0.0
230
1.0
 70
    24
 71
     3
 72
     8
 73
     4
 74
     0
 42
0.000000001
 43
0.00000001
 40
0.0
 40
0.0
 40
0.0
 40
0.0
 40
1.0
 40
1.0
 40
1.0
 40
1.0
 10
31.36699587045904
 20
79.17906189441675
 30
0.0
 10
31.36699587045904
 20
79.17906189441675
 30
0.0
 10
31.42572007900387
 20
79.17906189441676
 30
0.0
 10
31.51129079785853
 20
79.17906189441676
 30
0.0
  0
SPLINE
  5
E1
330
1F
100
AcDbEntity
  8
0
  6
Continuous
 62
     7
370
    15
100
AcDbSpline
210
0.0
220
0.0
230
1.0
 70
    24
 71
     3
 72
    10
 73
     6
 74
     0
 42
0.000000001
 43
0.00000001
 40
0.0
 40
0.0
 40
0.0
 40
0.0
 40
0.5
 40
0.5
 40
1.0
 40
1.0
 40
1.0
 40
1.0
 10
65.74799408567597
 20
67.23139259502909
 30
0.0
 10
65.78778816939067
 20
67.20812696322392
 30
0.0
 10
65.82262283730411
 20
67.18776085645445
 30
0.0
 10
65.87318997083767
 20
67.15819675545215
 30
0.0
 10
65.88824571449985
 20
67.14939440706509
 30
0.0
 10
65.88824571449985
 20
67.14939440706509
 30
0.0
  0
ARC
  5
E2
330
1F
100
AcDbEntity
  8
0
  6
Continuous
 62
     7
370
    15
100
AcDbCircle
 10
57.1703386772
 20
97.6790618944
 30
0.0
 40
31.75000000000002
100
AcDbArc
 50
254.2833781213
 51
285.9369715324
  0
SPLINE
  5
E3
330
1F
100
AcDbEntity
  8
0
  6
Continuous
 62
     7
370
    15
100
AcDbSpline
210
0.0
220
0.0
230
1.0
 70
    24
 71
     3
 72
     8
 73
     4
 74
     0
 42
0.000000001
 43
0.00000001
 40
0.0
 40
0.0
 40
0.0
 40
0.0
 40
1.0
 40
1.0
 40
1.0
 40
1.0
 10
48.56990763927192
 20
67.11609270026655
 30
0.0
 10
48.56990763927192
 20
67.11609270026655
 30
0.0
 10
48.6071417000965
 20
67.15332676109115
 30
0.0
 10
48.66494312355421
 20
67.21112818454885
 30
0.0
  0
ARC
  5
E4
330
1F
100
AcDbEntity
  8
0
  6
Continuous
 62
     7
370
    15
100
AcDbCircle
 10
57.1703386772
 20
97.6790618944
 30
0.0
 40
31.75000000000001
100
AcDbArc
 50
285.9369715324
 51
74.2833781213
  0
ARC
  5
E5
330
1F
100
AcDbEntity
  8
0
  6
Continuous
 62
     7
370
    15
100
AcDbCircle
 10
57.1703386772
 20
97.6790618944
 30
0.0
 40
31.75000000000001
100
AcDbArc
 50
105.9369715324
 51
215.6390613326
  0
ARC
  5
E6
330
1F
100
AcDbEntity
  8
0
  6
Continuous
 62
     7
370
    15
100
AcDbCircle
 10
57.1703386772
 20
97.6790618944
 30
0.0
 40
31.75000000000001
100
AcDbArc
 50
234.3609386674
 51
254.2833781213
  0
INSERT
  5
F2
330
1F
100
AcDbEntity
  8
DIM
100
AcDbBlockReference
  2
SW_CENTERMARKSYMBOL_0
 10
57.1703386772
 20
97.6790618944
 30
0.0
  0
LINE
  5
F3
330
1F
100
AcDbEntity
  8
0
  6
Continuous
 62
     7
370
    15
100
AcDbLine
 10
186.4217288457
 20
65.9290618944
 30
0.0
 11
189.7342067787
 21
65.9290618944
 31
0.0
  0
LINE
  5
F4
330
1F
100
AcDbEntity
  8
0
  6
Continuous
 62
     7
370
    15
100
AcDbLine
 10
189.7342067787
 20
129.4290618944
 30
0.0
 11
186.4217288457
 21
129.4290618944
 31
0.0
  0
LINE
  5
F5
330
1F
100
AcDbEntity
  8
0
  6
Continuous
 62
     7
370
    15
100
AcDbLine
 10
186.4217288457
 20
129.4290618944
 30
0.0
 11
184.7998922036
 21
126.6199584288
 31
0.0
  0
LINE
  5
F6
330
1F
100
AcDbEntity
  8
0
  6
Continuous
 62
     7
370
    15
100
AcDbLine
 10
184.7998922036
 20
68.73816536
 30
0.0
 11
186.4217288457
 21
65.9290618944
 31
0.0
  0
LINE
  5
F7
330
1F
100
AcDbEntity
  8
0
  6
Continuous
 62
     7
370
    15
100
AcDbLine
 10
179.3780555616
 20
65.9290618944
 30
0.0
 11
180.9998922036
 21
68.73816536
 31
0.0
  0
LINE
  5
F8
330
1F
100
AcDbEntity
  8
0
  6
Continuous
 62
     7
370
    15
100
AcDbLine
 10
180.9998922036
 20
126.6199584288
 30
0.0
 11
179.3780555616
 21
129.4290618944
 31
0.0
  0
LINE
  5
F9
330
1F
100
AcDbEntity
  8
0
  6
Continuous
 62
     7
370
    15
100
AcDbLine
 10
176.1655776286
 20
65.9290618944
 30
0.0
 11
179.3780555616
 21
65.9290618944
 31
0.0
  0
LINE
  5
FA
330
1F
100
AcDbEntity
  8
0
  6
Continuous
 62
     7
370
    15
100
AcDbLine
 10
179.3780555616
 20
129.4290618944
 30
0.0
 11
176.1655776286
 21
129.4290618944
 31
0.0
  0
LINE
  5
FB
330
1F
100
AcDbEntity
  8
0
  6
Continuous
 62
     7
370
    15
100
AcDbLine
 10
190.0170494912
 20
66.0462191819
 30
0.0
 11
190.7827349161
 21
66.8119046069
 31
0.0
  0
LINE
  5
FC
330
1F
100
AcDbEntity
  8
0
  6
Continuous
 62
     7
370
    15
100
AcDbLine
 10
190.7827349161
 20
128.5462191819
 30
0.0
 11
190.0170494912
 21
129.3119046069
 31
0.0
  0
LINE
  5
FD
330
1F
100
AcDbEntity
  8
0
  6
Continuous
 62
     7
370
    15
100
AcDbLine
 10
175.8827349161
 20
129.3119046069
 30
0.0
 11
175.1170494912
 21
128.5462191819
 31
0.0
  0
LINE
  5
FE
330
1F
100
AcDbEntity
  8
0
  6
Continuous
 62
     7
370
    15
100
AcDbLine
 10
175.1170494912
 20
66.8119046069
 30
0.0
 11
175.8827349161
 21
66.0462191819
 31
0.0
  0
LINE
  5
FF
330
1F
100
AcDbEntity
  8
0
  6
Continuous
 62
     7
370
    15
100
AcDbLine
 10
180.9998922036
 20
69.6790618944
 30
0.0
 11
184.7998922036
 21
69.6790618944
 31
0.0
  0
LINE
  5
100
330
1F
100
AcDbEntity
  8
0
  6
Continuous
 62
     7
370
    15
100
AcDbLine
 10
184.7998922036
 20
125.6790618944
 30
0.0
 11
180.9998922036
 21
125.6790618944
 31
0.0
  0
ARC
  5
101
330
1F
100
AcDbEntity
  8
0
  6
Continuous
 62
     7
370
    15
100
AcDbCircle
 10
174.5998922036
 20
75.2790618944
 30
0.0
 40
0.4000000000000057
100
AcDbArc
 50
0.0
 51
90.0
  0
ARC
  5
102
330
1F
100
AcDbEntity
  8
0
  6
Continuous
 62
     7
370
    15
100
AcDbCircle
 10
174.5998922036
 20
120.0790618944
 30
0.0
 40
0.4000000000000057
100
AcDbArc
 50
270.0
 51
0.0
  0
LINE
  5
103
330
1F
100
AcDbEntity
  8
0
  6
Continuous
 62
     7
370
    15
100
AcDbLine
 10
171.7998922036
 20
119.9040618944
 30
0.0
 11
104.2555839764
 21
110.0537572705
 31
0.0
  0
LINE
  5
104
330
1F
100
AcDbEntity
  8
0
  6
Continuous
 62
     7
370
    15
100
AcDbLine
 10
104.2555839764
 20
85.3043665183
 30
0.0
 11
171.7998922036
 21
75.4540618944
 31
0.0
  0
LINE
  5
105
330
1F
100
AcDbEntity
  8
0
  6
Continuous
 62
     7
370
    15
100
AcDbLine
 10
171.7998922036
 20
75.4540618944
 30
0.0
 11
172.2824062607
 21
75.6790618944
 31
0.0
  0
LINE
  5
106
330
1F
100
AcDbEntity
  8
0
  6
Continuous
 62
     7
370
    15
100
AcDbLine
 10
172.2824062607
 20
119.6790618944
 30
0.0
 11
171.7998922036
 21
119.9040618944
 31
0.0
  0
LINE
  5
107
330
1F
100
AcDbEntity
  8
0
  6
Continuous
 62
     7
370
    15
100
AcDbLine
 10
172.2824062607
 20
75.6790618944
 30
0.0
 11
174.5998922036
 21
75.6790618944
 31
0.0
  0
LINE
  5
108
330
1F
100
AcDbEntity
  8
0
  6
Continuous
 62
     7
370
    15
100
AcDbLine
 10
174.5998922036
 20
119.6790618944
 30
0.0
 11
172.2824062607
 21
119.6790618944
 31
0.0
  0
ARC
  5
109
330
1F
100
AcDbEntity
  8
0
  6
Continuous
 62
     7
370
    15
100
AcDbCircle
 10
192.8998922036
 20
115.6790618944
 30
0.0
 40
2.0
100
AcDbArc
 50
180.0
 51
270.0
  0
ARC
  5
10A
330
1F
100
AcDbEntity
  8
0
  6
Continuous
 62
     7
370
    15
100
AcDbCircle
 10
192.8998922036
 20
79.6790618944
 30
0.0
 40
2.0
100
AcDbArc
 50
90.0
 51
180.0
  0
LINE
  5
10B
330
1F
100
AcDbEntity
  8
0
  6
Continuous
 62
     7
370
    15
100
AcDbLine
 10
192.8998922036
 20
81.6790618944
 30
0.0
 11
220.9338667998
 21
81.6790618944
 31
0.0
  0
LINE
  5
10C
330
1F
100
AcDbEntity
  8
0
  6
Continuous
 62
     7
370
    15
100
AcDbLine
 10
220.9338667998
 20
113.6790618944
 30
0.0
 11
192.8998922036
 21
113.6790618944
 31
0.0
  0
LINE
  5
10D
330
1F
100
AcDbEntity
  8
0
  6
Continuous
 62
     7
370
    15
100
AcDbLine
 10
220.9338667998
 20
81.6790618944
 30
0.0
 11
221.7998922036
 21
83.1790618944
 31
0.0
  0
LINE
  5
10E
330
1F
100
AcDbEntity
  8
0
  6
Continuous
 62
     7
370
    15
100
AcDbLine
 10
221.7998922036
 20
112.1790618944
 30
0.0
 11
220.9338667998
 21
113.6790618944
 31
0.0
  0
ARC
  5
10F
330
1F
100
AcDbEntity
  8
0
  6
Continuous
 62
     7
370
    15
100
AcDbCircle
 10
104.3998922036
 20
86.2938993048
 30
0.0
 40
1.000000000000018
100
AcDbArc
 50
180.0
 51
261.7027777778
  0
ARC
  5
110
330
1F
100
AcDbEntity
  8
0
  6
Continuous
 62
     7
370
    15
100
AcDbCircle
 10
104.3998922036
 20
109.064224484
 30
0.0
 40
1.000000000000018
100
AcDbArc
 50
98.2972222222
 51
180.0
  0
ARC
  5
111
330
1F
100
AcDbEntity
  8
0
  6
Continuous
 62
     7
370
    15
100
AcDbCircle
 10
175.3998922036
 20
128.2633764695
 30
0.0
 40
0.3999999999999791
100
AcDbArc
 50
135.0
 51
180.0
  0
ARC
  5
112
330
1F
100
AcDbEntity
  8
0
  6
Continuous
 62
     7
370
    15
100
AcDbCircle
 10
175.3998922036
 20
67.0947473194
 30
0.0
 40
0.3999999999999791
100
AcDbArc
 50
180.0
 51
225.0
  0
ARC
  5
113
330
1F
100
AcDbEntity
  8
0
  6
Continuous
 62
     7
370
    15
100
AcDbCircle
 10
176.1655776286
 20
66.3290618944
 30
0.0
 40
0.3999999999999915
100
AcDbArc
 50
225.0
 51
270.0
  0
ARC
  5
114
330
1F
100
AcDbEntity
  8
0
  6
Continuous
 62
     7
370
    15
100
AcDbCircle
 10
189.7342067787
 20
66.3290618944
 30
0.0
 40
0.4000000000000093
100
AcDbArc
 50
270.0
 51
315.0
  0
ARC
  5
115
330
1F
100
AcDbEntity
  8
0
  6
Continuous
 62
     7
370
    15
100
AcDbCircle
 10
189.7342067787
 20
129.0290618944
 30
0.0
 40
0.3999999999999992
100
AcDbArc
 50
45.0
 51
90.0
  0
ARC
  5
116
330
1F
100
AcDbEntity
  8
0
  6
Continuous
 62
     7
370
    15
100
AcDbCircle
 10
176.1655776286
 20
129.0290618944
 30
0.0
 40
0.4000000000000057
100
AcDbArc
 50
90.0
 51
135.0
  0
ARC
  5
117
330
1F
100
AcDbEntity
  8
0
  6
Continuous
 62
     7
370
    15
100
AcDbCircle
 10
190.4998922036
 20
67.0947473194
 30
0.0
 40
0.4000000000000093
100
AcDbArc
 50
315.0
 51
0.0
  0
ARC
  5
118
330
1F
100
AcDbEntity
  8
0
  6
Continuous
 62
     7
370
    15
100
AcDbCircle
 10
190.4998922036
 20
128.2633764695
 30
0.0
 40
0.4000000000000193
100
AcDbArc
 50
0.0
 51
45.0
  0
SPLINE
  5
119
330
1F
100
AcDbEntity
  8
0
  6
Continuous
 62
     7
370
    15
100
AcDbSpline
210
0.0
220
0.0
230
1.0
 70
     8
 71
     3
 72
     8
 73
     4
 74
     0
 42
0.000000001
 43
0.00000001
 40
0.0
 40
0.0
 40
0.0
 40
0.0
 40
1.0
 40
1.0
 40
1.0
 40
1.0
 10
190.0170494911538
 20
128.1469956042846
 30
0.0
 10
189.9458041916781
 20
128.2048221075602
 30
0.0
 10
189.8428958279609
 20
128.2420310885669
 30
0.0
 10
189.7342067786792
 20
128.2420310885669
 30
0.0
  0
LINE
  5
11A
330
1F
100
AcDbEntity
  8
0
  6
Continuous
 62
     7
370
    15
100
AcDbLine
 10
190.0170494912
 20
128.1469956043
 30
0.0
 11
190.0170494912
 21
67.231392595
 31
0.0
  0
SPLINE
  5
11B
330
1F
100
AcDbEntity
  8
0
  6
Continuous
 62
     7
370
    15
100
AcDbSpline
210
0.0
220
0.0
230
1.0
 70
     8
 71
     3
 72
    10
 73
     6
 74
     0
 42
0.000000001
 43
0.00000001
 40
0.0
 40
0.0
 40
0.0
 40
0.0
 40
0.5
 40
0.5
 40
1.0
 40
1.0
 40
1.0
 40
1.0
 10
189.7342067786792
 20
67.14939440706507
 30
0.0
 10
189.7912817186393
 20
67.14939440706507
 30
0.0
 10
189.8466737466738
 20
67.15816508461388
 30
0.0
 10
189.9429226511543
 20
67.1876733732286
 30
0.0
 10
189.9838500441211
 20
67.20811657548231
 30
0.0
 10
190.0170494911538
 20
67.2313925950291
 30
0.0
  0
LINE
  5
11C
330
1F
100
AcDbEntity
  8
0
  6
Continuous
 62
     7
370
    15
100
AcDbLine
 10
189.7342067787
 20
67.1493944071
 30
0.0
 11
189.7342067787
 21
128.2420310886
 31
0.0
  0
LINE
  5
11D
330
1F
100
AcDbEntity
  8
0
  6
Continuous
 62
     7
370
    15
100
AcDbLine
 10
176.1655776286
 20
67.1493944071
 30
0.0
 11
176.1655776286
 21
128.2420310886
 31
0.0
  0
SPLINE
  5
11E
330
1F
100
AcDbEntity
  8
0
  6
Continuous
 62
     7
370
    15
100
AcDbSpline
210
0.0
220
0.0
230
1.0
 70
     8
 71
     3
 72
    10
 73
     6
 74
     0
 42
0.000000001
 43
0.00000001
 40
0.0
 40
0.0
 40
0.0
 40
0.0
 40
0.5
 40
0.5
 40
1.0
 40
1.0
 40
1.0
 40
1.0
 10
175.8827349161031
 20
67.23139259502909
 30
0.0
 10
175.9159195467159
 20
67.20812696322392
 30
0.0
 10
175.9566460951567
 20
67.18776085645445
 30
0.0
 10
176.052937950248
 20
67.15819675545215
 30
0.0
 10
176.1085040195346
 20
67.14939440706509
 30
0.0
 10
176.1655776285777
 20
67.14939440706509
 30
0.0
  0
LINE
  5
11F
330
1F
100
AcDbEntity
  8
0
  6
Continuous
 62
     7
370
    15
100
AcDbLine
 10
175.8827349161
 20
67.231392595
 30
0.0
 11
175.8827349161
 21
128.1469956043
 31
0.0
  0
SPLINE
  5
120
330
1F
100
AcDbEntity
  8
0
  6
Continuous
 62
     7
370
    15
100
AcDbSpline
210
0.0
220
0.0
230
1.0
 70
     8
 71
     3
 72
     8
 73
     4
 74
     0
 42
0.000000001
 43
0.00000001
 40
0.0
 40
0.0
 40
0.0
 40
0.0
 40
1.0
 40
1.0
 40
1.0
 40
1.0
 10
176.1655776285777
 20
128.2420310885669
 30
0.0
 10
176.0569986363947
 20
128.2420310885669
 30
0.0
 10
175.9539493159213
 20
128.2047970277423
 30
0.0
 10
175.8827349161031
 20
128.1469956042846
 30
0.0
  0
LINE
  5
121
330
1F
100
AcDbEntity
  8
0
  6
Continuous
 62
     7
370
    15
100
AcDbLine
 10
186.4217288457
 20
67.1493944071
 30
0.0
 11
186.4217288457
 21
129.4290618944
 31
0.0
  0
LINE
  5
122
330
1F
100
AcDbEntity
  8
0
  6
Continuous
 62
     7
370
    15
100
AcDbLine
 10
186.4217288457
 20
65.9290618944
 30
0.0
 11
186.4217288457
 21
67.1493944071
 31
0.0
  0
LINE
  5
123
330
1F
100
AcDbEntity
  8
0
  6
Continuous
 62
     7
370
    15
100
AcDbLine
 10
184.7998922036
 20
126.6199584288
 30
0.0
 11
184.7998922036
 21
68.73816536
 31
0.0
  0
LINE
  5
124
330
1F
100
AcDbEntity
  8
0
  6
Continuous
 62
     7
370
    15
100
AcDbLine
 10
180.9998922036
 20
68.73816536
 30
0.0
 11
180.9998922036
 21
126.6199584288
 31
0.0
  0
LINE
  5
125
330
1F
100
AcDbEntity
  8
0
  6
Continuous
 62
     7
370
    15
100
AcDbLine
 10
179.3780555616
 20
128.2420310886
 30
0.0
 11
179.3780555616
 21
129.4290618944
 31
0.0
  0
LINE
  5
126
330
1F
100
AcDbEntity
  8
0
  6
Continuous
 62
     7
370
    15
100
AcDbLine
 10
179.3780555616
 20
65.9290618944
 30
0.0
 11
179.3780555616
 21
128.2420310886
 31
0.0
  0
LINE
  5
127
330
1F
100
AcDbEntity
  8
0
  6
Continuous
 62
     7
370
    15
100
AcDbLine
 10
190.7827349161
 20
127.4780366924
 30
0.0
 11
190.7827349161
 21
67.8800870964
 31
0.0
  0
LINE
  5
128
330
1F
100
AcDbEntity
  8
0
  6
Continuous
 62
     7
370
    15
100
AcDbLine
 10
175.1170494912
 20
68.0436873276
 30
0.0
 11
175.1170494912
 21
127.3144364612
 31
0.0
  0
SPLINE
  5
129
330
1F
100
AcDbEntity
  8
0
  6
Continuous
 62
     7
370
    15
100
AcDbSpline
210
0.0
220
0.0
230
1.0
 70
     8
 71
     3
 72
    10
 73
     6
 74
     0
 42
0.000000001
 43
0.00000001
 40
0.0
 40
0.0
 40
0.0
 40
0.0
 40
0.5
 40
0.5
 40
1.0
 40
1.0
 40
1.0
 40
1.0
 10
174.9998922036284
 20
68.37312737552344
 30
0.0
 10
174.9998922036284
 20
68.3091682398095
 30
0.0
 10
175.013726570926
 20
68.24759117636779
 30
0.0
 10
175.0558805575995
 20
68.13693853364995
 30
0.0
 10
175.0843738290727
 20
68.0872396252032
 30
0.0
 10
175.1170494911538
 20
68.04368732761729
 30
0.0
  0
SPLINE
  5
12A
330
1F
100
AcDbEntity
  8
0
  6
Continuous
 62
     7
370
    15
100
AcDbSpline
210
0.0
220
0.0
230
1.0
 70
    24
 71
     3
 72
    31
 73
    27
 74
     0
 42
0.000000001
 43
0.00000001
 40
0.0
 40
0.0
 40
0.0
 40
0.0
 40
0.0132844560939203
 40
0.0265558208794219
 40
0.0398179176704315
 40
0.0530745777997424
 40
0.0663296373144985
 40
0.0795869336512742
 40
0.0928503023051324
 40
0.1061235735070975
 40
0.1194105689243986
 40
0.1814480130394505
 40
0.2434985490104037
 40
0.307209694423994
 40
0.3709342849308351
 40
0.5000015820302116
 40
0.6290688791295881
 40
0.6927800250021223
 40
0.7565046159609023
 40
0.8185420607584538
 40
0.8805925974112725
 40
0.9044943877008195
 40
0.9283636577015204
 40
0.9522227648280811
 40
0.9760940950502643
 40
1.0
 40
1.0
 40
1.0
 40
1.0
 10
174.9998922036284
 20
68.37312737552344
 30
0.0
 10
174.9998922036284
 20
68.42353775737877
 30
0.0
 10
174.9998922036284
 20
68.52430884364291
 30
0.0
 10
174.9998922036284
 20
68.68606290925409
 30
0.0
 10
174.9998922036284
 20
68.85546318305175
 30
0.0
 10
174.9998922036284
 20
69.03327556480643
 30
0.0
 10
174.9998922036284
 20
69.21929487870808
 30
0.0
 10
174.9998922036284
 20
69.4135763631756
 30
0.0
 10
174.9998922036284
 20
69.61610385972341
 30
0.0
 10
174.9998922036284
 20
69.8268864403681
 30
0.0
 10
174.9998922036284
 20
70.31364214243911
 30
0.0
 10
174.9998922036284
 20
71.14654739049409
 30
0.0
 10
174.9998922036284
 20
72.45456635501287
 30
0.0
 10
174.9998922036284
 20
73.93804330925238
 30
0.0
 10
174.9998922036284
 20
76.15832220390361
 30
0.0
 10
174.9998922036284
 20
79.32257367832275
 30
0.0
 10
174.9998922036284
 20
82.90426490290606
 30
0.0
 10
174.9998922036284
 20
85.9438156847927
 30
0.0
 10
174.9998922036284
 20
88.26728292666685
 30
0.0
 10
174.9998922036284
 20
90.63039812601937
 30
0.0
 10
174.9998922036284
 20
92.5283073471304
 30
0.0
 10
174.9998922036284
 20
93.94810140086194
 30
0.0
 10
174.9998922036284
 20
94.87769638658165
 30
0.0
 10
174.9998922036284
 20
95.80950476459452
 30
0.0
 10
174.9998922036284
 20
96.74354318463851
 30
0.0
 10
174.9998922036284
 20
97.36707191578715
 30
0.0
 10
174.9998922036284
 20
97.67906189441676
 30
0.0
  0
SPLINE
  5
12B
330
1F
100
AcDbEntity
  8
0
  6
Continuous
 62
     7
370
    15
100
AcDbSpline
210
0.0
220
0.0
230
1.0
 70
    24
 71
     3
 72
    31
 73
    27
 74
     0
 42
0.000000001
 43
0.00000001
 40
0.0
 40
0.0
 40
0.0
 40
0.0
 40
0.0132844560931736
 40
0.0265558208781152
 40
0.0398179176687517
 40
0.0530745777978762
 40
0.0663296373126322
 40
0.0795869336495936
 40
0.0928503023038228
 40
0.1061235735063433
 40
0.1194105689243833
 40
0.1814480130365326
 40
0.2434985490103923
 40
0.3072096944238527
 40
0.3709342849308356
 40
0.5000015820302111
 40
0.6290688791295865
 40
0.6927800250010155
 40
0.7565046159609006
 40
0.8185420607578947
 40
0.8805925974112727
 40
0.9044943877007785
 40
0.9283636577014587
 40
0.9522227648280193
 40
0.976094095050223
 40
1.0
 40
1.0
 40
1.0
 40
1.0
 10
174.9998922036284
 20
97.67906189441676
 30
0.0
 10
174.9998922036284
 20
97.85242932970466
 30
0.0
 10
174.9998922036284
 20
98.19899335350158
 30
0.0
 10
174.9998922036284
 20
98.71848390681517
 30
0.0
 10
174.9998922036284
 20
99.23731276167968
 30
0.0
 10
174.9998922036284
 20
99.7554798405421
 30
0.0
 10
174.9998922036284
 20
100.2729848717408
 30
0.0
 10
174.9998922036284
 20
100.7898282378559
 30
0.0
 10
174.9998922036284
 20
101.3060078996027
 30
0.0
 10
174.9998922036284
 20
101.8215308652466
 30
0.0
 10
174.9998922036284
 20
102.965738377271
 30
0.0
 10
174.9998922036284
 20
104.7275738586007
 30
0.0
 10
174.9998922036284
 20
107.0905071934129
 30
0.0
 10
174.9998922036284
 20
109.4141458062914
 30
0.0
 10
174.9998922036284
 20
112.4537091187155
 30
0.0
 10
174.9998922036284
 20
116.0355503452773
 30
0.0
 10
174.9998922036284
 20
119.1996688544535
 30
0.0
 10
174.9998922036284
 20
121.4199702700873
 30
0.0
 10
174.9998922036284
 20
122.903358417669
 30
0.0
 10
174.9998922036284
 20
124.2115010699813
 30
0.0
 10
174.9998922036284
 20
125.1087422375972
 30
0.0
 10
174.9998922036284
 20
125.7033558590877
 30
0.0
 10
174.9998922036284
 20
126.0651555028568
 30
0.0
 10
174.9998922036284
 20
126.3997005259381
 30
0.0
 10
174.9998922036284
 20
126.70947690839
 30
0.0
 10
174.9998922036284
 20
126.8931122814871
 30
0.0
 10
174.9998922036284
 20
126.9849964133101
 30
0.0
  0
SPLINE
  5
12C
330
1F
100
AcDbEntity
  8
0
  6
Continuous
 62
     7
370
    15
100
AcDbSpline
210
0.0
220
0.0
230
1.0
 70
     8
 71
     3
 72
    10
 73
     6
 74
     0
 42
0.000000001
 43
0.00000001
 40
0.0
 40
0.0
 40
0.0
 40
0.0
 40
0.5
 40
0.5
 40
1.0
 40
1.0
 40
1.0
 40
1.0
 10
175.1170494911538
 20
127.3144364612162
 30
0.0
 10
175.0843948662246
 20
127.2709122033468
 30
0.0
 10
175.0564137518105
 20
127.2223501010631
 30
0.0
 10
175.0137675458751
 20
127.1108717934433
 30
0.0
 10
174.9998922036284
 20
127.0489005044774
 30
0.0
 10
174.9998922036284
 20
126.9849964133101
 30
0.0
  0
SPLINE
  5
12D
330
1F
100
AcDbEntity
  8
0
  6
Continuous
 62
     7
370
    15
100
AcDbSpline
210
0.0
220
0.0
230
1.0
 70
     8
 71
     3
 72
     8
 73
     4
 74
     0
 42
0.000000001
 43
0.00000001
 40
0.0
 40
0.0
 40
0.0
 40
0.0
 40
1.0
 40
1.0
 40
1.0
 40
1.0
 10
190.782734916103
 20
127.4780366924334
 30
0.0
 10
190.8582776983816
 20
127.399785982188
 30
0.0
 10
190.8998922036284
 20
127.2936667438889
 30
0.0
 10
190.8998922036284
 20
127.1849561873485
 30
0.0
  0
SPLINE
  5
12E
330
1F
100
AcDbEntity
  8
0
  6
Continuous
 62
     7
370
    15
100
AcDbSpline
210
0.0
220
0.0
230
1.0
 70
    24
 71
     3
 72
    31
 73
    27
 74
     0
 42
0.000000001
 43
0.00000001
 40
0.0
 40
0.0
 40
0.0
 40
0.0
 40
0.0132615204097968
 40
0.0265095377996707
 40
0.0397479976735972
 40
0.0529808540845518
 40
0.0662120661091751
 40
0.079445594299962
 40
0.0926853971308347
 40
0.1059354274520315
 40
0.1191996289701444
 40
0.1812172705063804
 40
0.2432482034156669
 40
0.3070054611615154
 40
0.3707758455973491
 40
0.5000016328884954
 40
0.6292274201796418
 40
0.6929846784062125
 40
0.756755063322089
 40
0.8187727037418453
 40
0.8808036357637741
 40
0.9046638208938186
 40
0.92849046716819
 40
0.9523066488125118
 40
0.9761354704521561
 40
1.0
 40
1.0
 40
1.0
 40
1.0
 10
190.8998922036284
 20
127.1849561873485
 30
0.0
 10
190.8998922036284
 20
127.1377135796906
 30
0.0
 10
190.8998922036284
 20
127.0432764672959
 30
0.0
 10
190.8998922036284
 20
126.8905833257877
 30
0.0
 10
190.8998922036284
 20
126.7299177724052
 30
0.0
 10
190.8998922036284
 20
126.5604827268657
 30
0.0
 10
190.8998922036284
 20
126.3824917088905
 30
0.0
 10
190.8998922036284
 20
126.1958872359417
 30
0.0
 10
190.8998922036284
 20
126.0006861131223
 30
0.0
 10
190.8998922036284
 20
125.7968789379504
 30
0.0
 10
190.8998922036284
 20
125.3243890171279
 30
0.0
 10
190.8998922036284
 20
124.5097688996715
 30
0.0
 10
190.8998922036284
 20
123.2178871087588
 30
0.0
 10
190.8998922036284
 20
121.7419189244373
 30
0.0
 10
190.8998922036284
 20
119.5192654735878
 30
0.0
 10
190.8998922036284
 20
116.3309101881284
 30
0.0
 10
190.8998922036284
 20
112.701408185466
 30
0.0
 10
190.8998922036284
 20
109.6136361548886
 30
0.0
 10
190.8998922036284
 20
107.2514946508663
 30
0.0
 10
190.8998922036284
 20
104.8475458381059
 30
0.0
 10
190.8998922036284
 20
102.9166116112297
 30
0.0
 10
190.8998922036284
 20
101.4722816898403
 30
0.0
 10
190.8998922036284
 20
100.5272842306967
 30
0.0
 10
190.8998922036284
 20
99.57995909339411
 30
0.0
 10
190.8998922036284
 20
98.63028879295227
 30
0.0
 10
190.8998922036284
 20
97.99629575033217
 30
0.0
 10
190.8998922036284
 20
97.67906189441676
 30
0.0
  0
SPLINE
  5
12F
330
1F
100
AcDbEntity
  8
0
  6
Continuous
 62
     7
370
    15
100
AcDbSpline
210
0.0
220
0.0
230
1.0
 70
    24
 71
     3
 72
    31
 73
    27
 74
     0
 42
0.000000001
 43
0.00000001
 40
0.0
 40
0.0
 40
0.0
 40
0.0
 40
0.0132615204102289
 40
0.0265095378004267
 40
0.0397479976745689
 40
0.0529808540856311
 40
0.0662120661102543
 40
0.0794455943009333
 40
0.0926853971315909
 40
0.105935427452466
 40
0.1191996289701507
 40
0.1812172705070559
 40
0.2432482034156618
 40
0.3070054611628419
 40
0.3707758455973574
 40
0.5000016328885014
 40
0.6292274201796462
 40
0.6929846784074412
 40
0.756755063322104
 40
0.8187727037442042
 40
0.8808036357637825
 40
0.9046638208943639
 40
0.9284904671690046
 40
0.9523066488133262
 40
0.976135470452699
 40
1.0
 40
1.0
 40
1.0
 40
1.0
 10
190.8998922036284
 20
97.67906189441676
 30
0.0
 10
190.8998922036284
 20
97.50277993770965
 30
0.0
 10
190.8998922036284
 20
97.15039551644404
 30
0.0
 10
190.8998922036284
 20
96.62219238682171
 30
0.0
 10
190.8998922036284
 20
96.09468449843864
 30
0.0
 10
190.8998922036284
 20
95.5678719368492
 30
0.0
 10
190.8998922036284
 20
95.04175499261824
 30
0.0
 10
190.8998922036284
 20
94.51633326745353
 30
0.0
 10
190.8998922036284
 20
93.99160891231972
 30
0.0
 10
190.8998922036284
 20
93.46757455416402
 30
0.0
 10
190.8998922036284
 20
92.30339886120616
 30
0.0
 10
190.8998922036284
 20
90.51073385406983
 30
0.0
 10
190.8998922036284
 20
88.10696718120266
 30
0.0
 10
190.8998922036284
 20
85.74464849771927
 30
0.0
 10
190.8998922036284
 20
82.65686364981427
 30
0.0
 10
190.8998922036284
 20
79.02721337265346
 30
0.0
 10
190.8998922036284
 20
75.83898869189595
 30
0.0
 10
190.8998922036284
 20
73.61631228572503
 30
0.0
 10
190.8998922036284
 20
72.14043283317368
 30
0.0
 10
190.8998922036284
 20
70.84843206761974
 30
0.0
 10
190.8998922036284
 20
69.97097050513324
 30
0.0
 10
190.8998922036284
 20
69.39454752964335
 30
0.0
 10
190.8998922036284
 20
69.04605664630044
 30
0.0
 10
190.8998922036284
 20
68.72597990944301
 30
0.0
 10
190.8998922036284
 20
68.43173048323474
 30
0.0
 10
190.8998922036284
 20
68.25939823699377
 30
0.0
 10
190.8998922036284
 20
68.17316760148502
 30
0.0
  0
SPLINE
  5
130
330
1F
100
AcDbEntity
  8
0
  6
Continuous
 62
     7
370
    15
100
AcDbSpline
210
0.0
220
0.0
230
1.0
 70
     8
 71
     3
 72
     8
 73
     4
 74
     0
 42
0.000000001
 43
0.00000001
 40
0.0
 40
0.0
 40
0.0
 40
0.0
 40
1.0
 40
1.0
 40
1.0
 40
1.0
 10
190.782734916103
 20
67.88008709640012
 30
0.0
 10
190.8582776983816
 20
67.95833780664555
 30
0.0
 10
190.8998922036284
 20
68.0644570449446
 30
0.0
 10
190.8998922036284
 20
68.17316760148502
 30
0.0
  0
LINE
  5
131
330
1F
100
AcDbEntity
  8
0
  6
Continuous
 62
     7
370
    15
100
AcDbLine
 10
171.7998922036
 20
75.4540618944
 30
0.0
 11
171.7998922036
 21
119.9040618944
 31
0.0
  0
LINE
  5
132
330
1F
100
AcDbEntity
  8
0
  6
Continuous
 62
     7
370
    15
100
AcDbLine
 10
172.2824062607
 20
97.6790618944
 30
0.0
 11
172.2824062607
 21
119.6790618944
 31
0.0
  0
LINE
  5
133
330
1F
100
AcDbEntity
  8
0
  6
Continuous
 62
     7
370
    15
100
AcDbLine
 10
172.2824062607
 20
75.6790618944
 30
0.0
 11
172.2824062607
 21
97.6790618944
 31
0.0
  0
LINE
  5
134
330
1F
100
AcDbEntity
  8
0
  6
Continuous
 62
     7
370
    15
100
AcDbLine
 10
220.9338667998
 20
97.6790618944
 30
0.0
 11
220.9338667998
 21
113.6790618944
 31
0.0
  0
LINE
  5
135
330
1F
100
AcDbEntity
  8
0
  6
Continuous
 62
     7
370
    15
100
AcDbLine
 10
220.9338667998
 20
81.6790618944
 30
0.0
 11
220.9338667998
 21
97.6790618944
 31
0.0
  0
LINE
  5
136
330
1F
100
AcDbEntity
  8
0
  6
Continuous
 62
     7
370
    15
100
AcDbLine
 10
221.7998922036
 20
83.1790618944
 30
0.0
 11
221.7998922036
 21
112.1790618944
 31
0.0
  0
SPLINE
  5
137
330
1F
100
AcDbEntity
  8
0
  6
Continuous
 62
     7
370
    15
100
AcDbSpline
210
0.0
220
0.0
230
1.0
 70
    24
 71
     3
 72
    10
 73
     6
 74
     0
 42
0.000000001
 43
0.00000001
 40
0.0
 40
0.0
 40
0.0
 40
0.0
 40
0.4999999999999997
 40
0.4999999999999997
 40
0.9999999999999999
 40
0.9999999999999999
 40
0.9999999999999999
 40
0.9999999999999999
 10
103.3998922036284
 20
109.0642244840357
 30
0.0
 10
103.3998922036284
 20
109.0642244840356
 30
0.0
 10
103.3998922036284
 20
107.8646593005929
 30
0.0
 10
103.3998922036284
 20
103.5945158323023
 30
0.0
 10
103.3998922036284
 20
100.6985092974844
 30
0.0
 10
103.3998922036284
 20
97.67906189441676
 30
0.0
  0
SPLINE
  5
138
330
1F
100
AcDbEntity
  8
0
  6
Continuous
 62
     7
370
    15
100
AcDbSpline
210
0.0
220
0.0
230
1.0
 70
    24
 71
     3
 72
    10
 73
     6
 74
     0
 42
0.000000001
 43
0.00000001
 40
0.0
 40
0.0
 40
0.0
 40
0.0
 40
0.4999999999999999
 40
0.4999999999999999
 40
0.9999999999999999
 40
0.9999999999999999
 40
0.9999999999999999
 40
0.9999999999999999
 10
103.3998922036284
 20
97.67906189441676
 30
0.0
 10
103.3998922036284
 20
94.6596144913491
 30
0.0
 10
103.3998922036284
 20
91.76360795653093
 30
0.0
 10
103.3998922036284
 20
87.4934644882405
 30
0.0
 10
103.3998922036284
 20
86.29389930479776
 30
0.0
 10
103.3998922036284
 20
86.29389930479783
 30
0.0
  0
LINE
  5
139
330
1F
100
AcDbEntity
  8
0
  6
Continuous
 62
     7
370
    15
100
AcDbLine
 10
174.9998922036
 20
128.2633764695
 30
0.0
 11
174.9998922036
 21
126.9849964133
 31
0.0
  0
LINE
  5
13A
330
1F
100
AcDbEntity
  8
0
  6
Continuous
 62
     7
370
    15
100
AcDbLine
 10
174.9998922036
 20
68.3731273755
 30
0.0
 11
174.9998922036
 21
67.0947473194
 31
0.0
  0
LINE
  5
13B
330
1F
100
AcDbEntity
  8
0
  6
Continuous
 62
     7
370
    15
100
AcDbLine
 10
190.8998922036
 20
68.1731676015
 30
0.0
 11
190.8998922036
 21
67.0947473194
 31
0.0
  0
LINE
  5
13C
330
1F
100
AcDbEntity
  8
0
  6
Continuous
 62
     7
370
    15
100
AcDbLine
 10
190.8998922036
 20
128.2633764695
 30
0.0
 11
190.8998922036
 21
127.1849561873
 31
0.0
  0
LINE
  5
13D
330
1F
100
AcDbEntity
  8
0
  6
Continuous
 62
     8
370
    15
100
AcDbLine
 10
189.7342067787
 20
129.4290618944
 30
0.0
 11
189.7342067787
 21
128.2420310886
 31
0.0
  0
LINE
  5
13E
330
1F
100
AcDbEntity
  8
0
  6
Continuous
 62
     8
370
    15
100
AcDbLine
 10
189.7342067787
 20
67.1493944071
 30
0.0
 11
189.7342067787
 21
65.9290618944
 31
0.0
  0
LINE
  5
13F
330
1F
100
AcDbEntity
  8
0
  6
Continuous
 62
     8
370
    15
100
AcDbLine
 10
176.1655776286
 20
129.4290618944
 30
0.0
 11
176.1655776286
 21
128.2420310886
 31
0.0
  0
LINE
  5
140
330
1F
100
AcDbEntity
  8
0
  6
Continuous
 62
     8
370
    15
100
AcDbLine
 10
176.1655776286
 20
67.1493944071
 30
0.0
 11
176.1655776286
 21
65.9290618944
 31
0.0
  0
LINE
  5
141
330
1F
100
AcDbEntity
  8
0
  6
Continuous
 62
     8
370
    15
100
AcDbLine
 10
190.7827349161
 20
128.5462191819
 30
0.0
 11
190.7827349161
 21
127.4780366924
 31
0.0
  0
LINE
  5
142
330
1F
100
AcDbEntity
  8
0
  6
Continuous
 62
     8
370
    15
100
AcDbLine
 10
190.7827349161
 20
67.8800870964
 30
0.0
 11
190.7827349161
 21
66.8119046069
 31
0.0
  0
LINE
  5
143
330
1F
100
AcDbEntity
  8
0
  6
Continuous
 62
     8
370
    15
100
AcDbLine
 10
190.0170494912
 20
129.3119046069
 30
0.0
 11
190.0170494912
 21
128.1469956043
 31
0.0
  0
LINE
  5
144
330
1F
100
AcDbEntity
  8
0
  6
Continuous
 62
     8
370
    15
100
AcDbLine
 10
190.0170494912
 20
67.231392595
 30
0.0
 11
190.0170494912
 21
66.0462191819
 31
0.0
  0
LINE
  5
145
330
1F
100
AcDbEntity
  8
0
  6
Continuous
 62
     8
370
    15
100
AcDbLine
 10
175.1170494912
 20
68.0436873276
 30
0.0
 11
175.1170494912
 21
66.8119046069
 31
0.0
  0
LINE
  5
146
330
1F
100
AcDbEntity
  8
0
  6
Continuous
 62
     8
370
    15
100
AcDbLine
 10
175.1170494912
 20
128.5462191819
 30
0.0
 11
175.1170494912
 21
127.3144364612
 31
0.0
  0
LINE
  5
147
330
1F
100
AcDbEntity
  8
0
  6
Continuous
 62
     8
370
    15
100
AcDbLine
 10
175.8827349161
 20
129.3119046069
 30
0.0
 11
175.8827349161
 21
128.1469956043
 31
0.0
  0
LINE
  5
148
330
1F
100
AcDbEntity
  8
0
  6
Continuous
 62
     8
370
    15
100
AcDbLine
 10
175.8827349161
 20
67.231392595
 30
0.0
 11
175.8827349161
 21
66.0462191819
 31
0.0
  0
LINE
  5
149
330
1F
100
AcDbEntity
  8
0
  6
Continuous
 62
     8
370
    15
100
AcDbLine
 10
174.5998922036
 20
97.6790618944
 30
0.0
 11
174.5998922036
 21
119.6790618944
 31
0.0
  0
LINE
  5
14A
330
1F
100
AcDbEntity
  8
0
  6
Continuous
 62
     8
370
    15
100
AcDbLine
 10
174.5998922036
 20
75.6790618944
 30
0.0
 11
174.5998922036
 21
97.6790618944
 31
0.0
  0
LINE
  5
14B
330
1F
100
AcDbEntity
  8
0
  6
Continuous
 62
     8
370
    15
100
AcDbLine
 10
104.2555839764
 20
110.0537572705
 30
0.0
 11
104.2555839764
 21
85.3043665183
 31
0.0
  0
LINE
  5
14C
330
1F
100
AcDbEntity
  8
0
  6
Continuous
 62
     8
370
    15
100
AcDbLine
 10
192.8998922036
 20
113.6790618944
 30
0.0
 11
192.8998922036
 21
81.6790618944
 31
0.0
  0
DIMENSION
  5
14D
330
1F
100
AcDbEntity
  8
DIM
100
AcDbDimension
  2
_D
 10
230.7998922036
 20
113.6790618944
 30
0.0
 11
230.7998922036
 21
97.6790618944
 31
0.0
 70
   160
  1
%%c<>
 71
     2
 42
-1.0
  3
SLDDIMSTYLE0
100
AcDbAlignedDimension
 13
220.9338667998
 23
81.6790618944
 33
0.0
 14
220.9338667998
 24
113.6790618944
 34
0.0
 50
90.0
100
AcDbRotatedDimension
  0
DIMENSION
  5
159
330
1F
100
AcDbEntity
  8
DIM
100
AcDbDimension
  2
_D_1
 10
98.5949969453
 20
129.4290618944
 30
0.0
 11
98.5949969453
 21
97.6790618944
 31
0.0
 70
   160
  1
%%c<>
 71
     2
 42
-1.0
  3
SLDDIMSTYLE1
100
AcDbAlignedDimension
 13
176.1655776286
 23
65.9290618944
 33
0.0
 14
176.1655776286
 24
129.4290618944
 34
0.0
 50
90.0
100
AcDbRotatedDimension
  0
DIMENSION
  5
165
330
1F
100
AcDbEntity
  8
DIM
100
AcDbDimension
  2
_D_2
 10
221.7998922036
 20
51.5290618944
 30
0.0
 11
162.5998922036
 21
51.5290618944
 31
0.0
 70
   160
  1
<>
 71
     2
 42
-1.0
  3
SLDDIMSTYLE1
100
AcDbAlignedDimension
 13
103.3998922036
 23
97.6790618944
 33
0.0
 14
221.7998922036
 24
83.1790618944
 34
0.0
 50
0.0
100
AcDbRotatedDimension
  0
DIMENSION
  5
16F
330
1F
100
AcDbEntity
  8
DIM
100
AcDbDimension
  2
_D_3
 10
221.7998922036
 20
60.8669954415
 30
0.0
 11
196.7998922036
 21
60.8669954415
 31
0.0
 70
   160
  1
<>
 71
     2
 42
-1.0
  3
SLDDIMSTYLE0
100
AcDbAlignedDimension
 13
171.7998922036
 23
75.4540618944
 33
0.0
 14
221.7998922036
 24
83.1790618944
 34
0.0
100
AcDbRotatedDimension
  0
LINE
  5
179
330
1F
100
AcDbEntity
  8
DIM
  6
CENTERX2
370
     0
100
AcDbLine
 10
101.0815842265
 20
97.6790618944
 30
0.0
 11
223.1475334413
 21
97.6790618944
 31
0.0
  0
ENDSEC
  0
SECTION
  2
OBJECTS
  0
DICTIONARY
  5
C
330
0
100
AcDbDictionary
281
     1
  3
ACAD_GROUP
350
D
  3
ACAD_LAYOUT
350
1A
  3
ACAD_MLINESTYLE
350
17
  3
ACAD_PLOTSETTINGS
350
19
  3
ACAD_PLOTSTYLENAME
350
E
  3
ACAD_SCALELIST
350
47
  0
DICTIONARY
  5
D
102
{ACAD_REACTORS
330
C
102
}
330
C
100
AcDbDictionary
281
     1
  0
DICTIONARY
  5
1A
102
{ACAD_REACTORS
330
C
102
}
330
C
100
AcDbDictionary
281
     1
  3
Layout1
350
1E
  3
Layout2
350
26
  3
Model
350
22
  0
DICTIONARY
  5
17
102
{ACAD_REACTORS
330
C
102
}
330
C
100
AcDbDictionary
281
     1
  3
Standard
350
18
  0
DICTIONARY
  5
19
102
{ACAD_REACTORS
330
C
102
}
330
C
100
AcDbDictionary
281
     1
  0
ACDBDICTIONARYWDFLT
  5
E
102
{ACAD_REACTORS
330
C
102
}
330
C
100
AcDbDictionary
281
     1
  3
Normal
350
F
100
AcDbDictionaryWithDefault
340
F
  0
DICTIONARY
  5
47
102
{ACAD_REACTORS
330
C
102
}
330
C
100
AcDbDictionary
281
     1
  3
A0
350
48
  3
A1
350
49
  3
A2
350
4A
  3
A3
350
4B
  3
A4
350
4C
  3
A5
350
4D
  3
A6
350
4E
  3
A7
350
4F
  3
A8
350
50
  3
A9
350
51
  3
B0
350
52
  3
B1
350
53
  3
B2
350
54
  3
B3
350
55
  3
B4
350
56
  3
B5
350
57
  3
B6
350
58
  3
B7
350
59
  3
B8
350
5A
  3
B9
350
5B
  3
C0
350
5C
  3
C1
350
5D
  3
C2
350
5E
  3
C3
350
5F
  3
C4
350
60
  3
C5
350
61
  3
C6
350
62
  3
C7
350
63
  3
C8
350
64
  3
C9
350
65
  3
D0
350
66
  3
D1
350
67
  3
D2
350
68
  0
LAYOUT
  5
1E
102
{ACAD_REACTORS
330
1A
102
}
330
1A
100
AcDbPlotSettings
  1

  2
none_device
  4

  6

 40
0.0
 41
0.0
 42
0.0
 43
0.0
 44
0.0
 45
0.0
 46
0.0
 47
0.0
 48
0.0
 49
0.0
140
0.0
141
0.0
142
1.0
143
1.0
 70
   688
 72
     1
 73
     0
 74
     5
  7

 75
    16
147
1.0
148
0.0
149
0.0
100
AcDbLayout
  1
Layout1
 70
     1
 71
     1
 10
0.0
 20
0.0
 11
420.0
 21
297.0
 12
0.0
 22
0.0
 32
0.0
 14
1.0000000000E+20
 24
1.0000000000E+20
 34
1.0000000000E+20
 15
-1.0000000000E+20
 25
-1.0000000000E+20
 35
-1.0000000000E+20
146
0.0
 13
0.0
 23
0.0
 33
0.0
 16
1.0
 26
0.0
 36
0.0
 17
0.0
 27
1.0
 37
0.0
 76
     0
330
1B
  0
LAYOUT
  5
26
102
{ACAD_REACTORS
330
1A
102
}
330
1A
100
AcDbPlotSettings
  1

  2
none_device
  4

  6

 40
0.0
 41
0.0
 42
0.0
 43
0.0
 44
0.0
 45
0.0
 46
0.0
 47
0.0
 48
0.0
 49
0.0
140
0.0
141
0.0
142
1.0
143
1.0
 70
   688
 72
     1
 73
     0
 74
     5
  7

 75
    16
147
1.0
148
0.0
149
0.0
100
AcDbLayout
  1
Layout2
 70
     1
 71
     2
 10
0.0
 20
0.0
 11
0.0
 21
0.0
 12
0.0
 22
0.0
 32
0.0
 14
0.0
 24
0.0
 34
0.0
 15
0.0
 25
0.0
 35
0.0
146
0.0
 13
0.0
 23
0.0
 33
0.0
 16
1.0
 26
0.0
 36
0.0
 17
0.0
 27
1.0
 37
0.0
 76
     0
330
23
  0
LAYOUT
  5
22
102
{ACAD_REACTORS
330
1A
102
}
330
1A
100
AcDbPlotSettings
  1

  2
none_device
  4
Letter_(8.50_x_11.00_Inches)
  6

 40
6.35
 41
6.35
 42
6.35000508
 43
6.35000508
 44
215.9
 45
279.4
 46
0.0
 47
0.0
 48
0.0
 49
0.0
140
0.0
141
0.0
142
1.0
143
1.0
 70
  1712
 72
     1
 73
     0
 74
     0
  7

 75
     0
147
1.0
148
0.0
149
0.0
100
AcDbLayout
  1
Model
 70
     1
 71
     0
 10
0.0
 20
0.0
 11
267.3
 21
189.0
 12
0.0
 22
0.0
 32
0.0
 14
0.0
 24
0.0
 34
0.0
 15
267.3
 25
189.0
 35
0.0
146
0.0
 13
0.0
 23
0.0
 33
0.0
 16
1.0
 26
0.0
 36
0.0
 17
0.0
 27
1.0
 37
0.0
 76
     0
330
1F
331
29
  0
MLINESTYLE
  5
18
102
{ACAD_REACTORS
330
17
102
}
330
17
100
AcDbMlineStyle
  2
Standard
 70
     0
  3

 62
   256
 51
90.0
 52
90.0
 71
     2
 49
0.5
 62
   256
  6
BYLAYER
 49
-0.5
 62
   256
  6
BYLAYER
  0
ACDBPLACEHOLDER
  5
F
102
{ACAD_REACTORS
330
E
102
}
330
E
  0
SCALE
  5
48
102
{ACAD_REACTORS
330
47
102
}
330
47
100
AcDbScale
 70
     0
300
1:1
140
1.0
141
1.0
290
     1
  0
SCALE
  5
49
102
{ACAD_REACTORS
330
47
102
}
330
47
100
AcDbScale
 70
     0
300
1:2
140
1.0
141
2.0
290
     0
  0
SCALE
  5
4A
102
{ACAD_REACTORS
330
47
102
}
330
47
100
AcDbScale
 70
     0
300
1:4
140
1.0
141
4.0
290
     0
  0
SCALE
  5
4B
102
{ACAD_REACTORS
330
47
102
}
330
47
100
AcDbScale
 70
     0
300
1:5
140
1.0
141
5.0
290
     0
  0
SCALE
  5
4C
102
{ACAD_REACTORS
330
47
102
}
330
47
100
AcDbScale
 70
     0
300
1:8
140
1.0
141
8.0
290
     0
  0
SCALE
  5
4D
102
{ACAD_REACTORS
330
47
102
}
330
47
100
AcDbScale
 70
     0
300
1:10
140
1.0
141
10.0
290
     0
  0
SCALE
  5
4E
102
{ACAD_REACTORS
330
47
102
}
330
47
100
AcDbScale
 70
     0
300
1:16
140
1.0
141
16.0
290
     0
  0
SCALE
  5
4F
102
{ACAD_REACTORS
330
47
102
}
330
47
100
AcDbScale
 70
     0
300
1:20
140
1.0
141
20.0
290
     0
  0
SCALE
  5
50
102
{ACAD_REACTORS
330
47
102
}
330
47
100
AcDbScale
 70
     0
300
1:30
140
1.0
141
30.0
290
     0
  0
SCALE
  5
51
102
{ACAD_REACTORS
330
47
102
}
330
47
100
AcDbScale
 70
     0
300
1:40
140
1.0
141
40.0
290
     0
  0
SCALE
  5
52
102
{ACAD_REACTORS
330
47
102
}
330
47
100
AcDbScale
 70
     0
300
1:50
140
1.0
141
50.0
290
     0
  0
SCALE
  5
53
102
{ACAD_REACTORS
330
47
102
}
330
47
100
AcDbScale
 70
     0
300
1:100
140
1.0
141
100.0
290
     0
  0
SCALE
  5
54
102
{ACAD_REACTORS
330
47
102
}
330
47
100
AcDbScale
 70
     0
300
2:1
140
2.0
141
1.0
290
     0
  0
SCALE
  5
55
102
{ACAD_REACTORS
330
47
102
}
330
47
100
AcDbScale
 70
     0
300
4:1
140
4.0
141
1.0
290
     0
  0
SCALE
  5
56
102
{ACAD_REACTORS
330
47
102
}
330
47
100
AcDbScale
 70
     0
300
8:1
140
8.0
141
1.0
290
     0
  0
SCALE
  5
57
102
{ACAD_REACTORS
330
47
102
}
330
47
100
AcDbScale
 70
     0
300
10:1
140
10.0
141
1.0
290
     0
  0
SCALE
  5
58
102
{ACAD_REACTORS
330
47
102
}
330
47
100
AcDbScale
 70
     0
300
100:1
140
100.0
141
1.0
290
     0
  0
SCALE
  5
59
102
{ACAD_REACTORS
330
47
102
}
330
47
100
AcDbScale
 70
     0
300
1/128" = 1'-0"
140
0.0078125
141
12.0
290
     0
  0
SCALE
  5
5A
102
{ACAD_REACTORS
330
47
102
}
330
47
100
AcDbScale
 70
     0
300
1/64" = 1'-0"
140
0.015625
141
12.0
290
     0
  0
SCALE
  5
5B
102
{ACAD_REACTORS
330
47
102
}
330
47
100
AcDbScale
 70
     0
300
1/32" = 1'-0"
140
0.03125
141
12.0
290
     0
  0
SCALE
  5
5C
102
{ACAD_REACTORS
330
47
102
}
330
47
100
AcDbScale
 70
     0
300
1/16" = 1'-0"
140
0.0625
141
12.0
290
     0
  0
SCALE
  5
5D
102
{ACAD_REACTORS
330
47
102
}
330
47
100
AcDbScale
 70
     0
300
3/32" = 1'-0"
140
0.09375
141
12.0
290
     0
  0
SCALE
  5
5E
102
{ACAD_REACTORS
330
47
102
}
330
47
100
AcDbScale
 70
     0
300
1/8" = 1'-0"
140
0.125
141
12.0
290
     0
  0
SCALE
  5
5F
102
{ACAD_REACTORS
330
47
102
}
330
47
100
AcDbScale
 70
     0
300
3/16" = 1'-0"
140
0.1875
141
12.0
290
     0
  0
SCALE
  5
60
102
{ACAD_REACTORS
330
47
102
}
330
47
100
AcDbScale
 70
     0
300
1/4" = 1'-0"
140
0.25
141
12.0
290
     0
  0
SCALE
  5
61
102
{ACAD_REACTORS
330
47
102
}
330
47
100
AcDbScale
 70
     0
300
3/8" = 1'-0"
140
0.375
141
12.0
290
     0
  0
SCALE
  5
62
102
{ACAD_REACTORS
330
47
102
}
330
47
100
AcDbScale
 70
     0
300
1/2" = 1'-0"
140
0.5
141
12.0
290
     0
  0
SCALE
  5
63
102
{ACAD_REACTORS
330
47
102
}
330
47
100
AcDbScale
 70
     0
300
3/4" = 1'-0"
140
0.75
141
12.0
290
     0
  0
SCALE
  5
64
102
{ACAD_REACTORS
330
47
102
}
330
47
100
AcDbScale
 70
     0
300
1" = 1'-0"
140
1.0
141
12.0
290
     0
  0
SCALE
  5
65
102
{ACAD_REACTORS
330
47
102
}
330
47
100
AcDbScale
 70
     0
300
1-1/2" = 1'-0"
140
1.5
141
12.0
290
     0
  0
SCALE
  5
66
102
{ACAD_REACTORS
330
47
102
}
330
47
100
AcDbScale
 70
     0
300
3" = 1'-0"
140
3.0
141
12.0
290
     0
  0
SCALE
  5
67
102
{ACAD_REACTORS
330
47
102
}
330
47
100
AcDbScale
 70
     0
300
6" = 1'-0"
140
6.0
141
12.0
290
     0
  0
SCALE
  5
68
102
{ACAD_REACTORS
330
47
102
}
330
47
100
AcDbScale
 70
     0
300
1'-0" = 1'-0"
140
12.0
141
12.0
290
     0
  0
ENDSEC
  0
EOF
