  0
SECTION
  2
HEADER
  9
$ACADVER
  1
AC1015
  9
$ACADMAINTVER
 70
     6
  9
$DWGCODEPAGE
  3
ANSI_1252
  9
$INSBASE
 10
0.0
 20
0.0
 30
0.0
  9
$EXTMIN
 10
0.0
 20
0.0
 30
0.0
  9
$EXTMAX
 10
297.0
 20
210.0
 30
0.0
  9
$LIMMIN
 10
0.0
 20
0.0
  9
$LIMMAX
 10
297.0
 20
210.0
  9
$ORTHOMODE
 70
     0
  9
$REGENMODE
 70
     1
  9
$FILLMODE
 70
     1
  9
$QTEXTMODE
 70
     0
  9
$MIRRTEXT
 70
     1
  9
$LTSCALE
 40
1.0
  9
$ATTMODE
 70
     1
  9
$TEXTSIZE
 40
3.8805555556
  9
$TRACEWID
 40
1.0
  9
$TEXTSTYLE
  7
Standard
  9
$CLAYER
  8
0
  9
$CELTYPE
  6
ByLayer
  9
$CECOLOR
 62
   256
  9
$CELTSCALE
 40
1.0
  9
$DISPSILH
 70
     0
  9
$DIMSCALE
 40
1.0
  9
$DIMASZ
 40
3.302
  9
$DIMEXO
 40
1.0
  9
$DIMDLI
 40
3.75
  9
$DIMRND
 40
0.0
  9
$DIMDLE
 40
0.0
  9
$DIMEXE
 40
1.0
  9
$DIMTP
 40
0.0
  9
$DIMTM
 40
0.0
  9
$DIMTXT
 40
3.8805555556
  9
$DIMCEN
 40
2.5
  9
$DIMTSZ
 40
0.0
  9
$DIMTOL
 70
     0
  9
$DIMLIM
 70
     0
  9
$DIMTIH
 70
     1
  9
$DIMTOH
 70
     1
  9
$DIMSE1
 70
     0
  9
$DIMSE2
 70
     0
  9
$DIMTAD
 70
     1
  9
$DIMZIN
 70
     0
  9
$DIMBLK
  1

  9
$DIMASO
 70
     1
  9
$DIMSHO
 70
     1
  9
$DIMPOST
  1

  9
$DIMAPOST
  1

  9
$DIMALT
 70
     0
  9
$DIMALTD
 70
     3
  9
$DIMALTF
 40
0.0393700787
  9
$DIMLFAC
 40
1.0
  9
$DIMTOFL
 70
     1
  9
$DIMTVP
 40
0.0
  9
$DIMTIX
 70
     0
  9
$DIMSOXD
 70
     0
  9
$DIMSAH
 70
     0
  9
$DIMBLK1
  1

  9
$DIMBLK2
  1

  9
$DIMSTYLE
  2
ISO-25
  9
$DIMCLRD
 70
     0
  9
$DIMCLRE
 70
     0
  9
$DIMCLRT
 70
     0
  9
$DIMTFAC
 40
1.0
  9
$DIMGAP
 40
1.524
  9
$DIMJUST
 70
     0
  9
$DIMSD1
 70
     0
  9
$DIMSD2
 70
     0
  9
$DIMTOLJ
 70
     0
  9
$DIMTZIN
 70
     0
  9
$DIMALTZ
 70
     0
  9
$DIMALTTZ
 70
     0
  9
$DIMUPT
 70
     0
  9
$DIMDEC
 70
     2
  9
$DIMTDEC
 70
     2
  9
$DIMALTU
 70
     2
  9
$DIMALTTD
 70
     3
  9
$DIMTXSTY
  7
Standard
  9
$DIMAUNIT
 70
     0
  9
$DIMADEC
 70
     2
  9
$DIMALTRND
 40
0.0
  9
$DIMAZIN
 70
     0
  9
$DIMDSEP
 70
    44
  9
$DIMATFIT
 70
     3
  9
$DIMFRAC
 70
     0
  9
$DIMLDRBLK
  1

  9
$DIMLUNIT
 70
     2
  9
$DIMLWD
 70
    -2
  9
$DIMLWE
 70
    -2
  9
$DIMTMOVE
 70
     0
  9
$LUNITS
 70
     2
  9
$LUPREC
 70
     2
  9
$SKETCHINC
 40
1.0
  9
$FILLETRAD
 40
10.0
  9
$AUNITS
 70
     0
  9
$AUPREC
 70
     2
  9
$MENU
  1
.
  9
$ELEVATION
 40
0.0
  9
$PELEVATION
 40
0.0
  9
$THICKNESS
 40
0.0
  9
$LIMCHECK
 70
     0
  9
$CHAMFERA
 40
0.0
  9
$CHAMFERB
 40
0.0
  9
$CHAMFERC
 40
0.0
  9
$CHAMFERD
 40
0.0
  9
$SKPOLY
 70
     0
  9
$TDCREATE
 40
2458613.642543287
  9
$TDUCREATE
 40
2458613.413376621
  9
$TDUPDATE
 40
2458613.642544445
  9
$TDUUPDATE
 40
2458613.413377778
  9
$TDINDWG
 40
0.0000000116
  9
$TDUSRTIMER
 40
0.0000000116
  9
$USRTIMER
 70
     1
  9
$ANGBASE
 50
0.0
  9
$ANGDIR
 70
     0
  9
$PDMODE
 70
     0
  9
$PDSIZE
 40
-1.0
  9
$PLINEWID
 40
0.0
  9
$SPLFRAME
 70
     0
  9
$SPLINETYPE
 70
     6
  9
$SPLINESEGS
 70
     8
  9
$HANDSEED
  5
196
  9
$SURFTAB1
 70
     6
  9
$SURFTAB2
 70
     6
  9
$SURFTYPE
 70
     6
  9
$SURFU
 70
     6
  9
$SURFV
 70
     6
  9
$UCSBASE
  2

  9
$UCSNAME
  2

  9
$UCSORG
 10
0.0
 20
0.0
 30
0.0
  9
$UCSXDIR
 10
1.0
 20
0.0
 30
0.0
  9
$UCSYDIR
 10
0.0
 20
1.0
 30
0.0
  9
$UCSORTHOREF
  2

  9
$UCSORTHOVIEW
 70
     0
  9
$UCSORGTOP
 10
0.0
 20
0.0
 30
0.0
  9
$UCSORGBOTTOM
 10
0.0
 20
0.0
 30
0.0
  9
$UCSORGLEFT
 10
0.0
 20
0.0
 30
0.0
  9
$UCSORGRIGHT
 10
0.0
 20
0.0
 30
0.0
  9
$UCSORGFRONT
 10
0.0
 20
0.0
 30
0.0
  9
$UCSORGBACK
 10
0.0
 20
0.0
 30
0.0
  9
$PUCSBASE
  2

  9
$PUCSNAME
  2

  9
$PUCSORG
 10
0.0
 20
0.0
 30
0.0
  9
$PUCSXDIR
 10
1.0
 20
0.0
 30
0.0
  9
$PUCSYDIR
 10
0.0
 20
1.0
 30
0.0
  9
$PUCSORTHOREF
  2

  9
$PUCSORTHOVIEW
 70
     0
  9
$PUCSORGTOP
 10
0.0
 20
0.0
 30
0.0
  9
$PUCSORGBOTTOM
 10
0.0
 20
0.0
 30
0.0
  9
$PUCSORGLEFT
 10
0.0
 20
0.0
 30
0.0
  9
$PUCSORGRIGHT
 10
0.0
 20
0.0
 30
0.0
  9
$PUCSORGFRONT
 10
0.0
 20
0.0
 30
0.0
  9
$PUCSORGBACK
 10
0.0
 20
0.0
 30
0.0
  9
$USERI1
 70
     0
  9
$USERI2
 70
     0
  9
$USERI3
 70
     0
  9
$USERI4
 70
     0
  9
$USERI5
 70
     0
  9
$USERR1
 40
0.0
  9
$USERR2
 40
0.0
  9
$USERR3
 40
0.0
  9
$USERR4
 40
0.0
  9
$USERR5
 40
0.0
  9
$WORLDVIEW
 70
     1
  9
$SHADEDGE
 70
     3
  9
$SHADEDIF
 70
    70
  9
$TILEMODE
 70
     1
  9
$MAXACTVP
 70
    64
  9
$PINSBASE
 10
0.0
 20
0.0
 30
0.0
  9
$PLIMCHECK
 70
     0
  9
$PEXTMIN
 10
1.0000000000E+20
 20
1.0000000000E+20
 30
1.0000000000E+20
  9
$PEXTMAX
 10
-1.0000000000E+20
 20
-1.0000000000E+20
 30
-1.0000000000E+20
  9
$PLIMMIN
 10
0.0
 20
0.0
  9
$PLIMMAX
 10
420.0
 20
297.0
  9
$UNITMODE
 70
     0
  9
$VISRETAIN
 70
     1
  9
$PLINEGEN
 70
     0
  9
$PSLTSCALE
 70
     1
  9
$TREEDEPTH
 70
  3020
  9
$CMLSTYLE
  2
Standard
  9
$CMLJUST
 70
     0
  9
$CMLSCALE
 40
20.0
  9
$PROXYGRAPHICS
 70
     1
  9
$MEASUREMENT
 70
     1
  9
$CELWEIGHT
370
    -1
  9
$ENDCAPS
280
     0
  9
$JOINSTYLE
280
     0
  9
$LWDISPLAY
290
     1
  9
$INSUNITS
 70
     4
  9
$HYPERLINKBASE
  1

  9
$STYLESHEET
  1

  9
$XEDIT
290
     1
  9
$CEPSNTYPE
380
     0
  9
$PSTYLEMODE
290
     1
  9
$FINGERPRINTGUID
  2
{7756376F-31B3-4DAF-B3E9-92383F881D0C}
  9
$VERSIONGUID
  2
{FAEB1C32-E019-11D5-929B-00C0DF256EC4}
  9
$EXTNAMES
290
     1
  9
$PSVPSCALE
 40
0.0
  9
$OLESTARTUP
290
     0
  0
ENDSEC
  0
SECTION
  2
CLASSES
  0
CLASS
  1
ACDBDICTIONARYWDFLT
  2
AcDbDictionaryWithDefault
  3
ObjectDBX Classes
 90
        0
280
     0
281
     0
  0
CLASS
  1
VISUALSTYLE
  2
AcDbVisualStyle
  3
ObjectDBX Classes
 90
     4095
280
     0
281
     0
  0
CLASS
  1
MATERIAL
  2
AcDbMaterial
  3
ObjectDBX Classes
 90
     1153
280
     0
281
     0
  0
CLASS
  1
SCALE
  2
AcDbScale
  3
ObjectDBX Classes
 90
     1153
280
     0
281
     0
  0
CLASS
  1
SUN
  2
AcDbSun
  3
SCENEOE
 90
     1153
280
     0
281
     0
  0
CLASS
  1
ACDBPLACEHOLDER
  2
AcDbPlaceHolder
  3
ObjectDBX Classes
 90
        0
280
     0
281
     0
  0
CLASS
  1
LAYOUT
  2
AcDbLayout
  3
ObjectDBX Classes
 90
        0
280
     0
281
     0
  0
ENDSEC
  0
SECTION
  2
TABLES
  0
TABLE
  2
VPORT
  5
8
330
0
100
AcDbSymbolTable
 70
     1
  0
VPORT
  5
29
330
8
100
AcDbSymbolTableRecord
100
AcDbViewportTableRecord
  2
*Active
 70
     0
 10
0.0
 20
0.0
 11
1.0
 21
1.0
 12
148.5
 22
105.0
 13
0.0
 23
0.0
 14
10.0
 24
10.0
 15
10.0
 25
10.0
 16
0.0
 26
0.0
 36
1.0
 17
0.0
 27
0.0
 37
0.0
 40
210.0
 41
1.4142857143
 42
50.0
 43
0.0
 44
0.0
 50
0.0
 51
0.0
 71
     0
 72
  2000
 73
     1
 74
     3
 75
     0
 76
     0
 77
     0
 78
     0
281
     0
 65
     1
110
0.0
120
0.0
130
0.0
111
1.0
121
0.0
131
0.0
112
0.0
122
1.0
132
0.0
 79
     0
146
0.0
  0
ENDTAB
  0
TABLE
  2
LTYPE
  5
5
330
0
100
AcDbSymbolTable
 70
     6
  0
LTYPE
  5
14
330
5
100
AcDbSymbolTableRecord
100
AcDbLinetypeTableRecord
  2
ByBlock
 70
     0
  3

 72
    65
 73
     0
 40
0.0
  0
LTYPE
  5
15
330
5
100
AcDbSymbolTableRecord
100
AcDbLinetypeTableRecord
  2
ByLayer
 70
     0
  3

 72
    65
 73
     0
 40
0.0
  0
LTYPE
  5
16
330
5
100
AcDbSymbolTableRecord
100
AcDbLinetypeTableRecord
  2
Continuous
 70
     0
  3
Solid line
 72
    65
 73
     0
 40
0.0
  0
LTYPE
  5
6A
330
5
100
AcDbSymbolTableRecord
100
AcDbLinetypeTableRecord
  2
HIDDEN
 70
     0
  3
Hidden __ __ __ __ __ __ __ __ __ __ __ __ __ __
 72
    65
 73
     2
 40
1.905
 49
1.27
 74
     0
 49
-0.635
 74
     0
  0
LTYPE
  5
6B
330
5
100
AcDbSymbolTableRecord
100
AcDbLinetypeTableRecord
  2
PHANTOM
 70
     0
  3
Phantom ______  __  __  ______  __  __  ______
 72
    65
 73
     6
 40
12.7
 49
6.35
 74
     0
 49
-1.27
 74
     0
 49
1.27
 74
     0
 49
-1.27
 74
     0
 49
1.27
 74
     0
 49
-1.27
 74
     0
  0
LTYPE
  5
6C
330
5
100
AcDbSymbolTableRecord
100
AcDbLinetypeTableRecord
  2
CENTER
 70
     0
  3
Center ____ _ ____ _ ____ _ ____ _ ____ _ ____
 72
    65
 73
     4
 40
10.16
 49
6.35
 74
     0
 49
-1.27
 74
     0
 49
1.27
 74
     0
 49
-1.27
 74
     0
  0
LTYPE
  5
6D
330
5
100
AcDbSymbolTableRecord
100
AcDbLinetypeTableRecord
  2
CENTERX2
 70
     0
  3
Center (2x) ________  __  ________  __  _____
 72
    65
 73
     4
 40
20.32
 49
12.7
 74
     0
 49
-2.54
 74
     0
 49
2.54
 74
     0
 49
-2.54
 74
     0
  0
LTYPE
  5
6E
330
5
100
AcDbSymbolTableRecord
100
AcDbLinetypeTableRecord
  2
DOT2
 70
     0
  3
Dot (.5x) ........................................
 72
    65
 73
     2
 40
0.635
 49
0.0
 74
     0
 49
-0.635
 74
     0
  0
ENDTAB
  0
TABLE
  2
LAYER
  5
2
330
0
100
AcDbSymbolTable
 70
     8
  0
LAYER
  5
10
330
2
100
AcDbSymbolTableRecord
100
AcDbLayerTableRecord
  2
0
 70
     0
 62
     7
  6
Continuous
370
    -3
390
F
  0
LAYER
  5
6F
330
2
100
AcDbSymbolTableRecord
100
AcDbLayerTableRecord
  2
FORMAT
 70
     0
 62
     7
  6
Continuous
370
    -3
390
F
  0
LAYER
  5
70
330
2
100
AcDbSymbolTableRecord
100
AcDbLayerTableRecord
  2
SLD-0
 70
     0
 62
     2
  6
Continuous
370
    -3
390
F
  0
LAYER
  5
71
330
2
100
AcDbSymbolTableRecord
100
AcDbLayerTableRecord
  2
DIM
 70
     0
 62
   179
  6
Continuous
370
    -3
390
F
  0
LAYER
  5
72
330
2
100
AcDbSymbolTableRecord
100
AcDbLayerTableRecord
  2
SLD-DEFPOINTS
 70
     0
 62
   179
  6
Continuous
370
    -3
390
F
  0
LAYER
  5
73
330
2
100
AcDbSymbolTableRecord
100
AcDbLayerTableRecord
  2
HAT
 70
     0
 62
   135
  6
Continuous
370
    -3
390
F
  0
LAYER
  5
74
330
2
100
AcDbSymbolTableRecord
100
AcDbLayerTableRecord
  2
JOB
 70
     0
 62
   201
  6
Continuous
370
    -3
390
F
  0
LAYER
  5
75
330
2
100
AcDbSymbolTableRecord
100
AcDbLayerTableRecord
  2
INSPECTION_REPORT
 70
     0
 62
   255
  6
Continuous
370
    -3
390
F
  0
ENDTAB
  0
TABLE
  2
STYLE
  5
3
330
0
100
AcDbSymbolTable
 70
     4
  0
STYLE
  5
11
330
3
100
AcDbSymbolTableRecord
100
AcDbTextStyleTableRecord
  2
Standard
 70
     0
 40
0.0
 41
1.0
 50
0.0
 71
     0
 42
3.8805555556
  3
txt
  4

  0
STYLE
  5
92
330
3
100
AcDbSymbolTableRecord
100
AcDbTextStyleTableRecord
  2
SLDTEXTSTYLE0
 70
     0
 40
0.0
 41
0.7
 50
0.0
 71
     0
 42
3.8805555556
  3
TXT
  4

  0
STYLE
  5
94
330
3
100
AcDbSymbolTableRecord
100
AcDbTextStyleTableRecord
  2
SLDTEXTSTYLE1
 70
     0
 40
0.0
 41
0.75
 50
0.0
 71
     0
 42
3.8805555556
  3
TXT
  4

  0
STYLE
  5
A7
330
3
100
AcDbSymbolTableRecord
100
AcDbTextStyleTableRecord
  2
SLDTEXTSTYLE2
 70
     0
 40
0.0
 41
0.6875
 50
0.0
 71
     0
 42
3.8805555556
  3
TXT
  4

  0
ENDTAB
  0
TABLE
  2
VIEW
  5
6
330
0
100
AcDbSymbolTable
 70
     0
  0
ENDTAB
  0
TABLE
  2
UCS
  5
7
330
0
100
AcDbSymbolTable
 70
     0
  0
ENDTAB
  0
TABLE
  2
APPID
  5
9
330
0
100
AcDbSymbolTable
 70
     1
  0
APPID
  5
12
330
9
100
AcDbSymbolTableRecord
100
AcDbRegAppTableRecord
  2
ACAD
 70
     0
  0
ENDTAB
  0
TABLE
  2
DIMSTYLE
  5
A
330
0
100
AcDbSymbolTable
 70
     3
100
AcDbDimStyleTable
  0
DIMSTYLE
105
27
330
A
100
AcDbSymbolTableRecord
100
AcDbDimStyleTableRecord
  2
ISO-25
 70
     0
 41
2.5
 42
0.625
 43
3.75
 44
1.25
 73
     0
 74
     0
 77
     1
 78
     8
140
2.5
141
2.5
143
0.0393700787
147
0.625
171
     3
172
     1
178
     0
271
     2
272
     2
274
     3
278
    44
283
     0
284
     8
340
11
  0
DIMSTYLE
105
155
102
{ACAD_REACTORS
330
154
330
160
330
16B
330
181
330
18B
102
}
330
A
100
AcDbSymbolTableRecord
100
AcDbDimStyleTableRecord
  2
SLDDIMSTYLE0
 70
     0
 41
3.302
 44
0.0
 45
0.000000001
 73
     0
 74
     0
 77
     1
 78
    12
 79
     3
140
2.9104166667
147
0.7276041667
173
     1
178
     0
271
     2
272
     2
276
     2
284
    12
340
92
  0
DIMSTYLE
105
176
102
{ACAD_REACTORS
330
175
102
}
330
A
100
AcDbSymbolTableRecord
100
AcDbDimStyleTableRecord
  2
SLDDIMSTYLE1
 70
     0
 41
3.302
 44
0.0
 45
0.000000001
 73
     0
 74
     0
 77
     1
 78
     4
 79
     1
140
2.9104166667
147
0.7276041667
173
     1
178
     0
271
     2
272
     2
276
     2
284
    12
340
92
  0
ENDTAB
  0
TABLE
  2
BLOCK_RECORD
  5
1
330
0
100
AcDbSymbolTable
 70
     7
  0
BLOCK_RECORD
  5
1F
330
1
100
AcDbSymbolTableRecord
100
AcDbBlockTableRecord
  2
*Model_Space
340
22
  0
BLOCK_RECORD
  5
1B
330
1
100
AcDbSymbolTableRecord
100
AcDbBlockTableRecord
  2
*Paper_Space
340
1E
  0
BLOCK_RECORD
  5
23
330
1
100
AcDbSymbolTableRecord
100
AcDbBlockTableRecord
  2
*Paper_Space0
340
26
  0
BLOCK_RECORD
  5
156
330
1
100
AcDbSymbolTableRecord
100
AcDbBlockTableRecord
  2
_D
340
0
  0
BLOCK_RECORD
  5
161
330
1
100
AcDbSymbolTableRecord
100
AcDbBlockTableRecord
  2
_D_1
340
0
  0
BLOCK_RECORD
  5
16C
330
1
100
AcDbSymbolTableRecord
100
AcDbBlockTableRecord
  2
_D_2
340
0
  0
BLOCK_RECORD
  5
177
330
1
100
AcDbSymbolTableRecord
100
AcDbBlockTableRecord
  2
_D_3
340
0
  0
BLOCK_RECORD
  5
182
330
1
100
AcDbSymbolTableRecord
100
AcDbBlockTableRecord
  2
_D_4
340
0
  0
BLOCK_RECORD
  5
18C
330
1
100
AcDbSymbolTableRecord
100
AcDbBlockTableRecord
  2
_D_5
340
0
  0
ENDTAB
  0
ENDSEC
  0
SECTION
  2
BLOCKS
  0
BLOCK
  5
20
330
1F
100
AcDbEntity
  8
0
100
AcDbBlockBegin
  2
*Model_Space
 70
     0
 10
0.0
 20
0.0
 30
0.0
  3
*Model_Space
  1
*Model_Space
  0
ENDBLK
  5
21
330
1F
100
AcDbEntity
  8
0
100
AcDbBlockEnd
  0
BLOCK
  5
1C
330
1B
100
AcDbEntity
 67
     1
  8
0
100
AcDbBlockBegin
  2
*Paper_Space
 70
     0
 10
0.0
 20
0.0
 30
0.0
  3
*Paper_Space
  1
*Paper_Space
  0
ENDBLK
  5
1D
330
1B
100
AcDbEntity
 67
     1
  8
0
100
AcDbBlockEnd
  0
BLOCK
  5
24
330
23
100
AcDbEntity
  8
0
100
AcDbBlockBegin
  2
*Paper_Space0
 70
     0
 10
0.0
 20
0.0
 30
0.0
  3
*Paper_Space0
  1
*Paper_Space0
  0
ENDBLK
  5
25
330
23
100
AcDbEntity
  8
0
100
AcDbBlockEnd
  0
BLOCK
  5
157
330
156
100
AcDbEntity
  8
0
100
AcDbBlockBegin
  2
_D
 70
     0
 10
0.0
 20
0.0
 30
0.0
  3
_D
  1
_D
  0
SOLID
  5
159
330
156
100
AcDbEntity
  8
DIM
100
AcDbTrace
 10
245.073131709
 20
127.3274606531
 30
0.0
 11
244.565131709
 21
124.0254606531
 31
0.0
 12
245.581131709
 22
124.0254606531
 32
0.0
 13
245.581131709
 23
124.0254606531
 33
0.0
  0
SOLID
  5
15A
330
156
100
AcDbEntity
  8
DIM
100
AcDbTrace
 10
245.073131709
 20
87.3274606531
 30
0.0
 11
245.581131709
 21
90.6294606531
 31
0.0
 12
244.565131709
 22
90.6294606531
 32
0.0
 13
244.565131709
 23
90.6294606531
 33
0.0
  0
LINE
  5
15B
330
156
100
AcDbEntity
  8
DIM
100
AcDbLine
 10
223.7289900279
 20
127.3274606531
 30
0.0
 11
246.073131709
 21
127.3274606531
 31
0.0
  0
LINE
  5
15C
330
156
100
AcDbEntity
  8
DIM
100
AcDbLine
 10
223.7289900279
 20
87.3274606531
 30
0.0
 11
246.073131709
 21
87.3274606531
 31
0.0
  0
LINE
  5
15D
330
156
100
AcDbEntity
  8
DIM
100
AcDbLine
 10
245.073131709
 20
127.3274606531
 30
0.0
 11
245.073131709
 21
87.3274606531
 31
0.0
  0
MTEXT
  5
15E
330
156
100
AcDbEntity
  8
DIM
100
AcDbMText
 10
241.3214072419
 20
103.1099165482
 30
0.0
 40
2.9104166667
 41
0.0
 71
     1
 72
     1
  1
%%c
  7
SLDTEXTSTYLE0
 11
-7.044195017643634E-15
 21
1.0
 31
0.0
 73
     1
 44
1.0
  0
MTEXT
  5
15F
330
156
100
AcDbEntity
  8
DIM
100
AcDbMText
 10
241.3214072419
 20
107.6105524478
 30
0.0
 40
2.9104166667
 41
0.0
 71
     1
 72
     1
  1
40
  7
SLDTEXTSTYLE0
 11
-7.044195017643634E-15
 21
1.0
 31
0.0
 73
     1
 44
1.0
  0
ENDBLK
  5
158
330
156
100
AcDbEntity
  8
0
100
AcDbBlockEnd
  0
BLOCK
  5
162
330
161
100
AcDbEntity
  8
0
100
AcDbBlockBegin
  2
_D_1
 70
     0
 10
0.0
 20
0.0
 30
0.0
  3
_D_1
  1
_D_1
  0
SOLID
  5
164
330
161
100
AcDbEntity
  8
DIM
100
AcDbTrace
 10
253.7289900279
 20
142.3274606531
 30
0.0
 11
253.2209900279
 21
139.0254606531
 31
0.0
 12
254.2369900279
 22
139.0254606531
 32
0.0
 13
254.2369900279
 23
139.0254606531
 33
0.0
  0
SOLID
  5
165
330
161
100
AcDbEntity
  8
DIM
100
AcDbTrace
 10
253.7289900279
 20
72.3274606531
 30
0.0
 11
254.2369900279
 21
75.6294606531
 31
0.0
 12
253.2209900279
 22
75.6294606531
 32
0.0
 13
253.2209900279
 23
75.6294606531
 33
0.0
  0
LINE
  5
166
330
161
100
AcDbEntity
  8
DIM
100
AcDbLine
 10
204.9289900279
 20
142.3274606531
 30
0.0
 11
254.7289900279
 21
142.3274606531
 31
0.0
  0
LINE
  5
167
330
161
100
AcDbEntity
  8
DIM
100
AcDbLine
 10
204.9289900289
 20
72.3274606531
 30
0.0
 11
254.7289900279
 21
72.3274606531
 31
0.0
  0
LINE
  5
168
330
161
100
AcDbEntity
  8
DIM
100
AcDbLine
 10
253.7289900279
 20
142.3274606531
 30
0.0
 11
253.7289900279
 21
72.3274606531
 31
0.0
  0
MTEXT
  5
169
330
161
100
AcDbEntity
  8
DIM
100
AcDbMText
 10
249.9772655607
 20
103.1099165482
 30
0.0
 40
2.9104166667
 41
0.0
 71
     1
 72
     1
  1
%%c
  7
SLDTEXTSTYLE0
 11
-7.044195017643634E-15
 21
1.0
 31
0.0
 73
     1
 44
1.0
  0
MTEXT
  5
16A
330
161
100
AcDbEntity
  8
DIM
100
AcDbMText
 10
249.9772655607
 20
107.6105524478
 30
0.0
 40
2.9104166667
 41
0.0
 71
     1
 72
     1
  1
70
  7
SLDTEXTSTYLE0
 11
-7.044195017643634E-15
 21
1.0
 31
0.0
 73
     1
 44
1.0
  0
ENDBLK
  5
163
330
161
100
AcDbEntity
  8
0
100
AcDbBlockEnd
  0
BLOCK
  5
16D
330
16C
100
AcDbEntity
  8
0
100
AcDbBlockBegin
  2
_D_2
 70
     0
 10
0.0
 20
0.0
 30
0.0
  3
_D_2
  1
_D_2
  0
SOLID
  5
16F
330
16C
100
AcDbEntity
  8
DIM
100
AcDbTrace
 10
237.7289900279
 20
36.5774606531
 30
0.0
 11
234.4269900279
 21
37.0854606531
 31
0.0
 12
234.4269900279
 22
36.0694606531
 32
0.0
 13
234.4269900279
 23
36.0694606531
 33
0.0
  0
SOLID
  5
170
330
16C
100
AcDbEntity
  8
DIM
100
AcDbTrace
 10
39.9789900279
 20
36.5774606531
 30
0.0
 11
43.2809900279
 21
36.0694606531
 31
0.0
 12
43.2809900279
 22
37.0854606531
 32
0.0
 13
43.2809900279
 23
37.0854606531
 33
0.0
  0
LINE
  5
171
330
16C
100
AcDbEntity
  8
DIM
100
AcDbLine
 10
237.7289900279
 20
81.3274606531
 30
0.0
 11
237.7289900279
 21
35.5774606531
 31
0.0
  0
LINE
  5
172
330
16C
100
AcDbEntity
  8
DIM
100
AcDbLine
 10
39.9789900279
 20
106.3274606531
 30
0.0
 11
39.9789900279
 21
35.5774606531
 31
0.0
  0
LINE
  5
173
330
16C
100
AcDbEntity
  8
DIM
100
AcDbLine
 10
237.7289900279
 20
36.5774606531
 30
0.0
 11
39.9789900279
 21
36.5774606531
 31
0.0
  0
MTEXT
  5
174
330
16C
100
AcDbEntity
  8
DIM
100
AcDbMText
 10
133.4185172079
 20
40.3291851202
 30
0.0
 40
2.9104166667
 41
0.0
 71
     1
 72
     1
  1
197.75
  7
SLDTEXTSTYLE0
 73
     1
 44
1.0
  0
ENDBLK
  5
16E
330
16C
100
AcDbEntity
  8
0
100
AcDbBlockEnd
  0
BLOCK
  5
178
330
177
100
AcDbEntity
  8
0
100
AcDbBlockBegin
  2
_D_3
 70
     0
 10
0.0
 20
0.0
 30
0.0
  3
_D_3
  1
_D_3
  0
SOLID
  5
17A
330
177
100
AcDbEntity
  8
DIM
100
AcDbTrace
 10
29.8380370101
 20
156.0774606531
 30
0.0
 11
29.3300370101
 21
152.7754606531
 31
0.0
 12
30.3460370101
 22
152.7754606531
 32
0.0
 13
30.3460370101
 23
152.7754606531
 33
0.0
  0
SOLID
  5
17B
330
177
100
AcDbEntity
  8
DIM
100
AcDbTrace
 10
29.8380370101
 20
58.5774606531
 30
0.0
 11
30.3460370101
 21
61.8794606531
 31
0.0
 12
29.3300370101
 22
61.8794606531
 32
0.0
 13
29.3300370101
 23
61.8794606531
 33
0.0
  0
LINE
  5
17C
330
177
100
AcDbEntity
  8
DIM
100
AcDbLine
 10
145.0946754529
 20
156.0774606531
 30
0.0
 11
28.8380370101
 21
156.0774606531
 31
0.0
  0
LINE
  5
17D
330
177
100
AcDbEntity
  8
DIM
100
AcDbLine
 10
145.0946754529
 20
58.5774606531
 30
0.0
 11
28.8380370101
 21
58.5774606531
 31
0.0
  0
LINE
  5
17E
330
177
100
AcDbEntity
  8
DIM
100
AcDbLine
 10
29.8380370101
 20
156.0774606531
 30
0.0
 11
29.8380370101
 21
58.5774606531
 31
0.0
  0
MTEXT
  5
17F
330
177
100
AcDbEntity
  8
DIM
100
AcDbMText
 10
26.0863125429
 20
100.6252829609
 30
0.0
 40
2.9104166667
 41
0.0
 71
     1
 72
     1
  1
%%c
  7
SLDTEXTSTYLE0
 11
-7.044195017643634E-15
 21
1.0
 31
0.0
 73
     1
 44
1.0
  0
MTEXT
  5
180
330
177
100
AcDbEntity
  8
DIM
100
AcDbMText
 10
26.0863125429
 20
105.1259188605
 30
0.0
 40
2.9104166667
 41
0.0
 71
     1
 72
     1
  1
97.50
  7
SLDTEXTSTYLE0
 11
-7.044195017643634E-15
 21
1.0
 31
0.0
 73
     1
 44
1.0
  0
ENDBLK
  5
179
330
177
100
AcDbEntity
  8
0
100
AcDbBlockEnd
  0
BLOCK
  5
183
330
182
100
AcDbEntity
  8
0
100
AcDbBlockBegin
  2
_D_4
 70
     0
 10
0.0
 20
0.0
 30
0.0
  3
_D_4
  1
_D_4
  0
SOLID
  5
185
330
182
100
AcDbEntity
  8
DIM
100
AcDbTrace
 10
141.7289900279
 20
47.9966336443
 30
0.0
 11
145.0309900279
 21
47.4886336443
 31
0.0
 12
145.0309900279
 22
48.5046336443
 32
0.0
 13
145.0309900279
 23
48.5046336443
 33
0.0
  0
SOLID
  5
186
330
182
100
AcDbEntity
  8
DIM
100
AcDbTrace
 10
196.7289900208
 20
47.9966336443
 30
0.0
 11
193.4269900208
 21
48.5046336443
 31
0.0
 12
193.4269900208
 22
47.4886336443
 32
0.0
 13
193.4269900208
 23
47.4886336443
 33
0.0
  0
LINE
  5
187
330
182
100
AcDbEntity
  8
DIM
100
AcDbLine
 10
141.7289900279
 20
71.4024606531
 30
0.0
 11
141.7289900279
 21
46.9966336443
 31
0.0
  0
LINE
  5
188
330
182
100
AcDbEntity
  8
DIM
100
AcDbLine
 10
196.7289900208
 20
72.2540105797
 30
0.0
 11
196.7289900208
 21
46.9966336443
 31
0.0
  0
LINE
  5
189
330
182
100
AcDbEntity
  8
DIM
100
AcDbLine
 10
141.7289900279
 20
47.9966336443
 30
0.0
 11
196.7289900208
 21
47.9966336443
 31
0.0
  0
MTEXT
  5
18A
330
182
100
AcDbEntity
  8
DIM
100
AcDbMText
 10
167.2617638692
 20
51.7483581114
 30
0.0
 40
2.9104166667
 41
0.0
 71
     1
 72
     1
  1
55
  7
SLDTEXTSTYLE0
 73
     1
 44
1.0
  0
ENDBLK
  5
184
330
182
100
AcDbEntity
  8
0
100
AcDbBlockEnd
  0
BLOCK
  5
18D
330
18C
100
AcDbEntity
  8
0
100
AcDbBlockBegin
  2
_D_5
 70
     0
 10
0.0
 20
0.0
 30
0.0
  3
_D_5
  1
_D_5
  0
SOLID
  5
18F
330
18C
100
AcDbEntity
  8
DIM
100
AcDbTrace
 10
196.7289900208
 20
47.9966336443
 30
0.0
 11
200.0309900208
 21
47.4886336443
 31
0.0
 12
200.0309900208
 22
48.5046336443
 32
0.0
 13
200.0309900208
 23
48.5046336443
 33
0.0
  0
SOLID
  5
190
330
18C
100
AcDbEntity
  8
DIM
100
AcDbTrace
 10
223.7289900279
 20
47.9966336443
 30
0.0
 11
220.4269900279
 21
48.5046336443
 31
0.0
 12
220.4269900279
 22
47.4886336443
 32
0.0
 13
220.4269900279
 23
47.4886336443
 33
0.0
  0
LINE
  5
191
330
18C
100
AcDbEntity
  8
DIM
100
AcDbLine
 10
196.7289900208
 20
72.2540105797
 30
0.0
 11
196.7289900208
 21
46.9966336443
 31
0.0
  0
LINE
  5
192
330
18C
100
AcDbEntity
  8
DIM
100
AcDbLine
 10
223.7289900279
 20
87.3274606531
 30
0.0
 11
223.7289900279
 21
46.9966336443
 31
0.0
  0
LINE
  5
193
330
18C
100
AcDbEntity
  8
DIM
100
AcDbLine
 10
196.7289900208
 20
47.9966336443
 30
0.0
 11
223.7289900279
 21
47.9966336443
 31
0.0
  0
MTEXT
  5
194
330
18C
100
AcDbEntity
  8
DIM
100
AcDbMText
 10
208.2617638692
 20
51.7483581114
 30
0.0
 40
2.9104166667
 41
0.0
 71
     1
 72
     1
  1
27
  7
SLDTEXTSTYLE0
 73
     1
 44
1.0
  0
ENDBLK
  5
18E
330
18C
100
AcDbEntity
  8
0
100
AcDbBlockEnd
  0
ENDSEC
  0
SECTION
  2
ENTITIES
  0
LINE
  5
76
330
1F
100
AcDbEntity
  8
DIM
100
AcDbLine
 10
104.704424689
 20
9.7909914569
 30
0.0
 11
104.704424689
 21
4.7909914569
 31
0.0
  0
LINE
  5
77
330
1F
100
AcDbEntity
  8
DIM
100
AcDbLine
 10
254.4696016953
 20
9.7909914569
 30
0.0
 11
254.4696016953
 21
4.7909914569
 31
0.0
  0
LINE
  5
78
330
1F
100
AcDbEntity
  8
DIM
100
AcDbLine
 10
237.4517099316
 20
9.7909914569
 30
0.0
 11
237.4517099316
 21
4.7909914569
 31
0.0
  0
LINE
  5
79
330
1F
100
AcDbEntity
  8
DIM
100
AcDbLine
 10
278.904424689
 20
4.7909914569
 30
0.0
 11
278.904424689
 21
9.7909914569
 31
0.0
  0
LINE
  5
7A
330
1F
100
AcDbEntity
  8
DIM
100
AcDbLine
 10
112.504424689
 20
9.7909914569
 30
0.0
 11
112.504424689
 21
4.7909914569
 31
0.0
  0
LINE
  5
7B
330
1F
100
AcDbEntity
  8
DIM
100
AcDbLine
 10
131.6953771228
 20
9.7909914569
 30
0.0
 11
131.6953771228
 21
4.7909914569
 31
0.0
  0
LINE
  5
7C
330
1F
100
AcDbEntity
  8
DIM
100
AcDbLine
 10
291.904424689
 20
4.7909914569
 30
0.0
 11
291.904424689
 21
77.0409914569
 31
0.0
  0
LINE
  5
7D
330
1F
100
AcDbEntity
  8
DIM
100
AcDbLine
 10
149.1033508525
 20
9.0409914569
 30
0.0
 11
149.1033508525
 21
4.7909914569
 31
0.0
  0
LINE
  5
7E
330
1F
100
AcDbEntity
  8
DIM
100
AcDbLine
 10
286.904424689
 20
199.7909914569
 30
0.0
 11
9.904424689
 21
199.7909914569
 31
0.0
  0
LINE
  5
7F
330
1F
100
AcDbEntity
  8
DIM
100
AcDbLine
 10
291.904424689
 20
204.7909914569
 30
0.0
 11
4.904424689
 21
204.7909914569
 31
0.0
  0
LINE
  5
80
330
1F
100
AcDbEntity
  8
DIM
100
AcDbLine
 10
9.904424689
 20
199.7909914569
 30
0.0
 11
9.904424689
 21
9.7909914569
 31
0.0
  0
LINE
  5
81
330
1F
100
AcDbEntity
  8
DIM
100
AcDbLine
 10
4.904424689
 20
204.7909914569
 30
0.0
 11
4.904424689
 21
4.7909914569
 31
0.0
  0
LINE
  5
82
330
1F
100
AcDbEntity
  8
DIM
100
AcDbLine
 10
9.904424689
 20
54.7909914569
 30
0.0
 11
4.904424689
 21
54.7909914569
 31
0.0
  0
LINE
  5
83
330
1F
100
AcDbEntity
  8
DIM
100
AcDbLine
 10
4.904424689
 20
104.7909914569
 30
0.0
 11
9.904424689
 21
104.7909914569
 31
0.0
  0
LINE
  5
84
330
1F
100
AcDbEntity
  8
DIM
100
AcDbLine
 10
4.904424689
 20
4.7909914569
 30
0.0
 11
291.904424689
 21
4.7909914569
 31
0.0
  0
LINE
  5
85
330
1F
100
AcDbEntity
  8
DIM
100
AcDbLine
 10
9.904424689
 20
9.7909914569
 30
0.0
 11
291.904424689
 21
9.7909914569
 31
0.0
  0
LINE
  5
86
330
1F
100
AcDbEntity
  8
DIM
100
AcDbLine
 10
48.404424689
 20
4.7909914569
 30
0.0
 11
48.404424689
 21
9.7909914569
 31
0.0
  0
LINE
  5
87
330
1F
100
AcDbEntity
  8
DIM
100
AcDbLine
 10
98.404424689
 20
9.7909914569
 30
0.0
 11
98.404424689
 21
4.7909914569
 31
0.0
  0
LINE
  5
88
330
1F
100
AcDbEntity
  8
DIM
100
AcDbLine
 10
9.904424689
 20
154.7909914569
 30
0.0
 11
4.904424689
 21
154.7909914569
 31
0.0
  0
LINE
  5
89
330
1F
100
AcDbEntity
  8
DIM
100
AcDbLine
 10
48.404424689
 20
199.7909914569
 30
0.0
 11
48.404424689
 21
204.7909914569
 31
0.0
  0
LINE
  5
8A
330
1F
100
AcDbEntity
  8
DIM
100
AcDbLine
 10
98.404424689
 20
204.7909914569
 30
0.0
 11
98.404424689
 21
199.7909914569
 31
0.0
  0
LINE
  5
8B
330
1F
100
AcDbEntity
  8
DIM
100
AcDbLine
 10
148.404424689
 20
204.7909914569
 30
0.0
 11
148.404424689
 21
199.7909914569
 31
0.0
  0
LINE
  5
8C
330
1F
100
AcDbEntity
  8
DIM
100
AcDbLine
 10
286.904424689
 20
9.7909914569
 30
0.0
 11
286.904424689
 21
199.7909914569
 31
0.0
  0
LINE
  5
8D
330
1F
100
AcDbEntity
  8
DIM
100
AcDbLine
 10
291.904424689
 20
77.0409914569
 30
0.0
 11
291.904424689
 21
204.7909914569
 31
0.0
  0
LINE
  5
8E
330
1F
100
AcDbEntity
  8
DIM
100
AcDbLine
 10
291.904424689
 20
104.7909914569
 30
0.0
 11
286.904424689
 21
104.7909914569
 31
0.0
  0
LINE
  5
8F
330
1F
100
AcDbEntity
  8
DIM
100
AcDbLine
 10
198.404424689
 20
204.7909914569
 30
0.0
 11
198.404424689
 21
199.7909914569
 31
0.0
  0
LINE
  5
90
330
1F
100
AcDbEntity
  8
DIM
100
AcDbLine
 10
248.404424689
 20
199.7909914569
 30
0.0
 11
248.404424689
 21
204.7909914569
 31
0.0
  0
LINE
  5
91
330
1F
100
AcDbEntity
  8
DIM
100
AcDbLine
 10
286.904424689
 20
154.7909914569
 30
0.0
 11
291.904424689
 21
154.7909914569
 31
0.0
  0
MTEXT
  5
93
330
1F
100
AcDbEntity
  8
DIM
100
AcDbMText
 10
15.9136706519
 20
192.7989938226
 30
0.0
 40
4.2333333333
 41
0.0
 71
     1
 72
     1
  1
SK50 CSMA40 055 AD/6.3G15000 SL SP.S
  7
SLDTEXTSTYLE0
 73
     1
 44
1.0
  0
MTEXT
  5
95
330
1F
100
AcDbEntity
  8
DIM
 62
     7
100
AcDbMText
 10
197.7327786466
 20
7.8019515263
 30
0.0
 40
1.4986
 41
0.0
 71
     1
 72
     1
  1
WEIGHT:
  7
SLDTEXTSTYLE1
 73
     1
 44
1.0
  0
MTEXT
  5
96
330
1F
100
AcDbEntity
  8
DIM
 62
     7
100
AcDbMText
 10
288.5970767548
 20
81.9406135082
 30
0.0
 40
1.8520833333
 41
0.0
 71
     1
 72
     1
  1
C
  7
SLDTEXTSTYLE1
 73
     1
 44
1.0
  0
MTEXT
  5
97
330
1F
100
AcDbEntity
  8
DIM
 62
     7
100
AcDbMText
 10
283.3368266114
 20
9.0689120314
 30
0.0
 40
2.9104166667
 41
0.0
 71
     1
 72
     1
  1
A4
  7
SLDTEXTSTYLE1
 73
     1
 44
1.0
  0
MTEXT
  5
98
330
1F
100
AcDbEntity
  8
DIM
 62
     7
100
AcDbMText
 10
272.5710953557
 20
203.4590078604
 30
0.0
 40
1.8520833333
 41
0.0
 71
     1
 72
     1
  1
6
  7
SLDTEXTSTYLE1
 73
     1
 44
1.0
  0
MTEXT
  5
99
330
1F
100
AcDbEntity
  8
DIM
 62
     7
100
AcDbMText
 10
222.5710953557
 20
203.4590078604
 30
0.0
 40
1.8520833333
 41
0.0
 71
     1
 72
     1
  1
5
  7
SLDTEXTSTYLE1
 73
     1
 44
1.0
  0
MTEXT
  5
9A
330
1F
100
AcDbEntity
  8
DIM
 62
     7
100
AcDbMText
 10
288.5710993557
 20
180.9590078604
 30
0.0
 40
1.8520833333
 41
0.0
 71
     1
 72
     1
  1
A
  7
SLDTEXTSTYLE1
 73
     1
 44
1.0
  0
MTEXT
  5
9B
330
1F
100
AcDbEntity
  8
DIM
 62
     7
100
AcDbMText
 10
288.5710993557
 20
130.9590078604
 30
0.0
 40
1.8520833333
 41
0.0
 71
     1
 72
     1
  1
B
  7
SLDTEXTSTYLE1
 73
     1
 44
1.0
  0
MTEXT
  5
9C
330
1F
100
AcDbEntity
  8
DIM
 62
     7
100
AcDbMText
 10
172.5710953557
 20
203.4590078604
 30
0.0
 40
1.8520833333
 41
0.0
 71
     1
 72
     1
  1
4
  7
SLDTEXTSTYLE1
 73
     1
 44
1.0
  0
MTEXT
  5
9D
330
1F
100
AcDbEntity
  8
DIM
 62
     7
100
AcDbMText
 10
22.9877620223
 20
203.4590078604
 30
0.0
 40
1.8520833333
 41
0.0
 71
     1
 72
     1
  1
1
  7
SLDTEXTSTYLE1
 73
     1
 44
1.0
  0
MTEXT
  5
9E
330
1F
100
AcDbEntity
  8
DIM
 62
     7
100
AcDbMText
 10
72.5710953557
 20
203.4590078604
 30
0.0
 40
1.8520833333
 41
0.0
 71
     1
 72
     1
  1
2
  7
SLDTEXTSTYLE1
 73
     1
 44
1.0
  0
MTEXT
  5
9F
330
1F
100
AcDbEntity
  8
DIM
 62
     7
100
AcDbMText
 10
122.5710953557
 20
203.4590078604
 30
0.0
 40
1.8520833333
 41
0.0
 71
     1
 72
     1
  1
3
  7
SLDTEXTSTYLE1
 73
     1
 44
1.0
  0
MTEXT
  5
A0
330
1F
100
AcDbEntity
  8
DIM
 62
     7
100
AcDbMText
 10
6.5710913557
 20
180.9590078604
 30
0.0
 40
1.8520833333
 41
0.0
 71
     1
 72
     1
  1
A
  7
SLDTEXTSTYLE1
 73
     1
 44
1.0
  0
MTEXT
  5
A1
330
1F
100
AcDbEntity
  8
DIM
 62
     7
100
AcDbMText
 10
72.5710953557
 20
8.4590078604
 30
0.0
 40
1.8520833333
 41
0.0
 71
     1
 72
     1
  1
2
  7
SLDTEXTSTYLE1
 73
     1
 44
1.0
  0
MTEXT
  5
A2
330
1F
100
AcDbEntity
  8
DIM
 62
     7
100
AcDbMText
 10
22.9877620223
 20
8.4590078604
 30
0.0
 40
1.8520833333
 41
0.0
 71
     1
 72
     1
  1
1
  7
SLDTEXTSTYLE1
 73
     1
 44
1.0
  0
MTEXT
  5
A3
330
1F
100
AcDbEntity
  8
DIM
 62
     7
100
AcDbMText
 10
6.5710913557
 20
30.9590078604
 30
0.0
 40
1.8520833333
 41
0.0
 71
     1
 72
     1
  1
D
  7
SLDTEXTSTYLE1
 73
     1
 44
1.0
  0
MTEXT
  5
A4
330
1F
100
AcDbEntity
  8
DIM
 62
     7
100
AcDbMText
 10
6.5710913557
 20
80.9590078604
 30
0.0
 40
1.8520833333
 41
0.0
 71
     1
 72
     1
  1
C
  7
SLDTEXTSTYLE1
 73
     1
 44
1.0
  0
MTEXT
  5
A5
330
1F
100
AcDbEntity
  8
DIM
 62
     7
100
AcDbMText
 10
6.5710913557
 20
130.9590078604
 30
0.0
 40
1.8520833333
 41
0.0
 71
     1
 72
     1
  1
B
  7
SLDTEXTSTYLE1
 73
     1
 44
1.0
  0
MTEXT
  5
A6
330
1F
100
AcDbEntity
  8
DIM
 62
     7
100
AcDbMText
 10
288.5970767548
 20
81.9406135082
 30
0.0
 40
1.8520833333
 41
0.0
 71
     1
 72
     1
  1
C
  7
SLDTEXTSTYLE1
 73
     1
 44
1.0
  0
MTEXT
  5
A8
330
1F
100
AcDbEntity
  8
DIM
 62
     7
100
AcDbMText
 10
256.5253658125
 20
7.6910787314
 30
0.0
 40
1.5
 41
0.0
 71
     1
 72
     1
  1
SHEET 1 OF 1
  7
SLDTEXTSTYLE2
 73
     1
 44
1.0
  0
MTEXT
  5
A9
330
1F
100
AcDbEntity
  8
DIM
 62
     7
100
AcDbMText
 10
150.3717803834
 20
7.8533674836
 30
0.0
 40
1.5
 41
0.0
 71
     1
 72
     1
  1
MATERIAL:
  7
SLDTEXTSTYLE1
 73
     1
 44
1.0
  0
MTEXT
  5
AA
330
1F
100
AcDbEntity
  8
DIM
 62
     7
100
AcDbMText
 10
272.5710953557
 20
203.4590078604
 30
0.0
 40
1.8520833333
 41
0.0
 71
     1
 72
     1
  1
6
  7
SLDTEXTSTYLE1
 73
     1
 44
1.0
  0
MTEXT
  5
AB
330
1F
100
AcDbEntity
  8
DIM
 62
     7
100
AcDbMText
 10
222.5710953557
 20
203.4590078604
 30
0.0
 40
1.8520833333
 41
0.0
 71
     1
 72
     1
  1
5
  7
SLDTEXTSTYLE1
 73
     1
 44
1.0
  0
MTEXT
  5
AC
330
1F
100
AcDbEntity
  8
DIM
 62
     7
100
AcDbMText
 10
288.5710993557
 20
180.9590078604
 30
0.0
 40
1.8520833333
 41
0.0
 71
     1
 72
     1
  1
A
  7
SLDTEXTSTYLE1
 73
     1
 44
1.0
  0
MTEXT
  5
AD
330
1F
100
AcDbEntity
  8
DIM
 62
     7
100
AcDbMText
 10
288.5710993557
 20
130.9590078604
 30
0.0
 40
1.8520833333
 41
0.0
 71
     1
 72
     1
  1
B
  7
SLDTEXTSTYLE1
 73
     1
 44
1.0
  0
MTEXT
  5
AE
330
1F
100
AcDbEntity
  8
DIM
 62
     7
100
AcDbMText
 10
172.5710953557
 20
203.4590078604
 30
0.0
 40
1.8520833333
 41
0.0
 71
     1
 72
     1
  1
4
  7
SLDTEXTSTYLE1
 73
     1
 44
1.0
  0
MTEXT
  5
AF
330
1F
100
AcDbEntity
  8
DIM
 62
     7
100
AcDbMText
 10
22.9877620223
 20
203.4590078604
 30
0.0
 40
1.8520833333
 41
0.0
 71
     1
 72
     1
  1
1
  7
SLDTEXTSTYLE1
 73
     1
 44
1.0
  0
MTEXT
  5
B0
330
1F
100
AcDbEntity
  8
DIM
 62
     7
100
AcDbMText
 10
72.5710953557
 20
203.4590078604
 30
0.0
 40
1.8520833333
 41
0.0
 71
     1
 72
     1
  1
2
  7
SLDTEXTSTYLE1
 73
     1
 44
1.0
  0
MTEXT
  5
B1
330
1F
100
AcDbEntity
  8
DIM
 62
     7
100
AcDbMText
 10
122.5710953557
 20
203.4590078604
 30
0.0
 40
1.8520833333
 41
0.0
 71
     1
 72
     1
  1
3
  7
SLDTEXTSTYLE1
 73
     1
 44
1.0
  0
MTEXT
  5
B2
330
1F
100
AcDbEntity
  8
DIM
 62
     7
100
AcDbMText
 10
6.5710913557
 20
180.9590078604
 30
0.0
 40
1.8520833333
 41
0.0
 71
     1
 72
     1
  1
A
  7
SLDTEXTSTYLE1
 73
     1
 44
1.0
  0
MTEXT
  5
B3
330
1F
100
AcDbEntity
  8
DIM
 62
     7
100
AcDbMText
 10
72.5710953557
 20
8.4590078604
 30
0.0
 40
1.8520833333
 41
0.0
 71
     1
 72
     1
  1
2
  7
SLDTEXTSTYLE1
 73
     1
 44
1.0
  0
MTEXT
  5
B4
330
1F
100
AcDbEntity
  8
DIM
 62
     7
100
AcDbMText
 10
22.9877620223
 20
8.4590078604
 30
0.0
 40
1.8520833333
 41
0.0
 71
     1
 72
     1
  1
1
  7
SLDTEXTSTYLE1
 73
     1
 44
1.0
  0
MTEXT
  5
B5
330
1F
100
AcDbEntity
  8
DIM
 62
     7
100
AcDbMText
 10
6.5710913557
 20
30.9590078604
 30
0.0
 40
1.8520833333
 41
0.0
 71
     1
 72
     1
  1
D
  7
SLDTEXTSTYLE1
 73
     1
 44
1.0
  0
MTEXT
  5
B6
330
1F
100
AcDbEntity
  8
DIM
 62
     7
100
AcDbMText
 10
6.5710913557
 20
80.9590078604
 30
0.0
 40
1.8520833333
 41
0.0
 71
     1
 72
     1
  1
C
  7
SLDTEXTSTYLE1
 73
     1
 44
1.0
  0
MTEXT
  5
B7
330
1F
100
AcDbEntity
  8
DIM
 62
     7
100
AcDbMText
 10
6.5710913557
 20
130.9590078604
 30
0.0
 40
1.8520833333
 41
0.0
 71
     1
 72
     1
  1
B
  7
SLDTEXTSTYLE1
 73
     1
 44
1.0
  0
LINE
  5
B8
330
1F
100
AcDbEntity
  8
0
  6
Continuous
 62
     7
370
    15
100
AcDbLine
 10
146.0946754529
 20
58.5774606531
 30
0.0
 11
149.5813947648
 21
58.5774606531
 31
0.0
  0
LINE
  5
B9
330
1F
100
AcDbEntity
  8
0
  6
Continuous
 62
     7
370
    15
100
AcDbLine
 10
149.5813947648
 20
156.0774606531
 30
0.0
 11
146.0946754529
 21
156.0774606531
 31
0.0
  0
LINE
  5
BA
330
1F
100
AcDbEntity
  8
0
  6
Continuous
 62
     7
370
    15
100
AcDbLine
 10
156.0765852916
 20
58.5774606531
 30
0.0
 11
159.6633046022
 21
58.5774606531
 31
0.0
  0
LINE
  5
BB
330
1F
100
AcDbEntity
  8
0
  6
Continuous
 62
     7
370
    15
100
AcDbLine
 10
159.6633046022
 20
156.0774606531
 30
0.0
 11
156.0765852916
 21
156.0774606531
 31
0.0
  0
LINE
  5
BC
330
1F
100
AcDbEntity
  8
0
  6
Continuous
 62
     7
370
    15
100
AcDbLine
 10
156.0765852916
 20
156.0774606526
 30
0.0
 11
154.7039900198
 21
153.7000559038
 31
0.0
  0
LINE
  5
BD
330
1F
100
AcDbEntity
  8
0
  6
Continuous
 62
     7
370
    15
100
AcDbLine
 10
154.7039900198
 20
60.9548654024
 30
0.0
 11
156.0765852916
 21
58.5774606536
 31
0.0
  0
LINE
  5
BE
330
1F
100
AcDbEntity
  8
0
  6
Continuous
 62
     7
370
    15
100
AcDbLine
 10
150.9539900279
 20
61.7024606531
 30
0.0
 11
154.7039900272
 21
61.7024606531
 31
0.0
  0
LINE
  5
BF
330
1F
100
AcDbEntity
  8
0
  6
Continuous
 62
     7
370
    15
100
AcDbLine
 10
154.7039900272
 20
152.9524606531
 30
0.0
 11
150.9539900279
 21
152.9524606531
 31
0.0
  0
SPLINE
  5
C0
330
1F
100
AcDbEntity
  8
0
  6
Continuous
 62
     7
370
    15
100
AcDbSpline
210
0.0
220
0.0
230
1.0
 70
     8
 71
     3
 72
    10
 73
     6
 74
     0
 42
0.000000001
 43
0.00000001
 40
0.0
 40
0.0
 40
0.0
 40
0.0
 40
0.5379443446158491
 40
0.82752921292676
 40
1.0
 40
1.0
 40
1.0
 40
1.0
 10
163.8289900273361
 20
142.1274606534056
 30
0.0
 10
163.4532465956965
 20
142.1694253292295
 30
0.0
 10
162.875233889811
 20
142.2339803254904
 30
0.0
 10
162.242371125253
 20
142.5543170872326
 30
0.0
 10
161.9985967546702
 20
142.765063599768
 30
0.0
 10
161.9076034791355
 20
142.8437286187248
 30
0.0
  0
LINE
  5
C1
330
1F
100
AcDbEntity
  8
0
  6
Continuous
 62
     7
370
    15
100
AcDbLine
 10
164.9060229896
 20
142.3274606534
 30
0.0
 11
163.8289900272
 21
142.1274606533
 31
0.0
  0
LINE
  5
C2
330
1F
100
AcDbEntity
  8
0
  6
Continuous
 62
     7
370
    15
100
AcDbLine
 10
164.9060229896
 20
72.3274606531
 30
0.0
 11
203.9289900289
 21
72.3274606531
 31
0.0
  0
LINE
  5
C3
330
1F
100
AcDbEntity
  8
0
  6
Continuous
 62
     7
370
    15
100
AcDbLine
 10
203.9289900279
 20
142.3274606531
 30
0.0
 11
164.9060229896
 21
142.3274606531
 31
0.0
  0
LINE
  5
C4
330
1F
100
AcDbEntity
  8
0
  6
Continuous
 62
     7
370
    15
100
AcDbLine
 10
141.7289900279
 20
72.4024606531
 30
0.0
 11
142.6404054689
 21
72.8274606531
 31
0.0
  0
LINE
  5
C5
330
1F
100
AcDbEntity
  8
0
  6
Continuous
 62
     7
370
    15
100
AcDbLine
 10
142.6404054689
 20
141.8274606531
 30
0.0
 11
141.7289900279
 21
142.2524606531
 31
0.0
  0
LINE
  5
C6
330
1F
100
AcDbEntity
  8
0
  6
Continuous
 62
     7
370
    15
100
AcDbLine
 10
141.7289900279
 20
142.2524606531
 30
0.0
 11
42.1182194599
 21
127.7257527831
 31
0.0
  0
LINE
  5
C7
330
1F
100
AcDbEntity
  8
0
  6
Continuous
 62
     7
370
    15
100
AcDbLine
 10
42.1182194598
 20
86.9291685231
 30
0.0
 11
141.7289900279
 21
72.4024606531
 31
0.0
  0
LINE
  5
C8
330
1F
100
AcDbEntity
  8
0
  6
Continuous
 62
     7
370
    15
100
AcDbLine
 10
142.6404054689
 20
72.8274606531
 30
0.0
 11
144.4289900284
 21
72.8274606531
 31
0.0
  0
LINE
  5
C9
330
1F
100
AcDbEntity
  8
0
  6
Continuous
 62
     7
370
    15
100
AcDbLine
 10
144.4289900284
 20
141.8274606531
 30
0.0
 11
142.6404054689
 21
141.8274606531
 31
0.0
  0
ARC
  5
CA
330
1F
100
AcDbEntity
  8
0
  6
Continuous
 62
     7
370
    15
100
AcDbCircle
 10
146.0946754523
 20
58.977460652
 30
0.0
 40
0.3999999988292302
100
AcDbArc
 50
224.9999992722
 51
270.0000000849
  0
ARC
  5
CB
330
1F
100
AcDbEntity
  8
0
  6
Continuous
 62
     7
370
    15
100
AcDbCircle
 10
159.6633046029
 20
58.9774606545
 30
0.0
 40
0.4000000014074345
100
AcDbArc
 50
269.9999998961
 51
314.9999999186
  0
LINE
  5
CC
330
1F
100
AcDbEntity
  8
0
  6
Continuous
 62
     7
370
    15
100
AcDbLine
 10
149.5813947648
 20
58.5774606531
 30
0.0
 11
150.9539900281
 21
60.9548653894
 31
0.0
  0
LINE
  5
CD
330
1F
100
AcDbEntity
  8
0
  6
Continuous
 62
     7
370
    15
100
AcDbLine
 10
159.946147316
 20
58.6946179406
 30
0.0
 11
160.7118327407
 21
59.4603033642
 31
0.0
  0
LINE
  5
CE
330
1F
100
AcDbEntity
  8
0
  6
Continuous
 62
     7
370
    15
100
AcDbLine
 10
145.046147315
 20
59.4603033642
 30
0.0
 11
145.811832737
 21
58.6946179439
 31
0.0
  0
ARC
  5
CF
330
1F
100
AcDbEntity
  8
0
  6
Continuous
 62
     7
370
    15
100
AcDbCircle
 10
160.4289900277
 20
59.7431460781
 30
0.0
 40
0.400000001917876
100
AcDbArc
 50
314.9999998702
 51
359.9937855763
  0
ARC
  5
D0
330
1F
100
AcDbEntity
  8
0
  6
Continuous
 62
     7
370
    15
100
AcDbCircle
 10
145.3289900277
 20
59.743146078
 30
0.0
 40
0.4000000015883682
100
AcDbArc
 50
180.0081307812
 51
225.0000001036
  0
ARC
  5
D1
330
1F
100
AcDbEntity
  8
0
  6
Continuous
 62
     7
370
    15
100
AcDbCircle
 10
163.8289900281
 20
69.5274606532
 30
0.0
 40
3.000000000140293
100
AcDbArc
 50
68.9605302137
 51
179.9994270709
  0
LINE
  5
D2
330
1F
100
AcDbEntity
  8
0
  6
Continuous
 62
     7
370
    15
100
AcDbLine
 10
236.7289900279
 20
81.3274606531
 30
0.0
 11
237.7289900279
 21
82.3274606531
 31
0.0
  0
LINE
  5
D3
330
1F
100
AcDbEntity
  8
0
  6
Continuous
 62
     7
370
    15
100
AcDbLine
 10
237.7289900279
 20
132.3274606531
 30
0.0
 11
236.7289900279
 21
133.3274606531
 31
0.0
  0
LINE
  5
D4
330
1F
100
AcDbEntity
  8
0
  6
Continuous
 62
     7
370
    15
100
AcDbLine
 10
236.7289900279
 20
133.3274606531
 30
0.0
 11
227.7289900279
 21
133.3274606531
 31
0.0
  0
LINE
  5
D5
330
1F
100
AcDbEntity
  8
0
  6
Continuous
 62
     7
370
    15
100
AcDbLine
 10
227.7289900279
 20
81.3274606531
 30
0.0
 11
236.7289900279
 21
81.3274606531
 31
0.0
  0
LINE
  5
D6
330
1F
100
AcDbEntity
  8
0
  6
Continuous
 62
     7
370
    15
100
AcDbLine
 10
227.7289900279
 20
133.3274606531
 30
0.0
 11
226.7289900279
 21
132.3274606531
 31
0.0
  0
LINE
  5
D7
330
1F
100
AcDbEntity
  8
0
  6
Continuous
 62
     7
370
    15
100
AcDbLine
 10
226.7289900279
 20
82.3274606531
 30
0.0
 11
227.7289900279
 21
81.3274606531
 31
0.0
  0
ARC
  5
D8
330
1F
100
AcDbEntity
  8
0
  6
Continuous
 62
     7
370
    15
100
AcDbCircle
 10
144.4289900275
 20
72.3274606527
 30
0.0
 40
0.5000000342602675
100
AcDbArc
 50
0.0
 51
89.9999998921
  0
SPLINE
  5
D9
330
1F
100
AcDbEntity
  8
0
  6
Continuous
 62
     7
370
    15
100
AcDbSpline
210
0.0
220
0.0
230
1.0
 70
     8
 71
     3
 72
    11
 73
     7
 74
     0
 42
0.000000001
 43
0.00000001
 40
0.0
 40
0.0
 40
0.0
 40
0.0
 40
0.2418856031839348
 40
0.5000000000275339
 40
0.7581143968641333
 40
1.0
 40
1.0
 40
1.0
 40
1.0
 10
42.11821945985483
 20
127.7257527826112
 30
0.0
 10
41.83783900662424
 20
127.6556145434342
 30
0.0
 10
41.2582665774357
 20
127.5106322909609
 30
0.0
 10
40.54922776467584
 20
126.9206696590531
 30
0.0
 10
40.06776053170508
 20
126.1339160454853
 30
0.0
 10
40.00793290904109
 20
125.5394879929133
 30
0.0
 10
39.97899002785488
 20
125.251920816863
 30
0.0
  0
LINE
  5
DA
330
1F
100
AcDbEntity
  8
0
  6
Continuous
 62
     7
370
    15
100
AcDbLine
 10
220.2462796926
 20
87.3274606531
 30
0.0
 11
222.7289900279
 21
87.3274606531
 31
0.0
  0
LINE
  5
DB
330
1F
100
AcDbEntity
  8
0
  6
Continuous
 62
     7
370
    15
100
AcDbLine
 10
222.7289900279
 20
127.3274606531
 30
0.0
 11
196.7289900208
 21
127.3274606531
 31
0.0
  0
LINE
  5
DC
330
1F
100
AcDbEntity
  8
0
  6
Continuous
 62
     7
370
    15
100
AcDbLine
 10
222.7289900279
 20
87.3274606531
 30
0.0
 11
223.7289900279
 21
88.3274606531
 31
0.0
  0
LINE
  5
DD
330
1F
100
AcDbEntity
  8
0
  6
Continuous
 62
     7
370
    15
100
AcDbLine
 10
223.7289900279
 20
126.3274606531
 30
0.0
 11
222.7289900279
 21
127.3274606531
 31
0.0
  0
ARC
  5
DE
330
1F
100
AcDbEntity
  8
0
  6
Continuous
 62
     7
370
    15
100
AcDbCircle
 10
42.478990028
 20
89.4030004895
 30
0.0
 40
2.50000000076069
100
AcDbArc
 50
180.0024887809
 51
261.7027777783
  0
ARC
  5
DF
330
1F
100
AcDbEntity
  8
0
  6
Continuous
 62
     7
370
    15
100
AcDbCircle
 10
159.6633046029
 20
155.6774606517
 30
0.0
 40
0.400000001407425
100
AcDbArc
 50
45.0000000814
 51
90.0000001039
  0
ARC
  5
E0
330
1F
100
AcDbEntity
  8
0
  6
Continuous
 62
     7
370
    15
100
AcDbCircle
 10
146.0946754523
 20
155.6774606542
 30
0.0
 40
0.3999999988292302
100
AcDbArc
 50
89.9999999151
 51
135.0000007278
  0
LINE
  5
E1
330
1F
100
AcDbEntity
  8
0
  6
Continuous
 62
     7
370
    15
100
AcDbLine
 10
150.9539900281
 20
153.7000559169
 30
0.0
 11
149.5813947648
 21
156.0774606531
 31
0.0
  0
LINE
  5
E2
330
1F
100
AcDbEntity
  8
0
  6
Continuous
 62
     7
370
    15
100
AcDbLine
 10
160.7118327407
 20
155.194617942
 30
0.0
 11
159.946147316
 21
155.9603033656
 31
0.0
  0
LINE
  5
E3
330
1F
100
AcDbEntity
  8
0
  6
Continuous
 62
     7
370
    15
100
AcDbLine
 10
145.811832737
 20
155.9603033623
 30
0.0
 11
145.046147315
 21
155.194617942
 31
0.0
  0
ARC
  5
E4
330
1F
100
AcDbEntity
  8
0
  6
Continuous
 62
     7
370
    15
100
AcDbCircle
 10
145.3289900277
 20
154.9117752283
 30
0.0
 40
0.4000000015883682
100
AcDbArc
 50
134.9999998964
 51
179.9918692188
  0
ARC
  5
E5
330
1F
100
AcDbEntity
  8
0
  6
Continuous
 62
     7
370
    15
100
AcDbCircle
 10
160.4289900277
 20
154.9117752281
 30
0.0
 40
0.400000001917876
100
AcDbArc
 50
0.0062144237
 51
45.0000001298
  0
ARC
  5
E6
330
1F
100
AcDbEntity
  8
0
  6
Continuous
 62
     7
370
    15
100
AcDbCircle
 10
163.8289900281
 20
145.127460653
 30
0.0
 40
3.000000000140293
100
AcDbArc
 50
180.0005729291
 51
229.9021168607
  0
ARC
  5
E7
330
1F
100
AcDbEntity
  8
0
  6
Continuous
 62
     7
370
    15
100
AcDbCircle
 10
226.3289900275
 20
117.7274606534
 30
0.0
 40
0.4000000002709072
100
AcDbArc
 50
270.0000000467
 51
0.0
  0
ARC
  5
E8
330
1F
100
AcDbEntity
  8
0
  6
Continuous
 62
     7
370
    15
100
AcDbCircle
 10
226.3289900275
 20
96.9274606528
 30
0.0
 40
0.4000000002709072
100
AcDbArc
 50
0.0
 51
89.9999999533
  0
LINE
  5
E9
330
1F
100
AcDbEntity
  8
0
  6
Continuous
 62
     7
370
    15
100
AcDbLine
 10
226.3289900279
 20
117.3274606531
 30
0.0
 11
223.7289900279
 21
117.3274606531
 31
0.0
  0
LINE
  5
EA
330
1F
100
AcDbEntity
  8
0
  6
Continuous
 62
     7
370
    15
100
AcDbLine
 10
223.7289900279
 20
97.3274606531
 30
0.0
 11
226.3289900279
 21
97.3274606531
 31
0.0
  0
LINE
  5
EB
330
1F
100
AcDbEntity
  8
0
  6
Continuous
 62
     7
370
    15
100
AcDbLine
 10
203.9289900289
 20
72.3274606541
 30
0.0
 11
204.7289900279
 21
73.1274606531
 31
0.0
  0
LINE
  5
EC
330
1F
100
AcDbEntity
  8
0
  6
Continuous
 62
     7
370
    15
100
AcDbLine
 10
204.7289900264
 20
141.5274606546
 30
0.0
 11
203.9289900279
 21
142.3274606531
 31
0.0
  0
LINE
  5
ED
330
1F
100
AcDbEntity
  8
0
  6
Continuous
 62
     7
370
    15
100
AcDbLine
 10
220.2539900279
 20
84.8274606531
 30
0.0
 11
220.2539900279
 21
87.328964921
 31
0.0
  0
LINE
  5
EE
330
1F
100
AcDbEntity
  8
0
  6
Continuous
 62
     7
370
    15
100
AcDbLine
 10
144.4289900284
 20
82.9322767022
 30
0.0
 11
144.4289900284
 21
141.8274606531
 31
0.0
  0
SPLINE
  5
EF
330
1F
100
AcDbEntity
  8
0
  6
Continuous
 62
     7
370
    15
100
AcDbSpline
210
0.0
220
0.0
230
1.0
 70
     8
 71
     3
 72
    14
 73
    10
 74
     0
 42
0.000000001
 43
0.00000001
 40
0.0
 40
0.0
 40
0.0
 40
0.0
 40
0.25
 40
0.25
 40
0.5
 40
0.5
 40
0.75
 40
0.75
 40
1.0
 40
1.0
 40
1.0
 40
1.0
 10
144.928990028121
 20
142.3274606418251
 30
0.0
 10
144.9289900267304
 20
142.2685350771286
 30
0.0
 10
144.918250656015
 20
142.2049617635204
 30
0.0
 10
144.8695176941754
 20
142.0818648155974
 30
0.0
 10
144.8313589503926
 20
142.0227227930074
 30
0.0
 10
144.7337278778439
 20
141.9250917229129
 30
0.0
 10
144.6745858544428
 20
141.8869329807492
 30
0.0
 10
144.5514889059597
 20
141.83820002212
 30
0.0
 10
144.4879155925854
 20
141.8274606529714
 30
0.0
 10
144.4289900284126
 20
141.8274606528451
 30
0.0
  0
SPLINE
  5
F0
330
1F
100
AcDbEntity
  8
0
  6
Continuous
 62
     7
370
    15
100
AcDbSpline
210
0.0
220
0.0
230
1.0
 70
     8
 71
     3
 72
    14
 73
    10
 74
     0
 42
0.000000001
 43
0.00000001
 40
0.0
 40
0.0
 40
0.0
 40
0.0
 40
0.25
 40
0.25
 40
0.5
 40
0.5
 40
0.75
 40
0.75
 40
1.0
 40
1.0
 40
1.0
 40
1.0
 10
144.928990028121
 20
82.57872331963338
 30
0.0
 10
144.9289900267016
 20
82.62038998601216
 30
0.0
 10
144.9182506559567
 20
82.66534310715694
 30
0.0
 10
144.869517694073
 20
82.75238579374462
 30
0.0
 10
144.831358950276
 20
82.79420551894944
 30
0.0
 10
144.7337278777228
 20
82.86324111062483
 30
0.0
 10
144.6745858543309
 20
82.8902234159498
 30
0.0
 10
144.5514889058785
 20
82.92468282143446
 30
0.0
 10
144.487915592525
 20
82.93227670217632
 30
0.0
 10
144.4289900283712
 20
82.93227670226217
 30
0.0
  0
LINE
  5
F1
330
1F
100
AcDbEntity
  8
0
  6
Continuous
 62
     7
370
    15
100
AcDbLine
 10
146.0946754529
 20
72.8560050703
 30
0.0
 11
146.0946754529
 21
107.3274606531
 31
0.0
  0
LINE
  5
F2
330
1F
100
AcDbEntity
  8
0
  6
Continuous
 62
     7
370
    15
100
AcDbLine
 10
146.0946754532
 20
154.2004891063
 30
0.0
 11
146.0946754529
 21
107.3274606531
 31
0.0
  0
LINE
  5
F3
330
1F
100
AcDbEntity
  8
0
  6
Continuous
 62
     7
370
    15
100
AcDbLine
 10
149.5813947648
 20
154.2004891076
 30
0.0
 11
149.5813947645
 21
107.3274606531
 31
0.0
  0
LINE
  5
F4
330
1F
100
AcDbEntity
  8
0
  6
Continuous
 62
     7
370
    15
100
AcDbLine
 10
149.5813947645
 20
107.3274606531
 30
0.0
 11
149.5813947648
 21
72.8560050703
 31
0.0
  0
LINE
  5
F5
330
1F
100
AcDbEntity
  8
0
  6
Continuous
 62
     7
370
    15
100
AcDbLine
 10
149.5813947648
 20
58.5774606531
 30
0.0
 11
149.5813947648
 21
72.8560050703
 31
0.0
  0
LINE
  5
F6
330
1F
100
AcDbEntity
  8
0
  6
Continuous
 62
     7
370
    15
100
AcDbLine
 10
149.5813947648
 20
154.2004891076
 30
0.0
 11
149.5813947648
 21
156.0774606531
 31
0.0
  0
LINE
  5
F7
330
1F
100
AcDbEntity
  8
0
  6
Continuous
 62
     7
370
    15
100
AcDbLine
 10
156.0765852916
 20
58.5774606531
 30
0.0
 11
156.0765852916
 21
156.0774606531
 31
0.0
  0
LINE
  5
F8
330
1F
100
AcDbEntity
  8
0
  6
Continuous
 62
     7
370
    15
100
AcDbLine
 10
159.6633046026
 20
107.3274606531
 30
0.0
 11
159.6633046019
 21
154.2004891067
 31
0.0
  0
LINE
  5
F9
330
1F
100
AcDbEntity
  8
0
  6
Continuous
 62
     7
370
    15
100
AcDbLine
 10
159.6633046022
 20
72.8560050703
 30
0.0
 11
159.6633046026
 21
107.3274606531
 31
0.0
  0
SPLINE
  5
FA
330
1F
100
AcDbEntity
  8
0
  6
Continuous
 62
     7
370
    15
100
AcDbSpline
210
0.0
220
0.0
230
1.0
 70
    24
 71
     3
 72
    10
 73
     6
 74
     0
 42
0.000000001
 43
0.00000001
 40
0.0
 40
0.0
 40
0.0
 40
0.0
 40
0.5
 40
0.5
 40
1.0
 40
1.0
 40
1.0
 40
1.0
 10
145.8118327384961
 20
107.3274606431113
 30
0.0
 10
145.8479124786372
 20
107.3274606431112
 30
0.0
 10
145.8925964610055
 20
107.3274606431113
 30
0.0
 10
145.9906076962697
 20
107.3274606431113
 30
0.0
 10
146.043650994662
 20
107.3274606431113
 30
0.0
 10
146.0946754528486
 20
107.3274606431113
 30
0.0
  0
LINE
  5
FB
330
1F
100
AcDbEntity
  8
0
  6
Continuous
 62
     7
370
    15
100
AcDbLine
 10
145.8118327399
 20
107.3274606398
 30
0.0
 11
145.8118327401
 21
154.1056901757
 31
0.0
  0
SPLINE
  5
FC
330
1F
100
AcDbEntity
  8
0
  6
Continuous
 62
     7
370
    15
100
AcDbSpline
210
0.0
220
0.0
230
1.0
 70
    24
 71
     3
 72
    10
 73
     6
 74
     0
 42
0.000000001
 43
0.00000001
 40
0.0
 40
0.0
 40
0.0
 40
0.0
 40
0.5
 40
0.5
 40
1.0
 40
1.0
 40
1.0
 40
1.0
 10
159.663304600701
 20
107.3274606531113
 30
0.0
 10
159.7143290585487
 20
107.3274606531113
 30
0.0
 10
159.7673723569183
 20
107.3274606531113
 30
0.0
 10
159.8653835924998
 20
107.3274606531112
 30
0.0
 10
159.9100675751977
 20
107.3274606531113
 30
0.0
 10
159.9461473156078
 20
107.3274606531113
 30
0.0
  0
LINE
  5
FD
330
1F
100
AcDbEntity
  8
0
  6
Continuous
 62
     7
370
    15
100
AcDbLine
 10
159.9461473107
 20
154.1056901795
 30
0.0
 11
159.946147311
 21
107.3274606531
 31
0.0
  0
SPLINE
  5
FE
330
1F
100
AcDbEntity
  8
0
  6
Continuous
 62
     7
370
    15
100
AcDbSpline
210
0.0
220
0.0
230
1.0
 70
     8
 71
     3
 72
    10
 73
     6
 74
     0
 42
0.000000001
 43
0.00000001
 40
0.0
 40
0.0
 40
0.0
 40
0.0
 40
0.5
 40
0.5
 40
1.0
 40
1.0
 40
1.0
 40
1.0
 10
145.8118327367011
 20
72.93884778471514
 30
0.0
 10
145.8479124776568
 20
72.91333555569913
 30
0.0
 10
145.8925964598389
 20
72.89188860381483
 30
0.0
 10
145.9906076956954
 20
72.86318177707098
 30
0.0
 10
146.0436509943802
 20
72.85600507034263
 30
0.0
 10
146.0946754528549
 20
72.85600507034263
 30
0.0
  0
LINE
  5
FF
330
1F
100
AcDbEntity
  8
0
  6
Continuous
 62
     7
370
    15
100
AcDbLine
 10
145.811832737
 20
72.9388477851
 30
0.0
 11
145.811832737
 21
107.3274606398
 31
0.0
  0
LINE
  5
100
330
1F
100
AcDbEntity
  8
0
  6
Continuous
 62
     7
370
    15
100
AcDbLine
 10
159.9461473157
 20
107.3274606531
 30
0.0
 11
159.9461473157
 21
72.938847783
 31
0.0
  0
SPLINE
  5
101
330
1F
100
AcDbEntity
  8
0
  6
Continuous
 62
     7
370
    15
100
AcDbSpline
210
0.0
220
0.0
230
1.0
 70
     8
 71
     3
 72
    10
 73
     6
 74
     0
 42
0.000000001
 43
0.00000001
 40
0.0
 40
0.0
 40
0.0
 40
0.0
 40
0.5
 40
0.5
 40
1.0
 40
1.0
 40
1.0
 40
1.0
 10
159.6633046028549
 20
72.85600507028849
 30
0.0
 10
159.7143290606129
 20
72.85600507028846
 30
0.0
 10
159.7673723585242
 20
72.8631817767047
 30
0.0
 10
159.8653835932309
 20
72.89188860262604
 30
0.0
 10
159.9100675755204
 20
72.91333555379208
 30
0.0
 10
159.9461473159679
 20
72.9388477827819
 30
0.0
  0
LINE
  5
102
330
1F
100
AcDbEntity
  8
0
  6
Continuous
 62
     7
370
    15
100
AcDbLine
 10
150.9539900281
 20
107.3274606531
 30
0.0
 11
150.9539900281
 21
151.8841110153
 31
0.0
  0
LINE
  5
103
330
1F
100
AcDbEntity
  8
0
  6
Continuous
 62
     7
370
    15
100
AcDbLine
 10
149.5813947642
 20
107.3274606531
 30
0.0
 11
150.9539900281
 21
107.3274606531
 31
0.0
  0
LINE
  5
104
330
1F
100
AcDbEntity
  8
0
  6
Continuous
 62
     7
370
    15
100
AcDbLine
 10
150.9539900281
 20
74.5370840809
 30
0.0
 11
150.9539900281
 21
107.3274606531
 31
0.0
  0
LINE
  5
105
330
1F
100
AcDbEntity
  8
0
  6
Continuous
 62
     7
370
    15
100
AcDbLine
 10
154.7039900198
 20
153.7000559038
 30
0.0
 11
154.7039900198
 21
60.9548654024
 31
0.0
  0
LINE
  5
106
330
1F
100
AcDbEntity
  8
0
  6
Continuous
 62
     7
370
    15
100
AcDbLine
 10
160.7118327376
 20
153.4375706841
 30
0.0
 11
160.7118327376
 21
107.3274606531
 31
0.0
  0
LINE
  5
107
330
1F
100
AcDbEntity
  8
0
  6
Continuous
 62
     7
370
    15
100
AcDbLine
 10
160.7118327398
 20
107.3274606531
 30
0.0
 11
160.7118327398
 21
73.4802691386
 31
0.0
  0
LINE
  5
108
330
1F
100
AcDbEntity
  8
0
  6
Continuous
 62
     7
370
    15
100
AcDbLine
 10
145.0461473157
 20
107.3274606531
 30
0.0
 11
145.0461473164
 21
153.4375706824
 31
0.0
  0
LINE
  5
109
330
1F
100
AcDbEntity
  8
0
  6
Continuous
 62
     7
370
    15
100
AcDbLine
 10
145.0461473158
 20
73.4802691387
 30
0.0
 11
145.0461473158
 21
107.3274606531
 31
0.0
  0
SPLINE
  5
10A
330
1F
100
AcDbEntity
  8
0
  6
Continuous
 62
     7
370
    15
100
AcDbSpline
210
0.0
220
0.0
230
1.0
 70
    24
 71
     3
 72
    10
 73
     6
 74
     0
 42
0.000000001
 43
0.00000001
 40
0.0
 40
0.0
 40
0.0
 40
0.0
 40
0.5
 40
0.5
 40
1.0
 40
1.0
 40
1.0
 40
1.0
 10
160.8289900278548
 20
107.3274606495113
 30
0.0
 10
160.8289900278548
 20
107.3274606495071
 30
0.0
 10
160.8188406336365
 20
107.3274606495035
 30
0.0
 10
160.7782430509185
 20
107.327460649496
 30
0.0
 10
160.7479124810713
 20
107.3274606494926
 30
0.0
 10
160.7118327398549
 20
107.3274606494899
 30
0.0
  0
SPLINE
  5
10B
330
1F
100
AcDbEntity
  8
0
  6
Continuous
 62
     7
370
    15
100
AcDbSpline
210
0.0
220
0.0
230
1.0
 70
    24
 71
     3
 72
    36
 73
    32
 74
     0
 42
0.000000001
 43
0.00000001
 40
0.0
 40
0.0
 40
0.0
 40
0.0
 40
0.0109050837628005
 40
0.0218024207317872
 40
0.0326941882793983
 40
0.0435825671192608
 40
0.0544697400012875
 40
0.0653578904006678
 40
0.0762492012046767
 40
0.087145853401252
 40
0.0980500247732706
 40
0.108963888602418
 40
0.1198896123864796
 40
0.1799771622946127
 40
0.2401454434850909
 40
0.305511361426341
 40
0.3709114744040093
 40
0.4353948236332951
 40
0.5000019683034835
 40
0.5638405822230943
 40
0.627747970458485
 40
0.6922316404082369
 40
0.7567348912580346
 40
0.8187542497432163
 40
0.8807907307240962
 40
0.900678560441374
 40
0.9205409151837849
 40
0.9403910052934497
 40
0.9602420655978441
 40
0.980107328985328
 40
0.9999999999999999
 40
0.9999999999999999
 40
0.9999999999999999
 40
0.9999999999999999
 10
160.8289900278549
 20
153.1438822932762
 30
0.0
 10
160.8289900278548
 20
153.0824351191036
 30
0.0
 10
160.8289900278549
 20
152.9595844218295
 30
0.0
 10
160.8289900278548
 20
152.7638019825035
 30
0.0
 10
160.828990027855
 20
152.5596941778595
 30
0.0
 10
160.8289900278548
 20
152.3464303012023
 30
0.0
 10
160.828990027855
 20
152.1242328318303
 30
0.0
 10
160.8289900278549
 20
151.8930421592021
 30
0.0
 10
160.8289900278549
 20
151.6528744868812
 30
0.0
 10
160.8289900278549
 20
151.4037247910323
 30
0.0
 10
160.8289900278548
 20
151.1455971732012
 30
0.0
 10
160.8289900278549
 20
150.8784804745637
 30
0.0
 10
160.8289900278549
 20
150.1884966249214
 30
0.0
 10
160.8289900278549
 20
148.970163479628
 30
0.0
 10
160.8289900278548
 20
146.9845800609949
 30
0.0
 10
160.8289900278549
 20
144.6765161715105
 30
0.0
 10
160.8289900278548
 20
142.0478020475989
 30
0.0
 10
160.8289900278549
 20
139.1843308813033
 30
0.0
 10
160.828990027855
 20
136.1203808021064
 30
0.0
 10
160.8289900278548
 20
132.8674832367511
 30
0.0
 10
160.828990027855
 20
129.4395699911215
 30
0.0
 10
160.8289900278548
 20
125.847147878798
 30
0.0
 10
160.8289900278549
 20
122.1611480974707
 30
0.0
 10
160.8289900278548
 20
118.4243175522957
 30
0.0
 10
160.828990027855
 20
115.5152734533203
 30
0.0
 10
160.8289900278548
 20
113.4420540584586
 30
0.0
 10
160.8289900278549
 20
112.2239661806127
 30
0.0
 10
160.8289900278549
 20
111.0033901101703
 30
0.0
 10
160.8289900278549
 20
109.7803041371801
 30
0.0
 10
160.8289900278548
 20
108.5547160076803
 30
0.0
 10
160.8289900278548
 20
107.7367337309906
 30
0.0
 10
160.8289900278549
 20
107.3274606495113
 30
0.0
  0
SPLINE
  5
10C
330
1F
100
AcDbEntity
  8
0
  6
Continuous
 62
     7
370
    15
100
AcDbSpline
210
0.0
220
0.0
230
1.0
 70
    24
 71
     3
 72
    10
 73
     6
 74
     0
 42
0.000000001
 43
0.00000001
 40
0.0
 40
0.0
 40
0.0
 40
0.0
 40
0.5
 40
0.5
 40
1.0
 40
1.0
 40
1.0
 40
1.0
 10
144.928990027782
 20
107.3274606531113
 30
0.0
 10
144.9289900276913
 20
107.3274606531113
 30
0.0
 10
144.9391493660912
 20
107.3274606531113
 30
0.0
 10
144.9797563075505
 20
107.3274606531112
 30
0.0
 10
145.0100848958258
 20
107.3274606531113
 30
0.0
 10
145.0461473156592
 20
107.3274606531113
 30
0.0
  0
SPLINE
  5
10D
330
1F
100
AcDbEntity
  8
0
  6
Continuous
 62
     7
370
    15
100
AcDbSpline
210
0.0
220
0.0
230
1.0
 70
    24
 71
     3
 72
    36
 73
    32
 74
     0
 42
0.000000001
 43
0.00000001
 40
0.0
 40
0.0
 40
0.0
 40
0.0
 40
0.0108399352348926
 40
0.0216733685194858
 40
0.0325024438483797
 40
0.0433293078051339
 40
0.054156108288626
 40
0.0649849932355034
 40
0.0758181093425213
 40
0.0866576007925684
 40
0.0975056079881425
 40
0.1083642662960043
 40
0.1192357048066439
 40
0.1811859625101632
 40
0.2432674151498204
 40
0.3069350699411044
 40
0.3707379505593565
 40
0.4352957835760705
 40
0.5000001921145392
 40
0.5638683642748212
 40
0.6277983269526358
 40
0.6942493987996792
 40
0.7607070128254168
 40
0.8200205140409522
 40
0.8793525774061131
 40
0.8994804763276806
 40
0.9195821081464446
 40
0.9396711637718421
 40
0.959761359824302
 40
0.979866410590094
 40
0.9999999999999999
 40
0.9999999999999999
 40
0.9999999999999999
 40
0.9999999999999999
 10
144.9289900278549
 20
107.327460653278
 30
0.0
 10
144.9289900278549
 20
107.5504777485868
 30
0.0
 10
144.9289900278549
 20
107.9963781703176
 30
0.0
 10
144.9289900278549
 20
108.6649411956011
 30
0.0
 10
144.9289900278548
 20
109.3329715617467
 30
0.0
 10
144.9289900278549
 20
110.0004692697441
 30
0.0
 10
144.9289900278549
 20
110.6674342108854
 30
0.0
 10
144.9289900278549
 20
111.33386634611
 30
0.0
 10
144.9289900278549
 20
111.999765468809
 30
0.0
 10
144.9289900278549
 20
112.6651319766587
 30
0.0
 10
144.9289900278549
 20
113.3299640207312
 30
0.0
 10
144.9289900278549
 20
113.9942681516068
 30
0.0
 10
144.928990027855
 20
115.6971810240813
 30
0.0
 10
144.9289900278548
 20
118.4235523279657
 30
0.0
 10
144.9289900278549
 20
122.1434009974995
 30
0.0
 10
144.9289900278549
 20
125.8019271403299
 30
0.0
 10
144.9289900278549
 20
129.3807459953333
 30
0.0
 10
144.9289900278549
 20
132.8265775787589
 30
0.0
 10
144.9289900278549
 20
136.094110040857
 30
0.0
 10
144.9289900278549
 20
139.1526837173276
 30
0.0
 10
144.9289900278549
 20
142.0157490899608
 30
0.0
 10
144.928990027855
 20
144.6692858914342
 30
0.0
 10
144.9289900278549
 20
146.9917541360198
 30
0.0
 10
144.9289900278548
 20
148.9697219603862
 30
0.0
 10
144.9289900278549
 20
150.2596061603855
 30
0.0
 10
144.9289900278549
 20
151.0891904182861
 30
0.0
 10
144.928990027855
 20
151.5620206466911
 30
0.0
 10
144.9289900278549
 20
152.0045845767011
 30
0.0
 10
144.928990027855
 20
152.4161385588992
 30
0.0
 10
144.9289900278549
 20
152.7994987939682
 30
0.0
 10
144.9289900278549
 20
153.0290335321697
 30
0.0
 10
144.9289900278549
 20
153.1438822982831
 30
0.0
  0
SPLINE
  5
10E
330
1F
100
AcDbEntity
  8
0
  6
Continuous
 62
     7
370
    15
100
AcDbSpline
210
0.0
220
0.0
230
1.0
 70
    24
 71
     3
 72
    29
 73
    25
 74
     0
 42
0.000000001
 43
0.00000001
 40
0.0
 40
0.0
 40
0.0
 40
0.0
 40
0.0179035453064607
 40
0.0357916678293244
 40
0.0536678856924151
 40
0.0715357240515346
 40
0.0893987130234215
 40
0.1072603856000608
 40
0.1251242755544821
 40
0.1429939153442321
 40
0.1608728340187612
 40
0.1787645551368822
 40
0.196672594700442
 40
0.2989876757389215
 40
0.4013305190947876
 40
0.5065247883767868
 40
0.6117477345353926
 40
0.7184664871867794
 40
0.825214479240937
 40
0.8602210134344015
 40
0.8951764153849475
 40
0.930107080273917
 40
0.9650394593572513
 40
1.0
 40
1.0
 40
1.0
 40
1.0
 10
160.8289900278549
 20
107.3274606495113
 30
0.0
 10
160.8289900278549
 20
107.1044651324351
 30
0.0
 10
160.8289900278548
 20
106.6586661949622
 30
0.0
 10
160.828990027855
 20
105.9903431232809
 30
0.0
 10
160.8289900278548
 20
105.3227273585824
 30
0.0
 10
160.8289900278549
 20
104.6558189642254
 30
0.0
 10
160.8289900278549
 20
103.9896180324863
 30
0.0
 10
160.8289900278548
 20
103.3241245999486
 30
0.0
 10
160.8289900278549
 20
102.6593388976247
 30
0.0
 10
160.8289900278549
 20
101.9952604329679
 30
0.0
 10
160.8289900278549
 20
101.3318914116998
 30
0.0
 10
160.8289900278549
 20
100.6692239562749
 30
0.0
 10
160.828990027855
 20
98.96761888854803
 30
0.0
 10
160.8289900278548
 20
96.24433896248134
 30
0.0
 10
160.8289900278549
 20
92.52644467908922
 30
0.0
 10
160.8289900278549
 20
88.87136661070498
 30
0.0
 10
160.828990027855
 20
85.2924216960118
 30
0.0
 10
160.8289900278548
 20
81.84807419034772
 30
0.0
 10
160.8289900278549
 20
79.30179241318632
 30
0.0
 10
160.8289900278548
 20
77.56536368777041
 30
0.0
 10
160.8289900278549
 20
76.55687919360072
 30
0.0
 10
160.8289900278548
 20
75.57283742958613
 30
0.0
 10
160.8289900278549
 20
74.61091422032858
 30
0.0
 10
160.8289900278549
 20
73.99052657971743
 30
0.0
 10
160.8289900278549
 20
73.68020777476774
 30
0.0
  0
SPLINE
  5
10F
330
1F
100
AcDbEntity
  8
0
  6
Continuous
 62
     7
370
    15
100
AcDbSpline
210
0.0
220
0.0
230
1.0
 70
     8
 71
     3
 72
    10
 73
     6
 74
     0
 42
0.000000001
 43
0.00000001
 40
0.0
 40
0.0
 40
0.0
 40
0.0
 40
0.5
 40
0.5
 40
1.0
 40
1.0
 40
1.0
 40
1.0
 10
160.7118327398549
 20
73.48026913850693
 30
0.0
 10
160.7479124811608
 20
73.50578136823398
 30
0.0
 10
160.7782430510676
 20
73.53737771620088
 30
0.0
 10
160.8188406337896
 20
73.60668212706851
 30
0.0
 10
160.8289900278549
 20
73.64418940365803
 30
0.0
 10
160.8289900278549
 20
73.68026914445772
 30
0.0
  0
SPLINE
  5
110
330
1F
100
AcDbEntity
  8
0
  6
Continuous
 62
     7
370
    15
100
AcDbSpline
210
0.0
220
0.0
230
1.0
 70
     8
 71
     3
 72
    10
 73
     6
 74
     0
 42
0.000000001
 43
0.00000001
 40
0.0
 40
0.0
 40
0.0
 40
0.0
 40
0.5
 40
0.5
 40
1.0
 40
1.0
 40
1.0
 40
1.0
 10
144.9289900278549
 20
73.68026915441993
 30
0.0
 10
144.9289900278546
 20
73.64418941045216
 30
0.0
 10
144.9391394210502
 20
73.60668213602838
 30
0.0
 10
144.9797370037948
 20
73.5373777240365
 30
0.0
 10
145.0100675740402
 20
73.50578137553902
 30
0.0
 10
145.0461473158549
 20
73.48026914545754
 30
0.0
  0
SPLINE
  5
111
330
1F
100
AcDbEntity
  8
0
  6
Continuous
 62
     7
370
    15
100
AcDbSpline
210
0.0
220
0.0
230
1.0
 70
    24
 71
     3
 72
    29
 73
    25
 74
     0
 42
0.000000001
 43
0.00000001
 40
0.0
 40
0.0
 40
0.0
 40
0.0
 40
0.0174788458561013
 40
0.0349489061035581
 40
0.0524134830072528
 40
0.0698758819428909
 40
0.0873394095228691
 40
0.104807371718638
 40
0.1222830719848925
 40
0.1397698093908831
 40
0.1572708767641355
 40
0.1747895588517558
 40
0.2815085202102496
 40
0.3882562151303913
 40
0.4934502144875055
 40
0.5986733470768121
 40
0.7009880322207052
 40
0.8033311913216117
 40
0.8361417074914054
 40
0.8689102604506097
 40
0.9016585909977926
 40
0.9344084802050914
 40
0.9671817060369908
 40
1.0
 40
1.0
 40
1.0
 40
1.0
 10
144.9289900278549
 20
73.68018308622605
 30
0.0
 10
144.9289900278549
 20
73.83471652222183
 30
0.0
 10
144.9289900278549
 20
74.1437057191597
 30
0.0
 10
144.9289900278549
 20
74.61505731767788
 30
0.0
 10
144.9289900278549
 20
75.09197803721561
 30
0.0
 10
144.9289900278549
 20
75.57504432311872
 30
0.0
 10
144.9289900278549
 20
76.06410175260143
 30
0.0
 10
144.928990027855
 20
76.55919147584291
 30
0.0
 10
144.9289900278548
 20
77.06030297379542
 30
0.0
 10
144.928990027855
 20
77.56743682547183
 30
0.0
 10
144.9289900278548
 20
78.08060089668297
 30
0.0
 10
144.928990027855
 20
79.4806442844324
 30
0.0
 10
144.9289900278548
 20
81.84779757738993
 30
0.0
 10
144.9289900278549
 20
85.29177446041473
 30
0.0
 10
144.9289900278549
 20
88.87103534760823
 30
0.0
 10
144.9289900278549
 20
92.52576390632404
 30
0.0
 10
144.9289900278549
 20
96.2440161310678
 30
0.0
 10
144.9289900278549
 20
99.14956204100615
 30
0.0
 10
144.9289900278549
 20
101.2202706842769
 30
0.0
 10
144.9289900278549
 20
102.4368982111625
 30
0.0
 10
144.928990027855
 20
103.6560034852724
 30
0.0
 10
144.9289900278548
 20
104.8776080652319
 30
0.0
 10
144.9289900278549
 20
106.1017042572788
 30
0.0
 10
144.9289900278549
 20
106.9186880705974
 30
0.0
 10
144.9289900278549
 20
107.327460653278
 30
0.0
  0
SPLINE
  5
112
330
1F
100
AcDbEntity
  8
0
  6
Continuous
 62
     7
370
    15
100
AcDbSpline
210
0.0
220
0.0
230
1.0
 70
     8
 71
     3
 72
     8
 73
     4
 74
     0
 42
0.000000001
 43
0.00000001
 40
0.0
 40
0.0
 40
0.0
 40
0.0
 40
1.0
 40
1.0
 40
1.0
 40
1.0
 10
160.8451157017073
 20
142.8274606531113
 30
0.0
 10
160.8392861549044
 20
142.8274606520585
 30
0.0
 10
160.8289900274189
 20
142.8842427455158
 30
0.0
 10
160.8289900279202
 20
142.989406196851
 30
0.0
  0
LINE
  5
113
330
1F
100
AcDbEntity
  8
0
  6
Continuous
 62
     7
370
    15
100
AcDbLine
 10
164.9060229896
 20
142.3274606474
 30
0.0
 11
164.9060229896
 21
107.3274606531
 31
0.0
  0
LINE
  5
114
330
1F
100
AcDbEntity
  8
0
  6
Continuous
 62
     7
370
    15
100
AcDbLine
 10
164.9060229896
 20
107.3274606531
 30
0.0
 11
164.9060229896
 21
82.5787233111
 31
0.0
  0
LINE
  5
115
330
1F
100
AcDbEntity
  8
0
  6
Continuous
 62
     7
370
    15
100
AcDbLine
 10
164.9060229896
 20
72.3274606529
 30
0.0
 11
164.9060229896
 21
82.5787233114
 31
0.0
  0
LINE
  5
116
330
1F
100
AcDbEntity
  8
0
  6
Continuous
 62
     7
370
    15
100
AcDbLine
 10
203.9289900279
 20
141.4009107298
 30
0.0
 11
203.9289900279
 21
142.3274606531
 31
0.0
  0
LINE
  5
117
330
1F
100
AcDbEntity
  8
0
  6
Continuous
 62
     7
370
    15
100
AcDbLine
 10
196.7289900208
 20
141.4009107279
 30
0.0
 11
203.9289900279
 21
141.4009107298
 31
0.0
  0
LINE
  5
118
330
1F
100
AcDbEntity
  8
0
  6
Continuous
 62
     7
370
    15
100
AcDbLine
 10
196.7289900208
 20
73.2540105797
 30
0.0
 11
196.7289900208
 21
141.4009107279
 31
0.0
  0
LINE
  5
119
330
1F
100
AcDbEntity
  8
0
  6
Continuous
 62
     7
370
    15
100
AcDbLine
 10
203.9289900286
 20
73.2540105804
 30
0.0
 11
196.7289900208
 21
73.2540105797
 31
0.0
  0
LINE
  5
11A
330
1F
100
AcDbEntity
  8
0
  6
Continuous
 62
     7
370
    15
100
AcDbLine
 10
203.9289900289
 20
72.3274606531
 30
0.0
 11
203.9289900286
 21
73.2540105804
 31
0.0
  0
LINE
  5
11B
330
1F
100
AcDbEntity
  8
0
  6
Continuous
 62
     7
370
    15
100
AcDbLine
 10
141.7289900279
 20
72.4024606531
 30
0.0
 11
141.7289900279
 21
142.2524606531
 31
0.0
  0
LINE
  5
11C
330
1F
100
AcDbEntity
  8
0
  6
Continuous
 62
     7
370
    15
100
AcDbLine
 10
142.6404054689
 20
107.3274606531
 30
0.0
 11
142.6404054689
 21
141.8274606531
 31
0.0
  0
LINE
  5
11D
330
1F
100
AcDbEntity
  8
0
  6
Continuous
 62
     7
370
    15
100
AcDbLine
 10
142.6404054689
 20
72.8274606531
 30
0.0
 11
142.6404054689
 21
107.3274606531
 31
0.0
  0
LINE
  5
11E
330
1F
100
AcDbEntity
  8
0
  6
Continuous
 62
     7
370
    15
100
AcDbLine
 10
42.1182194599
 20
107.3274606515
 30
0.0
 11
42.1182194599
 21
92.9036899634
 31
0.0
  0
LINE
  5
11F
330
1F
100
AcDbEntity
  8
0
  6
Continuous
 62
     7
370
    15
100
AcDbLine
 10
150.9539900281
 20
60.9548653894
 30
0.0
 11
150.9539900281
 21
74.5370840809
 31
0.0
  0
LINE
  5
120
330
1F
100
AcDbEntity
  8
0
  6
Continuous
 62
     7
370
    15
100
AcDbLine
 10
160.8289900273
 20
59.7431026932
 30
0.0
 11
160.8289900273
 21
73.6802384613
 31
0.0
  0
LINE
  5
121
330
1F
100
AcDbEntity
  8
0
  6
Continuous
 62
     7
370
    15
100
AcDbLine
 10
144.9289900302
 20
59.7430893144
 30
0.0
 11
144.9289900302
 21
73.6802261193
 31
0.0
  0
LINE
  5
122
330
1F
100
AcDbEntity
  8
0
  6
Continuous
 62
     7
370
    15
100
AcDbLine
 10
236.7289900279
 20
81.3274606531
 30
0.0
 11
236.7289900279
 21
133.3274606531
 31
0.0
  0
LINE
  5
123
330
1F
100
AcDbEntity
  8
0
  6
Continuous
 62
     7
370
    15
100
AcDbLine
 10
237.7289900279
 20
82.3274606531
 30
0.0
 11
237.7289900279
 21
132.3274606531
 31
0.0
  0
LINE
  5
124
330
1F
100
AcDbEntity
  8
0
  6
Continuous
 62
     7
370
    15
100
AcDbLine
 10
227.7289900279
 20
81.3274606531
 30
0.0
 11
227.7289900279
 21
133.3274606531
 31
0.0
  0
LINE
  5
125
330
1F
100
AcDbEntity
  8
0
  6
Continuous
 62
     7
370
    15
100
AcDbLine
 10
226.7289900279
 20
82.3274606531
 30
0.0
 11
226.7289900279
 21
132.3274606531
 31
0.0
  0
SPLINE
  5
126
330
1F
100
AcDbEntity
  8
0
  6
Continuous
 62
     7
370
    15
100
AcDbSpline
210
0.0
220
0.0
230
1.0
 70
    24
 71
     3
 72
    14
 73
    10
 74
     0
 42
0.000000001
 43
0.00000001
 40
0.0
 40
0.0
 40
0.0
 40
0.0
 40
0.25
 40
0.25
 40
0.5
 40
0.5
 40
0.75
 40
0.75
 40
1.0
 40
1.0
 40
1.0
 40
1.0
 10
39.97899002785488
 20
107.3274606531113
 30
0.0
 10
39.97899002785488
 20
107.3274606531113
 30
0.0
 10
40.02475048254983
 20
107.3274606531113
 30
0.0
 10
40.22751529300056
 20
107.3274606531113
 30
0.0
 10
40.38497553631931
 20
107.3274606531113
 30
0.0
 10
40.79096104488161
 20
107.3274606531113
 30
0.0
 10
41.03857453500093
 20
107.3274606531113
 30
0.0
 10
41.5679770001251
 20
107.3274606531114
 30
0.0
 10
41.84853083596906
 20
107.3274606531113
 30
0.0
 10
42.11821945985489
 20
107.3274606531113
 30
0.0
  0
SPLINE
  5
127
330
1F
100
AcDbEntity
  8
0
  6
Continuous
 62
     7
370
    15
100
AcDbSpline
210
0.0
220
0.0
230
1.0
 70
    24
 71
     3
 72
    14
 73
    10
 74
     0
 42
0.000000001
 43
0.00000001
 40
0.0
 40
0.0
 40
0.0
 40
0.0
 40
0.25
 40
0.25
 40
0.5
 40
0.5
 40
0.75
 40
0.75
 40
1.0
 40
1.0
 40
1.0
 40
1.0
 10
39.97899002785493
 20
107.3274606531113
 30
0.0
 10
39.97899002785488
 20
106.4524685133864
 30
0.0
 10
39.97899002785482
 20
105.5124966562075
 30
0.0
 10
39.97899002785482
 20
103.5128224996846
 30
0.0
 10
39.97899002785488
 20
102.4525745926406
 30
0.0
 10
39.97899002785482
 20
100.2527065906004
 30
0.0
 10
39.97899002785493
 20
99.1126134062832
 30
0.0
 10
39.97899002785482
 20
96.84076940111154
 30
0.0
 10
39.97899002785482
 20
95.7091622536488
 30
0.0
 10
39.97899002785488
 20
94.6529533089495
 30
0.0
  0
SPLINE
  5
128
330
1F
100
AcDbEntity
  8
0
  6
Continuous
 62
     7
370
    15
100
AcDbSpline
210
0.0
220
0.0
230
1.0
 70
    24
 71
     3
 72
    22
 73
    18
 74
     0
 42
0.000000001
 43
0.00000001
 40
0.0
 40
0.0
 40
0.0
 40
0.0
 40
0.125
 40
0.125
 40
0.25
 40
0.25
 40
0.375
 40
0.375
 40
0.5
 40
0.5
 40
0.625
 40
0.625
 40
0.75
 40
0.75
 40
0.875
 40
0.875
 40
1.0
 40
1.0
 40
1.0
 40
1.0
 10
39.97899002785482
 20
125.251920816863
 30
0.0
 10
39.97899002785482
 20
125.2519208168472
 30
0.0
 10
39.97899002785482
 20
125.0624235653977
 30
0.0
 10
39.97899002785476
 20
124.338374365862
 30
0.0
 10
39.97899002785476
 20
123.8047325682887
 30
0.0
 10
39.97899002785471
 20
122.48158902678
 30
0.0
 10
39.97899002785482
 20
121.6932646236518
 30
0.0
 10
39.97899002785482
 20
119.971117203154
 30
0.0
 10
39.97899002785482
 20
119.0381079600302
 30
0.0
 10
39.97899002785476
 20
117.1261655425715
 30
0.0
 10
39.97899002785499
 20
116.1475049528002
 30
0.0
 10
39.97899002785488
 20
114.2164938002126
 30
0.0
 10
39.97899002785488
 20
113.2640418593106
 30
0.0
 10
39.97899002785488
 20
111.4285771385538
 30
0.0
 10
39.97899002785493
 20
110.5453193354777
 30
0.0
 10
39.97899002785493
 20
108.868308208882
 30
0.0
 10
39.97899002785488
 20
108.0743131599303
 30
0.0
 10
39.97899002785493
 20
107.3274606531113
 30
0.0
  0
LINE
  5
129
330
1F
100
AcDbEntity
  8
0
  6
Continuous
 62
     7
370
    15
100
AcDbLine
 10
222.7289900279
 20
107.3274606531
 30
0.0
 11
222.7289900279
 21
127.3274606531
 31
0.0
  0
LINE
  5
12A
330
1F
100
AcDbEntity
  8
0
  6
Continuous
 62
     7
370
    15
100
AcDbLine
 10
222.7289900279
 20
87.3274606531
 30
0.0
 11
222.7289900279
 21
107.3274606531
 31
0.0
  0
LINE
  5
12B
330
1F
100
AcDbEntity
  8
0
  6
Continuous
 62
     7
370
    15
100
AcDbLine
 10
196.7289900208
 20
87.9690161133
 30
0.0
 11
215.2539900279
 21
87.9690161133
 31
0.0
  0
SPLINE
  5
12C
330
1F
100
AcDbEntity
  8
0
  6
Continuous
 62
     7
370
    15
100
AcDbSpline
210
0.0
220
0.0
230
1.0
 70
     8
 71
     3
 72
    25
 73
    21
 74
     0
 42
0.000000001
 43
0.00000001
 40
0.0
 40
0.0
 40
0.0
 40
0.0
 40
0.0131882775290434
 40
0.0671865026156874
 40
0.1181094738608544
 40
0.2216647540854138
 40
0.2744093027487596
 40
0.3258423381962782
 40
0.4303746054856233
 40
0.4835826751857133
 40
0.5363853196089856
 40
0.5895490006638346
 40
0.6438557465556232
 40
0.6985613928549701
 40
0.7515503533074154
 40
0.8049209189551643
 40
0.8595144967197718
 40
0.9145392500523065
 40
0.9571656494177395
 40
1.0
 40
1.0
 40
1.0
 40
1.0
 10
220.246279692617
 20
87.32936290083158
 30
0.0
 10
220.2490563413798
 20
87.32871563840412
 30
0.0
 10
220.2632017306433
 20
87.32541821774555
 30
0.0
 10
220.2312773022357
 20
87.33377757988055
 30
0.0
 10
220.1595306735425
 20
87.35225803034459
 30
0.0
 10
220.0142038983504
 20
87.38841553214709
 30
0.0
 10
219.8085424689608
 20
87.43700195819147
 30
0.0
 10
219.5609107446124
 20
87.4933351329177
 30
0.0
 10
219.2539144363722
 20
87.5588799727567
 30
0.0
 10
218.8923786548889
 20
87.62875385094131
 30
0.0
 10
218.593865572488
 20
87.68218983662747
 30
0.0
 10
218.2699572582992
 20
87.73514618958201
 30
0.0
 10
217.9203598889598
 20
87.78637515966501
 30
0.0
 10
217.5513748318301
 20
87.83365974877309
 30
0.0
 10
217.1676396710902
 20
87.87545490459519
 30
0.0
 10
216.7700713088568
 20
87.9108450806559
 30
0.0
 10
216.3558401746424
 20
87.93909278676308
 30
0.0
 10
215.9607884414035
 20
87.95723328136091
 30
0.0
 10
215.592233627297
 20
87.96729389142611
 30
0.0
 10
215.366920645321
 20
87.9684411088522
 30
0.0
 10
215.253990027855
 20
87.96901611332451
 30
0.0
  0
LINE
  5
12D
330
1F
100
AcDbEntity
  8
0
  6
Continuous
 62
     7
370
    15
100
AcDbLine
 10
223.7289900279
 20
107.3274606531
 30
0.0
 11
223.7289900279
 21
126.3274606531
 31
0.0
  0
LINE
  5
12E
330
1F
100
AcDbEntity
  8
0
  6
Continuous
 62
     7
370
    15
100
AcDbLine
 10
223.7289900279
 20
88.3274606531
 30
0.0
 11
223.7289900279
 21
107.3274606531
 31
0.0
  0
LINE
  5
12F
330
1F
100
AcDbEntity
  8
0
  6
Continuous
 62
     7
370
    15
100
AcDbLine
 10
39.978990029
 20
89.402891896
 30
0.0
 11
39.978990029
 21
94.6528765351
 31
0.0
  0
LINE
  5
130
330
1F
100
AcDbEntity
  8
0
  6
Continuous
 62
     7
370
    15
100
AcDbLine
 10
150.9539900281
 20
151.8841110153
 30
0.0
 11
150.9539900281
 21
153.7000559169
 31
0.0
  0
LINE
  5
131
330
1F
100
AcDbEntity
  8
0
  6
Continuous
 62
     7
370
    15
100
AcDbLine
 10
144.9289900302
 20
153.1439408787
 30
0.0
 11
144.9289900302
 21
154.9118319918
 31
0.0
  0
LINE
  5
132
330
1F
100
AcDbEntity
  8
0
  6
Continuous
 62
     7
370
    15
100
AcDbLine
 10
160.8289900273
 20
153.1439257263
 30
0.0
 11
160.8289900273
 21
154.911818613
 31
0.0
  0
LINE
  5
133
330
1F
100
AcDbEntity
  8
0
  6
Continuous
 62
     7
370
    15
100
AcDbLine
 10
203.9289900286
 20
73.2540105804
 30
0.0
 11
203.9289900292
 21
86.8335591202
 31
0.0
  0
SPLINE
  5
134
330
1F
100
AcDbEntity
  8
0
  6
Continuous
 62
     7
370
    15
100
AcDbSpline
210
0.0
220
0.0
230
1.0
 70
     8
 71
     3
 72
     9
 73
     5
 74
     0
 42
0.000000001
 43
0.00000001
 40
0.0
 40
0.0
 40
0.0
 40
0.0
 40
0.5033567716214473
 40
1.0
 40
1.0
 40
1.0
 40
1.0
 10
204.7289900286773
 20
85.69415299904877
 30
0.0
 10
204.5933934475754
 20
85.88340794870751
 30
0.0
 10
204.3240088107799
 20
86.25939365174882
 30
0.0
 10
204.0600723068051
 20
86.64302914790096
 30
0.0
 10
203.9289900293841
 20
86.83355911923061
 30
0.0
  0
LINE
  5
135
330
1F
100
AcDbEntity
  8
0
  6
Continuous
 62
     7
370
    15
100
AcDbLine
 10
204.7289900276
 20
73.8939445351
 30
0.0
 11
204.7289900288
 21
85.6941529992
 31
0.0
  0
SPLINE
  5
136
330
1F
100
AcDbEntity
  8
0
  6
Continuous
 62
     7
370
    15
100
AcDbSpline
210
0.0
220
0.0
230
1.0
 70
     8
 71
     3
 72
     9
 73
     5
 74
     0
 42
0.000000001
 43
0.00000001
 40
0.0
 40
0.0
 40
0.0
 40
0.0
 40
0.4975798043103822
 40
1.0
 40
1.0
 40
1.0
 40
1.0
 10
204.7289900273653
 20
73.89394453488003
 30
0.0
 10
204.5965311030108
 20
73.78723247378088
 30
0.0
 10
204.3303247111776
 20
73.57277027058308
 30
0.0
 10
204.0631992538344
 20
73.36060613096141
 30
0.0
 10
203.9289900292824
 20
73.25401058241437
 30
0.0
  0
LINE
  5
137
330
1F
100
AcDbEntity
  8
0
  6
Continuous
 62
     7
370
    15
100
AcDbLine
 10
204.7289900284
 20
73.1274606537
 30
0.0
 11
204.7289900276
 21
73.8939445351
 31
0.0
  0
LINE
  5
138
330
1F
100
AcDbEntity
  8
0
  6
Continuous
 62
     7
370
    15
100
AcDbLine
 10
203.9289900292
 20
86.8335591202
 30
0.0
 11
196.7289900208
 21
86.8335591211
 31
0.0
  0
LINE
  5
139
330
1F
100
AcDbEntity
  8
0
  6
Continuous
 62
     7
370
    15
100
AcDbLine
 10
203.9289900283
 20
127.8213621854
 30
0.0
 11
203.9289900279
 21
141.4009107298
 31
0.0
  0
LINE
  5
13A
330
1F
100
AcDbEntity
  8
0
  6
Continuous
 62
     7
370
    15
100
AcDbLine
 10
196.7289900208
 20
127.8213621851
 30
0.0
 11
203.9289900283
 21
127.8213621854
 31
0.0
  0
SPLINE
  5
13B
330
1F
100
AcDbEntity
  8
0
  6
Continuous
 62
     7
370
    15
100
AcDbSpline
210
0.0
220
0.0
230
1.0
 70
     8
 71
     3
 72
     9
 73
     5
 74
     0
 42
0.000000001
 43
0.00000001
 40
0.0
 40
0.0
 40
0.0
 40
0.0
 40
0.4966432311508452
 40
1.0
 40
1.0
 40
1.0
 40
1.0
 10
203.9289900282889
 20
127.8213621858445
 30
0.0
 10
204.0600723065965
 20
128.0118921584763
 30
0.0
 10
204.3240088108833
 20
128.3955276551087
 30
0.0
 10
204.593393448106
 20
128.7715133584657
 30
0.0
 10
204.7289900286761
 20
128.9607683072409
 30
0.0
  0
SPLINE
  5
13C
330
1F
100
AcDbEntity
  8
0
  6
Continuous
 62
     7
370
    15
100
AcDbSpline
210
0.0
220
0.0
230
1.0
 70
     8
 71
     3
 72
     9
 73
     5
 74
     0
 42
0.000000001
 43
0.00000001
 40
0.0
 40
0.0
 40
0.0
 40
0.0
 40
0.4966432214057632
 40
1.0
 40
1.0
 40
1.0
 40
1.0
 10
203.928990029207
 20
127.8213621864375
 30
0.0
 10
204.0600723053874
 20
128.0118921549714
 30
0.0
 10
204.3240088105698
 20
128.3955276508806
 30
0.0
 10
204.593393447513
 20
128.7715133551585
 30
0.0
 10
204.7289900305674
 20
128.9607683080613
 30
0.0
  0
SPLINE
  5
13D
330
1F
100
AcDbEntity
  8
0
  6
Continuous
 62
     7
370
    15
100
AcDbSpline
210
0.0
220
0.0
230
1.0
 70
     8
 71
     3
 72
     9
 73
     5
 74
     0
 42
0.000000001
 43
0.00000001
 40
0.0
 40
0.0
 40
0.0
 40
0.0
 40
0.4982044997108951
 40
1.0
 40
1.0
 40
1.0
 40
1.0
 10
204.728990025818
 20
140.7609767710452
 30
0.0
 10
204.5963647188231
 20
140.8678225421747
 30
0.0
 10
204.3301581569156
 20
141.0822842164302
 30
0.0
 10
204.0630324909698
 20
141.2944479325997
 30
0.0
 10
203.9289900337864
 20
141.4009107306982
 30
0.0
  0
LINE
  5
13E
330
1F
100
AcDbEntity
  8
0
  6
Continuous
 62
     7
370
    15
100
AcDbLine
 10
204.7289900289
 20
128.9607683073
 30
0.0
 11
204.7289900261
 21
140.7609767718
 31
0.0
  0
LINE
  5
13F
330
1F
100
AcDbEntity
  8
0
  6
Continuous
 62
     7
370
    15
100
AcDbLine
 10
204.7289900261
 20
140.7609767718
 30
0.0
 11
204.7289900261
 21
141.5274606541
 31
0.0
  0
LINE
  5
140
330
1F
100
AcDbEntity
  8
0
  6
Continuous
 62
     7
370
    15
100
AcDbLine
 10
215.2539900279
 20
87.9690161133
 30
0.0
 11
215.2539900279
 21
84.8274606531
 31
0.0
  0
LINE
  5
141
330
1F
100
AcDbEntity
  8
0
  6
Continuous
 62
     7
370
    15
100
AcDbLine
 10
204.7289900279
 20
84.8274606531
 30
0.0
 11
215.2539900279
 21
84.8274606531
 31
0.0
  0
LINE
  5
142
330
1F
100
AcDbEntity
  8
0
  6
Continuous
 62
     7
370
    15
100
AcDbLine
 10
215.2539900279
 20
84.8274606531
 30
0.0
 11
220.2539900279
 21
84.8274606531
 31
0.0
  0
LINE
  5
143
330
1F
100
AcDbEntity
  8
0
  6
Continuous
 62
     8
370
    15
100
AcDbLine
 10
146.0946754529
 20
58.5774606531
 30
0.0
 11
146.0946754529
 21
72.8560050703
 31
0.0
  0
LINE
  5
144
330
1F
100
AcDbEntity
  8
0
  6
Continuous
 62
     8
370
    15
100
AcDbLine
 10
146.0946754529
 20
154.2004891073
 30
0.0
 11
146.0946754529
 21
156.0774606531
 31
0.0
  0
LINE
  5
145
330
1F
100
AcDbEntity
  8
0
  6
Continuous
 62
     8
370
    15
100
AcDbLine
 10
159.6633046022
 20
58.5774606531
 30
0.0
 11
159.6633046022
 21
72.8560050703
 31
0.0
  0
LINE
  5
146
330
1F
100
AcDbEntity
  8
0
  6
Continuous
 62
     8
370
    15
100
AcDbLine
 10
159.6633046022
 20
154.2004891074
 30
0.0
 11
159.6633046022
 21
156.0774606531
 31
0.0
  0
SPLINE
  5
147
330
1F
100
AcDbEntity
  8
0
  6
Continuous
 62
     8
370
    15
100
AcDbSpline
210
0.0
220
0.0
230
1.0
 70
    24
 71
     3
 72
    13
 73
     9
 74
     0
 42
0.000000001
 43
0.00000001
 40
0.0
 40
0.0
 40
0.0
 40
0.0
 40
0.0342923713125741
 40
0.1700983896891277
 40
0.4443880203978041
 40
0.5817675093812031
 40
0.7907302175446026
 40
1.0
 40
1.0
 40
1.0
 40
1.0
 10
161.8943885655787
 20
142.8274606531112
 30
0.0
 10
161.8969115411033
 20
142.8274606531111
 30
0.0
 10
161.9094261050583
 20
142.8274606531111
 30
0.0
 10
161.8136764675922
 20
142.8274606531114
 30
0.0
 10
161.5784766384153
 20
142.8274606531112
 30
0.0
 10
161.2633023358504
 20
142.8274606531113
 30
0.0
 10
160.9890920761499
 20
142.8274606531112
 30
0.0
 10
160.8931313119308
 20
142.8274606531113
 30
0.0
 10
160.8451157017073
 20
142.8274606531113
 30
0.0
  0
LINE
  5
148
330
1F
100
AcDbEntity
  8
0
  6
Continuous
 62
     8
370
    15
100
AcDbLine
 10
42.1182194599
 20
127.7257527831
 30
0.0
 11
42.1182194599
 21
107.3274606515
 31
0.0
  0
LINE
  5
149
330
1F
100
AcDbEntity
  8
0
  6
Continuous
 62
     8
370
    15
100
AcDbLine
 10
42.1182194598
 20
86.9291685231
 30
0.0
 11
42.1182194598
 21
92.903689963
 31
0.0
  0
LINE
  5
14A
330
1F
100
AcDbEntity
  8
0
  6
Continuous
 62
     8
370
    15
100
AcDbLine
 10
144.4289900284
 20
72.8274606757
 30
0.0
 11
144.4289900284
 21
82.9322767181
 31
0.0
  0
LINE
  5
14B
330
1F
100
AcDbEntity
  8
0
  6
Continuous
 62
     8
370
    15
100
AcDbLine
 10
145.811832737
 20
58.6946179439
 30
0.0
 11
145.811832737
 21
72.9388477851
 31
0.0
  0
LINE
  5
14C
330
1F
100
AcDbEntity
  8
0
  6
Continuous
 62
     8
370
    15
100
AcDbLine
 10
159.946147316
 20
58.6946179406
 30
0.0
 11
159.946147316
 21
72.9388477827
 31
0.0
  0
LINE
  5
14D
330
1F
100
AcDbEntity
  8
0
  6
Continuous
 62
     8
370
    15
100
AcDbLine
 10
160.7118327407
 20
59.4603033642
 30
0.0
 11
160.7118327407
 21
73.480269138
 31
0.0
  0
LINE
  5
14E
330
1F
100
AcDbEntity
  8
0
  6
Continuous
 62
     8
370
    15
100
AcDbLine
 10
145.046147315
 20
59.4603033642
 30
0.0
 11
145.046147315
 21
73.480269138
 31
0.0
  0
LINE
  5
14F
330
1F
100
AcDbEntity
  8
0
  6
Continuous
 62
     8
370
    15
100
AcDbLine
 10
159.946147316
 20
154.1056901762
 30
0.0
 11
159.946147316
 21
155.9603033656
 31
0.0
  0
LINE
  5
150
330
1F
100
AcDbEntity
  8
0
  6
Continuous
 62
     8
370
    15
100
AcDbLine
 10
145.811832737
 20
154.1056901735
 30
0.0
 11
145.811832737
 21
155.9603033623
 31
0.0
  0
LINE
  5
151
330
1F
100
AcDbEntity
  8
0
  6
Continuous
 62
     8
370
    15
100
AcDbLine
 10
160.7118327407
 20
153.4375706825
 30
0.0
 11
160.7118327407
 21
155.194617942
 31
0.0
  0
LINE
  5
152
330
1F
100
AcDbEntity
  8
0
  6
Continuous
 62
     8
370
    15
100
AcDbLine
 10
145.046147315
 20
153.4375706824
 30
0.0
 11
145.046147315
 21
155.194617942
 31
0.0
  0
LINE
  5
153
330
1F
100
AcDbEntity
  8
0
  6
Continuous
 62
     8
370
    15
100
AcDbLine
 10
226.3289900279
 20
97.3274606531
 30
0.0
 11
226.3289900279
 21
117.3274606531
 31
0.0
  0
DIMENSION
  5
154
330
1F
100
AcDbEntity
  8
DIM
100
AcDbDimension
  2
_D
 10
245.073131709
 20
87.3274606531
 30
0.0
 11
245.073131709
 21
107.3274606531
 31
0.0
 70
   160
  1
%%c<>
 71
     2
 42
-1.0
  3
SLDDIMSTYLE0
100
AcDbAlignedDimension
 13
222.7289900279
 23
127.3274606531
 33
0.0
 14
222.7289900279
 24
87.3274606531
 34
0.0
 50
90.0
100
AcDbRotatedDimension
  0
DIMENSION
  5
160
330
1F
100
AcDbEntity
  8
DIM
100
AcDbDimension
  2
_D_1
 10
253.7289900279
 20
72.3274606531
 30
0.0
 11
253.7289900279
 21
107.3274606531
 31
0.0
 70
   160
  1
%%c<>
 71
     2
 42
-1.0
  3
SLDDIMSTYLE0
100
AcDbAlignedDimension
 13
203.9289900279
 23
142.3274606531
 33
0.0
 14
203.9289900289
 24
72.3274606531
 34
0.0
 50
90.0
100
AcDbRotatedDimension
  0
DIMENSION
  5
16B
330
1F
100
AcDbEntity
  8
DIM
100
AcDbDimension
  2
_D_2
 10
39.9789900279
 20
36.5774606531
 30
0.0
 11
138.8539900279
 21
36.5774606531
 31
0.0
 70
   160
  1
<>
 71
     2
 42
-1.0
  3
SLDDIMSTYLE0
100
AcDbAlignedDimension
 13
237.7289900279
 23
82.3274606531
 33
0.0
 14
39.9789900279
 24
107.3274606531
 34
0.0
100
AcDbRotatedDimension
  0
DIMENSION
  5
175
330
1F
100
AcDbEntity
  8
DIM
100
AcDbDimension
  2
_D_3
 10
29.8380370101
 20
58.5774606531
 30
0.0
 11
29.8380370101
 21
107.3274606531
 31
0.0
 70
   160
  1
%%c<>
 71
     2
 42
-1.0
  3
SLDDIMSTYLE1
100
AcDbAlignedDimension
 13
146.0946754529
 23
156.0774606531
 33
0.0
 14
146.0946754529
 24
58.5774606531
 34
0.0
 50
90.0
100
AcDbRotatedDimension
  0
DIMENSION
  5
181
330
1F
100
AcDbEntity
  8
DIM
100
AcDbDimension
  2
_D_4
 10
196.7289900208
 20
47.9966336443
 30
0.0
 11
169.2289900243
 21
47.9966336443
 31
0.0
 70
   160
  1
<>
 71
     2
 42
-1.0
  3
SLDDIMSTYLE0
100
AcDbAlignedDimension
 13
141.7289900279
 23
72.4024606531
 33
0.0
 14
196.7289900208
 24
73.2540105797
 34
0.0
100
AcDbRotatedDimension
  0
DIMENSION
  5
18B
330
1F
100
AcDbEntity
  8
DIM
100
AcDbDimension
  2
_D_5
 10
223.7289900279
 20
47.9966336443
 30
0.0
 11
210.2289900243
 21
47.9966336443
 31
0.0
 70
   160
  1
<>
 71
     2
 42
-1.0
  3
SLDDIMSTYLE0
100
AcDbAlignedDimension
 13
196.7289900208
 23
73.2540105797
 33
0.0
 14
223.7289900279
 24
88.3274606531
 34
0.0
100
AcDbRotatedDimension
  0
LINE
  5
195
330
1F
100
AcDbEntity
  8
DIM
  6
CENTERX2
370
     0
100
AcDbLine
 10
33.2032976777
 20
107.3274606531
 30
0.0
 11
236.1706156857
 21
107.3274606531
 31
0.0
  0
ENDSEC
  0
SECTION
  2
OBJECTS
  0
DICTIONARY
  5
C
330
0
100
AcDbDictionary
281
     1
  3
ACAD_GROUP
350
D
  3
ACAD_LAYOUT
350
1A
  3
ACAD_MLINESTYLE
350
17
  3
ACAD_PLOTSETTINGS
350
19
  3
ACAD_PLOTSTYLENAME
350
E
  3
ACAD_SCALELIST
350
47
  0
DICTIONARY
  5
D
102
{ACAD_REACTORS
330
C
102
}
330
C
100
AcDbDictionary
281
     1
  0
DICTIONARY
  5
1A
102
{ACAD_REACTORS
330
C
102
}
330
C
100
AcDbDictionary
281
     1
  3
Layout1
350
1E
  3
Layout2
350
26
  3
Model
350
22
  0
DICTIONARY
  5
17
102
{ACAD_REACTORS
330
C
102
}
330
C
100
AcDbDictionary
281
     1
  3
Standard
350
18
  0
DICTIONARY
  5
19
102
{ACAD_REACTORS
330
C
102
}
330
C
100
AcDbDictionary
281
     1
  0
ACDBDICTIONARYWDFLT
  5
E
102
{ACAD_REACTORS
330
C
102
}
330
C
100
AcDbDictionary
281
     1
  3
Normal
350
F
100
AcDbDictionaryWithDefault
340
F
  0
DICTIONARY
  5
47
102
{ACAD_REACTORS
330
C
102
}
330
C
100
AcDbDictionary
281
     1
  3
A0
350
48
  3
A1
350
49
  3
A2
350
4A
  3
A3
350
4B
  3
A4
350
4C
  3
A5
350
4D
  3
A6
350
4E
  3
A7
350
4F
  3
A8
350
50
  3
A9
350
51
  3
B0
350
52
  3
B1
350
53
  3
B2
350
54
  3
B3
350
55
  3
B4
350
56
  3
B5
350
57
  3
B6
350
58
  3
B7
350
59
  3
B8
350
5A
  3
B9
350
5B
  3
C0
350
5C
  3
C1
350
5D
  3
C2
350
5E
  3
C3
350
5F
  3
C4
350
60
  3
C5
350
61
  3
C6
350
62
  3
C7
350
63
  3
C8
350
64
  3
C9
350
65
  3
D0
350
66
  3
D1
350
67
  3
D2
350
68
  0
LAYOUT
  5
1E
102
{ACAD_REACTORS
330
1A
102
}
330
1A
100
AcDbPlotSettings
  1

  2
none_device
  4

  6

 40
0.0
 41
0.0
 42
0.0
 43
0.0
 44
0.0
 45
0.0
 46
0.0
 47
0.0
 48
0.0
 49
0.0
140
0.0
141
0.0
142
1.0
143
1.0
 70
   688
 72
     1
 73
     0
 74
     5
  7

 75
    16
147
1.0
148
0.0
149
0.0
100
AcDbLayout
  1
Layout1
 70
     1
 71
     1
 10
0.0
 20
0.0
 11
420.0
 21
297.0
 12
0.0
 22
0.0
 32
0.0
 14
1.0000000000E+20
 24
1.0000000000E+20
 34
1.0000000000E+20
 15
-1.0000000000E+20
 25
-1.0000000000E+20
 35
-1.0000000000E+20
146
0.0
 13
0.0
 23
0.0
 33
0.0
 16
1.0
 26
0.0
 36
0.0
 17
0.0
 27
1.0
 37
0.0
 76
     0
330
1B
  0
LAYOUT
  5
26
102
{ACAD_REACTORS
330
1A
102
}
330
1A
100
AcDbPlotSettings
  1

  2
none_device
  4

  6

 40
0.0
 41
0.0
 42
0.0
 43
0.0
 44
0.0
 45
0.0
 46
0.0
 47
0.0
 48
0.0
 49
0.0
140
0.0
141
0.0
142
1.0
143
1.0
 70
   688
 72
     1
 73
     0
 74
     5
  7

 75
    16
147
1.0
148
0.0
149
0.0
100
AcDbLayout
  1
Layout2
 70
     1
 71
     2
 10
0.0
 20
0.0
 11
0.0
 21
0.0
 12
0.0
 22
0.0
 32
0.0
 14
0.0
 24
0.0
 34
0.0
 15
0.0
 25
0.0
 35
0.0
146
0.0
 13
0.0
 23
0.0
 33
0.0
 16
1.0
 26
0.0
 36
0.0
 17
0.0
 27
1.0
 37
0.0
 76
     0
330
23
  0
LAYOUT
  5
22
102
{ACAD_REACTORS
330
1A
102
}
330
1A
100
AcDbPlotSettings
  1

  2
none_device
  4
Letter_(8.50_x_11.00_Inches)
  6

 40
6.35
 41
6.35
 42
6.35000508
 43
6.35000508
 44
215.9
 45
279.4
 46
0.0
 47
0.0
 48
0.0
 49
0.0
140
0.0
141
0.0
142
1.0
143
1.0
 70
  1712
 72
     1
 73
     0
 74
     0
  7

 75
     0
147
1.0
148
0.0
149
0.0
100
AcDbLayout
  1
Model
 70
     1
 71
     0
 10
0.0
 20
0.0
 11
297.0
 21
210.0
 12
0.0
 22
0.0
 32
0.0
 14
0.0
 24
0.0
 34
0.0
 15
297.0
 25
210.0
 35
0.0
146
0.0
 13
0.0
 23
0.0
 33
0.0
 16
1.0
 26
0.0
 36
0.0
 17
0.0
 27
1.0
 37
0.0
 76
     0
330
1F
331
29
  0
MLINESTYLE
  5
18
102
{ACAD_REACTORS
330
17
102
}
330
17
100
AcDbMlineStyle
  2
Standard
 70
     0
  3

 62
   256
 51
90.0
 52
90.0
 71
     2
 49
0.5
 62
   256
  6
BYLAYER
 49
-0.5
 62
   256
  6
BYLAYER
  0
ACDBPLACEHOLDER
  5
F
102
{ACAD_REACTORS
330
E
102
}
330
E
  0
SCALE
  5
48
102
{ACAD_REACTORS
330
47
102
}
330
47
100
AcDbScale
 70
     0
300
1:1
140
1.0
141
1.0
290
     1
  0
SCALE
  5
49
102
{ACAD_REACTORS
330
47
102
}
330
47
100
AcDbScale
 70
     0
300
1:2
140
1.0
141
2.0
290
     0
  0
SCALE
  5
4A
102
{ACAD_REACTORS
330
47
102
}
330
47
100
AcDbScale
 70
     0
300
1:4
140
1.0
141
4.0
290
     0
  0
SCALE
  5
4B
102
{ACAD_REACTORS
330
47
102
}
330
47
100
AcDbScale
 70
     0
300
1:5
140
1.0
141
5.0
290
     0
  0
SCALE
  5
4C
102
{ACAD_REACTORS
330
47
102
}
330
47
100
AcDbScale
 70
     0
300
1:8
140
1.0
141
8.0
290
     0
  0
SCALE
  5
4D
102
{ACAD_REACTORS
330
47
102
}
330
47
100
AcDbScale
 70
     0
300
1:10
140
1.0
141
10.0
290
     0
  0
SCALE
  5
4E
102
{ACAD_REACTORS
330
47
102
}
330
47
100
AcDbScale
 70
     0
300
1:16
140
1.0
141
16.0
290
     0
  0
SCALE
  5
4F
102
{ACAD_REACTORS
330
47
102
}
330
47
100
AcDbScale
 70
     0
300
1:20
140
1.0
141
20.0
290
     0
  0
SCALE
  5
50
102
{ACAD_REACTORS
330
47
102
}
330
47
100
AcDbScale
 70
     0
300
1:30
140
1.0
141
30.0
290
     0
  0
SCALE
  5
51
102
{ACAD_REACTORS
330
47
102
}
330
47
100
AcDbScale
 70
     0
300
1:40
140
1.0
141
40.0
290
     0
  0
SCALE
  5
52
102
{ACAD_REACTORS
330
47
102
}
330
47
100
AcDbScale
 70
     0
300
1:50
140
1.0
141
50.0
290
     0
  0
SCALE
  5
53
102
{ACAD_REACTORS
330
47
102
}
330
47
100
AcDbScale
 70
     0
300
1:100
140
1.0
141
100.0
290
     0
  0
SCALE
  5
54
102
{ACAD_REACTORS
330
47
102
}
330
47
100
AcDbScale
 70
     0
300
2:1
140
2.0
141
1.0
290
     0
  0
SCALE
  5
55
102
{ACAD_REACTORS
330
47
102
}
330
47
100
AcDbScale
 70
     0
300
4:1
140
4.0
141
1.0
290
     0
  0
SCALE
  5
56
102
{ACAD_REACTORS
330
47
102
}
330
47
100
AcDbScale
 70
     0
300
8:1
140
8.0
141
1.0
290
     0
  0
SCALE
  5
57
102
{ACAD_REACTORS
330
47
102
}
330
47
100
AcDbScale
 70
     0
300
10:1
140
10.0
141
1.0
290
     0
  0
SCALE
  5
58
102
{ACAD_REACTORS
330
47
102
}
330
47
100
AcDbScale
 70
     0
300
100:1
140
100.0
141
1.0
290
     0
  0
SCALE
  5
59
102
{ACAD_REACTORS
330
47
102
}
330
47
100
AcDbScale
 70
     0
300
1/128" = 1'-0"
140
0.0078125
141
12.0
290
     0
  0
SCALE
  5
5A
102
{ACAD_REACTORS
330
47
102
}
330
47
100
AcDbScale
 70
     0
300
1/64" = 1'-0"
140
0.015625
141
12.0
290
     0
  0
SCALE
  5
5B
102
{ACAD_REACTORS
330
47
102
}
330
47
100
AcDbScale
 70
     0
300
1/32" = 1'-0"
140
0.03125
141
12.0
290
     0
  0
SCALE
  5
5C
102
{ACAD_REACTORS
330
47
102
}
330
47
100
AcDbScale
 70
     0
300
1/16" = 1'-0"
140
0.0625
141
12.0
290
     0
  0
SCALE
  5
5D
102
{ACAD_REACTORS
330
47
102
}
330
47
100
AcDbScale
 70
     0
300
3/32" = 1'-0"
140
0.09375
141
12.0
290
     0
  0
SCALE
  5
5E
102
{ACAD_REACTORS
330
47
102
}
330
47
100
AcDbScale
 70
     0
300
1/8" = 1'-0"
140
0.125
141
12.0
290
     0
  0
SCALE
  5
5F
102
{ACAD_REACTORS
330
47
102
}
330
47
100
AcDbScale
 70
     0
300
3/16" = 1'-0"
140
0.1875
141
12.0
290
     0
  0
SCALE
  5
60
102
{ACAD_REACTORS
330
47
102
}
330
47
100
AcDbScale
 70
     0
300
1/4" = 1'-0"
140
0.25
141
12.0
290
     0
  0
SCALE
  5
61
102
{ACAD_REACTORS
330
47
102
}
330
47
100
AcDbScale
 70
     0
300
3/8" = 1'-0"
140
0.375
141
12.0
290
     0
  0
SCALE
  5
62
102
{ACAD_REACTORS
330
47
102
}
330
47
100
AcDbScale
 70
     0
300
1/2" = 1'-0"
140
0.5
141
12.0
290
     0
  0
SCALE
  5
63
102
{ACAD_REACTORS
330
47
102
}
330
47
100
AcDbScale
 70
     0
300
3/4" = 1'-0"
140
0.75
141
12.0
290
     0
  0
SCALE
  5
64
102
{ACAD_REACTORS
330
47
102
}
330
47
100
AcDbScale
 70
     0
300
1" = 1'-0"
140
1.0
141
12.0
290
     0
  0
SCALE
  5
65
102
{ACAD_REACTORS
330
47
102
}
330
47
100
AcDbScale
 70
     0
300
1-1/2" = 1'-0"
140
1.5
141
12.0
290
     0
  0
SCALE
  5
66
102
{ACAD_REACTORS
330
47
102
}
330
47
100
AcDbScale
 70
     0
300
3" = 1'-0"
140
3.0
141
12.0
290
     0
  0
SCALE
  5
67
102
{ACAD_REACTORS
330
47
102
}
330
47
100
AcDbScale
 70
     0
300
6" = 1'-0"
140
6.0
141
12.0
290
     0
  0
SCALE
  5
68
102
{ACAD_REACTORS
330
47
102
}
330
47
100
AcDbScale
 70
     0
300
1'-0" = 1'-0"
140
12.0
141
12.0
290
     0
  0
ENDSEC
  0
EOF
