  0
SECTION
  2
HEADER
  9
$ACADVER
  1
AC1015
  9
$ACADMAINTVER
 70
     6
  9
$DWGCODEPAGE
  3
ANSI_1252
  9
$INSBASE
 10
0.0
 20
0.0
 30
0.0
  9
$EXTMIN
 10
0.0
 20
0.0
 30
0.0
  9
$EXTMAX
 10
326.7
 20
231.0
 30
0.0
  9
$LIMMIN
 10
0.0
 20
0.0
  9
$LIMMAX
 10
326.7
 20
231.0
  9
$ORTHOMODE
 70
     0
  9
$REGENMODE
 70
     1
  9
$FILLMODE
 70
     1
  9
$QTEXTMODE
 70
     0
  9
$MIRRTEXT
 70
     1
  9
$LTSCALE
 40
1.1
  9
$ATTMODE
 70
     1
  9
$TEXTSIZE
 40
4.2686111111
  9
$TRACEWID
 40
1.0
  9
$TEXTSTYLE
  7
Standard
  9
$CLAYER
  8
0
  9
$CELTYPE
  6
ByLayer
  9
$CECOLOR
 62
   256
  9
$CELTSCALE
 40
1.0
  9
$DISPSILH
 70
     0
  9
$DIMSCALE
 40
1.0
  9
$DIMASZ
 40
3.6322
  9
$DIMEXO
 40
1.1
  9
$DIMDLI
 40
3.75
  9
$DIMRND
 40
0.0
  9
$DIMDLE
 40
0.0
  9
$DIMEXE
 40
1.1
  9
$DIMTP
 40
0.0
  9
$DIMTM
 40
0.0
  9
$DIMTXT
 40
4.2686111111
  9
$DIMCEN
 40
2.5
  9
$DIMTSZ
 40
0.0
  9
$DIMTOL
 70
     0
  9
$DIMLIM
 70
     0
  9
$DIMTIH
 70
     1
  9
$DIMTOH
 70
     1
  9
$DIMSE1
 70
     0
  9
$DIMSE2
 70
     0
  9
$DIMTAD
 70
     1
  9
$DIMZIN
 70
     0
  9
$DIMBLK
  1

  9
$DIMASO
 70
     1
  9
$DIMSHO
 70
     1
  9
$DIMPOST
  1

  9
$DIMAPOST
  1

  9
$DIMALT
 70
     0
  9
$DIMALTD
 70
     3
  9
$DIMALTF
 40
0.0393700787
  9
$DIMLFAC
 40
1.0
  9
$DIMTOFL
 70
     1
  9
$DIMTVP
 40
0.0
  9
$DIMTIX
 70
     0
  9
$DIMSOXD
 70
     0
  9
$DIMSAH
 70
     0
  9
$DIMBLK1
  1

  9
$DIMBLK2
  1

  9
$DIMSTYLE
  2
ISO-25
  9
$DIMCLRD
 70
     0
  9
$DIMCLRE
 70
     0
  9
$DIMCLRT
 70
     0
  9
$DIMTFAC
 40
1.0
  9
$DIMGAP
 40
1.6764
  9
$DIMJUST
 70
     0
  9
$DIMSD1
 70
     0
  9
$DIMSD2
 70
     0
  9
$DIMTOLJ
 70
     0
  9
$DIMTZIN
 70
     0
  9
$DIMALTZ
 70
     0
  9
$DIMALTTZ
 70
     0
  9
$DIMUPT
 70
     0
  9
$DIMDEC
 70
     2
  9
$DIMTDEC
 70
     2
  9
$DIMALTU
 70
     2
  9
$DIMALTTD
 70
     3
  9
$DIMTXSTY
  7
Standard
  9
$DIMAUNIT
 70
     0
  9
$DIMADEC
 70
     2
  9
$DIMALTRND
 40
0.0
  9
$DIMAZIN
 70
     0
  9
$DIMDSEP
 70
    44
  9
$DIMATFIT
 70
     3
  9
$DIMFRAC
 70
     0
  9
$DIMLDRBLK
  1

  9
$DIMLUNIT
 70
     2
  9
$DIMLWD
 70
    -2
  9
$DIMLWE
 70
    -2
  9
$DIMTMOVE
 70
     0
  9
$LUNITS
 70
     2
  9
$LUPREC
 70
     2
  9
$SKETCHINC
 40
1.0
  9
$FILLETRAD
 40
10.0
  9
$AUNITS
 70
     1
  9
$AUPREC
 70
     2
  9
$MENU
  1
.
  9
$ELEVATION
 40
0.0
  9
$PELEVATION
 40
0.0
  9
$THICKNESS
 40
0.0
  9
$LIMCHECK
 70
     0
  9
$CHAMFERA
 40
0.0
  9
$CHAMFERB
 40
0.0
  9
$CHAMFERC
 40
0.0
  9
$CHAMFERD
 40
0.0
  9
$SKPOLY
 70
     0
  9
$TDCREATE
 40
2458607.498360428
  9
$TDUCREATE
 40
2458607.269193762
  9
$TDUPDATE
 40
2458607.498361354
  9
$TDUUPDATE
 40
2458607.269194688
  9
$TDINDWG
 40
0.0000000116
  9
$TDUSRTIMER
 40
0.0000000116
  9
$USRTIMER
 70
     1
  9
$ANGBASE
 50
0.0
  9
$ANGDIR
 70
     0
  9
$PDMODE
 70
     0
  9
$PDSIZE
 40
-1.0
  9
$PLINEWID
 40
0.0
  9
$SPLFRAME
 70
     0
  9
$SPLINETYPE
 70
     6
  9
$SPLINESEGS
 70
     8
  9
$HANDSEED
  5
179
  9
$SURFTAB1
 70
     6
  9
$SURFTAB2
 70
     6
  9
$SURFTYPE
 70
     6
  9
$SURFU
 70
     6
  9
$SURFV
 70
     6
  9
$UCSBASE
  2

  9
$UCSNAME
  2

  9
$UCSORG
 10
0.0
 20
0.0
 30
0.0
  9
$UCSXDIR
 10
1.0
 20
0.0
 30
0.0
  9
$UCSYDIR
 10
0.0
 20
1.0
 30
0.0
  9
$UCSORTHOREF
  2

  9
$UCSORTHOVIEW
 70
     0
  9
$UCSORGTOP
 10
0.0
 20
0.0
 30
0.0
  9
$UCSORGBOTTOM
 10
0.0
 20
0.0
 30
0.0
  9
$UCSORGLEFT
 10
0.0
 20
0.0
 30
0.0
  9
$UCSORGRIGHT
 10
0.0
 20
0.0
 30
0.0
  9
$UCSORGFRONT
 10
0.0
 20
0.0
 30
0.0
  9
$UCSORGBACK
 10
0.0
 20
0.0
 30
0.0
  9
$PUCSBASE
  2

  9
$PUCSNAME
  2

  9
$PUCSORG
 10
0.0
 20
0.0
 30
0.0
  9
$PUCSXDIR
 10
1.0
 20
0.0
 30
0.0
  9
$PUCSYDIR
 10
0.0
 20
1.0
 30
0.0
  9
$PUCSORTHOREF
  2

  9
$PUCSORTHOVIEW
 70
     0
  9
$PUCSORGTOP
 10
0.0
 20
0.0
 30
0.0
  9
$PUCSORGBOTTOM
 10
0.0
 20
0.0
 30
0.0
  9
$PUCSORGLEFT
 10
0.0
 20
0.0
 30
0.0
  9
$PUCSORGRIGHT
 10
0.0
 20
0.0
 30
0.0
  9
$PUCSORGFRONT
 10
0.0
 20
0.0
 30
0.0
  9
$PUCSORGBACK
 10
0.0
 20
0.0
 30
0.0
  9
$USERI1
 70
     0
  9
$USERI2
 70
     0
  9
$USERI3
 70
     0
  9
$USERI4
 70
     0
  9
$USERI5
 70
     0
  9
$USERR1
 40
0.0
  9
$USERR2
 40
0.0
  9
$USERR3
 40
0.0
  9
$USERR4
 40
0.0
  9
$USERR5
 40
0.0
  9
$WORLDVIEW
 70
     1
  9
$SHADEDGE
 70
     3
  9
$SHADEDIF
 70
    70
  9
$TILEMODE
 70
     1
  9
$MAXACTVP
 70
    64
  9
$PINSBASE
 10
0.0
 20
0.0
 30
0.0
  9
$PLIMCHECK
 70
     0
  9
$PEXTMIN
 10
1.0000000000E+20
 20
1.0000000000E+20
 30
1.0000000000E+20
  9
$PEXTMAX
 10
-1.0000000000E+20
 20
-1.0000000000E+20
 30
-1.0000000000E+20
  9
$PLIMMIN
 10
0.0
 20
0.0
  9
$PLIMMAX
 10
420.0
 20
297.0
  9
$UNITMODE
 70
     0
  9
$VISRETAIN
 70
     1
  9
$PLINEGEN
 70
     0
  9
$PSLTSCALE
 70
     1
  9
$TREEDEPTH
 70
  3020
  9
$CMLSTYLE
  2
Standard
  9
$CMLJUST
 70
     0
  9
$CMLSCALE
 40
20.0
  9
$PROXYGRAPHICS
 70
     1
  9
$MEASUREMENT
 70
     1
  9
$CELWEIGHT
370
    -1
  9
$ENDCAPS
280
     0
  9
$JOINSTYLE
280
     0
  9
$LWDISPLAY
290
     1
  9
$INSUNITS
 70
     4
  9
$HYPERLINKBASE
  1

  9
$STYLESHEET
  1

  9
$XEDIT
290
     1
  9
$CEPSNTYPE
380
     0
  9
$PSTYLEMODE
290
     1
  9
$FINGERPRINTGUID
  2
{A02201DB-F480-4A59-8072-B64EA2EA1B9F}
  9
$VERSIONGUID
  2
{FAEB1C32-E019-11D5-929B-00C0DF256EC4}
  9
$EXTNAMES
290
     1
  9
$PSVPSCALE
 40
0.0
  9
$OLESTARTUP
290
     0
  0
ENDSEC
  0
SECTION
  2
CLASSES
  0
CLASS
  1
ACDBDICTIONARYWDFLT
  2
AcDbDictionaryWithDefault
  3
ObjectDBX Classes
 90
        0
280
     0
281
     0
  0
CLASS
  1
VISUALSTYLE
  2
AcDbVisualStyle
  3
ObjectDBX Classes
 90
     4095
280
     0
281
     0
  0
CLASS
  1
MATERIAL
  2
AcDbMaterial
  3
ObjectDBX Classes
 90
     1153
280
     0
281
     0
  0
CLASS
  1
SCALE
  2
AcDbScale
  3
ObjectDBX Classes
 90
     1153
280
     0
281
     0
  0
CLASS
  1
SUN
  2
AcDbSun
  3
SCENEOE
 90
     1153
280
     0
281
     0
  0
CLASS
  1
ACDBPLACEHOLDER
  2
AcDbPlaceHolder
  3
ObjectDBX Classes
 90
        0
280
     0
281
     0
  0
CLASS
  1
LAYOUT
  2
AcDbLayout
  3
ObjectDBX Classes
 90
        0
280
     0
281
     0
  0
ENDSEC
  0
SECTION
  2
TABLES
  0
TABLE
  2
VPORT
  5
8
330
0
100
AcDbSymbolTable
 70
     1
  0
VPORT
  5
29
330
8
100
AcDbSymbolTableRecord
100
AcDbViewportTableRecord
  2
*Active
 70
     0
 10
0.0
 20
0.0
 11
1.0
 21
1.0
 12
163.35
 22
115.5
 13
0.0
 23
0.0
 14
10.0
 24
10.0
 15
10.0
 25
10.0
 16
0.0
 26
0.0
 36
1.0
 17
0.0
 27
0.0
 37
0.0
 40
231.0
 41
1.4142857143
 42
50.0
 43
0.0
 44
0.0
 50
0.0
 51
0.0
 71
     0
 72
  2000
 73
     1
 74
     3
 75
     0
 76
     0
 77
     0
 78
     0
281
     0
 65
     1
110
0.0
120
0.0
130
0.0
111
1.0
121
0.0
131
0.0
112
0.0
122
1.0
132
0.0
 79
     0
146
0.0
  0
ENDTAB
  0
TABLE
  2
LTYPE
  5
5
330
0
100
AcDbSymbolTable
 70
     6
  0
LTYPE
  5
14
330
5
100
AcDbSymbolTableRecord
100
AcDbLinetypeTableRecord
  2
ByBlock
 70
     0
  3

 72
    65
 73
     0
 40
0.0
  0
LTYPE
  5
15
330
5
100
AcDbSymbolTableRecord
100
AcDbLinetypeTableRecord
  2
ByLayer
 70
     0
  3

 72
    65
 73
     0
 40
0.0
  0
LTYPE
  5
16
330
5
100
AcDbSymbolTableRecord
100
AcDbLinetypeTableRecord
  2
Continuous
 70
     0
  3
Solid line
 72
    65
 73
     0
 40
0.0
  0
LTYPE
  5
6A
330
5
100
AcDbSymbolTableRecord
100
AcDbLinetypeTableRecord
  2
HIDDEN
 70
     0
  3
Hidden __ __ __ __ __ __ __ __ __ __ __ __ __ __
 72
    65
 73
     2
 40
1.905
 49
1.27
 74
     0
 49
-0.635
 74
     0
  0
LTYPE
  5
6B
330
5
100
AcDbSymbolTableRecord
100
AcDbLinetypeTableRecord
  2
PHANTOM
 70
     0
  3
Phantom ______  __  __  ______  __  __  ______
 72
    65
 73
     6
 40
12.7
 49
6.35
 74
     0
 49
-1.27
 74
     0
 49
1.27
 74
     0
 49
-1.27
 74
     0
 49
1.27
 74
     0
 49
-1.27
 74
     0
  0
LTYPE
  5
6C
330
5
100
AcDbSymbolTableRecord
100
AcDbLinetypeTableRecord
  2
CENTER
 70
     0
  3
Center ____ _ ____ _ ____ _ ____ _ ____ _ ____
 72
    65
 73
     4
 40
10.16
 49
6.35
 74
     0
 49
-1.27
 74
     0
 49
1.27
 74
     0
 49
-1.27
 74
     0
  0
LTYPE
  5
6D
330
5
100
AcDbSymbolTableRecord
100
AcDbLinetypeTableRecord
  2
CENTERX2
 70
     0
  3
Center (2x) ________  __  ________  __  _____
 72
    65
 73
     4
 40
20.32
 49
12.7
 74
     0
 49
-2.54
 74
     0
 49
2.54
 74
     0
 49
-2.54
 74
     0
  0
LTYPE
  5
6E
330
5
100
AcDbSymbolTableRecord
100
AcDbLinetypeTableRecord
  2
DOT2
 70
     0
  3
Dot (.5x) ........................................
 72
    65
 73
     2
 40
0.635
 49
0.0
 74
     0
 49
-0.635
 74
     0
  0
ENDTAB
  0
TABLE
  2
LAYER
  5
2
330
0
100
AcDbSymbolTable
 70
     8
  0
LAYER
  5
10
330
2
100
AcDbSymbolTableRecord
100
AcDbLayerTableRecord
  2
0
 70
     0
 62
     7
  6
Continuous
370
    -3
390
F
  0
LAYER
  5
6F
330
2
100
AcDbSymbolTableRecord
100
AcDbLayerTableRecord
  2
FORMAT
 70
     0
 62
     7
  6
Continuous
370
    -3
390
F
  0
LAYER
  5
70
330
2
100
AcDbSymbolTableRecord
100
AcDbLayerTableRecord
  2
SLD-0
 70
     0
 62
     2
  6
Continuous
370
    -3
390
F
  0
LAYER
  5
71
330
2
100
AcDbSymbolTableRecord
100
AcDbLayerTableRecord
  2
DIM
 70
     0
 62
   179
  6
Continuous
370
    -3
390
F
  0
LAYER
  5
72
330
2
100
AcDbSymbolTableRecord
100
AcDbLayerTableRecord
  2
SLD-DEFPOINTS
 70
     0
 62
   179
  6
Continuous
370
    -3
390
F
  0
LAYER
  5
73
330
2
100
AcDbSymbolTableRecord
100
AcDbLayerTableRecord
  2
HAT
 70
     0
 62
   135
  6
Continuous
370
    -3
390
F
  0
LAYER
  5
74
330
2
100
AcDbSymbolTableRecord
100
AcDbLayerTableRecord
  2
JOB
 70
     0
 62
   201
  6
Continuous
370
    -3
390
F
  0
LAYER
  5
75
330
2
100
AcDbSymbolTableRecord
100
AcDbLayerTableRecord
  2
INSPECTION_REPORT
 70
     0
 62
   255
  6
Continuous
370
    -3
390
F
  0
ENDTAB
  0
TABLE
  2
STYLE
  5
3
330
0
100
AcDbSymbolTable
 70
     4
  0
STYLE
  5
11
330
3
100
AcDbSymbolTableRecord
100
AcDbTextStyleTableRecord
  2
Standard
 70
     0
 40
0.0
 41
1.0
 50
0.0
 71
     0
 42
4.2686111111
  3
txt
  4

  0
STYLE
  5
96
330
3
100
AcDbSymbolTableRecord
100
AcDbTextStyleTableRecord
  2
SLDTEXTSTYLE0
 70
     0
 40
0.0
 41
0.7
 50
0.0
 71
     0
 42
4.2686111111
  3
TXT
  4

  0
STYLE
  5
98
330
3
100
AcDbSymbolTableRecord
100
AcDbTextStyleTableRecord
  2
SLDTEXTSTYLE1
 70
     0
 40
0.0
 41
0.75
 50
0.0
 71
     0
 42
4.2686111111
  3
TXT
  4

  0
STYLE
  5
AB
330
3
100
AcDbSymbolTableRecord
100
AcDbTextStyleTableRecord
  2
SLDTEXTSTYLE2
 70
     0
 40
0.0
 41
0.6875
 50
0.0
 71
     0
 42
4.2686111111
  3
TXT
  4

  0
ENDTAB
  0
TABLE
  2
VIEW
  5
6
330
0
100
AcDbSymbolTable
 70
     0
  0
ENDTAB
  0
TABLE
  2
UCS
  5
7
330
0
100
AcDbSymbolTable
 70
     0
  0
ENDTAB
  0
TABLE
  2
APPID
  5
9
330
0
100
AcDbSymbolTable
 70
     1
  0
APPID
  5
12
330
9
100
AcDbSymbolTableRecord
100
AcDbRegAppTableRecord
  2
ACAD
 70
     0
  0
ENDTAB
  0
TABLE
  2
DIMSTYLE
  5
A
330
0
100
AcDbSymbolTable
 70
     4
100
AcDbDimStyleTable
  0
DIMSTYLE
105
27
330
A
100
AcDbSymbolTableRecord
100
AcDbDimStyleTableRecord
  2
ISO-25
 70
     0
 41
2.5
 42
0.625
 43
3.75
 44
1.25
 73
     0
 74
     0
 77
     1
 78
     8
140
2.5
141
2.5
143
0.0393700787
147
0.625
171
     3
172
     1
178
     0
271
     2
272
     2
274
     3
278
    44
283
     0
284
     8
340
11
  0
DIMSTYLE
105
14C
102
{ACAD_REACTORS
330
14B
102
}
330
A
100
AcDbSymbolTableRecord
100
AcDbDimStyleTableRecord
  2
SLDDIMSTYLE0
 70
     0
 41
3.6322
 44
0.0
 45
0.000000001
 73
     0
 74
     0
 77
     1
 78
    12
 79
     3
140
3.2014583333
147
0.8003645833
172
     1
173
     1
178
     0
271
     2
272
     2
276
     2
284
    12
289
     0
340
96
  0
DIMSTYLE
105
158
102
{ACAD_REACTORS
330
157
102
}
330
A
100
AcDbSymbolTableRecord
100
AcDbDimStyleTableRecord
  2
SLDDIMSTYLE1
 70
     0
 41
3.6322
 44
0.0
 45
0.000000001
 73
     0
 74
     0
 77
     1
 78
     4
 79
     1
140
3.2014583333
147
0.8003645833
173
     1
178
     0
271
     2
272
     2
276
     2
284
    12
340
96
  0
DIMSTYLE
105
164
102
{ACAD_REACTORS
330
163
330
16E
102
}
330
A
100
AcDbSymbolTableRecord
100
AcDbDimStyleTableRecord
  2
SLDDIMSTYLE2
 70
     0
 41
3.6322
 44
0.0
 45
0.000000001
 73
     0
 74
     0
 77
     1
 78
    12
 79
     3
140
3.2014583333
147
0.8003645833
173
     1
178
     0
271
     2
272
     2
276
     2
284
    12
340
96
  0
ENDTAB
  0
TABLE
  2
BLOCK_RECORD
  5
1
330
0
100
AcDbSymbolTable
 70
     6
  0
BLOCK_RECORD
  5
1F
330
1
100
AcDbSymbolTableRecord
100
AcDbBlockTableRecord
  2
*Model_Space
340
22
  0
BLOCK_RECORD
  5
1B
330
1
100
AcDbSymbolTableRecord
100
AcDbBlockTableRecord
  2
*Paper_Space
340
1E
  0
BLOCK_RECORD
  5
23
330
1
100
AcDbSymbolTableRecord
100
AcDbBlockTableRecord
  2
*Paper_Space0
340
26
  0
BLOCK_RECORD
  5
E8
330
1
100
AcDbSymbolTableRecord
100
AcDbBlockTableRecord
  2
SW_CENTERMARKSYMBOL_0
340
0
102
{BLKREFS
331
F3
102
}
  0
BLOCK_RECORD
  5
14D
330
1
100
AcDbSymbolTableRecord
100
AcDbBlockTableRecord
  2
_D
340
0
  0
BLOCK_RECORD
  5
159
330
1
100
AcDbSymbolTableRecord
100
AcDbBlockTableRecord
  2
_D_1
340
0
  0
BLOCK_RECORD
  5
165
330
1
100
AcDbSymbolTableRecord
100
AcDbBlockTableRecord
  2
_D_2
340
0
  0
BLOCK_RECORD
  5
16F
330
1
100
AcDbSymbolTableRecord
100
AcDbBlockTableRecord
  2
_D_3
340
0
  0
ENDTAB
  0
ENDSEC
  0
SECTION
  2
BLOCKS
  0
BLOCK
  5
20
330
1F
100
AcDbEntity
  8
0
100
AcDbBlockBegin
  2
*Model_Space
 70
     0
 10
0.0
 20
0.0
 30
0.0
  3
*Model_Space
  1
*Model_Space
  0
ENDBLK
  5
21
330
1F
100
AcDbEntity
  8
0
100
AcDbBlockEnd
  0
BLOCK
  5
1C
330
1B
100
AcDbEntity
 67
     1
  8
0
100
AcDbBlockBegin
  2
*Paper_Space
 70
     0
 10
0.0
 20
0.0
 30
0.0
  3
*Paper_Space
  1
*Paper_Space
  0
ENDBLK
  5
1D
330
1B
100
AcDbEntity
 67
     1
  8
0
100
AcDbBlockEnd
  0
BLOCK
  5
24
330
23
100
AcDbEntity
  8
0
100
AcDbBlockBegin
  2
*Paper_Space0
 70
     0
 10
0.0
 20
0.0
 30
0.0
  3
*Paper_Space0
  1
*Paper_Space0
  0
ENDBLK
  5
25
330
23
100
AcDbEntity
  8
0
100
AcDbBlockEnd
  0
BLOCK
  5
E9
330
E8
100
AcDbEntity
  8
0
100
AcDbBlockBegin
  2
SW_CENTERMARKSYMBOL_0
 70
     0
 10
0.0
 20
0.0
 30
0.0
  3
SW_CENTERMARKSYMBOL_0
  1
SW_CENTERMARKSYMBOL_0
  0
LINE
  5
EB
330
E8
100
AcDbEntity
  8
DIM
 62
     0
100
AcDbLine
 10
0.0
 20
0.0
 30
0.0
 11
0.0
 21
2.5
 31
0.0
  0
LINE
  5
EC
330
E8
100
AcDbEntity
  8
DIM
 62
     0
100
AcDbLine
 10
0.0
 20
0.0
 30
0.0
 11
-2.5
 21
0.0
 31
0.0
  0
LINE
  5
ED
330
E8
100
AcDbEntity
  8
DIM
 62
     0
100
AcDbLine
 10
0.0
 20
0.0
 30
0.0
 11
0.0
 21
-2.5
 31
0.0
  0
LINE
  5
EE
330
E8
100
AcDbEntity
  8
DIM
 62
     0
100
AcDbLine
 10
0.0
 20
0.0
 30
0.0
 11
2.5
 21
0.0
 31
0.0
  0
LINE
  5
EF
330
E8
100
AcDbEntity
  8
DIM
 62
     0
100
AcDbLine
 10
0.0
 20
5.0
 30
0.0
 11
0.0
 21
51.1328427125
 31
0.0
  0
LINE
  5
F0
330
E8
100
AcDbEntity
  8
DIM
 62
     0
100
AcDbLine
 10
-5.0
 20
0.0
 30
0.0
 11
-51.1328427125
 21
0.0
 31
0.0
  0
LINE
  5
F1
330
E8
100
AcDbEntity
  8
DIM
 62
     0
100
AcDbLine
 10
0.0
 20
-5.0
 30
0.0
 11
0.0
 21
-51.1328427125
 31
0.0
  0
LINE
  5
F2
330
E8
100
AcDbEntity
  8
DIM
 62
     0
100
AcDbLine
 10
5.0
 20
0.0
 30
0.0
 11
51.1328427125
 21
0.0
 31
0.0
  0
ENDBLK
  5
EA
330
E8
100
AcDbEntity
  8
0
100
AcDbBlockEnd
  0
BLOCK
  5
14E
330
14D
100
AcDbEntity
  8
0
100
AcDbBlockBegin
  2
_D
 70
     0
 10
0.0
 20
0.0
 30
0.0
  3
_D
  1
_D
  0
SOLID
  5
150
330
14D
100
AcDbEntity
  8
DIM
100
AcDbTrace
 10
295.6120313651
 20
128.98650784
 30
0.0
 11
295.0532313651
 21
125.35430784
 31
0.0
 12
296.1708313651
 22
125.35430784
 32
0.0
 13
296.1708313651
 23
125.35430784
 33
0.0
  0
SOLID
  5
151
330
14D
100
AcDbEntity
  8
DIM
100
AcDbTrace
 10
295.6120313651
 20
103.98650784
 30
0.0
 11
296.1708313651
 21
107.61870784
 31
0.0
 12
295.0532313651
 22
107.61870784
 32
0.0
 13
295.0532313651
 23
107.61870784
 33
0.0
  0
LINE
  5
152
330
14D
100
AcDbEntity
  8
DIM
100
AcDbLine
 10
288.2303099131
 20
128.98650784
 30
0.0
 11
296.7120313651
 21
128.98650784
 31
0.0
  0
LINE
  5
153
330
14D
100
AcDbEntity
  8
DIM
100
AcDbLine
 10
288.2303099131
 20
103.98650784
 30
0.0
 11
296.7120313651
 21
103.98650784
 31
0.0
  0
LINE
  5
154
330
14D
100
AcDbEntity
  8
DIM
100
AcDbLine
 10
295.6120313651
 20
128.98650784
 30
0.0
 11
295.6120313651
 21
103.98650784
 31
0.0
  0
MTEXT
  5
155
330
14D
100
AcDbEntity
  8
DIM
100
AcDbMText
 10
291.4851344513
 20
111.8472093246
 30
0.0
 40
3.2014583333
 41
0.0
 71
     1
 72
     1
  1
%%c
  7
SLDTEXTSTYLE0
 11
-7.044195017643634E-15
 21
1.0
 31
0.0
 73
     1
 44
1.0
  0
MTEXT
  5
156
330
14D
100
AcDbEntity
  8
DIM
100
AcDbMText
 10
291.4851344513
 20
116.7979088141
 30
0.0
 40
3.2014583333
 41
0.0
 71
     1
 72
     1
  1
25
  7
SLDTEXTSTYLE0
 11
-7.044195017643634E-15
 21
1.0
 31
0.0
 73
     1
 44
1.0
  0
ENDBLK
  5
14F
330
14D
100
AcDbEntity
  8
0
100
AcDbBlockEnd
  0
BLOCK
  5
15A
330
159
100
AcDbEntity
  8
0
100
AcDbBlockBegin
  2
_D_1
 70
     0
 10
0.0
 20
0.0
 30
0.0
  3
_D_1
  1
_D_1
  0
SOLID
  5
15C
330
159
100
AcDbEntity
  8
DIM
100
AcDbTrace
 10
128.3074501597
 20
165.23650784
 30
0.0
 11
127.7486501597
 21
161.60430784
 31
0.0
 12
128.8662501597
 22
161.60430784
 32
0.0
 13
128.8662501597
 23
161.60430784
 33
0.0
  0
SOLID
  5
15D
330
159
100
AcDbEntity
  8
DIM
100
AcDbTrace
 10
128.3074501597
 20
67.73650784
 30
0.0
 11
128.8662501597
 21
71.36870784
 31
0.0
 12
127.7486501597
 22
71.36870784
 32
0.0
 13
127.7486501597
 23
71.36870784
 33
0.0
  0
LINE
  5
15E
330
159
100
AcDbEntity
  8
DIM
100
AcDbLine
 10
241.2620207419
 20
165.23650784
 30
0.0
 11
127.2074501597
 21
165.23650784
 31
0.0
  0
LINE
  5
15F
330
159
100
AcDbEntity
  8
DIM
100
AcDbLine
 10
241.2620207419
 20
67.73650784
 30
0.0
 11
127.2074501597
 21
67.73650784
 31
0.0
  0
LINE
  5
160
330
159
100
AcDbEntity
  8
DIM
100
AcDbLine
 10
128.3074501597
 20
165.23650784
 30
0.0
 11
128.3074501597
 21
67.73650784
 31
0.0
  0
MTEXT
  5
161
330
159
100
AcDbEntity
  8
DIM
100
AcDbMText
 10
124.1805532459
 20
109.1141123786
 30
0.0
 40
3.2014583333
 41
0.0
 71
     1
 72
     1
  1
%%c
  7
SLDTEXTSTYLE0
 11
-7.044195017643634E-15
 21
1.0
 31
0.0
 73
     1
 44
1.0
  0
MTEXT
  5
162
330
159
100
AcDbEntity
  8
DIM
100
AcDbMText
 10
124.1805532459
 20
114.0648118681
 30
0.0
 40
3.2014583333
 41
0.0
 71
     1
 72
     1
  1
97.50
  7
SLDTEXTSTYLE0
 11
-7.044195017643634E-15
 21
1.0
 31
0.0
 73
     1
 44
1.0
  0
ENDBLK
  5
15B
330
159
100
AcDbEntity
  8
0
100
AcDbBlockEnd
  0
BLOCK
  5
166
330
165
100
AcDbEntity
  8
0
100
AcDbBlockBegin
  2
_D_2
 70
     0
 10
0.0
 20
0.0
 30
0.0
  3
_D_2
  1
_D_2
  0
SOLID
  5
168
330
165
100
AcDbEntity
  8
DIM
100
AcDbTrace
 10
136.2463353169
 20
50.13640784
 30
0.0
 11
139.8785353169
 21
49.57760784
 31
0.0
 12
139.8785353169
 22
50.69520784
 32
0.0
 13
139.8785353169
 23
50.69520784
 33
0.0
  0
SOLID
  5
169
330
165
100
AcDbEntity
  8
DIM
100
AcDbTrace
 10
287.9963353169
 20
50.13640784
 30
0.0
 11
284.3641353169
 21
50.69520784
 31
0.0
 12
284.3641353169
 22
49.57760784
 32
0.0
 13
284.3641353169
 23
49.57760784
 33
0.0
  0
LINE
  5
16A
330
165
100
AcDbEntity
  8
DIM
100
AcDbLine
 10
136.2463353169
 20
115.38650784
 30
0.0
 11
136.2463353169
 21
49.03640784
 31
0.0
  0
LINE
  5
16B
330
165
100
AcDbEntity
  8
DIM
100
AcDbLine
 10
287.9963353169
 20
104.38650784
 30
0.0
 11
287.9963353169
 21
49.03640784
 31
0.0
  0
LINE
  5
16C
330
165
100
AcDbEntity
  8
DIM
100
AcDbLine
 10
136.2463353169
 20
50.13640784
 30
0.0
 11
287.9963353169
 21
50.13640784
 31
0.0
  0
MTEXT
  5
16D
330
165
100
AcDbEntity
  8
DIM
100
AcDbMText
 10
206.142315215
 20
54.2633047538
 30
0.0
 40
3.2014583333
 41
0.0
 71
     1
 72
     1
  1
151.75
  7
SLDTEXTSTYLE0
 73
     1
 44
1.0
  0
ENDBLK
  5
167
330
165
100
AcDbEntity
  8
0
100
AcDbBlockEnd
  0
BLOCK
  5
170
330
16F
100
AcDbEntity
  8
0
100
AcDbBlockBegin
  2
_D_3
 70
     0
 10
0.0
 20
0.0
 30
0.0
  3
_D_3
  1
_D_3
  0
SOLID
  5
172
330
16F
100
AcDbEntity
  8
DIM
100
AcDbTrace
 10
237.9963353169
 20
56.2286136762
 30
0.0
 11
241.6285353169
 21
55.6698136762
 31
0.0
 12
241.6285353169
 22
56.7874136762
 32
0.0
 13
241.6285353169
 23
56.7874136762
 33
0.0
  0
SOLID
  5
173
330
16F
100
AcDbEntity
  8
DIM
100
AcDbTrace
 10
287.9963353169
 20
56.2286136762
 30
0.0
 11
284.3641353169
 21
56.7874136762
 31
0.0
 12
284.3641353169
 22
55.6698136762
 32
0.0
 13
284.3641353169
 23
55.6698136762
 33
0.0
  0
LINE
  5
174
330
16F
100
AcDbEntity
  8
DIM
100
AcDbLine
 10
237.9963353169
 20
80.46150784
 30
0.0
 11
237.9963353169
 21
55.1286136762
 31
0.0
  0
LINE
  5
175
330
16F
100
AcDbEntity
  8
DIM
100
AcDbLine
 10
287.9963353169
 20
104.38650784
 30
0.0
 11
287.9963353169
 21
55.1286136762
 31
0.0
  0
LINE
  5
176
330
16F
100
AcDbEntity
  8
DIM
100
AcDbLine
 10
237.9963353169
 20
56.2286136762
 30
0.0
 11
287.9963353169
 21
56.2286136762
 31
0.0
  0
MTEXT
  5
177
330
16F
100
AcDbEntity
  8
DIM
100
AcDbMText
 10
260.8323865463
 20
60.35551059
 30
0.0
 40
3.2014583333
 41
0.0
 71
     1
 72
     1
  1
50
  7
SLDTEXTSTYLE0
 73
     1
 44
1.0
  0
ENDBLK
  5
171
330
16F
100
AcDbEntity
  8
0
100
AcDbBlockEnd
  0
ENDSEC
  0
SECTION
  2
ENTITIES
  0
LINE
  5
76
330
1F
100
AcDbEntity
  8
DIM
100
AcDbLine
 10
115.1748671579
 20
10.7700906025
 30
0.0
 11
115.1748671579
 21
5.2700906025
 31
0.0
  0
LINE
  5
77
330
1F
100
AcDbEntity
  8
DIM
100
AcDbLine
 10
279.9165618648
 20
10.7700906025
 30
0.0
 11
279.9165618648
 21
5.2700906025
 31
0.0
  0
LINE
  5
78
330
1F
100
AcDbEntity
  8
DIM
100
AcDbLine
 10
261.1968809247
 20
10.7700906025
 30
0.0
 11
261.1968809247
 21
5.2700906025
 31
0.0
  0
LINE
  5
79
330
1F
100
AcDbEntity
  8
DIM
100
AcDbLine
 10
306.7948671579
 20
5.2700906025
 30
0.0
 11
306.7948671579
 21
10.7700906025
 31
0.0
  0
LINE
  5
7A
330
1F
100
AcDbEntity
  8
DIM
100
AcDbLine
 10
123.7548671579
 20
10.7700906025
 30
0.0
 11
123.7548671579
 21
5.2700906025
 31
0.0
  0
LINE
  5
7B
330
1F
100
AcDbEntity
  8
DIM
100
AcDbLine
 10
144.8649148351
 20
10.7700906025
 30
0.0
 11
144.8649148351
 21
5.2700906025
 31
0.0
  0
LINE
  5
7C
330
1F
100
AcDbEntity
  8
DIM
100
AcDbLine
 10
321.0948671579
 20
5.2700906025
 30
0.0
 11
321.0948671579
 21
84.7450906025
 31
0.0
  0
LINE
  5
7D
330
1F
100
AcDbEntity
  8
DIM
100
AcDbLine
 10
314.4009051641
 20
66.0450906025
 30
0.0
 11
321.0948671579
 21
66.0450906025
 31
0.0
  0
LINE
  5
7E
330
1F
100
AcDbEntity
  8
DIM
100
AcDbLine
 10
164.0136859378
 20
9.9450906025
 30
0.0
 11
164.0136859378
 21
5.2700906025
 31
0.0
  0
LINE
  5
7F
330
1F
100
AcDbEntity
  8
DIM
100
AcDbLine
 10
216.4403440765
 20
10.7700906025
 30
0.0
 11
216.4403440765
 21
5.2700906025
 31
0.0
  0
LINE
  5
80
330
1F
100
AcDbEntity
  8
DIM
100
AcDbLine
 10
164.0136859378
 20
10.7700906025
 30
0.0
 11
164.0136859378
 21
9.9450906025
 31
0.0
  0
LINE
  5
81
330
1F
100
AcDbEntity
  8
DIM
100
AcDbLine
 10
315.5948671579
 20
19.2950114025
 30
0.0
 11
321.0948671579
 21
19.2950114025
 31
0.0
  0
LINE
  5
82
330
1F
100
AcDbEntity
  8
DIM
100
AcDbLine
 10
315.5948671579
 20
219.7700906025
 30
0.0
 11
10.8948671579
 21
219.7700906025
 31
0.0
  0
LINE
  5
83
330
1F
100
AcDbEntity
  8
DIM
100
AcDbLine
 10
321.0948671579
 20
225.2700906025
 30
0.0
 11
5.3948671579
 21
225.2700906025
 31
0.0
  0
LINE
  5
84
330
1F
100
AcDbEntity
  8
DIM
100
AcDbLine
 10
10.8948671579
 20
219.7700906025
 30
0.0
 11
10.8948671579
 21
10.7700906025
 31
0.0
  0
LINE
  5
85
330
1F
100
AcDbEntity
  8
DIM
100
AcDbLine
 10
5.3948671579
 20
225.2700906025
 30
0.0
 11
5.3948671579
 21
5.2700906025
 31
0.0
  0
LINE
  5
86
330
1F
100
AcDbEntity
  8
DIM
100
AcDbLine
 10
10.8948671579
 20
60.2700906025
 30
0.0
 11
5.3948671579
 21
60.2700906025
 31
0.0
  0
LINE
  5
87
330
1F
100
AcDbEntity
  8
DIM
100
AcDbLine
 10
5.3948671579
 20
115.2700906025
 30
0.0
 11
10.8948671579
 21
115.2700906025
 31
0.0
  0
LINE
  5
88
330
1F
100
AcDbEntity
  8
DIM
100
AcDbLine
 10
5.3948671579
 20
5.2700906025
 30
0.0
 11
321.0948671579
 21
5.2700906025
 31
0.0
  0
LINE
  5
89
330
1F
100
AcDbEntity
  8
DIM
100
AcDbLine
 10
10.8948671579
 20
10.7700906025
 30
0.0
 11
321.0948671579
 21
10.7700906025
 31
0.0
  0
LINE
  5
8A
330
1F
100
AcDbEntity
  8
DIM
100
AcDbLine
 10
53.2448671579
 20
5.2700906025
 30
0.0
 11
53.2448671579
 21
10.7700906025
 31
0.0
  0
LINE
  5
8B
330
1F
100
AcDbEntity
  8
DIM
100
AcDbLine
 10
108.2448671579
 20
10.7700906025
 30
0.0
 11
108.2448671579
 21
5.2700906025
 31
0.0
  0
LINE
  5
8C
330
1F
100
AcDbEntity
  8
DIM
100
AcDbLine
 10
10.8948671579
 20
170.2700906025
 30
0.0
 11
5.3948671579
 21
170.2700906025
 31
0.0
  0
LINE
  5
8D
330
1F
100
AcDbEntity
  8
DIM
100
AcDbLine
 10
53.2448671579
 20
219.7700906025
 30
0.0
 11
53.2448671579
 21
225.2700906025
 31
0.0
  0
LINE
  5
8E
330
1F
100
AcDbEntity
  8
DIM
100
AcDbLine
 10
108.2448671579
 20
225.2700906025
 30
0.0
 11
108.2448671579
 21
219.7700906025
 31
0.0
  0
LINE
  5
8F
330
1F
100
AcDbEntity
  8
DIM
100
AcDbLine
 10
163.2448671579
 20
225.2700906025
 30
0.0
 11
163.2448671579
 21
219.7700906025
 31
0.0
  0
LINE
  5
90
330
1F
100
AcDbEntity
  8
DIM
100
AcDbLine
 10
315.5948671579
 20
10.7700906025
 30
0.0
 11
315.5948671579
 21
219.7700906025
 31
0.0
  0
LINE
  5
91
330
1F
100
AcDbEntity
  8
DIM
100
AcDbLine
 10
321.0948671579
 20
84.7450906025
 30
0.0
 11
321.0948671579
 21
225.2700906025
 31
0.0
  0
LINE
  5
92
330
1F
100
AcDbEntity
  8
DIM
100
AcDbLine
 10
321.0948671579
 20
115.2700906025
 30
0.0
 11
315.5948671579
 21
115.2700906025
 31
0.0
  0
LINE
  5
93
330
1F
100
AcDbEntity
  8
DIM
100
AcDbLine
 10
218.2448671579
 20
225.2700906025
 30
0.0
 11
218.2448671579
 21
219.7700906025
 31
0.0
  0
LINE
  5
94
330
1F
100
AcDbEntity
  8
DIM
100
AcDbLine
 10
273.2448671579
 20
219.7700906025
 30
0.0
 11
273.2448671579
 21
225.2700906025
 31
0.0
  0
LINE
  5
95
330
1F
100
AcDbEntity
  8
DIM
100
AcDbLine
 10
315.5948671579
 20
170.2700906025
 30
0.0
 11
321.0948671579
 21
170.2700906025
 31
0.0
  0
MTEXT
  5
97
330
1F
100
AcDbEntity
  8
DIM
100
AcDbMText
 10
21.5974746175
 20
211.2604913709
 30
0.0
 40
4.6566666667
 41
0.0
 71
     1
 72
     1
  1
SK50 MT01 050 6.3G15000 SL
  7
SLDTEXTSTYLE0
 73
     1
 44
1.0
  0
MTEXT
  5
99
330
1F
100
AcDbEntity
  8
DIM
 62
     7
100
AcDbMText
 10
217.5060565113
 20
8.5821466789
 30
0.0
 40
1.64846
 41
0.0
 71
     1
 72
     1
  1
WEIGHT:
  7
SLDTEXTSTYLE1
 73
     1
 44
1.0
  0
MTEXT
  5
9A
330
1F
100
AcDbEntity
  8
DIM
 62
     7
100
AcDbMText
 10
317.4567844303
 20
90.1346748591
 30
0.0
 40
2.0372916667
 41
0.0
 71
     1
 72
     1
  1
C
  7
SLDTEXTSTYLE1
 73
     1
 44
1.0
  0
MTEXT
  5
9B
330
1F
100
AcDbEntity
  8
DIM
 62
     7
100
AcDbMText
 10
311.3479386814
 20
16.339380182
 30
0.0
 40
3.2014583333
 41
0.0
 71
     1
 72
     1
  1
A4
  7
SLDTEXTSTYLE1
 73
     1
 44
1.0
  0
MTEXT
  5
9C
330
1F
100
AcDbEntity
  8
DIM
 62
     7
100
AcDbMText
 10
299.8282048912
 20
223.8049086465
 30
0.0
 40
2.0372916667
 41
0.0
 71
     1
 72
     1
  1
6
  7
SLDTEXTSTYLE1
 73
     1
 44
1.0
  0
MTEXT
  5
9D
330
1F
100
AcDbEntity
  8
DIM
 62
     7
100
AcDbMText
 10
244.8282048912
 20
223.8049086465
 30
0.0
 40
2.0372916667
 41
0.0
 71
     1
 72
     1
  1
5
  7
SLDTEXTSTYLE1
 73
     1
 44
1.0
  0
MTEXT
  5
9E
330
1F
100
AcDbEntity
  8
DIM
 62
     7
100
AcDbMText
 10
317.4282092912
 20
199.0549086465
 30
0.0
 40
2.0372916667
 41
0.0
 71
     1
 72
     1
  1
A
  7
SLDTEXTSTYLE1
 73
     1
 44
1.0
  0
MTEXT
  5
9F
330
1F
100
AcDbEntity
  8
DIM
 62
     7
100
AcDbMText
 10
317.4282092912
 20
144.0549086465
 30
0.0
 40
2.0372916667
 41
0.0
 71
     1
 72
     1
  1
B
  7
SLDTEXTSTYLE1
 73
     1
 44
1.0
  0
MTEXT
  5
A0
330
1F
100
AcDbEntity
  8
DIM
 62
     7
100
AcDbMText
 10
189.8282048912
 20
223.8049086465
 30
0.0
 40
2.0372916667
 41
0.0
 71
     1
 72
     1
  1
4
  7
SLDTEXTSTYLE1
 73
     1
 44
1.0
  0
MTEXT
  5
A1
330
1F
100
AcDbEntity
  8
DIM
 62
     7
100
AcDbMText
 10
25.2865382246
 20
223.8049086465
 30
0.0
 40
2.0372916667
 41
0.0
 71
     1
 72
     1
  1
1
  7
SLDTEXTSTYLE1
 73
     1
 44
1.0
  0
MTEXT
  5
A2
330
1F
100
AcDbEntity
  8
DIM
 62
     7
100
AcDbMText
 10
79.8282048912
 20
223.8049086465
 30
0.0
 40
2.0372916667
 41
0.0
 71
     1
 72
     1
  1
2
  7
SLDTEXTSTYLE1
 73
     1
 44
1.0
  0
MTEXT
  5
A3
330
1F
100
AcDbEntity
  8
DIM
 62
     7
100
AcDbMText
 10
134.8282048912
 20
223.8049086465
 30
0.0
 40
2.0372916667
 41
0.0
 71
     1
 72
     1
  1
3
  7
SLDTEXTSTYLE1
 73
     1
 44
1.0
  0
MTEXT
  5
A4
330
1F
100
AcDbEntity
  8
DIM
 62
     7
100
AcDbMText
 10
7.2282004912
 20
199.0549086465
 30
0.0
 40
2.0372916667
 41
0.0
 71
     1
 72
     1
  1
A
  7
SLDTEXTSTYLE1
 73
     1
 44
1.0
  0
MTEXT
  5
A5
330
1F
100
AcDbEntity
  8
DIM
 62
     7
100
AcDbMText
 10
79.8282048912
 20
9.3049086465
 30
0.0
 40
2.0372916667
 41
0.0
 71
     1
 72
     1
  1
2
  7
SLDTEXTSTYLE1
 73
     1
 44
1.0
  0
MTEXT
  5
A6
330
1F
100
AcDbEntity
  8
DIM
 62
     7
100
AcDbMText
 10
25.2865382246
 20
9.3049086465
 30
0.0
 40
2.0372916667
 41
0.0
 71
     1
 72
     1
  1
1
  7
SLDTEXTSTYLE1
 73
     1
 44
1.0
  0
MTEXT
  5
A7
330
1F
100
AcDbEntity
  8
DIM
 62
     7
100
AcDbMText
 10
7.2282004912
 20
34.0549086465
 30
0.0
 40
2.0372916667
 41
0.0
 71
     1
 72
     1
  1
D
  7
SLDTEXTSTYLE1
 73
     1
 44
1.0
  0
MTEXT
  5
A8
330
1F
100
AcDbEntity
  8
DIM
 62
     7
100
AcDbMText
 10
7.2282004912
 20
89.0549086465
 30
0.0
 40
2.0372916667
 41
0.0
 71
     1
 72
     1
  1
C
  7
SLDTEXTSTYLE1
 73
     1
 44
1.0
  0
MTEXT
  5
A9
330
1F
100
AcDbEntity
  8
DIM
 62
     7
100
AcDbMText
 10
7.2282004912
 20
144.0549086465
 30
0.0
 40
2.0372916667
 41
0.0
 71
     1
 72
     1
  1
B
  7
SLDTEXTSTYLE1
 73
     1
 44
1.0
  0
MTEXT
  5
AA
330
1F
100
AcDbEntity
  8
DIM
 62
     7
100
AcDbMText
 10
317.4567844303
 20
90.1346748591
 30
0.0
 40
2.0372916667
 41
0.0
 71
     1
 72
     1
  1
C
  7
SLDTEXTSTYLE1
 73
     1
 44
1.0
  0
MTEXT
  5
AC
330
1F
100
AcDbEntity
  8
DIM
 62
     7
100
AcDbMText
 10
282.1779023938
 20
8.4601866045
 30
0.0
 40
1.65
 41
0.0
 71
     1
 72
     1
  1
SHEET 1 OF 1
  7
SLDTEXTSTYLE2
 73
     1
 44
1.0
  0
MTEXT
  5
AD
330
1F
100
AcDbEntity
  8
DIM
 62
     7
100
AcDbMText
 10
165.4089584218
 20
8.638704232
 30
0.0
 40
1.65
 41
0.0
 71
     1
 72
     1
  1
MATERIAL:
  7
SLDTEXTSTYLE1
 73
     1
 44
1.0
  0
MTEXT
  5
AE
330
1F
100
AcDbEntity
  8
DIM
 62
     7
100
AcDbMText
 10
299.8282048912
 20
223.8049086465
 30
0.0
 40
2.0372916667
 41
0.0
 71
     1
 72
     1
  1
6
  7
SLDTEXTSTYLE1
 73
     1
 44
1.0
  0
MTEXT
  5
AF
330
1F
100
AcDbEntity
  8
DIM
 62
     7
100
AcDbMText
 10
244.8282048912
 20
223.8049086465
 30
0.0
 40
2.0372916667
 41
0.0
 71
     1
 72
     1
  1
5
  7
SLDTEXTSTYLE1
 73
     1
 44
1.0
  0
MTEXT
  5
B0
330
1F
100
AcDbEntity
  8
DIM
 62
     7
100
AcDbMText
 10
317.4282092912
 20
199.0549086465
 30
0.0
 40
2.0372916667
 41
0.0
 71
     1
 72
     1
  1
A
  7
SLDTEXTSTYLE1
 73
     1
 44
1.0
  0
MTEXT
  5
B1
330
1F
100
AcDbEntity
  8
DIM
 62
     7
100
AcDbMText
 10
317.4282092912
 20
144.0549086465
 30
0.0
 40
2.0372916667
 41
0.0
 71
     1
 72
     1
  1
B
  7
SLDTEXTSTYLE1
 73
     1
 44
1.0
  0
MTEXT
  5
B2
330
1F
100
AcDbEntity
  8
DIM
 62
     7
100
AcDbMText
 10
189.8282048912
 20
223.8049086465
 30
0.0
 40
2.0372916667
 41
0.0
 71
     1
 72
     1
  1
4
  7
SLDTEXTSTYLE1
 73
     1
 44
1.0
  0
MTEXT
  5
B3
330
1F
100
AcDbEntity
  8
DIM
 62
     7
100
AcDbMText
 10
25.2865382246
 20
223.8049086465
 30
0.0
 40
2.0372916667
 41
0.0
 71
     1
 72
     1
  1
1
  7
SLDTEXTSTYLE1
 73
     1
 44
1.0
  0
MTEXT
  5
B4
330
1F
100
AcDbEntity
  8
DIM
 62
     7
100
AcDbMText
 10
79.8282048912
 20
223.8049086465
 30
0.0
 40
2.0372916667
 41
0.0
 71
     1
 72
     1
  1
2
  7
SLDTEXTSTYLE1
 73
     1
 44
1.0
  0
MTEXT
  5
B5
330
1F
100
AcDbEntity
  8
DIM
 62
     7
100
AcDbMText
 10
134.8282048912
 20
223.8049086465
 30
0.0
 40
2.0372916667
 41
0.0
 71
     1
 72
     1
  1
3
  7
SLDTEXTSTYLE1
 73
     1
 44
1.0
  0
MTEXT
  5
B6
330
1F
100
AcDbEntity
  8
DIM
 62
     7
100
AcDbMText
 10
7.2282004912
 20
199.0549086465
 30
0.0
 40
2.0372916667
 41
0.0
 71
     1
 72
     1
  1
A
  7
SLDTEXTSTYLE1
 73
     1
 44
1.0
  0
MTEXT
  5
B7
330
1F
100
AcDbEntity
  8
DIM
 62
     7
100
AcDbMText
 10
79.8282048912
 20
9.3049086465
 30
0.0
 40
2.0372916667
 41
0.0
 71
     1
 72
     1
  1
2
  7
SLDTEXTSTYLE1
 73
     1
 44
1.0
  0
MTEXT
  5
B8
330
1F
100
AcDbEntity
  8
DIM
 62
     7
100
AcDbMText
 10
25.2865382246
 20
9.3049086465
 30
0.0
 40
2.0372916667
 41
0.0
 71
     1
 72
     1
  1
1
  7
SLDTEXTSTYLE1
 73
     1
 44
1.0
  0
MTEXT
  5
B9
330
1F
100
AcDbEntity
  8
DIM
 62
     7
100
AcDbMText
 10
7.2282004912
 20
34.0549086465
 30
0.0
 40
2.0372916667
 41
0.0
 71
     1
 72
     1
  1
D
  7
SLDTEXTSTYLE1
 73
     1
 44
1.0
  0
MTEXT
  5
BA
330
1F
100
AcDbEntity
  8
DIM
 62
     7
100
AcDbMText
 10
7.2282004912
 20
89.0549086465
 30
0.0
 40
2.0372916667
 41
0.0
 71
     1
 72
     1
  1
C
  7
SLDTEXTSTYLE1
 73
     1
 44
1.0
  0
MTEXT
  5
BB
330
1F
100
AcDbEntity
  8
DIM
 62
     7
100
AcDbMText
 10
7.2282004912
 20
144.0549086465
 30
0.0
 40
2.0372916667
 41
0.0
 71
     1
 72
     1
  1
B
  7
SLDTEXTSTYLE1
 73
     1
 44
1.0
  0
SPLINE
  5
BC
330
1F
100
AcDbEntity
  8
0
  6
Continuous
 62
     7
370
    15
100
AcDbSpline
210
0.0
220
0.0
230
1.0
 70
     8
 71
     3
 72
    14
 73
    10
 74
     0
 42
0.000000001
 43
0.00000001
 40
0.0
 40
0.0
 40
0.0
 40
0.0
 40
0.25
 40
0.25
 40
0.5
 40
0.5
 40
0.75
 40
0.75
 40
1.0
 40
1.0
 40
1.0
 40
1.0
 10
87.66429048860354
 20
116.4865078399761
 30
0.0
 10
87.66429048860354
 20
111.3887734632017
 30
0.0
 10
85.6390640625346
 20
106.4994443585096
 30
0.0
 10
78.42977896952462
 20
99.29015926549965
 30
0.0
 10
73.54044986483258
 20
97.26493283943071
 30
0.0
 10
63.3449811112837
 20
97.26493283943071
 30
0.0
 10
58.45565200659167
 20
99.29015926549964
 30
0.0
 10
51.2463669135817
 20
106.4994443585096
 30
0.0
 10
49.22114048751274
 20
111.3887734632016
 30
0.0
 10
49.22114048751274
 20
116.4865078399761
 30
0.0
  0
SPLINE
  5
BD
330
1F
100
AcDbEntity
  8
0
  6
Continuous
 62
     7
370
    15
100
AcDbSpline
210
0.0
220
0.0
230
1.0
 70
     8
 71
     3
 72
    14
 73
    10
 74
     0
 42
0.000000001
 43
0.00000001
 40
0.0
 40
0.0
 40
0.0
 40
0.0
 40
0.25
 40
0.25
 40
0.5
 40
0.5
 40
0.75
 40
0.75
 40
1.0
 40
1.0
 40
1.0
 40
1.0
 10
49.22114048751274
 20
116.4865078399761
 30
0.0
 10
49.22114048751274
 20
121.5842422167506
 30
0.0
 10
51.24636691358169
 20
126.4735713214426
 30
0.0
 10
58.45565200659167
 20
133.6828564144525
 30
0.0
 10
63.34498111128369
 20
135.7080828405215
 30
0.0
 10
73.54044986483258
 20
135.7080828405215
 30
0.0
 10
78.42977896952462
 20
133.6828564144525
 30
0.0
 10
85.6390640625346
 20
126.4735713214426
 30
0.0
 10
87.66429048860354
 20
121.5842422167506
 30
0.0
 10
87.66429048860354
 20
116.4865078399761
 30
0.0
  0
CIRCLE
  5
BE
330
1F
100
AcDbEntity
  8
0
  6
Continuous
 62
     7
370
    15
100
AcDbCircle
 10
68.4427154881
 20
116.48650784
 30
0.0
 40
20.21110778703758
  0
CIRCLE
  5
BF
330
1F
100
AcDbEntity
  8
0
  6
Continuous
 62
     7
370
    15
100
AcDbCircle
 10
68.4427154881
 20
116.48650784
 30
0.0
 40
34.92499999999999
  0
SPLINE
  5
C0
330
1F
100
AcDbEntity
  8
0
  6
Continuous
 62
     7
370
    15
100
AcDbSpline
210
0.0
220
0.0
230
1.0
 70
     8
 71
     3
 72
    52
 73
    48
 74
     0
 42
0.000000001
 43
0.00000001
 40
0.0
 40
0.0
 40
0.0
 40
0.0
 40
0.0053074994726554
 40
0.0106084744807156
 40
0.0159043870752884
 40
0.0211967035030982
 40
0.0264868930010475
 40
0.031776426578386
 40
0.0370667757915106
 40
0.0423594115164833
 40
0.0476558027243854
 40
0.0529574152645906
 40
0.0582657106609693
 40
0.0891348494758177
 40
0.1200087595578935
 40
0.1521645941108524
 40
0.1843252192282218
 40
0.2171652710885947
 40
0.2500102154523581
 40
0.2828502674523063
 40
0.3156952119562962
 40
0.3478510468948057
 40
0.380011672397905
 40
0.4108808109142898
 40
0.4417547207534483
 40
0.470875333637603
 40
0.5000007798720159
 40
0.5291213927975412
 40
0.5582468390472084
 40
0.5891159778617261
 40
0.6199898879441322
 40
0.652145722497098
 40
0.6843063476144644
 40
0.7171463994755694
 40
0.7499913438386044
 40
0.7828313958395676
 40
0.8156763403425417
 40
0.8478321752819549
 40
0.8799928007841501
 40
0.9108619393016738
 40
0.941735849139696
 40
0.9514609652020397
 40
0.9611682412334405
 40
0.9708667191333772
 40
0.9805654654081966
 40
0.9902735458123287
 40
1.0
 40
1.0
 40
1.0
 40
1.0
 10
33.44271548805813
 20
116.4865078399761
 30
0.0
 10
33.44364351896859
 20
116.6809699980291
 30
0.0
 10
33.4454984399689
 20
117.0696552634347
 30
0.0
 10
33.46052747432053
 20
117.6522182334562
 30
0.0
 10
33.48452610335491
 20
118.2339041208256
 30
0.0
 10
33.51837040743803
 20
118.8147128156427
 30
0.0
 10
33.56182594917163
 20
119.3946441640619
 30
0.0
 10
33.61495551023768
 20
119.9736980844866
 30
0.0
 10
33.67774217995987
 20
120.5518742486232
 30
0.0
 10
33.75019077247644
 20
121.1291732459916
 30
0.0
 10
33.83229880996946
 20
121.7055922461392
 30
0.0
 10
33.92407121196312
 20
122.2811412077173
 30
0.0
 10
34.18821071359652
 20
123.777753811231
 30
0.0
 10
34.75197846650192
 20
126.1734606723991
 30
0.0
 10
35.86459564684064
 20
129.4343317784515
 30
0.0
 10
37.31176186238125
 20
132.6142206607453
 30
0.0
 10
39.11093749178795
 20
135.692719592501
 30
0.0
 10
41.2273580673483
 20
138.5941795005378
 30
0.0
 10
43.65024326086342
 20
141.2787264765317
 30
0.0
 10
46.33490373948189
 20
143.7017516514783
 30
0.0
 10
49.23620387904218
 20
145.8180908875553
 30
0.0
 10
52.31485697706918
 20
147.6173830796743
 30
0.0
 10
55.49452041107749
 20
149.0644912128817
 30
0.0
 10
58.75575670908382
 20
150.1772210298866
 30
0.0
 10
62.00150100781783
 20
150.9411085152828
 30
0.0
 10
65.24036712597375
 20
151.3893865152932
 30
0.0
 10
68.4425385159036
 20
151.5350643801334
 30
0.0
 10
71.64488598654988
 20
151.3894030026849
 30
0.0
 10
74.8835842462638
 20
150.9411728102238
 30
0.0
 10
78.12950485583684
 20
150.177270751101
 30
0.0
 10
81.39058525639628
 20
149.0646204217424
 30
0.0
 10
84.57041582485137
 20
147.617463446687
 30
0.0
 10
87.64893066506139
 20
145.8182852794579
 30
0.0
 10
90.55038622118796
 20
143.7018654626103
 30
0.0
 10
93.23493437919747
 20
141.2789798215
 30
0.0
 10
95.65795920878024
 20
138.5943203690145
 30
0.0
 10
97.77429864294524
 20
135.6930165976616
 30
0.0
 10
99.57359039558332
 20
132.6143767350796
 30
0.0
 10
101.020700064943
 20
129.4346647896558
 30
0.0
 10
102.1334243886062
 20
126.1736025799805
 30
0.0
 10
102.734270320649
 20
123.6201884946263
 30
0.0
 10
103.0422104001681
 20
121.8027687890246
 30
0.0
 10
103.1883495110907
 20
120.745322050796
 30
0.0
 10
103.3021555383518
 20
119.6848847974212
 30
0.0
 10
103.3828508591584
 20
118.6214308232691
 30
0.0
 10
103.433372394574
 20
117.5549704545347
 30
0.0
 10
103.4395991612617
 20
116.842886450809
 30
0.0
 10
103.4427154880581
 20
116.4865078399761
 30
0.0
  0
SPLINE
  5
C1
330
1F
100
AcDbEntity
  8
0
  6
Continuous
 62
     7
370
    15
100
AcDbSpline
210
0.0
220
0.0
230
1.0
 70
     8
 71
     3
 72
    52
 73
    48
 74
     0
 42
0.000000001
 43
0.00000001
 40
0.0
 40
0.0
 40
0.0
 40
0.0
 40
0.0053074994726554
 40
0.0106084744807156
 40
0.0159043870752884
 40
0.0211967035030983
 40
0.0264868930010475
 40
0.0317764265783861
 40
0.0370667757915106
 40
0.0423594115164834
 40
0.0476558027243854
 40
0.0529574152645907
 40
0.0582657106609694
 40
0.0891348494759667
 40
0.1200087595578951
 40
0.1521645941111445
 40
0.1843252192282232
 40
0.2171652710889209
 40
0.25001021545236
 40
0.2828502674525652
 40
0.315695211956297
 40
0.3478510468951538
 40
0.3800116723979077
 40
0.41088081091547
 40
0.4417547207534571
 40
0.4708753336379863
 40
0.5000007798720127
 40
0.5291213927971703
 40
0.5582468390472111
 40
0.5891159778626601
 40
0.6199898879441411
 40
0.6521457224976949
 40
0.6843063476144631
 40
0.7171463994753853
 40
0.7499913438386053
 40
0.7828313958393156
 40
0.8156763403425399
 40
0.8478321752809374
 40
0.8799928007841432
 40
0.9108619393011222
 40
0.9417358491396983
 40
0.9514609652021586
 40
0.9611682412336295
 40
0.9708667191335897
 40
0.9805654654083855
 40
0.9902735458124469
 40
1.0
 40
1.0
 40
1.0
 40
1.0
 10
103.4427154880581
 20
116.4865078399761
 30
0.0
 10
103.4417874571477
 20
116.2920456819232
 30
0.0
 10
103.4399325361474
 20
115.9033604165175
 30
0.0
 10
103.4249035017958
 20
115.320797446496
 30
0.0
 10
103.4009048727614
 20
114.7391115591266
 30
0.0
 10
103.3670605686783
 20
114.1583028643095
 30
0.0
 10
103.3236050269447
 20
113.5783715158903
 30
0.0
 10
103.2704754658786
 20
112.9993175954656
 30
0.0
 10
103.2076887961564
 20
112.421141431329
 30
0.0
 10
103.1352402036398
 20
111.8438424339606
 30
0.0
 10
103.0531321661468
 20
111.267423433813
 30
0.0
 10
102.9613597641532
 20
110.6918744722349
 30
0.0
 10
102.6972202625187
 20
109.1952618687159
 30
0.0
 10
102.1334525096156
 20
106.7995550075471
 30
0.0
 10
101.0208353292692
 20
103.5386839014859
 30
0.0
 10
99.57366911373022
 20
100.3587950191973
 30
0.0
 10
97.77449348431588
 20
97.28029608743246
 30
0.0
 10
95.65807290876093
 20
94.37883617940463
 30
0.0
 10
93.23518771523788
 20
91.69428920340528
 30
0.0
 10
90.55052723662585
 20
89.27126402846923
 30
0.0
 10
87.6492270970554
 20
87.15492479238529
 30
0.0
 10
84.57057399903762
 20
85.35563260026804
 30
0.0
 10
81.39091056498621
 20
83.90852446705198
 30
0.0
 10
78.12967426699385
 20
82.79579465004397
 30
0.0
 10
74.88392996824267
 20
82.03190716465652
 30
0.0
 10
71.6450638501264
 20
81.58362916468086
 30
0.0
 10
68.4428924602126
 20
81.43795129981696
 30
0.0
 10
65.24054498957871
 20
81.58361267725547
 30
0.0
 10
62.00184672983301
 20
82.03184286973531
 30
0.0
 10
58.75592612024365
 20
82.79574492884983
 30
0.0
 10
55.4948457196677
 20
83.90839525822993
 30
0.0
 10
52.31501515125355
 20
85.35555223329071
 30
0.0
 10
49.23650031104108
 20
87.15473040050037
 30
0.0
 10
46.33504475493225
 20
89.27115021733616
 30
0.0
 10
43.65049659692955
 20
91.69403585844046
 30
0.0
 10
41.22747176734619
 20
94.37869531093384
 30
0.0
 10
39.11113233319461
 20
97.27999908225065
 30
0.0
 10
37.31184058055793
 20
100.3586389448437
 30
0.0
 10
35.86473091119597
 20
103.5383508902436
 30
0.0
 10
34.75200658749925
 20
106.7994130999475
 30
0.0
 10
34.15116065546874
 20
109.35282718531
 30
0.0
 10
33.84322057594852
 20
111.1702468909389
 30
0.0
 10
33.69708146502591
 20
112.2276936291753
 30
0.0
 10
33.58327543776474
 20
113.2881308825527
 30
0.0
 10
33.5025801169581
 20
114.3515848567022
 30
0.0
 10
33.4520585815423
 20
115.4180452254288
 30
0.0
 10
33.4458318148546
 20
116.1301292291475
 30
0.0
 10
33.44271548805813
 20
116.4865078399761
 30
0.0
  0
ARC
  5
C2
330
1F
100
AcDbEntity
  8
0
  6
Continuous
 62
     7
370
    15
100
AcDbCircle
 10
68.4427154881
 20
116.48650784
 30
0.0
 40
47.86715728752542
100
AcDbArc
 50
128.8096103904
 51
141.1903896096
  0
SPLINE
  5
C3
330
1F
100
AcDbEntity
  8
0
  6
Continuous
 62
     7
370
    15
100
AcDbSpline
210
0.0
220
0.0
230
1.0
 70
    24
 71
     3
 72
     8
 73
     4
 74
     0
 42
0.000000001
 43
0.00000001
 40
0.0
 40
0.0
 40
0.0
 40
0.0
 40
1.0
 40
1.0
 40
1.0
 40
1.0
 10
38.44271548805813
 20
153.7861693235432
 30
0.0
 10
38.44271548805813
 20
153.6826602793087
 30
0.0
 10
38.44271548805814
 20
153.5532367174766
 30
0.0
 10
38.44271548805814
 20
153.4224929165568
 30
0.0
  0
ARC
  5
C4
330
1F
100
AcDbEntity
  8
0
  6
Continuous
 62
     7
370
    15
100
AcDbCircle
 10
68.4427154881
 20
116.48650784
 30
0.0
 40
47.5843145750508
100
AcDbArc
 50
129.0840578538
 51
140.9159421462
  0
SPLINE
  5
C5
330
1F
100
AcDbEntity
  8
0
  6
Continuous
 62
     7
370
    15
100
AcDbSpline
210
0.0
220
0.0
230
1.0
 70
    24
 71
     3
 72
     8
 73
     4
 74
     0
 42
0.000000001
 43
0.00000001
 40
0.0
 40
0.0
 40
0.0
 40
0.0
 40
1.0
 40
1.0
 40
1.0
 40
1.0
 10
31.50673041147748
 20
146.4865078399761
 30
0.0
 10
31.3760262618706
 20
146.4865078399761
 30
0.0
 10
31.24648929485443
 20
146.4865078399761
 30
0.0
 10
31.14305400449109
 20
146.4865078399761
 30
0.0
  0
ARC
  5
C6
330
1F
100
AcDbEntity
  8
0
  6
Continuous
 62
     7
370
    15
100
AcDbCircle
 10
68.4427154881
 20
116.48650784
 30
0.0
 40
47.58431457505078
100
AcDbArc
 50
343.4556342686
 51
16.5443657314
  0
SPLINE
  5
C7
330
1F
100
AcDbEntity
  8
0
  6
Continuous
 62
     7
370
    15
100
AcDbSpline
210
0.0
220
0.0
230
1.0
 70
     8
 71
     3
 72
    10
 73
     6
 74
     0
 42
0.000000001
 43
0.00000001
 40
0.0
 40
0.0
 40
0.0
 40
0.0
 40
0.5
 40
0.5
 40
1.0
 40
1.0
 40
1.0
 40
1.0
 10
114.0570169030463
 20
130.0365078399761
 30
0.0
 10
114.1209685918894
 20
130.0365078399761
 30
0.0
 10
114.1825329303405
 20
130.0226619639513
 30
0.0
 10
114.2931582811895
 20
129.9804961877639
 30
0.0
 10
114.342844972859
 20
129.9520054875009
 30
0.0
 10
114.3864145495248
 20
129.9193505524508
 30
0.0
  0
ARC
  5
C8
330
1F
100
AcDbEntity
  8
0
  6
Continuous
 62
     7
370
    15
100
AcDbCircle
 10
68.4427154881
 20
116.48650784
 30
0.0
 40
47.86715728752539
100
AcDbArc
 50
343.7023380383
 51
16.2976619617
  0
SPLINE
  5
C9
330
1F
100
AcDbEntity
  8
0
  6
Continuous
 62
     7
370
    15
100
AcDbSpline
210
0.0
220
0.0
230
1.0
 70
     8
 71
     3
 72
    10
 73
     6
 74
     0
 42
0.000000001
 43
0.00000001
 40
0.0
 40
0.0
 40
0.0
 40
0.0
 40
0.5
 40
0.5
 40
1.0
 40
1.0
 40
1.0
 40
1.0
 10
114.3864145495248
 20
103.0536651275015
 30
0.0
 10
114.3428741581061
 20
103.0210320664842
 30
0.0
 10
114.2943195539883
 20
102.993051180218
 30
0.0
 10
114.1828700182265
 20
102.950394329843
 30
0.0
 10
114.1209117656373
 20
102.9365078399761
 30
0.0
 10
114.0570169030463
 20
102.9365078399761
 30
0.0
  0
SPLINE
  5
CA
330
1F
100
AcDbEntity
  8
0
  6
Continuous
 62
     7
370
    15
100
AcDbSpline
210
0.0
220
0.0
230
1.0
 70
     8
 71
     3
 72
    10
 73
     6
 74
     0
 42
0.000000001
 43
0.00000001
 40
0.0
 40
0.0
 40
0.0
 40
0.0
 40
0.5
 40
0.5
 40
1.0
 40
1.0
 40
1.0
 40
1.0
 10
22.82841407306998
 20
102.9365078399762
 30
0.0
 10
22.76446238422684
 20
102.9365078399762
 30
0.0
 10
22.70289804577574
 20
102.950353716001
 30
0.0
 10
22.59227269492671
 20
102.9925194921883
 30
0.0
 10
22.54258600325729
 20
103.0210101924514
 30
0.0
 10
22.49901642659147
 20
103.0536651275015
 30
0.0
  0
ARC
  5
CB
330
1F
100
AcDbEntity
  8
0
  6
Continuous
 62
     7
370
    15
100
AcDbCircle
 10
68.4427154881
 20
116.48650784
 30
0.0
 40
47.8671572875254
100
AcDbArc
 50
163.7023380383
 51
196.2976619617
  0
SPLINE
  5
CC
330
1F
100
AcDbEntity
  8
0
  6
Continuous
 62
     7
370
    15
100
AcDbSpline
210
0.0
220
0.0
230
1.0
 70
     8
 71
     3
 72
    10
 73
     6
 74
     0
 42
0.000000001
 43
0.00000001
 40
0.0
 40
0.0
 40
0.0
 40
0.0
 40
0.5
 40
0.5
 40
1.0
 40
1.0
 40
1.0
 40
1.0
 10
22.82841407307
 20
130.0365078399761
 30
0.0
 10
22.76446238422687
 20
130.0365078399761
 30
0.0
 10
22.70289804577572
 20
130.0226619639513
 30
0.0
 10
22.59227269492673
 20
129.9804961877639
 30
0.0
 10
22.54258600325729
 20
129.9520054875009
 30
0.0
 10
22.49901642659147
 20
129.9193505524508
 30
0.0
  0
ARC
  5
CD
330
1F
100
AcDbEntity
  8
0
  6
Continuous
 62
     7
370
    15
100
AcDbCircle
 10
68.4427154881
 20
116.48650784
 30
0.0
 40
47.58431457505078
100
AcDbArc
 50
163.4556342686
 51
196.5443657314
  0
SPLINE
  5
CE
330
1F
100
AcDbEntity
  8
0
  6
Continuous
 62
     7
370
    15
100
AcDbSpline
210
0.0
220
0.0
230
1.0
 70
     8
 71
     3
 72
    40
 73
    36
 74
     0
 42
0.000000001
 43
0.00000001
 40
0.0
 40
0.0
 40
0.0
 40
0.0
 40
0.0076138096090706
 40
0.015222703696619
 40
0.0228283796622113
 40
0.0304325370604607
 40
0.0380368764641707
 40
0.0456430983240686
 40
0.0532529018289472
 40
0.0608679837700325
 40
0.0919930035882894
 40
0.1231236538966525
 40
0.1547321881285151
 40
0.1863461940165317
 40
0.2182020912711853
 40
0.2500635030030784
 40
0.3137495787501998
 40
0.3769416086590435
 40
0.439168148565131
 40
0.5000004350472922
 40
0.5608327215294534
 40
0.6230592614355407
 40
0.6862512913443847
 40
0.7499373670915059
 40
0.7817932643700992
 40
0.813654676120411
 40
0.8452632104154371
 40
0.8768772163635395
 40
0.9080022357785864
 40
0.9391328857746177
 40
0.9513123423166135
 40
0.963481817855821
 40
0.9756482751522532
 40
0.9878186821461872
 40
1.0
 40
1.0
 40
1.0
 40
1.0
 10
114.0570169030463
 20
130.0365078399761
 30
0.0
 10
113.988517492214
 20
130.2635205976988
 30
0.0
 10
113.8515628941833
 20
130.717399552335
 30
0.0
 10
113.6333328050463
 20
131.3940667735053
 30
0.0
 10
113.4058371836507
 20
132.0673374740722
 30
0.0
 10
113.1681522194826
 20
132.7369370048624
 30
0.0
 10
112.9205250734408
 20
133.4029391452128
 30
0.0
 10
112.6628906433893
 20
134.0653226802316
 30
0.0
 10
112.3952624630417
 20
134.7240981152445
 30
0.0
 10
111.8320698130518
 20
136.0532018504847
 30
0.0
 10
110.907051140886
 20
138.0245026218946
 30
0.0
 10
109.5046384284353
 20
140.5913477013091
 30
0.0
 10
107.939098820327
 20
143.0802975277165
 30
0.0
 10
106.2085873650735
 20
145.4853269398119
 30
0.0
 10
104.3269329279089
 20
147.7844372975512
 30
0.0
 10
101.6251031608108
 20
150.6930311715024
 30
0.0
 10
97.92573942329183
 20
153.9936100179613
 30
0.0
 10
93.06546251815297
 20
157.3456593355354
 30
0.0
 10
87.90917481729839
 20
160.0339701245121
 30
0.0
 10
82.53601100178734
 20
162.0545987917849
 30
0.0
 10
76.96027432852068
 20
163.4202451930806
 30
0.0
 10
71.18660078138561
 20
164.1123519236323
 30
0.0
 10
65.2825341267123
 20
164.0894979909073
 30
0.0
 10
60.36590640129692
 20
163.4537469788575
 30
0.0
 10
56.49376060934962
 20
162.5783719526175
 30
0.0
 10
53.64283315784993
 20
161.7430661672948
 30
0.0
 10
50.85653533974921
 20
160.7349001766095
 30
0.0
 10
48.15934990980779
 20
159.5644597820976
 30
0.0
 10
45.55250717831944
 20
158.2374744693238
 30
0.0
 10
43.55353525261341
 20
157.0604544417753
 30
0.0
 10
42.10307101872841
 20
156.1213807561234
 30
0.0
 10
41.16333876071521
 20
155.4807389527739
 30
0.0
 10
40.2397766842187
 20
154.8175572114791
 30
0.0
 10
39.33082020012642
 20
154.133742023584
 30
0.0
 10
38.73883880506593
 20
153.6596467588117
 30
0.0
 10
38.44271548805815
 20
153.4224929165567
 30
0.0
  0
SPLINE
  5
CF
330
1F
100
AcDbEntity
  8
0
  6
Continuous
 62
     7
370
    15
100
AcDbSpline
210
0.0
220
0.0
230
1.0
 70
     8
 71
     3
 72
    48
 73
    44
 74
     0
 42
0.000000001
 43
0.00000001
 40
0.0
 40
0.0
 40
0.0
 40
0.0
 40
0.0054347037865788
 40
0.0108647463477061
 40
0.0162911759166432
 40
0.0217150428214259
 40
0.0271373988792792
 40
0.0325592967867153
 40
0.037981789507076
 40
0.0434059296572976
 40
0.0488327688956858
 40
0.0542633573124739
 40
0.0596987428249262
 40
0.0907177253989547
 40
0.1217409090757452
 40
0.1535986684460869
 40
0.1854607425290368
 40
0.2177550902636995
 40
0.2500538118399324
 40
0.282348159626834
 40
0.314646881254197
 40
0.3465046407741307
 40
0.3783667150011463
 40
0.4403596830876957
 40
0.5000005600694934
 40
0.5596414370512913
 40
0.6216344051378407
 40
0.6534921645077113
 40
0.6853542385911362
 40
0.717648586324291
 40
0.7499473079020208
 40
0.7822416556861282
 40
0.8145403773162874
 40
0.8463981368338116
 40
0.8782602110632376
 40
0.9092791938587534
 40
0.9403023777537924
 40
0.9502622131366215
 40
0.9602093142095486
 40
0.9701501568332104
 40
0.9800912290989782
 40
0.990039018648895
 40
1.0
 40
1.0
 40
1.0
 40
1.0
 10
22.82841407306999
 20
102.9365078399761
 30
0.0
 10
22.8921745701532
 20
102.7249685035658
 30
0.0
 10
23.01964087834891
 20
102.3020712633637
 30
0.0
 10
23.22190440935912
 20
101.6713970211783
 30
0.0
 10
23.43214897785023
 20
101.0438195415274
 30
0.0
 10
23.65117444258829
 20
100.4195764900956
 30
0.0
 10
23.87876664591438
 20
99.79860434231138
 30
0.0
 10
24.11498293339401
 20
99.18092016826142
 30
0.0
 10
24.3598078162504
 20
98.56651960141262
 30
0.0
 10
24.61324576116287
 20
97.95540346168514
 30
0.0
 10
24.87529420416747
 20
97.34757324556676
 30
0.0
 10
25.14595873171963
 20
96.74302253843062
 30
0.0
 10
25.86323797204991
 20
95.19872394328308
 30
0.0
 10
27.13475149919805
 20
92.76428147423577
 30
0.0
 10
29.1685166495199
 20
89.52933581518623
 30
0.0
 10
31.47573971146734
 20
86.4398568175944
 30
0.0
 10
34.06270537732821
 20
83.51126700494493
 30
0.0
 10
36.89343479763187
 20
80.79136308050623
 30
0.0
 10
39.95410038581137
 20
78.30510117080107
 30
0.0
 10
43.20912924913434
 20
76.07900999346556
 30
0.0
 10
46.62227264389524
 20
74.14004953733411
 30
0.0
 10
50.16666667059663
 20
72.49405328099918
 30
0.0
 10
54.9669014725681
 20
70.72656735370347
 30
0.0
 10
61.06682376704617
 20
69.2812059470632
 30
0.0
 10
68.44271552990111
 20
68.71635148038067
 30
0.0
 10
75.81860703839763
 20
69.28120601676731
 30
0.0
 10
81.91835852371831
 20
70.72652649139313
 30
0.0
 10
86.71860093800375
 20
72.49398622605885
 30
0.0
 10
90.26284455765288
 20
74.13988771648764
 30
0.0
 10
93.67614969505448
 20
76.07891539949779
 30
0.0
 10
96.93104568406949
 20
78.30488859710721
 30
0.0
 10
99.99186232432642
 20
80.79124435155255
 30
0.0
 10
102.8224806717749
 20
83.51101201776439
 30
0.0
 10
105.4095821549168
 20
86.43972038957958
 30
0.0
 10
107.7167123093113
 20
89.52904637985078
 30
0.0
 10
109.7506166007218
 20
92.7641474303854
 30
0.0
 10
111.1073207146949
 20
95.36175929957307
 30
0.0
 10
111.9687547096561
 20
97.24464672957673
 30
0.0
 10
112.445301503307
 20
98.36070170397234
 30
0.0
 10
112.8930480326815
 20
99.48779583898168
 30
0.0
 10
113.3112871734291
 20
100.6261607626519
 30
0.0
 10
113.7027003777535
 20
101.774992243968
 30
0.0
 10
113.9388592340091
 20
102.5491649824527
 30
0.0
 10
114.0570169030463
 20
102.9365078399761
 30
0.0
  0
SPLINE
  5
D0
330
1F
100
AcDbEntity
  8
0
  6
Continuous
 62
     7
370
    15
100
AcDbSpline
210
0.0
220
0.0
230
1.0
 70
     8
 71
     3
 72
    27
 73
    23
 74
     0
 42
0.000000001
 43
0.00000001
 40
0.0
 40
0.0
 40
0.0
 40
0.0
 40
0.0385569892848211
 40
0.0770658329194701
 40
0.1155353026399639
 40
0.1539741971376514
 40
0.1923913361118491
 40
0.2307955542506346
 40
0.2691956951601454
 40
0.3076006052631416
 40
0.3460191276878565
 40
0.3844600961682111
 40
0.4229323289763935
 40
0.461444622908547
 40
0.5000057473438686
 40
0.5715713334491092
 40
0.6429967682524639
 40
0.7143384572505677
 40
0.7856530046539444
 40
0.8569970792753662
 40
0.9284272796518032
 40
1.0
 40
1.0
 40
1.0
 40
1.0
 10
31.50673041147748
 20
146.4865078399761
 30
0.0
 10
31.35586107564755
 20
146.2991026558042
 30
0.0
 10
31.0543107927182
 20
145.9245262980667
 30
0.0
 10
30.61302511321244
 20
145.3544156046491
 30
0.0
 10
30.18023799192695
 20
144.7787737692778
 30
0.0
 10
29.75671397576469
 20
144.196979933737
 30
0.0
 10
29.3422485975051
 20
143.609200323058
 30
0.0
 10
28.93689667968597
 20
143.0153905539773
 30
0.0
 10
28.54064363229649
 20
142.4155626275396
 30
0.0
 10
28.15349344269865
 20
141.8097134403404
 30
0.0
 10
27.7754451229456
 20
141.1978439827684
 30
0.0
 10
27.40649897926209
 20
140.5799539910589
 30
0.0
 10
27.04665507950481
 20
139.9560441436526
 30
0.0
 10
26.69591311145725
 20
139.3261126173542
 30
0.0
 10
26.25698235352561
 20
138.5090614683718
 30
0.0
 10
25.74234112839993
 20
137.4997058756149
 30
0.0
 10
25.16844991014645
 20
136.2915424746031
 30
0.0
 10
24.62947262685745
 20
135.0691177957253
 30
0.0
 10
24.12518105583971
 20
133.832508367702
 30
0.0
 10
23.65644474683497
 20
132.5814569260316
 30
0.0
 10
23.22001485427914
 20
131.3169313838282
 30
0.0
 10
22.95903436650817
 20
130.4635991713741
 30
0.0
 10
22.82841407307001
 20
130.0365078399761
 30
0.0
  0
ARC
  5
D1
330
1F
100
AcDbEntity
  8
0
  6
Continuous
 62
     7
370
    15
100
AcDbCircle
 10
68.4427154881
 20
116.48650784
 30
0.0
 40
47.8671572875254
100
AcDbArc
 50
196.2976619617
 51
343.7023380383
  0
ARC
  5
D2
330
1F
100
AcDbEntity
  8
0
  6
Continuous
 62
     7
370
    15
100
AcDbCircle
 10
68.4427154881
 20
116.48650784
 30
0.0
 40
47.8671572875254
100
AcDbArc
 50
16.2976619617
 51
128.8096103904
  0
ARC
  5
D3
330
1F
100
AcDbEntity
  8
0
  6
Continuous
 62
     7
370
    15
100
AcDbCircle
 10
68.4427154881
 20
116.48650784
 30
0.0
 40
47.8671572875254
100
AcDbArc
 50
141.1903896096
 51
163.7023380383
  0
ARC
  5
D4
330
1F
100
AcDbEntity
  8
0
  6
Continuous
 62
     7
370
    15
100
AcDbCircle
 10
68.4427154881
 20
116.48650784
 30
0.0
 40
48.63284271247465
100
AcDbArc
 50
141.9122882504
 51
164.0342140175
  0
ARC
  5
D5
330
1F
100
AcDbEntity
  8
0
  6
Continuous
 62
     7
370
    15
100
AcDbCircle
 10
68.4427154881
 20
116.48650784
 30
0.0
 40
48.63284271247464
100
AcDbArc
 50
128.0877117496
 51
141.9122882504
  0
ARC
  5
D6
330
1F
100
AcDbEntity
  8
0
  6
Continuous
 62
     7
370
    15
100
AcDbCircle
 10
68.4427154881
 20
116.48650784
 30
0.0
 40
48.63284271247463
100
AcDbArc
 50
15.8741097166
 51
128.0877117496
  0
ARC
  5
D7
330
1F
100
AcDbEntity
  8
0
  6
Continuous
 62
     7
370
    15
100
AcDbCircle
 10
68.4427154881
 20
116.48650784
 30
0.0
 40
48.63284271247463
100
AcDbArc
 50
344.1258902834
 51
15.8741097166
  0
ARC
  5
D8
330
1F
100
AcDbEntity
  8
0
  6
Continuous
 62
     7
370
    15
100
AcDbCircle
 10
68.4427154881
 20
116.48650784
 30
0.0
 40
48.63284271247463
100
AcDbArc
 50
195.9657859825
 51
344.1258902834
  0
ARC
  5
D9
330
1F
100
AcDbEntity
  8
0
  6
Continuous
 62
     7
370
    15
100
AcDbCircle
 10
68.4427154881
 20
116.48650784
 30
0.0
 40
48.63284271247462
100
AcDbArc
 50
164.0342140175
 51
195.9657859825
  0
ARC
  5
DA
330
1F
100
AcDbEntity
  8
0
  6
Continuous
 62
     7
370
    15
100
AcDbCircle
 10
68.4427154881
 20
116.48650784
 30
0.0
 40
48.75000000000002
100
AcDbArc
 50
127.9798724449
 51
142.0201275551
  0
SPLINE
  5
DB
330
1F
100
AcDbEntity
  8
0
  6
Continuous
 62
     7
370
    15
100
AcDbSpline
210
0.0
220
0.0
230
1.0
 70
    24
 71
     3
 72
     8
 73
     4
 74
     0
 42
0.000000001
 43
0.00000001
 40
0.0
 40
0.0
 40
0.0
 40
0.0
 40
1.0
 40
1.0
 40
1.0
 40
1.0
 10
38.44271548805814
 20
154.9125732123246
 30
0.0
 10
38.44271548805814
 20
154.9125732123246
 30
0.0
 10
38.44271548805814
 20
154.8510576638932
 30
0.0
 10
38.44271548805814
 20
154.7638299811121
 30
0.0
  0
SPLINE
  5
DC
330
1F
100
AcDbEntity
  8
0
  6
Continuous
 62
     7
370
    15
100
AcDbSpline
210
0.0
220
0.0
230
1.0
 70
    24
 71
     3
 72
     8
 73
     4
 74
     0
 42
0.000000001
 43
0.00000001
 40
0.0
 40
0.0
 40
0.0
 40
0.0
 40
1.0
 40
1.0
 40
1.0
 40
1.0
 10
30.1653933469222
 20
146.4865078399761
 30
0.0
 10
30.07811893070811
 20
146.4865078399761
 30
0.0
 10
30.01665011570963
 20
146.486507839976
 30
0.0
 10
30.01665011570962
 20
146.486507839976
 30
0.0
  0
SPLINE
  5
DD
330
1F
100
AcDbEntity
  8
0
  6
Continuous
 62
     7
370
    15
100
AcDbSpline
210
0.0
220
0.0
230
1.0
 70
    24
 71
     3
 72
     8
 73
     4
 74
     0
 42
0.000000001
 43
0.00000001
 40
0.0
 40
0.0
 40
0.0
 40
0.0
 40
1.0
 40
1.0
 40
1.0
 40
1.0
 10
115.3157439422668
 20
129.8835860113888
 30
0.0
 10
115.3157439422668
 20
129.8835860113888
 30
0.0
 10
115.2786473492006
 20
129.8464894183226
 30
0.0
 10
115.2209450111036
 20
129.7887870802256
 30
0.0
  0
ARC
  5
DE
330
1F
100
AcDbEntity
  8
0
  6
Continuous
 62
     7
370
    15
100
AcDbCircle
 10
68.4427154881
 20
116.48650784
 30
0.0
 40
48.75000000000002
100
AcDbArc
 50
344.0491974398
 51
15.9508025602
  0
SPLINE
  5
DF
330
1F
100
AcDbEntity
  8
0
  6
Continuous
 62
     7
370
    15
100
AcDbSpline
210
0.0
220
0.0
230
1.0
 70
    24
 71
     3
 72
     8
 73
     4
 74
     0
 42
0.000000001
 43
0.00000001
 40
0.0
 40
0.0
 40
0.0
 40
0.0
 40
1.0
 40
1.0
 40
1.0
 40
1.0
 10
115.3157439422668
 20
103.0894296685634
 30
0.0
 10
115.3157439422668
 20
103.0894296685634
 30
0.0
 10
115.2786473492006
 20
103.1265262616296
 30
0.0
 10
115.2209450111036
 20
103.1842285997266
 30
0.0
  0
SPLINE
  5
E0
330
1F
100
AcDbEntity
  8
0
  6
Continuous
 62
     7
370
    15
100
AcDbSpline
210
0.0
220
0.0
230
1.0
 70
    24
 71
     3
 72
    10
 73
     6
 74
     0
 42
0.000000001
 43
0.00000001
 40
0.0
 40
0.0
 40
0.0
 40
0.0
 40
0.5
 40
0.5
 40
1.0
 40
1.0
 40
1.0
 40
1.0
 10
21.68583018363376
 20
103.109398027868
 30
0.0
 10
21.66288866339664
 20
103.0692046956047
 30
0.0
 10
21.64276757317706
 20
103.0339527307681
 30
0.0
 10
21.61349829912054
 20
102.9826732320644
 30
0.0
 10
21.60475170160676
 20
102.9673492737387
 30
0.0
 10
21.60475170160676
 20
102.9673492737387
 30
0.0
  0
ARC
  5
E1
330
1F
100
AcDbEntity
  8
0
  6
Continuous
 62
     7
370
    15
100
AcDbCircle
 10
68.4427154881
 20
116.48650784
 30
0.0
 40
48.75000000000002
100
AcDbArc
 50
163.8999153276
 51
196.1000846724
  0
SPLINE
  5
E2
330
1F
100
AcDbEntity
  8
0
  6
Continuous
 62
     7
370
    15
100
AcDbSpline
210
0.0
220
0.0
230
1.0
 70
    24
 71
     3
 72
    10
 73
     6
 74
     0
 42
0.000000001
 43
0.00000001
 40
0.0
 40
0.0
 40
0.0
 40
0.0
 40
0.5
 40
0.5
 40
1.0
 40
1.0
 40
1.0
 40
1.0
 10
21.68583018363375
 20
129.8636176520842
 30
0.0
 10
21.66288866339664
 20
129.9038109843475
 30
0.0
 10
21.64276757317706
 20
129.9390629491841
 30
0.0
 10
21.61349829912052
 20
129.9903424478878
 30
0.0
 10
21.60475170160674
 20
130.0056664062135
 30
0.0
 10
21.60475170160676
 20
130.0056664062135
 30
0.0
  0
ARC
  5
E3
330
1F
100
AcDbEntity
  8
0
  6
Continuous
 62
     7
370
    15
100
AcDbCircle
 10
68.4427154881
 20
116.48650784
 30
0.0
 40
48.75000000000002
100
AcDbArc
 50
15.9508025602
 51
127.9798724449
  0
ARC
  5
E4
330
1F
100
AcDbEntity
  8
0
  6
Continuous
 62
     7
370
    15
100
AcDbCircle
 10
68.4427154881
 20
116.48650784
 30
0.0
 40
48.75000000000002
100
AcDbArc
 50
196.1000846724
 51
344.0491974398
  0
ARC
  5
E5
330
1F
100
AcDbEntity
  8
0
  6
Continuous
 62
     7
370
    15
100
AcDbCircle
 10
68.4427154881
 20
116.48650784
 30
0.0
 40
48.75000000000002
100
AcDbArc
 50
142.0201275551
 51
163.8999153276
  0
ARC
  5
E6
330
1F
100
AcDbEntity
  8
0
  6
Continuous
 62
     7
370
    15
100
AcDbCircle
 10
68.4427154881
 20
116.48650784
 30
0.0
 40
48.75000000000002
100
AcDbArc
 50
180.0
 51
196.1000846724
  0
ARC
  5
E7
330
1F
100
AcDbEntity
  8
0
  6
Continuous
 62
     7
370
    15
100
AcDbCircle
 10
68.4427154881
 20
116.48650784
 30
0.0
 40
48.75000000000001
100
AcDbArc
 50
163.8999153276
 51
180.0
  0
INSERT
  5
F3
330
1F
100
AcDbEntity
  8
DIM
100
AcDbBlockReference
  2
SW_CENTERMARKSYMBOL_0
 10
68.4427154881
 20
116.48650784
 30
0.0
  0
LINE
  5
F4
330
1F
100
AcDbEntity
  8
0
  6
Continuous
 62
     7
370
    15
100
AcDbLine
 10
252.3439305811
 20
67.73650784
 30
0.0
 11
255.930649892
 21
67.73650784
 31
0.0
  0
LINE
  5
F5
330
1F
100
AcDbEntity
  8
0
  6
Continuous
 62
     7
370
    15
100
AcDbLine
 10
255.930649892
 20
165.23650784
 30
0.0
 11
252.3439305811
 21
165.23650784
 31
0.0
  0
LINE
  5
F6
330
1F
100
AcDbEntity
  8
0
  6
Continuous
 62
     7
370
    15
100
AcDbLine
 10
252.3439305811
 20
165.23650784
 30
0.0
 11
250.9963353169
 21
162.9024043744
 31
0.0
  0
LINE
  5
F7
330
1F
100
AcDbEntity
  8
0
  6
Continuous
 62
     7
370
    15
100
AcDbLine
 10
250.9963353169
 20
70.0706113056
 30
0.0
 11
252.3439305811
 21
67.73650784
 31
0.0
  0
LINE
  5
F8
330
1F
100
AcDbEntity
  8
0
  6
Continuous
 62
     7
370
    15
100
AcDbLine
 10
245.8487400527
 20
67.73650784
 30
0.0
 11
247.1963353169
 21
70.0706113056
 31
0.0
  0
LINE
  5
F9
330
1F
100
AcDbEntity
  8
0
  6
Continuous
 62
     7
370
    15
100
AcDbLine
 10
247.1963353169
 20
162.9024043744
 30
0.0
 11
245.8487400527
 21
165.23650784
 31
0.0
  0
LINE
  5
FA
330
1F
100
AcDbEntity
  8
0
  6
Continuous
 62
     7
370
    15
100
AcDbLine
 10
242.3620207419
 20
67.73650784
 30
0.0
 11
245.8487400527
 21
67.73650784
 31
0.0
  0
LINE
  5
FB
330
1F
100
AcDbEntity
  8
0
  6
Continuous
 62
     7
370
    15
100
AcDbLine
 10
245.8487400527
 20
165.23650784
 30
0.0
 11
242.3620207419
 21
165.23650784
 31
0.0
  0
LINE
  5
FC
330
1F
100
AcDbEntity
  8
0
  6
Continuous
 62
     7
370
    15
100
AcDbLine
 10
256.2134926045
 20
67.8536651275
 30
0.0
 11
256.9791780294
 21
68.6193505525
 31
0.0
  0
LINE
  5
FD
330
1F
100
AcDbEntity
  8
0
  6
Continuous
 62
     7
370
    15
100
AcDbLine
 10
256.9791780294
 20
164.3536651275
 30
0.0
 11
256.2134926045
 21
165.1193505525
 31
0.0
  0
LINE
  5
FE
330
1F
100
AcDbEntity
  8
0
  6
Continuous
 62
     7
370
    15
100
AcDbLine
 10
242.0791780294
 20
165.1193505525
 30
0.0
 11
241.3134926045
 21
164.3536651275
 31
0.0
  0
LINE
  5
FF
330
1F
100
AcDbEntity
  8
0
  6
Continuous
 62
     7
370
    15
100
AcDbLine
 10
241.3134926045
 20
68.6193505525
 30
0.0
 11
242.0791780294
 21
67.8536651275
 31
0.0
  0
ARC
  5
100
330
1F
100
AcDbEntity
  8
0
  6
Continuous
 62
     7
370
    15
100
AcDbCircle
 10
255.930649892
 20
68.13650784
 30
0.0
 40
0.4000000000000293
100
AcDbArc
 50
270.0
 51
315.0
  0
ARC
  5
101
330
1F
100
AcDbEntity
  8
0
  6
Continuous
 62
     7
370
    15
100
AcDbCircle
 10
242.3620207419
 20
68.13650784
 30
0.0
 40
0.4000000000000057
100
AcDbArc
 50
225.0
 51
270.0
  0
ARC
  5
102
330
1F
100
AcDbEntity
  8
0
  6
Continuous
 62
     7
370
    15
100
AcDbCircle
 10
255.930649892
 20
164.83650784
 30
0.0
 40
0.4000000000000193
100
AcDbArc
 50
45.0
 51
90.0
  0
ARC
  5
103
330
1F
100
AcDbEntity
  8
0
  6
Continuous
 62
     7
370
    15
100
AcDbCircle
 10
242.3620207419
 20
164.83650784
 30
0.0
 40
0.3999999999999992
100
AcDbArc
 50
90.0
 51
135.0
  0
ARC
  5
104
330
1F
100
AcDbEntity
  8
0
  6
Continuous
 62
     7
370
    15
100
AcDbCircle
 10
256.6963353169
 20
68.9021932649
 30
0.0
 40
0.3999999999999773
100
AcDbArc
 50
315.0
 51
0.0
  0
ARC
  5
105
330
1F
100
AcDbEntity
  8
0
  6
Continuous
 62
     7
370
    15
100
AcDbCircle
 10
256.6963353169
 20
164.070822415
 30
0.0
 40
0.3999999999999791
100
AcDbArc
 50
0.0
 51
45.0
  0
ARC
  5
106
330
1F
100
AcDbEntity
  8
0
  6
Continuous
 62
     7
370
    15
100
AcDbCircle
 10
241.5963353169
 20
68.9021932649
 30
0.0
 40
0.4000000000000057
100
AcDbArc
 50
180.0
 51
225.0
  0
ARC
  5
107
330
1F
100
AcDbEntity
  8
0
  6
Continuous
 62
     7
370
    15
100
AcDbCircle
 10
241.5963353169
 20
164.070822415
 30
0.0
 40
0.4000000000000193
100
AcDbArc
 50
135.0
 51
180.0
  0
LINE
  5
108
330
1F
100
AcDbEntity
  8
0
  6
Continuous
 62
     7
370
    15
100
AcDbLine
 10
247.1963353169
 20
70.98650784
 30
0.0
 11
250.9963353169
 21
70.98650784
 31
0.0
  0
LINE
  5
109
330
1F
100
AcDbEntity
  8
0
  6
Continuous
 62
     7
370
    15
100
AcDbLine
 10
250.9963353169
 20
161.98650784
 30
0.0
 11
247.1963353169
 21
161.98650784
 31
0.0
  0
ARC
  5
10A
330
1F
100
AcDbEntity
  8
0
  6
Continuous
 62
     7
370
    15
100
AcDbCircle
 10
240.6963353169
 20
81.48650784
 30
0.0
 40
0.5
100
AcDbArc
 50
0.0
 51
90.0
  0
ARC
  5
10B
330
1F
100
AcDbEntity
  8
0
  6
Continuous
 62
     7
370
    15
100
AcDbCircle
 10
240.6963353169
 20
151.48650784
 30
0.0
 40
0.5
100
AcDbArc
 50
270.0
 51
0.0
  0
LINE
  5
10C
330
1F
100
AcDbEntity
  8
0
  6
Continuous
 62
     7
370
    15
100
AcDbLine
 10
237.9963353169
 20
151.41150784
 30
0.0
 11
137.1020270897
 21
136.697615627
 31
0.0
  0
LINE
  5
10D
330
1F
100
AcDbEntity
  8
0
  6
Continuous
 62
     7
370
    15
100
AcDbLine
 10
137.1020270897
 20
96.2754000529
 30
0.0
 11
237.9963353169
 21
81.56150784
 31
0.0
  0
LINE
  5
10E
330
1F
100
AcDbEntity
  8
0
  6
Continuous
 62
     7
370
    15
100
AcDbLine
 10
237.9963353169
 20
81.56150784
 30
0.0
 11
238.9077507581
 21
81.98650784
 31
0.0
  0
LINE
  5
10F
330
1F
100
AcDbEntity
  8
0
  6
Continuous
 62
     7
370
    15
100
AcDbLine
 10
238.9077507581
 20
150.98650784
 30
0.0
 11
237.9963353169
 21
151.41150784
 31
0.0
  0
LINE
  5
110
330
1F
100
AcDbEntity
  8
0
  6
Continuous
 62
     7
370
    15
100
AcDbLine
 10
238.9077507581
 20
81.98650784
 30
0.0
 11
240.6963353169
 21
81.98650784
 31
0.0
  0
LINE
  5
111
330
1F
100
AcDbEntity
  8
0
  6
Continuous
 62
     7
370
    15
100
AcDbLine
 10
240.6963353169
 20
150.98650784
 30
0.0
 11
238.9077507581
 21
150.98650784
 31
0.0
  0
ARC
  5
112
330
1F
100
AcDbEntity
  8
0
  6
Continuous
 62
     7
370
    15
100
AcDbCircle
 10
137.2463353169
 20
97.2649328394
 30
0.0
 40
1.000000000000004
100
AcDbArc
 50
180.0
 51
261.7027777778
  0
ARC
  5
113
330
1F
100
AcDbEntity
  8
0
  6
Continuous
 62
     7
370
    15
100
AcDbCircle
 10
137.2463353169
 20
135.7080828405
 30
0.0
 40
1.000000000000018
100
AcDbArc
 50
98.2972222222
 51
180.0
  0
ARC
  5
114
330
1F
100
AcDbEntity
  8
0
  6
Continuous
 62
     7
370
    15
100
AcDbCircle
 10
259.0963353169
 20
130.98650784
 30
0.0
 40
2.0
100
AcDbArc
 50
180.0
 51
270.0
  0
ARC
  5
115
330
1F
100
AcDbEntity
  8
0
  6
Continuous
 62
     7
370
    15
100
AcDbCircle
 10
259.0963353169
 20
101.98650784
 30
0.0
 40
2.0
100
AcDbArc
 50
90.0
 51
180.0
  0
LINE
  5
116
330
1F
100
AcDbEntity
  8
0
  6
Continuous
 62
     7
370
    15
100
AcDbLine
 10
287.1303099131
 20
103.98650784
 30
0.0
 11
287.9963353169
 21
105.48650784
 31
0.0
  0
LINE
  5
117
330
1F
100
AcDbEntity
  8
0
  6
Continuous
 62
     7
370
    15
100
AcDbLine
 10
287.9963353169
 20
127.48650784
 30
0.0
 11
287.1303099131
 21
128.98650784
 31
0.0
  0
LINE
  5
118
330
1F
100
AcDbEntity
  8
0
  6
Continuous
 62
     7
370
    15
100
AcDbLine
 10
259.0963353169
 20
103.98650784
 30
0.0
 11
287.1303099131
 21
103.98650784
 31
0.0
  0
LINE
  5
119
330
1F
100
AcDbEntity
  8
0
  6
Continuous
 62
     7
370
    15
100
AcDbLine
 10
287.1303099131
 20
128.98650784
 30
0.0
 11
259.0963353169
 21
128.98650784
 31
0.0
  0
LINE
  5
11A
330
1F
100
AcDbEntity
  8
0
  6
Continuous
 62
     7
370
    15
100
AcDbLine
 10
255.930649892
 20
129.8835860114
 30
0.0
 11
255.930649892
 21
103.0894296686
 31
0.0
  0
LINE
  5
11B
330
1F
100
AcDbEntity
  8
0
  6
Continuous
 62
     7
370
    15
100
AcDbLine
 10
252.3439305811
 20
67.73650784
 30
0.0
 11
252.3439305811
 21
165.23650784
 31
0.0
  0
SPLINE
  5
11C
330
1F
100
AcDbEntity
  8
0
  6
Continuous
 62
     7
370
    15
100
AcDbSpline
210
0.0
220
0.0
230
1.0
 70
     8
 71
     3
 72
     8
 73
     4
 74
     0
 42
0.000000001
 43
0.00000001
 40
0.0
 40
0.0
 40
0.0
 40
0.0
 40
1.0
 40
1.0
 40
1.0
 40
1.0
 10
255.9306498919813
 20
129.8835860113888
 30
0.0
 10
256.0391668834324
 20
129.8835860113888
 30
0.0
 10
256.1422077352947
 20
129.8464894183226
 30
0.0
 10
256.213492604456
 20
129.7887870802256
 30
0.0
  0
LINE
  5
11D
330
1F
100
AcDbEntity
  8
0
  6
Continuous
 62
     7
370
    15
100
AcDbLine
 10
256.2134926045
 20
129.7887870802
 30
0.0
 11
256.2134926045
 21
103.1842285997
 31
0.0
  0
SPLINE
  5
11E
330
1F
100
AcDbEntity
  8
0
  6
Continuous
 62
     7
370
    15
100
AcDbSpline
210
0.0
220
0.0
230
1.0
 70
     8
 71
     3
 72
     8
 73
     4
 74
     0
 42
0.000000001
 43
0.00000001
 40
0.0
 40
0.0
 40
0.0
 40
0.0
 40
1.0
 40
1.0
 40
1.0
 40
1.0
 10
256.213492604456
 20
103.1842285997266
 30
0.0
 10
256.142176792274
 20
103.1265012144539
 30
0.0
 10
256.0392756346372
 20
103.0894296685634
 30
0.0
 10
255.9306498919814
 20
103.0894296685634
 30
0.0
  0
LINE
  5
11F
330
1F
100
AcDbEntity
  8
0
  6
Continuous
 62
     7
370
    15
100
AcDbLine
 10
250.9963353169
 20
162.9024043744
 30
0.0
 11
250.9963353169
 21
70.0706113056
 31
0.0
  0
LINE
  5
120
330
1F
100
AcDbEntity
  8
0
  6
Continuous
 62
     7
370
    15
100
AcDbLine
 10
247.1963353169
 20
116.48650784
 30
0.0
 11
247.1963353169
 21
162.9024043744
 31
0.0
  0
LINE
  5
121
330
1F
100
AcDbEntity
  8
0
  6
Continuous
 62
     7
370
    15
100
AcDbLine
 10
247.1963353169
 20
70.0706113056
 30
0.0
 11
247.1963353169
 21
116.48650784
 31
0.0
  0
LINE
  5
122
330
1F
100
AcDbEntity
  8
0
  6
Continuous
 62
     7
370
    15
100
AcDbLine
 10
245.8487400527
 20
116.48650784
 30
0.0
 11
245.8487400527
 21
165.23650784
 31
0.0
  0
LINE
  5
123
330
1F
100
AcDbEntity
  8
0
  6
Continuous
 62
     7
370
    15
100
AcDbLine
 10
245.8487400527
 20
67.73650784
 30
0.0
 11
245.8487400527
 21
116.48650784
 31
0.0
  0
LINE
  5
124
330
1F
100
AcDbEntity
  8
0
  6
Continuous
 62
     7
370
    15
100
AcDbLine
 10
242.3620207419
 20
129.8835860114
 30
0.0
 11
242.3620207419
 21
103.0894296686
 31
0.0
  0
LINE
  5
125
330
1F
100
AcDbEntity
  8
0
  6
Continuous
 62
     7
370
    15
100
AcDbLine
 10
242.0791780294
 20
129.7887870802
 30
0.0
 11
242.0791780294
 21
103.1842285997
 31
0.0
  0
SPLINE
  5
126
330
1F
100
AcDbEntity
  8
0
  6
Continuous
 62
     7
370
    15
100
AcDbSpline
210
0.0
220
0.0
230
1.0
 70
     8
 71
     3
 72
     8
 73
     4
 74
     0
 42
0.000000001
 43
0.00000001
 40
0.0
 40
0.0
 40
0.0
 40
0.0
 40
1.0
 40
1.0
 40
1.0
 40
1.0
 10
242.3620207418798
 20
129.8835860113888
 30
0.0
 10
242.2535037504288
 20
129.8835860113888
 30
0.0
 10
242.1504628985665
 20
129.8464894183226
 30
0.0
 10
242.0791780294052
 20
129.7887870802256
 30
0.0
  0
SPLINE
  5
127
330
1F
100
AcDbEntity
  8
0
  6
Continuous
 62
     7
370
    15
100
AcDbSpline
210
0.0
220
0.0
230
1.0
 70
     8
 71
     3
 72
     8
 73
     4
 74
     0
 42
0.000000001
 43
0.00000001
 40
0.0
 40
0.0
 40
0.0
 40
0.0
 40
1.0
 40
1.0
 40
1.0
 40
1.0
 10
242.3620207418798
 20
103.0894296685634
 30
0.0
 10
242.2535037504288
 20
103.0894296685634
 30
0.0
 10
242.1504628985665
 20
103.1265262616296
 30
0.0
 10
242.0791780294052
 20
103.1842285997266
 30
0.0
  0
LINE
  5
128
330
1F
100
AcDbEntity
  8
0
  6
Continuous
 62
     7
370
    15
100
AcDbLine
 10
256.9791780294
 20
129.33650784
 30
0.0
 11
256.9791780294
 21
103.63650784
 31
0.0
  0
LINE
  5
129
330
1F
100
AcDbEntity
  8
0
  6
Continuous
 62
     7
370
    15
100
AcDbLine
 10
241.3134926045
 20
129.9193505525
 30
0.0
 11
241.3134926045
 21
103.0536651275
 31
0.0
  0
SPLINE
  5
12A
330
1F
100
AcDbEntity
  8
0
  6
Continuous
 62
     7
370
    15
100
AcDbSpline
210
0.0
220
0.0
230
1.0
 70
    24
 71
     3
 72
     8
 73
     4
 74
     0
 42
0.000000001
 43
0.00000001
 40
0.0
 40
0.0
 40
0.0
 40
0.0
 40
1.0
 40
1.0
 40
1.0
 40
1.0
 10
257.0963353169306
 20
129.3365078399761
 30
0.0
 10
257.0963353169306
 20
129.3365078399761
 30
0.0
 10
257.0547915829781
 20
129.3365078399761
 30
0.0
 10
256.9791780294052
 20
129.3365078399761
 30
0.0
  0
LINE
  5
12B
330
1F
100
AcDbEntity
  8
0
  6
Continuous
 62
     7
370
    15
100
AcDbLine
 10
257.0963353169
 20
129.33650784
 30
0.0
 11
257.0963353169
 21
103.63650784
 31
0.0
  0
SPLINE
  5
12C
330
1F
100
AcDbEntity
  8
0
  6
Continuous
 62
     7
370
    15
100
AcDbSpline
210
0.0
220
0.0
230
1.0
 70
    24
 71
     3
 72
     8
 73
     4
 74
     0
 42
0.000000001
 43
0.00000001
 40
0.0
 40
0.0
 40
0.0
 40
0.0
 40
1.0
 40
1.0
 40
1.0
 40
1.0
 10
256.9791780294052
 20
103.6365078399761
 30
0.0
 10
257.0547660601598
 20
103.6365078399761
 30
0.0
 10
257.0963353169305
 20
103.6365078399761
 30
0.0
 10
257.0963353169306
 20
103.6365078399761
 30
0.0
  0
LINE
  5
12D
330
1F
100
AcDbEntity
  8
0
  6
Continuous
 62
     7
370
    15
100
AcDbLine
 10
241.1963353169
 20
130.03650784
 30
0.0
 11
241.1963353169
 21
102.93650784
 31
0.0
  0
SPLINE
  5
12E
330
1F
100
AcDbEntity
  8
0
  6
Continuous
 62
     7
370
    15
100
AcDbSpline
210
0.0
220
0.0
230
1.0
 70
    24
 71
     3
 72
    10
 73
     6
 74
     0
 42
0.000000001
 43
0.00000001
 40
0.0
 40
0.0
 40
0.0
 40
0.0
 40
0.5
 40
0.5
 40
1.0
 40
1.0
 40
1.0
 40
1.0
 10
241.1963353169306
 20
130.0365078399761
 30
0.0
 10
241.1963353169306
 20
130.0365078399761
 30
0.0
 10
241.2101811929554
 20
130.0226619639513
 30
0.0
 10
241.2523469691428
 20
129.9804961877639
 30
0.0
 10
241.2808376694059
 20
129.9520054875009
 30
0.0
 10
241.313492604456
 20
129.9193505524508
 30
0.0
  0
SPLINE
  5
12F
330
1F
100
AcDbEntity
  8
0
  6
Continuous
 62
     7
370
    15
100
AcDbSpline
210
0.0
220
0.0
230
1.0
 70
    24
 71
     3
 72
    10
 73
     6
 74
     0
 42
0.000000001
 43
0.00000001
 40
0.0
 40
0.0
 40
0.0
 40
0.0
 40
0.5
 40
0.5
 40
1.0
 40
1.0
 40
1.0
 40
1.0
 10
241.313492604456
 20
103.0536651275015
 30
0.0
 10
241.2808595434387
 20
103.0210320664842
 30
0.0
 10
241.2528786571725
 20
102.993051180218
 30
0.0
 10
241.2102218067975
 20
102.950394329843
 30
0.0
 10
241.1963353169306
 20
102.9365078399761
 30
0.0
 10
241.1963353169306
 20
102.9365078399761
 30
0.0
  0
SPLINE
  5
130
330
1F
100
AcDbEntity
  8
0
  6
Continuous
 62
     7
370
    15
100
AcDbSpline
210
0.0
220
0.0
230
1.0
 70
    24
 71
     3
 72
    36
 73
    32
 74
     0
 42
0.000000001
 43
0.00000001
 40
0.0
 40
0.0
 40
0.0
 40
0.0
 40
0.010855060115309
 40
0.021700603247601
 40
0.0325387683476148
 40
0.0433716987364442
 40
0.0542015408431699
 40
0.0650304429332853
 40
0.0758605538316704
 40
0.0866940216439018
 40
0.0975329924797007
 40
0.1083796091823073
 40
0.1192360100675244
 40
0.181247834122235
 40
0.2432679244012066
 40
0.3069990489490812
 40
0.370738668921532
 40
0.4353656024873025
 40
0.5000011508910791
 40
0.5646280845655833
 40
0.6292636330748704
 40
0.6929947579300935
 40
0.7567343782029041
 40
0.8187462027125846
 40
0.8807662934441524
 40
0.9006583299602414
 40
0.9205248324912559
 40
0.9403790153804057
 40
0.9602341175685198
 40
0.9801033761588329
 40
1.0
 40
1.0
 40
1.0
 40
1.0
 10
257.0963353169306
 20
103.6365078399761
 30
0.0
 10
257.0963353169306
 20
103.4217209656138
 30
0.0
 10
257.0963353169306
 20
102.9923355275032
 30
0.0
 10
257.0963353169306
 20
102.3518390174028
 30
0.0
 10
257.0963353169306
 20
101.714388805974
 30
0.0
 10
257.0963353169306
 20
101.0802151515017
 30
0.0
 10
257.0963353169306
 20
100.4492565195135
 30
0.0
 10
257.0963353169306
 20
99.8215294509292
 30
0.0
 10
257.0963353169306
 20
99.19702973185049
 30
0.0
 10
257.0963353169306
 20
98.57575812632537
 30
0.0
 10
257.0963353169306
 20
97.95771622702054
 30
0.0
 10
257.0963353169306
 20
97.34289731487897
 30
0.0
 10
257.0963353169306
 20
95.77103965822025
 30
0.0
 10
257.0963353169306
 20
93.29139036418812
 30
0.0
 10
257.0963353169306
 20
89.99271730571512
 30
0.0
 10
257.0963353169306
 20
86.83934038053407
 30
0.0
 10
257.0963353169306
 20
83.84726767196753
 30
0.0
 10
257.0963353169306
 20
81.0665214633521
 30
0.0
 10
257.0963353169306
 20
78.52322215627585
 30
0.0
 10
257.0963353169306
 20
76.24521067120759
 30
0.0
 10
257.0963353169306
 20
74.26077817548877
 30
0.0
 10
257.0963353169306
 20
72.57602493841883
 30
0.0
 10
257.0963353169306
 20
71.21316444486799
 30
0.0
 10
257.0963353169306
 20
70.16098612421229
 30
0.0
 10
257.0963353169306
 20
69.58748467215766
 30
0.0
 10
257.0963353169306
 20
69.29145727147383
 30
0.0
 10
257.0963353169306
 20
69.14944218602803
 30
0.0
 10
257.0963353169306
 20
69.0388399934663
 30
0.0
 10
257.0963353169306
 20
68.96041046425229
 30
0.0
 10
257.0963353169306
 20
68.91129435244758
 30
0.0
 10
257.0963353169306
 20
68.90522835222369
 30
0.0
 10
257.0963353169306
 20
68.90219326492534
 30
0.0
  0
SPLINE
  5
131
330
1F
100
AcDbEntity
  8
0
  6
Continuous
 62
     7
370
    15
100
AcDbSpline
210
0.0
220
0.0
230
1.0
 70
    24
 71
     3
 72
    23
 73
    19
 74
     0
 42
0.000000001
 43
0.00000001
 40
0.0
 40
0.0
 40
0.0
 40
0.0
 40
0.049344142439785
 40
0.1126391337887782
 40
0.1752432992499413
 40
0.2371050695636289
 40
0.2989591199343767
 40
0.3615634382303971
 40
0.4248659973704123
 40
0.4891594850324235
 40
0.5537405807095876
 40
0.6185525319731143
 40
0.6833570688697037
 40
0.7479382231567704
 40
0.812239066728002
 40
0.8755340580753496
 40
0.9381401318495213
 40
1.0
 40
1.0
 40
1.0
 40
1.0
 10
257.0963353169306
 20
164.0413343159429
 30
0.0
 10
257.0963353169306
 20
164.0343872347137
 30
0.0
 10
257.0963353169306
 20
164.0185289550208
 30
0.0
 10
257.0963353169306
 20
163.6117775421062
 30
0.0
 10
257.0963353169306
 20
162.901962328213
 30
0.0
 10
257.0963353169306
 20
161.8855554027134
 30
0.0
 10
257.0963353169306
 20
160.5786859175931
 30
0.0
 10
257.0963353169306
 20
158.9719739086292
 30
0.0
 10
257.0963353169306
 20
157.0591287759201
 30
0.0
 10
257.0963353169306
 20
154.8475628642627
 30
0.0
 10
257.0963353169306
 20
152.3500566249824
 30
0.0
 10
257.0963353169306
 20
149.5931334731555
 30
0.0
 10
257.0963353169306
 20
146.6028162118154
 30
0.0
 10
257.0963353169306
 20
143.4085889094598
 30
0.0
 10
257.0963353169306
 20
140.0527092744963
 30
0.0
 10
257.0963353169306
 20
136.5696249162243
 30
0.0
 10
257.0963353169306
 20
133.0042144173561
 30
0.0
 10
257.0963353169306
 20
130.5541805027161
 30
0.0
 10
257.0963353169306
 20
129.3365078399761
 30
0.0
  0
SPLINE
  5
132
330
1F
100
AcDbEntity
  8
0
  6
Continuous
 62
     7
370
    15
100
AcDbSpline
210
0.0
220
0.0
230
1.0
 70
    24
 71
     3
 72
    36
 73
    32
 74
     0
 42
0.000000001
 43
0.00000001
 40
0.0
 40
0.0
 40
0.0
 40
0.0
 40
0.0108663901689341
 40
0.0217235992681966
 40
0.0325737239450683
 40
0.0434188649555587
 40
0.0542611259525282
 40
0.0651026122653268
 40
0.0759454296745621
 40
0.0867916831855511
 40
0.0976434758040309
 40
0.1085029073176763
 40
0.1193720730869444
 40
0.1813968254445624
 40
0.2434299782168946
 40
0.3071319268816632
 40
0.3708425031356528
 40
0.4354174425585807
 40
0.5000011278075839
 40
0.5645760673323957
 40
0.6291597526862351
 40
0.692861701646248
 40
0.7565722781921773
 40
0.8185970309920263
 40
0.8806301842014286
 40
0.9005456124931797
 40
0.9204355775894111
 40
0.9403130284529501
 40
0.9601909385028826
 40
0.9800822802598312
 40
1.0
 40
1.0
 40
1.0
 40
1.0
 10
241.1963353169306
 20
68.90219326492534
 30
0.0
 10
241.1963353169306
 20
68.90307431180722
 30
0.0
 10
241.1963353169306
 20
68.9048356611699
 30
0.0
 10
241.1963353169306
 20
68.91913090801667
 30
0.0
 10
241.1963353169306
 20
68.94195980454205
 30
0.0
 10
241.1963353169306
 20
68.97415692347727
 30
0.0
 10
241.1963353169306
 20
69.0154988390467
 30
0.0
 10
241.1963353169306
 20
69.06604539701242
 30
0.0
 10
241.1963353169306
 20
69.12578050044338
 30
0.0
 10
241.1963353169306
 20
69.19470867271598
 30
0.0
 10
241.1963353169306
 20
69.27282785457389
 30
0.0
 10
241.1963353169306
 20
69.36014167556665
 30
0.0
 10
241.1963353169306
 20
69.60797838995079
 30
0.0
 10
241.1963353169306
 20
70.1336262050033
 30
0.0
 10
241.1963353169306
 20
71.16201721147837
 30
0.0
 10
241.1963353169306
 20
72.49396702476878
 30
0.0
 10
241.1963353169306
 20
74.1398929394995
 30
0.0
 10
241.1963353169306
 20
76.0789139918121
 30
0.0
 10
241.1963353169306
 20
78.30488897427104
 30
0.0
 10
241.1963353169306
 20
80.79124425043555
 30
0.0
 10
241.1963353169306
 20
83.51101204445058
 30
0.0
 10
241.1963353169306
 20
86.43972038246196
 30
0.0
 10
241.1963353169306
 20
89.52904638170658
 30
0.0
 10
241.1963353169306
 20
92.76414742987699
 30
0.0
 10
241.1963353169306
 20
95.36175929961189
 30
0.0
 10
241.1963353169306
 20
97.24464672957126
 30
0.0
 10
241.1963353169306
 20
98.36070170397382
 30
0.0
 10
241.1963353169306
 20
99.48779583898126
 30
0.0
 10
241.1963353169306
 20
100.626160762652
 30
0.0
 10
241.1963353169306
 20
101.774992243968
 30
0.0
 10
241.1963353169306
 20
102.5491649824527
 30
0.0
 10
241.1963353169306
 20
102.9365078399761
 30
0.0
  0
SPLINE
  5
133
330
1F
100
AcDbEntity
  8
0
  6
Continuous
 62
     7
370
    15
100
AcDbSpline
210
0.0
220
0.0
230
1.0
 70
    24
 71
     3
 72
    23
 73
    19
 74
     0
 42
0.000000001
 43
0.00000001
 40
0.0
 40
0.0
 40
0.0
 40
0.0
 40
0.0621371780016823
 40
0.1250125041989178
 40
0.18858029616004
 40
0.253127189537456
 40
0.3179582992717379
 40
0.3830175621109775
 40
0.4480693138239227
 40
0.5129004819881641
 40
0.5774548282112543
 40
0.6410149507156808
 40
0.70389205390056
 40
0.7660351298220105
 40
0.8281703793520515
 40
0.8910476401564842
 40
0.9546154321206017
 40
1.0
 40
1.0
 40
1.0
 40
1.0
 10
241.1963353169306
 20
130.0365078399761
 30
0.0
 10
241.1963353169306
 20
131.2394629998809
 30
0.0
 10
241.1963353169306
 20
133.6596636239683
 30
0.0
 10
241.1963353169306
 20
137.1765080928588
 30
0.0
 10
241.1963353169306
 20
140.6078494558827
 30
0.0
 10
241.1963353169306
 20
143.9096441189574
 30
0.0
 10
241.1963353169306
 20
147.0485446149111
 30
0.0
 10
241.1963353169306
 20
149.9835002619216
 30
0.0
 10
241.1963353169306
 20
152.6860760923706
 30
0.0
 10
241.1963353169306
 20
155.1312375051436
 30
0.0
 10
241.1963353169306
 20
157.2933608025097
 30
0.0
 10
241.1963353169306
 20
159.1602859865671
 30
0.0
 10
241.1963353169306
 20
160.7251405855805
 30
0.0
 10
241.1963353169306
 20
161.9937870493719
 30
0.0
 10
241.1963353169306
 20
162.97587633468
 30
0.0
 10
241.1963353169306
 20
163.6539224328183
 30
0.0
 10
241.1963353169306
 20
164.030051563719
 30
0.0
 10
241.1963353169306
 20
164.0348618463328
 30
0.0
 10
241.1963353169306
 20
164.0368655899702
 30
0.0
  0
LINE
  5
134
330
1F
100
AcDbEntity
  8
0
  6
Continuous
 62
     7
370
    15
100
AcDbLine
 10
237.9963353169
 20
81.56150784
 30
0.0
 11
237.9963353169
 21
151.41150784
 31
0.0
  0
LINE
  5
135
330
1F
100
AcDbEntity
  8
0
  6
Continuous
 62
     7
370
    15
100
AcDbLine
 10
238.9077507581
 20
116.48650784
 30
0.0
 11
238.9077507581
 21
150.98650784
 31
0.0
  0
LINE
  5
136
330
1F
100
AcDbEntity
  8
0
  6
Continuous
 62
     7
370
    15
100
AcDbLine
 10
238.9077507581
 20
81.98650784
 30
0.0
 11
238.9077507581
 21
116.48650784
 31
0.0
  0
SPLINE
  5
137
330
1F
100
AcDbEntity
  8
0
  6
Continuous
 62
     7
370
    15
100
AcDbSpline
210
0.0
220
0.0
230
1.0
 70
    24
 71
     3
 72
    10
 73
     6
 74
     0
 42
0.000000001
 43
0.00000001
 40
0.0
 40
0.0
 40
0.0
 40
0.0
 40
0.4999999999999997
 40
0.4999999999999997
 40
0.9999999999999999
 40
0.9999999999999999
 40
0.9999999999999999
 40
0.9999999999999999
 10
136.2463353169306
 20
135.7080828405215
 30
0.0
 10
136.2463353169306
 20
135.7080828405214
 30
0.0
 10
136.2463353169306
 20
133.6828564144525
 30
0.0
 10
136.2463353169306
 20
126.4735713214424
 30
0.0
 10
136.2463353169306
 20
121.5842422167505
 30
0.0
 10
136.2463353169306
 20
116.4865078399761
 30
0.0
  0
SPLINE
  5
138
330
1F
100
AcDbEntity
  8
0
  6
Continuous
 62
     7
370
    15
100
AcDbSpline
210
0.0
220
0.0
230
1.0
 70
    24
 71
     3
 72
    10
 73
     6
 74
     0
 42
0.000000001
 43
0.00000001
 40
0.0
 40
0.0
 40
0.0
 40
0.0
 40
0.4999999999999999
 40
0.4999999999999999
 40
0.9999999999999999
 40
0.9999999999999999
 40
0.9999999999999999
 40
0.9999999999999999
 10
136.2463353169306
 20
116.4865078399761
 30
0.0
 10
136.2463353169306
 20
111.3887734632017
 30
0.0
 10
136.2463353169306
 20
106.4994443585094
 30
0.0
 10
136.2463353169306
 20
99.29015926549953
 30
0.0
 10
136.2463353169306
 20
97.2649328394306
 30
0.0
 10
136.2463353169306
 20
97.26493283943071
 30
0.0
  0
LINE
  5
139
330
1F
100
AcDbEntity
  8
0
  6
Continuous
 62
     7
370
    15
100
AcDbLine
 10
287.9963353169
 20
105.48650784
 30
0.0
 11
287.9963353169
 21
127.48650784
 31
0.0
  0
LINE
  5
13A
330
1F
100
AcDbEntity
  8
0
  6
Continuous
 62
     7
370
    15
100
AcDbLine
 10
287.1303099131
 20
116.48650784
 30
0.0
 11
287.1303099131
 21
128.98650784
 31
0.0
  0
LINE
  5
13B
330
1F
100
AcDbEntity
  8
0
  6
Continuous
 62
     7
370
    15
100
AcDbLine
 10
287.1303099131
 20
103.98650784
 30
0.0
 11
287.1303099131
 21
116.48650784
 31
0.0
  0
LINE
  5
13C
330
1F
100
AcDbEntity
  8
0
  6
Continuous
 62
     8
370
    15
100
AcDbLine
 10
255.930649892
 20
129.8835860114
 30
0.0
 11
255.930649892
 21
165.23650784
 31
0.0
  0
LINE
  5
13D
330
1F
100
AcDbEntity
  8
0
  6
Continuous
 62
     8
370
    15
100
AcDbLine
 10
255.930649892
 20
67.73650784
 30
0.0
 11
255.930649892
 21
103.0894296686
 31
0.0
  0
LINE
  5
13E
330
1F
100
AcDbEntity
  8
0
  6
Continuous
 62
     8
370
    15
100
AcDbLine
 10
242.3620207419
 20
67.73650784
 30
0.0
 11
242.3620207419
 21
103.0894296686
 31
0.0
  0
LINE
  5
13F
330
1F
100
AcDbEntity
  8
0
  6
Continuous
 62
     8
370
    15
100
AcDbLine
 10
242.3620207419
 20
165.23650784
 30
0.0
 11
242.3620207419
 21
129.8835860114
 31
0.0
  0
LINE
  5
140
330
1F
100
AcDbEntity
  8
0
  6
Continuous
 62
     8
370
    15
100
AcDbLine
 10
256.9791780294
 20
164.3536651275
 30
0.0
 11
256.9791780294
 21
129.33650784
 31
0.0
  0
LINE
  5
141
330
1F
100
AcDbEntity
  8
0
  6
Continuous
 62
     8
370
    15
100
AcDbLine
 10
256.9791780294
 20
103.63650784
 30
0.0
 11
256.9791780294
 21
68.6193505525
 31
0.0
  0
LINE
  5
142
330
1F
100
AcDbEntity
  8
0
  6
Continuous
 62
     8
370
    15
100
AcDbLine
 10
256.2134926045
 20
129.7887870802
 30
0.0
 11
256.2134926045
 21
165.1193505525
 31
0.0
  0
LINE
  5
143
330
1F
100
AcDbEntity
  8
0
  6
Continuous
 62
     8
370
    15
100
AcDbLine
 10
256.2134926045
 20
103.1842285997
 30
0.0
 11
256.2134926045
 21
67.8536651275
 31
0.0
  0
LINE
  5
144
330
1F
100
AcDbEntity
  8
0
  6
Continuous
 62
     8
370
    15
100
AcDbLine
 10
241.3134926045
 20
68.6193505525
 30
0.0
 11
241.3134926045
 21
103.0536651275
 31
0.0
  0
LINE
  5
145
330
1F
100
AcDbEntity
  8
0
  6
Continuous
 62
     8
370
    15
100
AcDbLine
 10
241.3134926045
 20
129.9193505525
 30
0.0
 11
241.3134926045
 21
164.3536651275
 31
0.0
  0
LINE
  5
146
330
1F
100
AcDbEntity
  8
0
  6
Continuous
 62
     8
370
    15
100
AcDbLine
 10
242.0791780294
 20
129.7887870802
 30
0.0
 11
242.0791780294
 21
165.1193505525
 31
0.0
  0
LINE
  5
147
330
1F
100
AcDbEntity
  8
0
  6
Continuous
 62
     8
370
    15
100
AcDbLine
 10
242.0791780294
 20
67.8536651275
 30
0.0
 11
242.0791780294
 21
103.1842285997
 31
0.0
  0
LINE
  5
148
330
1F
100
AcDbEntity
  8
0
  6
Continuous
 62
     8
370
    15
100
AcDbLine
 10
240.6963353169
 20
81.98650784
 30
0.0
 11
240.6963353169
 21
150.98650784
 31
0.0
  0
LINE
  5
149
330
1F
100
AcDbEntity
  8
0
  6
Continuous
 62
     8
370
    15
100
AcDbLine
 10
137.1020270897
 20
136.697615627
 30
0.0
 11
137.1020270897
 21
96.2754000529
 31
0.0
  0
LINE
  5
14A
330
1F
100
AcDbEntity
  8
0
  6
Continuous
 62
     8
370
    15
100
AcDbLine
 10
259.0963353169
 20
128.98650784
 30
0.0
 11
259.0963353169
 21
103.98650784
 31
0.0
  0
DIMENSION
  5
14B
330
1F
100
AcDbEntity
  8
DIM
100
AcDbDimension
  2
_D
 10
295.6120313651
 20
103.98650784
 30
0.0
 11
295.6120313651
 21
116.48650784
 31
0.0
 70
   160
  1
%%c<>
 71
     2
 42
-1.0
  3
SLDDIMSTYLE0
100
AcDbAlignedDimension
 13
287.1303099131
 23
128.98650784
 33
0.0
 14
287.1303099131
 24
103.98650784
 34
0.0
 50
90.0
100
AcDbRotatedDimension
  0
DIMENSION
  5
157
330
1F
100
AcDbEntity
  8
DIM
100
AcDbDimension
  2
_D_1
 10
128.3074501597
 20
67.73650784
 30
0.0
 11
128.3074501597
 21
116.48650784
 31
0.0
 70
   160
  1
%%c<>
 71
     2
 42
-1.0
  3
SLDDIMSTYLE1
100
AcDbAlignedDimension
 13
242.3620207419
 23
165.23650784
 33
0.0
 14
242.3620207419
 24
67.73650784
 34
0.0
 50
90.0
100
AcDbRotatedDimension
  0
DIMENSION
  5
163
330
1F
100
AcDbEntity
  8
DIM
100
AcDbDimension
  2
_D_2
 10
287.9963353169
 20
50.13640784
 30
0.0
 11
212.1213353169
 21
50.13640784
 31
0.0
 70
   160
  1
<>
 71
     2
 42
-1.0
  3
SLDDIMSTYLE2
100
AcDbAlignedDimension
 13
136.2463353169
 23
116.48650784
 33
0.0
 14
287.9963353169
 24
105.48650784
 34
0.0
 50
0.0
100
AcDbRotatedDimension
  0
DIMENSION
  5
16E
330
1F
100
AcDbEntity
  8
DIM
100
AcDbDimension
  2
_D_3
 10
287.9963353169
 20
56.2286136762
 30
0.0
 11
262.9963353169
 21
56.2286136762
 31
0.0
 70
   160
  1
<>
 71
     2
 42
-1.0
  3
SLDDIMSTYLE2
100
AcDbAlignedDimension
 13
237.9963353169
 23
81.56150784
 33
0.0
 14
287.9963353169
 24
105.48650784
 34
0.0
100
AcDbRotatedDimension
  0
LINE
  5
178
330
1F
100
AcDbEntity
  8
DIM
  6
CENTERX2
 48
1.8181818182
370
     0
100
AcDbLine
 10
133.6108394379
 20
116.48650784
 30
0.0
 11
287.9457040122
 21
116.48650784
 31
0.0
  0
ENDSEC
  0
SECTION
  2
OBJECTS
  0
DICTIONARY
  5
C
330
0
100
AcDbDictionary
281
     1
  3
ACAD_GROUP
350
D
  3
ACAD_LAYOUT
350
1A
  3
ACAD_MLINESTYLE
350
17
  3
ACAD_PLOTSETTINGS
350
19
  3
ACAD_PLOTSTYLENAME
350
E
  3
ACAD_SCALELIST
350
47
  0
DICTIONARY
  5
D
102
{ACAD_REACTORS
330
C
102
}
330
C
100
AcDbDictionary
281
     1
  0
DICTIONARY
  5
1A
102
{ACAD_REACTORS
330
C
102
}
330
C
100
AcDbDictionary
281
     1
  3
Layout1
350
1E
  3
Layout2
350
26
  3
Model
350
22
  0
DICTIONARY
  5
17
102
{ACAD_REACTORS
330
C
102
}
330
C
100
AcDbDictionary
281
     1
  3
Standard
350
18
  0
DICTIONARY
  5
19
102
{ACAD_REACTORS
330
C
102
}
330
C
100
AcDbDictionary
281
     1
  0
ACDBDICTIONARYWDFLT
  5
E
102
{ACAD_REACTORS
330
C
102
}
330
C
100
AcDbDictionary
281
     1
  3
Normal
350
F
100
AcDbDictionaryWithDefault
340
F
  0
DICTIONARY
  5
47
102
{ACAD_REACTORS
330
C
102
}
330
C
100
AcDbDictionary
281
     1
  3
A0
350
48
  3
A1
350
49
  3
A2
350
4A
  3
A3
350
4B
  3
A4
350
4C
  3
A5
350
4D
  3
A6
350
4E
  3
A7
350
4F
  3
A8
350
50
  3
A9
350
51
  3
B0
350
52
  3
B1
350
53
  3
B2
350
54
  3
B3
350
55
  3
B4
350
56
  3
B5
350
57
  3
B6
350
58
  3
B7
350
59
  3
B8
350
5A
  3
B9
350
5B
  3
C0
350
5C
  3
C1
350
5D
  3
C2
350
5E
  3
C3
350
5F
  3
C4
350
60
  3
C5
350
61
  3
C6
350
62
  3
C7
350
63
  3
C8
350
64
  3
C9
350
65
  3
D0
350
66
  3
D1
350
67
  3
D2
350
68
  0
LAYOUT
  5
1E
102
{ACAD_REACTORS
330
1A
102
}
330
1A
100
AcDbPlotSettings
  1

  2
none_device
  4

  6

 40
0.0
 41
0.0
 42
0.0
 43
0.0
 44
0.0
 45
0.0
 46
0.0
 47
0.0
 48
0.0
 49
0.0
140
0.0
141
0.0
142
1.0
143
1.0
 70
   688
 72
     1
 73
     0
 74
     5
  7

 75
    16
147
1.0
148
0.0
149
0.0
100
AcDbLayout
  1
Layout1
 70
     1
 71
     1
 10
0.0
 20
0.0
 11
420.0
 21
297.0
 12
0.0
 22
0.0
 32
0.0
 14
1.0000000000E+20
 24
1.0000000000E+20
 34
1.0000000000E+20
 15
-1.0000000000E+20
 25
-1.0000000000E+20
 35
-1.0000000000E+20
146
0.0
 13
0.0
 23
0.0
 33
0.0
 16
1.0
 26
0.0
 36
0.0
 17
0.0
 27
1.0
 37
0.0
 76
     0
330
1B
  0
LAYOUT
  5
26
102
{ACAD_REACTORS
330
1A
102
}
330
1A
100
AcDbPlotSettings
  1

  2
none_device
  4

  6

 40
0.0
 41
0.0
 42
0.0
 43
0.0
 44
0.0
 45
0.0
 46
0.0
 47
0.0
 48
0.0
 49
0.0
140
0.0
141
0.0
142
1.0
143
1.0
 70
   688
 72
     1
 73
     0
 74
     5
  7

 75
    16
147
1.0
148
0.0
149
0.0
100
AcDbLayout
  1
Layout2
 70
     1
 71
     2
 10
0.0
 20
0.0
 11
0.0
 21
0.0
 12
0.0
 22
0.0
 32
0.0
 14
0.0
 24
0.0
 34
0.0
 15
0.0
 25
0.0
 35
0.0
146
0.0
 13
0.0
 23
0.0
 33
0.0
 16
1.0
 26
0.0
 36
0.0
 17
0.0
 27
1.0
 37
0.0
 76
     0
330
23
  0
LAYOUT
  5
22
102
{ACAD_REACTORS
330
1A
102
}
330
1A
100
AcDbPlotSettings
  1

  2
none_device
  4
Letter_(8.50_x_11.00_Inches)
  6

 40
6.35
 41
6.35
 42
6.35000508
 43
6.35000508
 44
215.9
 45
279.4
 46
0.0
 47
0.0
 48
0.0
 49
0.0
140
0.0
141
0.0
142
1.0
143
1.0
 70
  1712
 72
     1
 73
     0
 74
     0
  7

 75
     0
147
1.0
148
0.0
149
0.0
100
AcDbLayout
  1
Model
 70
     1
 71
     0
 10
0.0
 20
0.0
 11
326.7
 21
231.0
 12
0.0
 22
0.0
 32
0.0
 14
0.0
 24
0.0
 34
0.0
 15
326.7
 25
231.0
 35
0.0
146
0.0
 13
0.0
 23
0.0
 33
0.0
 16
1.0
 26
0.0
 36
0.0
 17
0.0
 27
1.0
 37
0.0
 76
     0
330
1F
331
29
  0
MLINESTYLE
  5
18
102
{ACAD_REACTORS
330
17
102
}
330
17
100
AcDbMlineStyle
  2
Standard
 70
     0
  3

 62
   256
 51
90.0
 52
90.0
 71
     2
 49
0.5
 62
   256
  6
BYLAYER
 49
-0.5
 62
   256
  6
BYLAYER
  0
ACDBPLACEHOLDER
  5
F
102
{ACAD_REACTORS
330
E
102
}
330
E
  0
SCALE
  5
48
102
{ACAD_REACTORS
330
47
102
}
330
47
100
AcDbScale
 70
     0
300
1:1
140
1.0
141
1.0
290
     1
  0
SCALE
  5
49
102
{ACAD_REACTORS
330
47
102
}
330
47
100
AcDbScale
 70
     0
300
1:2
140
1.0
141
2.0
290
     0
  0
SCALE
  5
4A
102
{ACAD_REACTORS
330
47
102
}
330
47
100
AcDbScale
 70
     0
300
1:4
140
1.0
141
4.0
290
     0
  0
SCALE
  5
4B
102
{ACAD_REACTORS
330
47
102
}
330
47
100
AcDbScale
 70
     0
300
1:5
140
1.0
141
5.0
290
     0
  0
SCALE
  5
4C
102
{ACAD_REACTORS
330
47
102
}
330
47
100
AcDbScale
 70
     0
300
1:8
140
1.0
141
8.0
290
     0
  0
SCALE
  5
4D
102
{ACAD_REACTORS
330
47
102
}
330
47
100
AcDbScale
 70
     0
300
1:10
140
1.0
141
10.0
290
     0
  0
SCALE
  5
4E
102
{ACAD_REACTORS
330
47
102
}
330
47
100
AcDbScale
 70
     0
300
1:16
140
1.0
141
16.0
290
     0
  0
SCALE
  5
4F
102
{ACAD_REACTORS
330
47
102
}
330
47
100
AcDbScale
 70
     0
300
1:20
140
1.0
141
20.0
290
     0
  0
SCALE
  5
50
102
{ACAD_REACTORS
330
47
102
}
330
47
100
AcDbScale
 70
     0
300
1:30
140
1.0
141
30.0
290
     0
  0
SCALE
  5
51
102
{ACAD_REACTORS
330
47
102
}
330
47
100
AcDbScale
 70
     0
300
1:40
140
1.0
141
40.0
290
     0
  0
SCALE
  5
52
102
{ACAD_REACTORS
330
47
102
}
330
47
100
AcDbScale
 70
     0
300
1:50
140
1.0
141
50.0
290
     0
  0
SCALE
  5
53
102
{ACAD_REACTORS
330
47
102
}
330
47
100
AcDbScale
 70
     0
300
1:100
140
1.0
141
100.0
290
     0
  0
SCALE
  5
54
102
{ACAD_REACTORS
330
47
102
}
330
47
100
AcDbScale
 70
     0
300
2:1
140
2.0
141
1.0
290
     0
  0
SCALE
  5
55
102
{ACAD_REACTORS
330
47
102
}
330
47
100
AcDbScale
 70
     0
300
4:1
140
4.0
141
1.0
290
     0
  0
SCALE
  5
56
102
{ACAD_REACTORS
330
47
102
}
330
47
100
AcDbScale
 70
     0
300
8:1
140
8.0
141
1.0
290
     0
  0
SCALE
  5
57
102
{ACAD_REACTORS
330
47
102
}
330
47
100
AcDbScale
 70
     0
300
10:1
140
10.0
141
1.0
290
     0
  0
SCALE
  5
58
102
{ACAD_REACTORS
330
47
102
}
330
47
100
AcDbScale
 70
     0
300
100:1
140
100.0
141
1.0
290
     0
  0
SCALE
  5
59
102
{ACAD_REACTORS
330
47
102
}
330
47
100
AcDbScale
 70
     0
300
1/128" = 1'-0"
140
0.0078125
141
12.0
290
     0
  0
SCALE
  5
5A
102
{ACAD_REACTORS
330
47
102
}
330
47
100
AcDbScale
 70
     0
300
1/64" = 1'-0"
140
0.015625
141
12.0
290
     0
  0
SCALE
  5
5B
102
{ACAD_REACTORS
330
47
102
}
330
47
100
AcDbScale
 70
     0
300
1/32" = 1'-0"
140
0.03125
141
12.0
290
     0
  0
SCALE
  5
5C
102
{ACAD_REACTORS
330
47
102
}
330
47
100
AcDbScale
 70
     0
300
1/16" = 1'-0"
140
0.0625
141
12.0
290
     0
  0
SCALE
  5
5D
102
{ACAD_REACTORS
330
47
102
}
330
47
100
AcDbScale
 70
     0
300
3/32" = 1'-0"
140
0.09375
141
12.0
290
     0
  0
SCALE
  5
5E
102
{ACAD_REACTORS
330
47
102
}
330
47
100
AcDbScale
 70
     0
300
1/8" = 1'-0"
140
0.125
141
12.0
290
     0
  0
SCALE
  5
5F
102
{ACAD_REACTORS
330
47
102
}
330
47
100
AcDbScale
 70
     0
300
3/16" = 1'-0"
140
0.1875
141
12.0
290
     0
  0
SCALE
  5
60
102
{ACAD_REACTORS
330
47
102
}
330
47
100
AcDbScale
 70
     0
300
1/4" = 1'-0"
140
0.25
141
12.0
290
     0
  0
SCALE
  5
61
102
{ACAD_REACTORS
330
47
102
}
330
47
100
AcDbScale
 70
     0
300
3/8" = 1'-0"
140
0.375
141
12.0
290
     0
  0
SCALE
  5
62
102
{ACAD_REACTORS
330
47
102
}
330
47
100
AcDbScale
 70
     0
300
1/2" = 1'-0"
140
0.5
141
12.0
290
     0
  0
SCALE
  5
63
102
{ACAD_REACTORS
330
47
102
}
330
47
100
AcDbScale
 70
     0
300
3/4" = 1'-0"
140
0.75
141
12.0
290
     0
  0
SCALE
  5
64
102
{ACAD_REACTORS
330
47
102
}
330
47
100
AcDbScale
 70
     0
300
1" = 1'-0"
140
1.0
141
12.0
290
     0
  0
SCALE
  5
65
102
{ACAD_REACTORS
330
47
102
}
330
47
100
AcDbScale
 70
     0
300
1-1/2" = 1'-0"
140
1.5
141
12.0
290
     0
  0
SCALE
  5
66
102
{ACAD_REACTORS
330
47
102
}
330
47
100
AcDbScale
 70
     0
300
3" = 1'-0"
140
3.0
141
12.0
290
     0
  0
SCALE
  5
67
102
{ACAD_REACTORS
330
47
102
}
330
47
100
AcDbScale
 70
     0
300
6" = 1'-0"
140
6.0
141
12.0
290
     0
  0
SCALE
  5
68
102
{ACAD_REACTORS
330
47
102
}
330
47
100
AcDbScale
 70
     0
300
1'-0" = 1'-0"
140
12.0
141
12.0
290
     0
  0
ENDSEC
  0
EOF
