  0
SECTION
  2
HEADER
  9
$ACADVER
  1
AC1015
  9
$ACADMAINTVER
 70
     6
  9
$DWGCODEPAGE
  3
ANSI_1252
  9
$INSBASE
 10
0.0
 20
0.0
 30
0.0
  9
$EXTMIN
 10
0.0
 20
0.0
 30
0.0
  9
$EXTMAX
 10
326.7
 20
231.0
 30
0.0
  9
$LIMMIN
 10
0.0
 20
0.0
  9
$LIMMAX
 10
326.7
 20
231.0
  9
$ORTHOMODE
 70
     0
  9
$REGENMODE
 70
     1
  9
$FILLMODE
 70
     1
  9
$QTEXTMODE
 70
     0
  9
$MIRRTEXT
 70
     1
  9
$LTSCALE
 40
1.1
  9
$ATTMODE
 70
     1
  9
$TEXTSIZE
 40
4.2686111111
  9
$TRACEWID
 40
1.0
  9
$TEXTSTYLE
  7
Standard
  9
$CLAYER
  8
0
  9
$CELTYPE
  6
ByLayer
  9
$CECOLOR
 62
   256
  9
$CELTSCALE
 40
1.0
  9
$DISPSILH
 70
     0
  9
$DIMSCALE
 40
1.0
  9
$DIMASZ
 40
3.6322
  9
$DIMEXO
 40
1.1
  9
$DIMDLI
 40
3.75
  9
$DIMRND
 40
0.0
  9
$DIMDLE
 40
0.0
  9
$DIMEXE
 40
1.1
  9
$DIMTP
 40
0.0
  9
$DIMTM
 40
0.0
  9
$DIMTXT
 40
4.2686111111
  9
$DIMCEN
 40
2.5
  9
$DIMTSZ
 40
0.0
  9
$DIMTOL
 70
     0
  9
$DIMLIM
 70
     0
  9
$DIMTIH
 70
     1
  9
$DIMTOH
 70
     1
  9
$DIMSE1
 70
     0
  9
$DIMSE2
 70
     0
  9
$DIMTAD
 70
     1
  9
$DIMZIN
 70
     0
  9
$DIMBLK
  1

  9
$DIMASO
 70
     1
  9
$DIMSHO
 70
     1
  9
$DIMPOST
  1

  9
$DIMAPOST
  1

  9
$DIMALT
 70
     0
  9
$DIMALTD
 70
     3
  9
$DIMALTF
 40
0.0393700787
  9
$DIMLFAC
 40
1.0
  9
$DIMTOFL
 70
     1
  9
$DIMTVP
 40
0.0
  9
$DIMTIX
 70
     0
  9
$DIMSOXD
 70
     0
  9
$DIMSAH
 70
     0
  9
$DIMBLK1
  1

  9
$DIMBLK2
  1

  9
$DIMSTYLE
  2
ISO-25
  9
$DIMCLRD
 70
     0
  9
$DIMCLRE
 70
     0
  9
$DIMCLRT
 70
     0
  9
$DIMTFAC
 40
1.0
  9
$DIMGAP
 40
1.6764
  9
$DIMJUST
 70
     0
  9
$DIMSD1
 70
     0
  9
$DIMSD2
 70
     0
  9
$DIMTOLJ
 70
     0
  9
$DIMTZIN
 70
     0
  9
$DIMALTZ
 70
     0
  9
$DIMALTTZ
 70
     0
  9
$DIMUPT
 70
     0
  9
$DIMDEC
 70
     2
  9
$DIMTDEC
 70
     2
  9
$DIMALTU
 70
     2
  9
$DIMALTTD
 70
     3
  9
$DIMTXSTY
  7
Standard
  9
$DIMAUNIT
 70
     0
  9
$DIMADEC
 70
     2
  9
$DIMALTRND
 40
0.0
  9
$DIMAZIN
 70
     0
  9
$DIMDSEP
 70
    44
  9
$DIMATFIT
 70
     3
  9
$DIMFRAC
 70
     0
  9
$DIMLDRBLK
  1

  9
$DIMLUNIT
 70
     2
  9
$DIMLWD
 70
    -2
  9
$DIMLWE
 70
    -2
  9
$DIMTMOVE
 70
     0
  9
$LUNITS
 70
     2
  9
$LUPREC
 70
     2
  9
$SKETCHINC
 40
1.0
  9
$FILLETRAD
 40
10.0
  9
$AUNITS
 70
     1
  9
$AUPREC
 70
     2
  9
$MENU
  1
.
  9
$ELEVATION
 40
0.0
  9
$PELEVATION
 40
0.0
  9
$THICKNESS
 40
0.0
  9
$LIMCHECK
 70
     0
  9
$CHAMFERA
 40
0.0
  9
$CHAMFERB
 40
0.0
  9
$CHAMFERC
 40
0.0
  9
$CHAMFERD
 40
0.0
  9
$SKPOLY
 70
     0
  9
$TDCREATE
 40
2458627.458444595
  9
$TDUCREATE
 40
2458627.229277928
  9
$TDUPDATE
 40
2458627.458445405
  9
$TDUUPDATE
 40
2458627.229278739
  9
$TDINDWG
 40
0.0000000116
  9
$TDUSRTIMER
 40
0.0000000116
  9
$USRTIMER
 70
     1
  9
$ANGBASE
 50
0.0
  9
$ANGDIR
 70
     0
  9
$PDMODE
 70
     0
  9
$PDSIZE
 40
-1.0
  9
$PLINEWID
 40
0.0
  9
$SPLFRAME
 70
     0
  9
$SPLINETYPE
 70
     6
  9
$SPLINESEGS
 70
     8
  9
$HANDSEED
  5
175
  9
$SURFTAB1
 70
     6
  9
$SURFTAB2
 70
     6
  9
$SURFTYPE
 70
     6
  9
$SURFU
 70
     6
  9
$SURFV
 70
     6
  9
$UCSBASE
  2

  9
$UCSNAME
  2

  9
$UCSORG
 10
0.0
 20
0.0
 30
0.0
  9
$UCSXDIR
 10
1.0
 20
0.0
 30
0.0
  9
$UCSYDIR
 10
0.0
 20
1.0
 30
0.0
  9
$UCSORTHOREF
  2

  9
$UCSORTHOVIEW
 70
     0
  9
$UCSORGTOP
 10
0.0
 20
0.0
 30
0.0
  9
$UCSORGBOTTOM
 10
0.0
 20
0.0
 30
0.0
  9
$UCSORGLEFT
 10
0.0
 20
0.0
 30
0.0
  9
$UCSORGRIGHT
 10
0.0
 20
0.0
 30
0.0
  9
$UCSORGFRONT
 10
0.0
 20
0.0
 30
0.0
  9
$UCSORGBACK
 10
0.0
 20
0.0
 30
0.0
  9
$PUCSBASE
  2

  9
$PUCSNAME
  2

  9
$PUCSORG
 10
0.0
 20
0.0
 30
0.0
  9
$PUCSXDIR
 10
1.0
 20
0.0
 30
0.0
  9
$PUCSYDIR
 10
0.0
 20
1.0
 30
0.0
  9
$PUCSORTHOREF
  2

  9
$PUCSORTHOVIEW
 70
     0
  9
$PUCSORGTOP
 10
0.0
 20
0.0
 30
0.0
  9
$PUCSORGBOTTOM
 10
0.0
 20
0.0
 30
0.0
  9
$PUCSORGLEFT
 10
0.0
 20
0.0
 30
0.0
  9
$PUCSORGRIGHT
 10
0.0
 20
0.0
 30
0.0
  9
$PUCSORGFRONT
 10
0.0
 20
0.0
 30
0.0
  9
$PUCSORGBACK
 10
0.0
 20
0.0
 30
0.0
  9
$USERI1
 70
     0
  9
$USERI2
 70
     0
  9
$USERI3
 70
     0
  9
$USERI4
 70
     0
  9
$USERI5
 70
     0
  9
$USERR1
 40
0.0
  9
$USERR2
 40
0.0
  9
$USERR3
 40
0.0
  9
$USERR4
 40
0.0
  9
$USERR5
 40
0.0
  9
$WORLDVIEW
 70
     1
  9
$SHADEDGE
 70
     3
  9
$SHADEDIF
 70
    70
  9
$TILEMODE
 70
     1
  9
$MAXACTVP
 70
    64
  9
$PINSBASE
 10
0.0
 20
0.0
 30
0.0
  9
$PLIMCHECK
 70
     0
  9
$PEXTMIN
 10
1.0000000000E+20
 20
1.0000000000E+20
 30
1.0000000000E+20
  9
$PEXTMAX
 10
-1.0000000000E+20
 20
-1.0000000000E+20
 30
-1.0000000000E+20
  9
$PLIMMIN
 10
0.0
 20
0.0
  9
$PLIMMAX
 10
420.0
 20
297.0
  9
$UNITMODE
 70
     0
  9
$VISRETAIN
 70
     1
  9
$PLINEGEN
 70
     0
  9
$PSLTSCALE
 70
     1
  9
$TREEDEPTH
 70
  3020
  9
$CMLSTYLE
  2
Standard
  9
$CMLJUST
 70
     0
  9
$CMLSCALE
 40
20.0
  9
$PROXYGRAPHICS
 70
     1
  9
$MEASUREMENT
 70
     1
  9
$CELWEIGHT
370
    -1
  9
$ENDCAPS
280
     0
  9
$JOINSTYLE
280
     0
  9
$LWDISPLAY
290
     1
  9
$INSUNITS
 70
     4
  9
$HYPERLINKBASE
  1

  9
$STYLESHEET
  1

  9
$XEDIT
290
     1
  9
$CEPSNTYPE
380
     0
  9
$PSTYLEMODE
290
     1
  9
$FINGERPRINTGUID
  2
{5667BC9E-D852-42E6-A6C1-B461B56444F1}
  9
$VERSIONGUID
  2
{FAEB1C32-E019-11D5-929B-00C0DF256EC4}
  9
$EXTNAMES
290
     1
  9
$PSVPSCALE
 40
0.0
  9
$OLESTARTUP
290
     0
  0
ENDSEC
  0
SECTION
  2
CLASSES
  0
CLASS
  1
ACDBDICTIONARYWDFLT
  2
AcDbDictionaryWithDefault
  3
ObjectDBX Classes
 90
        0
280
     0
281
     0
  0
CLASS
  1
VISUALSTYLE
  2
AcDbVisualStyle
  3
ObjectDBX Classes
 90
     4095
280
     0
281
     0
  0
CLASS
  1
MATERIAL
  2
AcDbMaterial
  3
ObjectDBX Classes
 90
     1153
280
     0
281
     0
  0
CLASS
  1
SCALE
  2
AcDbScale
  3
ObjectDBX Classes
 90
     1153
280
     0
281
     0
  0
CLASS
  1
SUN
  2
AcDbSun
  3
SCENEOE
 90
     1153
280
     0
281
     0
  0
CLASS
  1
ACDBPLACEHOLDER
  2
AcDbPlaceHolder
  3
ObjectDBX Classes
 90
        0
280
     0
281
     0
  0
CLASS
  1
LAYOUT
  2
AcDbLayout
  3
ObjectDBX Classes
 90
        0
280
     0
281
     0
  0
ENDSEC
  0
SECTION
  2
TABLES
  0
TABLE
  2
VPORT
  5
8
330
0
100
AcDbSymbolTable
 70
     1
  0
VPORT
  5
29
330
8
100
AcDbSymbolTableRecord
100
AcDbViewportTableRecord
  2
*Active
 70
     0
 10
0.0
 20
0.0
 11
1.0
 21
1.0
 12
163.35
 22
115.5
 13
0.0
 23
0.0
 14
10.0
 24
10.0
 15
10.0
 25
10.0
 16
0.0
 26
0.0
 36
1.0
 17
0.0
 27
0.0
 37
0.0
 40
231.0
 41
1.4142857143
 42
50.0
 43
0.0
 44
0.0
 50
0.0
 51
0.0
 71
     0
 72
  2000
 73
     1
 74
     3
 75
     0
 76
     0
 77
     0
 78
     0
281
     0
 65
     1
110
0.0
120
0.0
130
0.0
111
1.0
121
0.0
131
0.0
112
0.0
122
1.0
132
0.0
 79
     0
146
0.0
  0
ENDTAB
  0
TABLE
  2
LTYPE
  5
5
330
0
100
AcDbSymbolTable
 70
     6
  0
LTYPE
  5
14
330
5
100
AcDbSymbolTableRecord
100
AcDbLinetypeTableRecord
  2
ByBlock
 70
     0
  3

 72
    65
 73
     0
 40
0.0
  0
LTYPE
  5
15
330
5
100
AcDbSymbolTableRecord
100
AcDbLinetypeTableRecord
  2
ByLayer
 70
     0
  3

 72
    65
 73
     0
 40
0.0
  0
LTYPE
  5
16
330
5
100
AcDbSymbolTableRecord
100
AcDbLinetypeTableRecord
  2
Continuous
 70
     0
  3
Solid line
 72
    65
 73
     0
 40
0.0
  0
LTYPE
  5
6A
330
5
100
AcDbSymbolTableRecord
100
AcDbLinetypeTableRecord
  2
HIDDEN
 70
     0
  3
Hidden __ __ __ __ __ __ __ __ __ __ __ __ __ __
 72
    65
 73
     2
 40
1.905
 49
1.27
 74
     0
 49
-0.635
 74
     0
  0
LTYPE
  5
6B
330
5
100
AcDbSymbolTableRecord
100
AcDbLinetypeTableRecord
  2
PHANTOM
 70
     0
  3
Phantom ______  __  __  ______  __  __  ______
 72
    65
 73
     6
 40
12.7
 49
6.35
 74
     0
 49
-1.27
 74
     0
 49
1.27
 74
     0
 49
-1.27
 74
     0
 49
1.27
 74
     0
 49
-1.27
 74
     0
  0
LTYPE
  5
6C
330
5
100
AcDbSymbolTableRecord
100
AcDbLinetypeTableRecord
  2
CENTER
 70
     0
  3
Center ____ _ ____ _ ____ _ ____ _ ____ _ ____
 72
    65
 73
     4
 40
10.16
 49
6.35
 74
     0
 49
-1.27
 74
     0
 49
1.27
 74
     0
 49
-1.27
 74
     0
  0
LTYPE
  5
6D
330
5
100
AcDbSymbolTableRecord
100
AcDbLinetypeTableRecord
  2
CENTERX2
 70
     0
  3
Center (2x) ________  __  ________  __  _____
 72
    65
 73
     4
 40
20.32
 49
12.7
 74
     0
 49
-2.54
 74
     0
 49
2.54
 74
     0
 49
-2.54
 74
     0
  0
LTYPE
  5
6E
330
5
100
AcDbSymbolTableRecord
100
AcDbLinetypeTableRecord
  2
DOT2
 70
     0
  3
Dot (.5x) ........................................
 72
    65
 73
     2
 40
0.635
 49
0.0
 74
     0
 49
-0.635
 74
     0
  0
ENDTAB
  0
TABLE
  2
LAYER
  5
2
330
0
100
AcDbSymbolTable
 70
     8
  0
LAYER
  5
10
330
2
100
AcDbSymbolTableRecord
100
AcDbLayerTableRecord
  2
0
 70
     0
 62
     7
  6
Continuous
370
    -3
390
F
  0
LAYER
  5
6F
330
2
100
AcDbSymbolTableRecord
100
AcDbLayerTableRecord
  2
FORMAT
 70
     0
 62
     7
  6
Continuous
370
    -3
390
F
  0
LAYER
  5
70
330
2
100
AcDbSymbolTableRecord
100
AcDbLayerTableRecord
  2
SLD-0
 70
     0
 62
     2
  6
Continuous
370
    -3
390
F
  0
LAYER
  5
71
330
2
100
AcDbSymbolTableRecord
100
AcDbLayerTableRecord
  2
DIM
 70
     0
 62
   179
  6
Continuous
370
    -3
390
F
  0
LAYER
  5
72
330
2
100
AcDbSymbolTableRecord
100
AcDbLayerTableRecord
  2
SLD-DEFPOINTS
 70
     0
 62
   179
  6
Continuous
370
    -3
390
F
  0
LAYER
  5
73
330
2
100
AcDbSymbolTableRecord
100
AcDbLayerTableRecord
  2
HAT
 70
     0
 62
   135
  6
Continuous
370
    -3
390
F
  0
LAYER
  5
74
330
2
100
AcDbSymbolTableRecord
100
AcDbLayerTableRecord
  2
JOB
 70
     0
 62
   201
  6
Continuous
370
    -3
390
F
  0
LAYER
  5
75
330
2
100
AcDbSymbolTableRecord
100
AcDbLayerTableRecord
  2
INSPECTION_REPORT
 70
     0
 62
   255
  6
Continuous
370
    -3
390
F
  0
ENDTAB
  0
TABLE
  2
STYLE
  5
3
330
0
100
AcDbSymbolTable
 70
     4
  0
STYLE
  5
11
330
3
100
AcDbSymbolTableRecord
100
AcDbTextStyleTableRecord
  2
Standard
 70
     0
 40
0.0
 41
1.0
 50
0.0
 71
     0
 42
4.2686111111
  3
txt
  4

  0
STYLE
  5
96
330
3
100
AcDbSymbolTableRecord
100
AcDbTextStyleTableRecord
  2
SLDTEXTSTYLE0
 70
     0
 40
0.0
 41
0.7
 50
0.0
 71
     0
 42
4.2686111111
  3
TXT
  4

  0
STYLE
  5
98
330
3
100
AcDbSymbolTableRecord
100
AcDbTextStyleTableRecord
  2
SLDTEXTSTYLE1
 70
     0
 40
0.0
 41
0.75
 50
0.0
 71
     0
 42
4.2686111111
  3
TXT
  4

  0
STYLE
  5
AB
330
3
100
AcDbSymbolTableRecord
100
AcDbTextStyleTableRecord
  2
SLDTEXTSTYLE2
 70
     0
 40
0.0
 41
0.6875
 50
0.0
 71
     0
 42
4.2686111111
  3
TXT
  4

  0
ENDTAB
  0
TABLE
  2
VIEW
  5
6
330
0
100
AcDbSymbolTable
 70
     0
  0
ENDTAB
  0
TABLE
  2
UCS
  5
7
330
0
100
AcDbSymbolTable
 70
     0
  0
ENDTAB
  0
TABLE
  2
APPID
  5
9
330
0
100
AcDbSymbolTable
 70
     1
  0
APPID
  5
12
330
9
100
AcDbSymbolTableRecord
100
AcDbRegAppTableRecord
  2
ACAD
 70
     0
  0
ENDTAB
  0
TABLE
  2
DIMSTYLE
  5
A
330
0
100
AcDbSymbolTable
 70
     4
100
AcDbDimStyleTable
  0
DIMSTYLE
105
27
330
A
100
AcDbSymbolTableRecord
100
AcDbDimStyleTableRecord
  2
ISO-25
 70
     0
 41
2.5
 42
0.625
 43
3.75
 44
1.25
 73
     0
 74
     0
 77
     1
 78
     8
140
2.5
141
2.5
143
0.0393700787
147
0.625
171
     3
172
     1
178
     0
271
     2
272
     2
274
     3
278
    44
283
     0
284
     8
340
11
  0
DIMSTYLE
105
12F
102
{ACAD_REACTORS
330
12E
330
148
102
}
330
A
100
AcDbSymbolTableRecord
100
AcDbDimStyleTableRecord
  2
SLDDIMSTYLE0
 70
     0
 41
3.6322
 44
0.0
 45
0.000000001
 73
     0
 74
     0
 77
     1
 78
    12
 79
     3
140
3.2014583333
147
0.8003645833
172
     1
173
     1
178
     0
271
     2
272
     2
276
     2
284
    12
289
     0
340
96
  0
DIMSTYLE
105
13D
102
{ACAD_REACTORS
330
13C
330
154
330
169
102
}
330
A
100
AcDbSymbolTableRecord
100
AcDbDimStyleTableRecord
  2
SLDDIMSTYLE1
 70
     0
 41
3.6322
 44
0.0
 45
0.000000001
 73
     0
 74
     0
 77
     1
 78
    12
 79
     3
140
3.2014583333
147
0.8003645833
173
     1
178
     0
271
     2
272
     2
276
     2
284
    12
340
96
  0
DIMSTYLE
105
15F
102
{ACAD_REACTORS
330
15E
102
}
330
A
100
AcDbSymbolTableRecord
100
AcDbDimStyleTableRecord
  2
SLDDIMSTYLE2
 70
     0
 41
3.6322
 44
0.0
 45
0.000000001
 73
     0
 74
     0
 77
     1
 78
     4
 79
     1
140
3.2014583333
147
0.8003645833
173
     1
178
     0
271
     2
272
     2
276
     2
284
    12
340
96
  0
ENDTAB
  0
TABLE
  2
BLOCK_RECORD
  5
1
330
0
100
AcDbSymbolTable
 70
     7
  0
BLOCK_RECORD
  5
1F
330
1
100
AcDbSymbolTableRecord
100
AcDbBlockTableRecord
  2
*Model_Space
340
22
  0
BLOCK_RECORD
  5
1B
330
1
100
AcDbSymbolTableRecord
100
AcDbBlockTableRecord
  2
*Paper_Space
340
1E
  0
BLOCK_RECORD
  5
23
330
1
100
AcDbSymbolTableRecord
100
AcDbBlockTableRecord
  2
*Paper_Space0
340
26
  0
BLOCK_RECORD
  5
130
330
1
100
AcDbSymbolTableRecord
100
AcDbBlockTableRecord
  2
_D
340
0
  0
BLOCK_RECORD
  5
13E
330
1
100
AcDbSymbolTableRecord
100
AcDbBlockTableRecord
  2
_D_1
340
0
  0
BLOCK_RECORD
  5
149
330
1
100
AcDbSymbolTableRecord
100
AcDbBlockTableRecord
  2
_D_2
340
0
  0
BLOCK_RECORD
  5
155
330
1
100
AcDbSymbolTableRecord
100
AcDbBlockTableRecord
  2
_D_3
340
0
  0
BLOCK_RECORD
  5
160
330
1
100
AcDbSymbolTableRecord
100
AcDbBlockTableRecord
  2
_D_4
340
0
  0
BLOCK_RECORD
  5
16A
330
1
100
AcDbSymbolTableRecord
100
AcDbBlockTableRecord
  2
_D_5
340
0
  0
ENDTAB
  0
ENDSEC
  0
SECTION
  2
BLOCKS
  0
BLOCK
  5
20
330
1F
100
AcDbEntity
  8
0
100
AcDbBlockBegin
  2
*Model_Space
 70
     0
 10
0.0
 20
0.0
 30
0.0
  3
*Model_Space
  1
*Model_Space
  0
ENDBLK
  5
21
330
1F
100
AcDbEntity
  8
0
100
AcDbBlockEnd
  0
BLOCK
  5
1C
330
1B
100
AcDbEntity
 67
     1
  8
0
100
AcDbBlockBegin
  2
*Paper_Space
 70
     0
 10
0.0
 20
0.0
 30
0.0
  3
*Paper_Space
  1
*Paper_Space
  0
ENDBLK
  5
1D
330
1B
100
AcDbEntity
 67
     1
  8
0
100
AcDbBlockEnd
  0
BLOCK
  5
24
330
23
100
AcDbEntity
  8
0
100
AcDbBlockBegin
  2
*Paper_Space0
 70
     0
 10
0.0
 20
0.0
 30
0.0
  3
*Paper_Space0
  1
*Paper_Space0
  0
ENDBLK
  5
25
330
23
100
AcDbEntity
  8
0
100
AcDbBlockEnd
  0
BLOCK
  5
131
330
130
100
AcDbEntity
  8
0
100
AcDbBlockBegin
  2
_D
 70
     0
 10
0.0
 20
0.0
 30
0.0
  3
_D
  1
_D
  0
SOLID
  5
133
330
130
100
AcDbEntity
  8
DIM
100
AcDbTrace
 10
294.7832003292
 20
133.2427835778
 30
0.0
 11
295.3420003292
 21
136.8749835778
 31
0.0
 12
294.2244003292
 22
136.8749835778
 32
0.0
 13
294.2244003292
 23
136.8749835778
 33
0.0
  0
SOLID
  5
134
330
130
100
AcDbEntity
  8
DIM
100
AcDbTrace
 10
294.7832003292
 20
117.2427835778
 30
0.0
 11
294.2244003292
 21
113.6105835778
 31
0.0
 12
295.3420003292
 22
113.6105835778
 32
0.0
 13
295.3420003292
 23
113.6105835778
 33
0.0
  0
LINE
  5
135
330
130
100
AcDbEntity
  8
DIM
100
AcDbLine
 10
276.1387197443
 20
133.2427835778
 30
0.0
 11
295.8832003292
 21
133.2427835778
 31
0.0
  0
LINE
  5
136
330
130
100
AcDbEntity
  8
DIM
100
AcDbLine
 10
276.1387197443
 20
117.2427835778
 30
0.0
 11
295.8832003292
 21
117.2427835778
 31
0.0
  0
LINE
  5
137
330
130
100
AcDbEntity
  8
DIM
100
AcDbLine
 10
294.7832003292
 20
133.2427835778
 30
0.0
 11
294.7832003292
 21
140.2277835778
 31
0.0
  0
LINE
  5
138
330
130
100
AcDbEntity
  8
DIM
100
AcDbLine
 10
294.7832003292
 20
133.2427835778
 30
0.0
 11
294.7832003292
 21
117.2427835778
 31
0.0
  0
LINE
  5
139
330
130
100
AcDbEntity
  8
DIM
100
AcDbLine
 10
294.7832003292
 20
117.2427835778
 30
0.0
 11
294.7832003292
 21
110.2577835778
 31
0.0
  0
MTEXT
  5
13A
330
130
100
AcDbEntity
  8
DIM
100
AcDbMText
 10
290.6563034154
 20
120.6034850624
 30
0.0
 40
3.2014583333
 41
0.0
 71
     1
 72
     1
  1
%%c
  7
SLDTEXTSTYLE0
 11
-1.059690869644414E-14
 21
1.0
 31
0.0
 73
     1
 44
1.0
  0
MTEXT
  5
13B
330
130
100
AcDbEntity
  8
DIM
100
AcDbMText
 10
290.6563034154
 20
125.554184552
 30
0.0
 40
3.2014583333
 41
0.0
 71
     1
 72
     1
  1
16
  7
SLDTEXTSTYLE0
 11
-1.059690869644414E-14
 21
1.0
 31
0.0
 73
     1
 44
1.0
  0
ENDBLK
  5
132
330
130
100
AcDbEntity
  8
0
100
AcDbBlockEnd
  0
BLOCK
  5
13F
330
13E
100
AcDbEntity
  8
0
100
AcDbBlockBegin
  2
_D_1
 70
     0
 10
0.0
 20
0.0
 30
0.0
  3
_D_1
  1
_D_1
  0
SOLID
  5
141
330
13E
100
AcDbEntity
  8
DIM
100
AcDbTrace
 10
301.7809864336
 20
144.2427835778
 30
0.0
 11
301.2221864336
 21
140.6105835778
 31
0.0
 12
302.3397864336
 22
140.6105835778
 32
0.0
 13
302.3397864336
 23
140.6105835778
 33
0.0
  0
SOLID
  5
142
330
13E
100
AcDbEntity
  8
DIM
100
AcDbTrace
 10
301.7809864336
 20
106.2427835778
 30
0.0
 11
302.3397864336
 21
109.8749835778
 31
0.0
 12
301.2221864336
 22
109.8749835778
 32
0.0
 13
301.2221864336
 23
109.8749835778
 33
0.0
  0
LINE
  5
143
330
13E
100
AcDbEntity
  8
DIM
100
AcDbLine
 10
259.6109629308
 20
144.2427835778
 30
0.0
 11
302.8809864336
 21
144.2427835778
 31
0.0
  0
LINE
  5
144
330
13E
100
AcDbEntity
  8
DIM
100
AcDbLine
 10
259.6109629308
 20
106.2427835778
 30
0.0
 11
302.8809864336
 21
106.2427835778
 31
0.0
  0
LINE
  5
145
330
13E
100
AcDbEntity
  8
DIM
100
AcDbLine
 10
301.7809864336
 20
144.2427835778
 30
0.0
 11
301.7809864336
 21
106.2427835778
 31
0.0
  0
MTEXT
  5
146
330
13E
100
AcDbEntity
  8
DIM
100
AcDbMText
 10
297.6540895197
 20
120.6034850624
 30
0.0
 40
3.2014583333
 41
0.0
 71
     1
 72
     1
  1
%%c
  7
SLDTEXTSTYLE0
 11
-1.059690869644414E-14
 21
1.0
 31
0.0
 73
     1
 44
1.0
  0
MTEXT
  5
147
330
13E
100
AcDbEntity
  8
DIM
100
AcDbMText
 10
297.6540895197
 20
125.554184552
 30
0.0
 40
3.2014583333
 41
0.0
 71
     1
 72
     1
  1
38
  7
SLDTEXTSTYLE0
 11
-1.059690869644414E-14
 21
1.0
 31
0.0
 73
     1
 44
1.0
  0
ENDBLK
  5
140
330
13E
100
AcDbEntity
  8
0
100
AcDbBlockEnd
  0
BLOCK
  5
14A
330
149
100
AcDbEntity
  8
0
100
AcDbBlockBegin
  2
_D_2
 70
     0
 10
0.0
 20
0.0
 30
0.0
  3
_D_2
  1
_D_2
  0
SOLID
  5
14C
330
149
100
AcDbEntity
  8
DIM
100
AcDbTrace
 10
276.5109629308
 20
85.4777637045
 30
0.0
 11
280.1431629308
 21
84.9189637045
 31
0.0
 12
280.1431629308
 22
86.0365637045
 32
0.0
 13
280.1431629308
 23
86.0365637045
 33
0.0
  0
SOLID
  5
14D
330
149
100
AcDbEntity
  8
DIM
100
AcDbTrace
 10
259.5109629308
 20
85.4777637045
 30
0.0
 11
255.8787629308
 21
86.0365637045
 31
0.0
 12
255.8787629308
 22
84.9189637045
 32
0.0
 13
255.8787629308
 23
84.9189637045
 33
0.0
  0
LINE
  5
14E
330
149
100
AcDbEntity
  8
DIM
100
AcDbLine
 10
276.5109629308
 20
116.9927835778
 30
0.0
 11
276.5109629308
 21
84.3777637045
 31
0.0
  0
LINE
  5
14F
330
149
100
AcDbEntity
  8
DIM
100
AcDbLine
 10
259.5109629308
 20
106.1427835778
 30
0.0
 11
259.5109629308
 21
84.3777637045
 31
0.0
  0
LINE
  5
150
330
149
100
AcDbEntity
  8
DIM
100
AcDbLine
 10
276.5109629308
 20
85.4777637045
 30
0.0
 11
283.4959629308
 21
85.4777637045
 31
0.0
  0
LINE
  5
151
330
149
100
AcDbEntity
  8
DIM
100
AcDbLine
 10
276.5109629308
 20
85.4777637045
 30
0.0
 11
259.5109629308
 21
85.4777637045
 31
0.0
  0
LINE
  5
152
330
149
100
AcDbEntity
  8
DIM
100
AcDbLine
 10
259.5109629308
 20
85.4777637045
 30
0.0
 11
252.5259629308
 21
85.4777637045
 31
0.0
  0
MTEXT
  5
153
330
149
100
AcDbEntity
  8
DIM
100
AcDbMText
 10
265.8470141601
 20
89.6046606183
 30
0.0
 40
3.2014583333
 41
0.0
 71
     1
 72
     1
  1
17
  7
SLDTEXTSTYLE0
 73
     1
 44
1.0
  0
ENDBLK
  5
14B
330
149
100
AcDbEntity
  8
0
100
AcDbBlockEnd
  0
BLOCK
  5
156
330
155
100
AcDbEntity
  8
0
100
AcDbBlockBegin
  2
_D_3
 70
     0
 10
0.0
 20
0.0
 30
0.0
  3
_D_3
  1
_D_3
  0
SOLID
  5
158
330
155
100
AcDbEntity
  8
DIM
100
AcDbTrace
 10
259.5109629308
 20
85.4777637045
 30
0.0
 11
255.8787629308
 21
86.0365637045
 31
0.0
 12
255.8787629308
 22
84.9189637045
 32
0.0
 13
255.8787629308
 23
84.9189637045
 33
0.0
  0
SOLID
  5
159
330
155
100
AcDbEntity
  8
DIM
100
AcDbTrace
 10
99.5109629308
 20
85.4777637045
 30
0.0
 11
103.1431629308
 21
84.9189637045
 31
0.0
 12
103.1431629308
 22
86.0365637045
 32
0.0
 13
103.1431629308
 23
86.0365637045
 33
0.0
  0
LINE
  5
15A
330
155
100
AcDbEntity
  8
DIM
100
AcDbLine
 10
259.5109629308
 20
106.1427835778
 30
0.0
 11
259.5109629308
 21
84.3777637045
 31
0.0
  0
LINE
  5
15B
330
155
100
AcDbEntity
  8
DIM
100
AcDbLine
 10
99.5109629308
 20
101.9177835778
 30
0.0
 11
99.5109629308
 21
84.3777637045
 31
0.0
  0
LINE
  5
15C
330
155
100
AcDbEntity
  8
DIM
100
AcDbLine
 10
259.5109629308
 20
85.4777637045
 30
0.0
 11
99.5109629308
 21
85.4777637045
 31
0.0
  0
MTEXT
  5
15D
330
155
100
AcDbEntity
  8
DIM
100
AcDbMText
 10
176.2650397748
 20
89.6046606183
 30
0.0
 40
3.2014583333
 41
0.0
 71
     1
 72
     1
  1
160
  7
SLDTEXTSTYLE0
 73
     1
 44
1.0
  0
ENDBLK
  5
157
330
155
100
AcDbEntity
  8
0
100
AcDbBlockEnd
  0
BLOCK
  5
161
330
160
100
AcDbEntity
  8
0
100
AcDbBlockBegin
  2
_D_4
 70
     0
 10
0.0
 20
0.0
 30
0.0
  3
_D_4
  1
_D_4
  0
SOLID
  5
163
330
160
100
AcDbEntity
  8
DIM
100
AcDbTrace
 10
34.1109629308
 20
76.1426835778
 30
0.0
 11
37.7431629308
 21
75.5838835778
 31
0.0
 12
37.7431629308
 22
76.7014835778
 32
0.0
 13
37.7431629308
 23
76.7014835778
 33
0.0
  0
SOLID
  5
164
330
160
100
AcDbEntity
  8
DIM
100
AcDbTrace
 10
287.5109629308
 20
76.1426835778
 30
0.0
 11
283.8787629308
 21
76.7014835778
 31
0.0
 12
283.8787629308
 22
75.5838835778
 32
0.0
 13
283.8787629308
 23
75.5838835778
 33
0.0
  0
LINE
  5
165
330
160
100
AcDbEntity
  8
DIM
100
AcDbLine
 10
34.1109629308
 20
112.3201168572
 30
0.0
 11
34.1109629308
 21
75.0426835778
 31
0.0
  0
LINE
  5
166
330
160
100
AcDbEntity
  8
DIM
100
AcDbLine
 10
287.5109629308
 20
114.8427835778
 30
0.0
 11
287.5109629308
 21
75.0426835778
 31
0.0
  0
LINE
  5
167
330
160
100
AcDbEntity
  8
DIM
100
AcDbLine
 10
34.1109629308
 20
76.1426835778
 30
0.0
 11
287.5109629308
 21
76.1426835778
 31
0.0
  0
MTEXT
  5
168
330
160
100
AcDbEntity
  8
DIM
100
AcDbMText
 10
154.8319428288
 20
80.2695804916
 30
0.0
 40
3.2014583333
 41
0.0
 71
     1
 72
     1
  1
253.40
  7
SLDTEXTSTYLE0
 73
     1
 44
1.0
  0
ENDBLK
  5
162
330
160
100
AcDbEntity
  8
0
100
AcDbBlockEnd
  0
BLOCK
  5
16B
330
16A
100
AcDbEntity
  8
0
100
AcDbBlockBegin
  2
_D_5
 70
     0
 10
0.0
 20
0.0
 30
0.0
  3
_D_5
  1
_D_5
  0
SOLID
  5
16D
330
16A
100
AcDbEntity
  8
DIM
100
AcDbTrace
 10
25.965161694
 20
93.7427835778
 30
0.0
 11
26.523961694
 21
97.3749835778
 31
0.0
 12
25.406361694
 22
97.3749835778
 32
0.0
 13
25.406361694
 23
97.3749835778
 33
0.0
  0
SOLID
  5
16E
330
16A
100
AcDbEntity
  8
DIM
100
AcDbTrace
 10
25.965161694
 20
156.7427835778
 30
0.0
 11
25.406361694
 21
153.1105835778
 31
0.0
 12
26.523961694
 22
153.1105835778
 32
0.0
 13
26.523961694
 23
153.1105835778
 33
0.0
  0
LINE
  5
16F
330
16A
100
AcDbEntity
  8
DIM
100
AcDbLine
 10
101.5766483557
 20
93.7427835778
 30
0.0
 11
24.865161694
 21
93.7427835778
 31
0.0
  0
LINE
  5
170
330
16A
100
AcDbEntity
  8
DIM
100
AcDbLine
 10
101.5766483557
 20
156.7427835778
 30
0.0
 11
24.865161694
 21
156.7427835778
 31
0.0
  0
LINE
  5
171
330
16A
100
AcDbEntity
  8
DIM
100
AcDbLine
 10
25.965161694
 20
93.7427835778
 30
0.0
 11
25.965161694
 21
156.7427835778
 31
0.0
  0
MTEXT
  5
172
330
16A
100
AcDbEntity
  8
DIM
100
AcDbMText
 10
21.8382647802
 20
120.6034850624
 30
0.0
 40
3.2014583333
 41
0.0
 71
     1
 72
     1
  1
%%c
  7
SLDTEXTSTYLE0
 11
-3.491481338843133E-15
 21
1.0
 31
0.0
 73
     1
 44
1.0
  0
MTEXT
  5
173
330
16A
100
AcDbEntity
  8
DIM
100
AcDbMText
 10
21.8382647802
 20
125.554184552
 30
0.0
 40
3.2014583333
 41
0.0
 71
     1
 72
     1
  1
63
  7
SLDTEXTSTYLE0
 11
-3.491481338843133E-15
 21
1.0
 31
0.0
 73
     1
 44
1.0
  0
ENDBLK
  5
16C
330
16A
100
AcDbEntity
  8
0
100
AcDbBlockEnd
  0
ENDSEC
  0
SECTION
  2
ENTITIES
  0
LINE
  5
76
330
1F
100
AcDbEntity
  8
DIM
100
AcDbLine
 10
115.1748671579
 20
10.7700906025
 30
0.0
 11
115.1748671579
 21
5.2700906025
 31
0.0
  0
LINE
  5
77
330
1F
100
AcDbEntity
  8
DIM
100
AcDbLine
 10
279.9165618648
 20
10.7700906025
 30
0.0
 11
279.9165618648
 21
5.2700906025
 31
0.0
  0
LINE
  5
78
330
1F
100
AcDbEntity
  8
DIM
100
AcDbLine
 10
261.1968809247
 20
10.7700906025
 30
0.0
 11
261.1968809247
 21
5.2700906025
 31
0.0
  0
LINE
  5
79
330
1F
100
AcDbEntity
  8
DIM
100
AcDbLine
 10
306.7948671579
 20
5.2700906025
 30
0.0
 11
306.7948671579
 21
10.7700906025
 31
0.0
  0
LINE
  5
7A
330
1F
100
AcDbEntity
  8
DIM
100
AcDbLine
 10
123.7548671579
 20
10.7700906025
 30
0.0
 11
123.7548671579
 21
5.2700906025
 31
0.0
  0
LINE
  5
7B
330
1F
100
AcDbEntity
  8
DIM
100
AcDbLine
 10
144.8649148351
 20
10.7700906025
 30
0.0
 11
144.8649148351
 21
5.2700906025
 31
0.0
  0
LINE
  5
7C
330
1F
100
AcDbEntity
  8
DIM
100
AcDbLine
 10
321.0948671579
 20
5.2700906025
 30
0.0
 11
321.0948671579
 21
84.7450906025
 31
0.0
  0
LINE
  5
7D
330
1F
100
AcDbEntity
  8
DIM
100
AcDbLine
 10
314.4009051641
 20
66.0450906025
 30
0.0
 11
321.0948671579
 21
66.0450906025
 31
0.0
  0
LINE
  5
7E
330
1F
100
AcDbEntity
  8
DIM
100
AcDbLine
 10
164.0136859378
 20
9.9450906025
 30
0.0
 11
164.0136859378
 21
5.2700906025
 31
0.0
  0
LINE
  5
7F
330
1F
100
AcDbEntity
  8
DIM
100
AcDbLine
 10
216.4403440765
 20
10.7700906025
 30
0.0
 11
216.4403440765
 21
5.2700906025
 31
0.0
  0
LINE
  5
80
330
1F
100
AcDbEntity
  8
DIM
100
AcDbLine
 10
164.0136859378
 20
10.7700906025
 30
0.0
 11
164.0136859378
 21
9.9450906025
 31
0.0
  0
LINE
  5
81
330
1F
100
AcDbEntity
  8
DIM
100
AcDbLine
 10
315.5948671579
 20
19.2950114025
 30
0.0
 11
321.0948671579
 21
19.2950114025
 31
0.0
  0
LINE
  5
82
330
1F
100
AcDbEntity
  8
DIM
100
AcDbLine
 10
315.5948671579
 20
219.7700906025
 30
0.0
 11
10.8948671579
 21
219.7700906025
 31
0.0
  0
LINE
  5
83
330
1F
100
AcDbEntity
  8
DIM
100
AcDbLine
 10
321.0948671579
 20
225.2700906025
 30
0.0
 11
5.3948671579
 21
225.2700906025
 31
0.0
  0
LINE
  5
84
330
1F
100
AcDbEntity
  8
DIM
100
AcDbLine
 10
10.8948671579
 20
219.7700906025
 30
0.0
 11
10.8948671579
 21
10.7700906025
 31
0.0
  0
LINE
  5
85
330
1F
100
AcDbEntity
  8
DIM
100
AcDbLine
 10
5.3948671579
 20
225.2700906025
 30
0.0
 11
5.3948671579
 21
5.2700906025
 31
0.0
  0
LINE
  5
86
330
1F
100
AcDbEntity
  8
DIM
100
AcDbLine
 10
10.8948671579
 20
60.2700906025
 30
0.0
 11
5.3948671579
 21
60.2700906025
 31
0.0
  0
LINE
  5
87
330
1F
100
AcDbEntity
  8
DIM
100
AcDbLine
 10
5.3948671579
 20
115.2700906025
 30
0.0
 11
10.8948671579
 21
115.2700906025
 31
0.0
  0
LINE
  5
88
330
1F
100
AcDbEntity
  8
DIM
100
AcDbLine
 10
5.3948671579
 20
5.2700906025
 30
0.0
 11
321.0948671579
 21
5.2700906025
 31
0.0
  0
LINE
  5
89
330
1F
100
AcDbEntity
  8
DIM
100
AcDbLine
 10
10.8948671579
 20
10.7700906025
 30
0.0
 11
321.0948671579
 21
10.7700906025
 31
0.0
  0
LINE
  5
8A
330
1F
100
AcDbEntity
  8
DIM
100
AcDbLine
 10
53.2448671579
 20
5.2700906025
 30
0.0
 11
53.2448671579
 21
10.7700906025
 31
0.0
  0
LINE
  5
8B
330
1F
100
AcDbEntity
  8
DIM
100
AcDbLine
 10
108.2448671579
 20
10.7700906025
 30
0.0
 11
108.2448671579
 21
5.2700906025
 31
0.0
  0
LINE
  5
8C
330
1F
100
AcDbEntity
  8
DIM
100
AcDbLine
 10
10.8948671579
 20
170.2700906025
 30
0.0
 11
5.3948671579
 21
170.2700906025
 31
0.0
  0
LINE
  5
8D
330
1F
100
AcDbEntity
  8
DIM
100
AcDbLine
 10
53.2448671579
 20
219.7700906025
 30
0.0
 11
53.2448671579
 21
225.2700906025
 31
0.0
  0
LINE
  5
8E
330
1F
100
AcDbEntity
  8
DIM
100
AcDbLine
 10
108.2448671579
 20
225.2700906025
 30
0.0
 11
108.2448671579
 21
219.7700906025
 31
0.0
  0
LINE
  5
8F
330
1F
100
AcDbEntity
  8
DIM
100
AcDbLine
 10
163.2448671579
 20
225.2700906025
 30
0.0
 11
163.2448671579
 21
219.7700906025
 31
0.0
  0
LINE
  5
90
330
1F
100
AcDbEntity
  8
DIM
100
AcDbLine
 10
315.5948671579
 20
10.7700906025
 30
0.0
 11
315.5948671579
 21
219.7700906025
 31
0.0
  0
LINE
  5
91
330
1F
100
AcDbEntity
  8
DIM
100
AcDbLine
 10
321.0948671579
 20
84.7450906025
 30
0.0
 11
321.0948671579
 21
225.2700906025
 31
0.0
  0
LINE
  5
92
330
1F
100
AcDbEntity
  8
DIM
100
AcDbLine
 10
321.0948671579
 20
115.2700906025
 30
0.0
 11
315.5948671579
 21
115.2700906025
 31
0.0
  0
LINE
  5
93
330
1F
100
AcDbEntity
  8
DIM
100
AcDbLine
 10
218.2448671579
 20
225.2700906025
 30
0.0
 11
218.2448671579
 21
219.7700906025
 31
0.0
  0
LINE
  5
94
330
1F
100
AcDbEntity
  8
DIM
100
AcDbLine
 10
273.2448671579
 20
219.7700906025
 30
0.0
 11
273.2448671579
 21
225.2700906025
 31
0.0
  0
LINE
  5
95
330
1F
100
AcDbEntity
  8
DIM
100
AcDbLine
 10
315.5948671579
 20
170.2700906025
 30
0.0
 11
321.0948671579
 21
170.2700906025
 31
0.0
  0
MTEXT
  5
97
330
1F
100
AcDbEntity
  8
DIM
100
AcDbMText
 10
14.6797875733
 20
213.3467934249
 30
0.0
 40
4.6566666667
 41
0.0
 71
     1
 72
     1
  1
BT40 FMH16 160 AD/6.3G15000 SL SP.S
  7
SLDTEXTSTYLE0
 73
     1
 44
1.0
  0
MTEXT
  5
99
330
1F
100
AcDbEntity
  8
DIM
 62
     7
100
AcDbMText
 10
217.5060565113
 20
8.5821466789
 30
0.0
 40
1.64846
 41
0.0
 71
     1
 72
     1
  1
WEIGHT:
  7
SLDTEXTSTYLE1
 73
     1
 44
1.0
  0
MTEXT
  5
9A
330
1F
100
AcDbEntity
  8
DIM
 62
     7
100
AcDbMText
 10
317.4567844303
 20
90.1346748591
 30
0.0
 40
2.0372916667
 41
0.0
 71
     1
 72
     1
  1
C
  7
SLDTEXTSTYLE1
 73
     1
 44
1.0
  0
MTEXT
  5
9B
330
1F
100
AcDbEntity
  8
DIM
 62
     7
100
AcDbMText
 10
311.3479386814
 20
16.339380182
 30
0.0
 40
3.2014583333
 41
0.0
 71
     1
 72
     1
  1
A4
  7
SLDTEXTSTYLE1
 73
     1
 44
1.0
  0
MTEXT
  5
9C
330
1F
100
AcDbEntity
  8
DIM
 62
     7
100
AcDbMText
 10
299.8282048912
 20
223.8049086465
 30
0.0
 40
2.0372916667
 41
0.0
 71
     1
 72
     1
  1
6
  7
SLDTEXTSTYLE1
 73
     1
 44
1.0
  0
MTEXT
  5
9D
330
1F
100
AcDbEntity
  8
DIM
 62
     7
100
AcDbMText
 10
244.8282048912
 20
223.8049086465
 30
0.0
 40
2.0372916667
 41
0.0
 71
     1
 72
     1
  1
5
  7
SLDTEXTSTYLE1
 73
     1
 44
1.0
  0
MTEXT
  5
9E
330
1F
100
AcDbEntity
  8
DIM
 62
     7
100
AcDbMText
 10
317.4282092912
 20
199.0549086465
 30
0.0
 40
2.0372916667
 41
0.0
 71
     1
 72
     1
  1
A
  7
SLDTEXTSTYLE1
 73
     1
 44
1.0
  0
MTEXT
  5
9F
330
1F
100
AcDbEntity
  8
DIM
 62
     7
100
AcDbMText
 10
317.4282092912
 20
144.0549086465
 30
0.0
 40
2.0372916667
 41
0.0
 71
     1
 72
     1
  1
B
  7
SLDTEXTSTYLE1
 73
     1
 44
1.0
  0
MTEXT
  5
A0
330
1F
100
AcDbEntity
  8
DIM
 62
     7
100
AcDbMText
 10
189.8282048912
 20
223.8049086465
 30
0.0
 40
2.0372916667
 41
0.0
 71
     1
 72
     1
  1
4
  7
SLDTEXTSTYLE1
 73
     1
 44
1.0
  0
MTEXT
  5
A1
330
1F
100
AcDbEntity
  8
DIM
 62
     7
100
AcDbMText
 10
25.2865382246
 20
223.8049086465
 30
0.0
 40
2.0372916667
 41
0.0
 71
     1
 72
     1
  1
1
  7
SLDTEXTSTYLE1
 73
     1
 44
1.0
  0
MTEXT
  5
A2
330
1F
100
AcDbEntity
  8
DIM
 62
     7
100
AcDbMText
 10
79.8282048912
 20
223.8049086465
 30
0.0
 40
2.0372916667
 41
0.0
 71
     1
 72
     1
  1
2
  7
SLDTEXTSTYLE1
 73
     1
 44
1.0
  0
MTEXT
  5
A3
330
1F
100
AcDbEntity
  8
DIM
 62
     7
100
AcDbMText
 10
134.8282048912
 20
223.8049086465
 30
0.0
 40
2.0372916667
 41
0.0
 71
     1
 72
     1
  1
3
  7
SLDTEXTSTYLE1
 73
     1
 44
1.0
  0
MTEXT
  5
A4
330
1F
100
AcDbEntity
  8
DIM
 62
     7
100
AcDbMText
 10
7.2282004912
 20
199.0549086465
 30
0.0
 40
2.0372916667
 41
0.0
 71
     1
 72
     1
  1
A
  7
SLDTEXTSTYLE1
 73
     1
 44
1.0
  0
MTEXT
  5
A5
330
1F
100
AcDbEntity
  8
DIM
 62
     7
100
AcDbMText
 10
79.8282048912
 20
9.3049086465
 30
0.0
 40
2.0372916667
 41
0.0
 71
     1
 72
     1
  1
2
  7
SLDTEXTSTYLE1
 73
     1
 44
1.0
  0
MTEXT
  5
A6
330
1F
100
AcDbEntity
  8
DIM
 62
     7
100
AcDbMText
 10
25.2865382246
 20
9.3049086465
 30
0.0
 40
2.0372916667
 41
0.0
 71
     1
 72
     1
  1
1
  7
SLDTEXTSTYLE1
 73
     1
 44
1.0
  0
MTEXT
  5
A7
330
1F
100
AcDbEntity
  8
DIM
 62
     7
100
AcDbMText
 10
7.2282004912
 20
34.0549086465
 30
0.0
 40
2.0372916667
 41
0.0
 71
     1
 72
     1
  1
D
  7
SLDTEXTSTYLE1
 73
     1
 44
1.0
  0
MTEXT
  5
A8
330
1F
100
AcDbEntity
  8
DIM
 62
     7
100
AcDbMText
 10
7.2282004912
 20
89.0549086465
 30
0.0
 40
2.0372916667
 41
0.0
 71
     1
 72
     1
  1
C
  7
SLDTEXTSTYLE1
 73
     1
 44
1.0
  0
MTEXT
  5
A9
330
1F
100
AcDbEntity
  8
DIM
 62
     7
100
AcDbMText
 10
7.2282004912
 20
144.0549086465
 30
0.0
 40
2.0372916667
 41
0.0
 71
     1
 72
     1
  1
B
  7
SLDTEXTSTYLE1
 73
     1
 44
1.0
  0
MTEXT
  5
AA
330
1F
100
AcDbEntity
  8
DIM
 62
     7
100
AcDbMText
 10
317.4567844303
 20
90.1346748591
 30
0.0
 40
2.0372916667
 41
0.0
 71
     1
 72
     1
  1
C
  7
SLDTEXTSTYLE1
 73
     1
 44
1.0
  0
MTEXT
  5
AC
330
1F
100
AcDbEntity
  8
DIM
 62
     7
100
AcDbMText
 10
282.1779023938
 20
8.4601866045
 30
0.0
 40
1.65
 41
0.0
 71
     1
 72
     1
  1
SHEET 1 OF 1
  7
SLDTEXTSTYLE2
 73
     1
 44
1.0
  0
MTEXT
  5
AD
330
1F
100
AcDbEntity
  8
DIM
 62
     7
100
AcDbMText
 10
165.4089584218
 20
8.638704232
 30
0.0
 40
1.65
 41
0.0
 71
     1
 72
     1
  1
MATERIAL:
  7
SLDTEXTSTYLE1
 73
     1
 44
1.0
  0
MTEXT
  5
AE
330
1F
100
AcDbEntity
  8
DIM
 62
     7
100
AcDbMText
 10
299.8282048912
 20
223.8049086465
 30
0.0
 40
2.0372916667
 41
0.0
 71
     1
 72
     1
  1
6
  7
SLDTEXTSTYLE1
 73
     1
 44
1.0
  0
MTEXT
  5
AF
330
1F
100
AcDbEntity
  8
DIM
 62
     7
100
AcDbMText
 10
244.8282048912
 20
223.8049086465
 30
0.0
 40
2.0372916667
 41
0.0
 71
     1
 72
     1
  1
5
  7
SLDTEXTSTYLE1
 73
     1
 44
1.0
  0
MTEXT
  5
B0
330
1F
100
AcDbEntity
  8
DIM
 62
     7
100
AcDbMText
 10
317.4282092912
 20
199.0549086465
 30
0.0
 40
2.0372916667
 41
0.0
 71
     1
 72
     1
  1
A
  7
SLDTEXTSTYLE1
 73
     1
 44
1.0
  0
MTEXT
  5
B1
330
1F
100
AcDbEntity
  8
DIM
 62
     7
100
AcDbMText
 10
317.4282092912
 20
144.0549086465
 30
0.0
 40
2.0372916667
 41
0.0
 71
     1
 72
     1
  1
B
  7
SLDTEXTSTYLE1
 73
     1
 44
1.0
  0
MTEXT
  5
B2
330
1F
100
AcDbEntity
  8
DIM
 62
     7
100
AcDbMText
 10
189.8282048912
 20
223.8049086465
 30
0.0
 40
2.0372916667
 41
0.0
 71
     1
 72
     1
  1
4
  7
SLDTEXTSTYLE1
 73
     1
 44
1.0
  0
MTEXT
  5
B3
330
1F
100
AcDbEntity
  8
DIM
 62
     7
100
AcDbMText
 10
25.2865382246
 20
223.8049086465
 30
0.0
 40
2.0372916667
 41
0.0
 71
     1
 72
     1
  1
1
  7
SLDTEXTSTYLE1
 73
     1
 44
1.0
  0
MTEXT
  5
B4
330
1F
100
AcDbEntity
  8
DIM
 62
     7
100
AcDbMText
 10
79.8282048912
 20
223.8049086465
 30
0.0
 40
2.0372916667
 41
0.0
 71
     1
 72
     1
  1
2
  7
SLDTEXTSTYLE1
 73
     1
 44
1.0
  0
MTEXT
  5
B5
330
1F
100
AcDbEntity
  8
DIM
 62
     7
100
AcDbMText
 10
134.8282048912
 20
223.8049086465
 30
0.0
 40
2.0372916667
 41
0.0
 71
     1
 72
     1
  1
3
  7
SLDTEXTSTYLE1
 73
     1
 44
1.0
  0
MTEXT
  5
B6
330
1F
100
AcDbEntity
  8
DIM
 62
     7
100
AcDbMText
 10
7.2282004912
 20
199.0549086465
 30
0.0
 40
2.0372916667
 41
0.0
 71
     1
 72
     1
  1
A
  7
SLDTEXTSTYLE1
 73
     1
 44
1.0
  0
MTEXT
  5
B7
330
1F
100
AcDbEntity
  8
DIM
 62
     7
100
AcDbMText
 10
79.8282048912
 20
9.3049086465
 30
0.0
 40
2.0372916667
 41
0.0
 71
     1
 72
     1
  1
2
  7
SLDTEXTSTYLE1
 73
     1
 44
1.0
  0
MTEXT
  5
B8
330
1F
100
AcDbEntity
  8
DIM
 62
     7
100
AcDbMText
 10
25.2865382246
 20
9.3049086465
 30
0.0
 40
2.0372916667
 41
0.0
 71
     1
 72
     1
  1
1
  7
SLDTEXTSTYLE1
 73
     1
 44
1.0
  0
MTEXT
  5
B9
330
1F
100
AcDbEntity
  8
DIM
 62
     7
100
AcDbMText
 10
7.2282004912
 20
34.0549086465
 30
0.0
 40
2.0372916667
 41
0.0
 71
     1
 72
     1
  1
D
  7
SLDTEXTSTYLE1
 73
     1
 44
1.0
  0
MTEXT
  5
BA
330
1F
100
AcDbEntity
  8
DIM
 62
     7
100
AcDbMText
 10
7.2282004912
 20
89.0549086465
 30
0.0
 40
2.0372916667
 41
0.0
 71
     1
 72
     1
  1
C
  7
SLDTEXTSTYLE1
 73
     1
 44
1.0
  0
MTEXT
  5
BB
330
1F
100
AcDbEntity
  8
DIM
 62
     7
100
AcDbMText
 10
7.2282004912
 20
144.0549086465
 30
0.0
 40
2.0372916667
 41
0.0
 71
     1
 72
     1
  1
B
  7
SLDTEXTSTYLE1
 73
     1
 44
1.0
  0
LINE
  5
BC
330
1F
100
AcDbEntity
  8
0
  6
Continuous
 62
     7
370
    15
100
AcDbLine
 10
111.1108209244
 20
93.7427835778
 30
0.0
 11
113.6109629308
 21
98.0731565589
 31
0.0
  0
LINE
  5
BD
330
1F
100
AcDbEntity
  8
0
  6
Continuous
 62
     7
370
    15
100
AcDbLine
 10
113.6109629308
 20
152.4124105967
 30
0.0
 11
111.1108209244
 21
156.7427835778
 31
0.0
  0
ARC
  5
BE
330
1F
100
AcDbEntity
  8
0
  6
Continuous
 62
     7
370
    15
100
AcDbCircle
 10
125.3452775058
 20
94.1427835778
 30
0.0
 40
0.3999999999999915
100
AcDbArc
 50
270.0
 51
315.0
  0
ARC
  5
BF
330
1F
100
AcDbEntity
  8
0
  6
Continuous
 62
     7
370
    15
100
AcDbCircle
 10
125.3452775058
 20
156.3427835778
 30
0.0
 40
0.4000000000000341
100
AcDbArc
 50
45.0
 51
90.0
  0
LINE
  5
C0
330
1F
100
AcDbEntity
  8
0
  6
Continuous
 62
     7
370
    15
100
AcDbLine
 10
121.1111049371
 20
156.7427835778
 30
0.0
 11
118.6109629308
 21
152.4124105967
 31
0.0
  0
LINE
  5
C1
330
1F
100
AcDbEntity
  8
0
  6
Continuous
 62
     7
370
    15
100
AcDbLine
 10
118.6109629308
 20
98.0731565589
 30
0.0
 11
121.1111049371
 21
93.7427835778
 31
0.0
  0
LINE
  5
C2
330
1F
100
AcDbEntity
  8
0
  6
Continuous
 62
     7
370
    15
100
AcDbLine
 10
102.6766483557
 20
93.7427835778
 30
0.0
 11
111.1108209244
 21
93.7427835778
 31
0.0
  0
LINE
  5
C3
330
1F
100
AcDbEntity
  8
0
  6
Continuous
 62
     7
370
    15
100
AcDbLine
 10
111.1108209244
 20
156.7427835778
 30
0.0
 11
102.6766483557
 21
156.7427835778
 31
0.0
  0
LINE
  5
C4
330
1F
100
AcDbEntity
  8
0
  6
Continuous
 62
     7
370
    15
100
AcDbLine
 10
121.1111049371
 20
93.7427835778
 30
0.0
 11
125.3452775058
 21
93.7427835778
 31
0.0
  0
LINE
  5
C5
330
1F
100
AcDbEntity
  8
0
  6
Continuous
 62
     7
370
    15
100
AcDbLine
 10
125.3452775058
 20
156.7427835778
 30
0.0
 11
121.1111049371
 21
156.7427835778
 31
0.0
  0
LINE
  5
C6
330
1F
100
AcDbEntity
  8
0
  6
Continuous
 62
     7
370
    15
100
AcDbLine
 10
102.3938056432
 20
156.6256262903
 30
0.0
 11
101.6281202183
 21
155.8599408653
 31
0.0
  0
LINE
  5
C7
330
1F
100
AcDbEntity
  8
0
  6
Continuous
 62
     7
370
    15
100
AcDbLine
 10
101.6281202183
 20
94.6256262903
 30
0.0
 11
102.3938056432
 21
93.8599408653
 31
0.0
  0
LINE
  5
C8
330
1F
100
AcDbEntity
  8
0
  6
Continuous
 62
     7
370
    15
100
AcDbLine
 10
125.6281202183
 20
93.8599408653
 30
0.0
 11
126.3938056432
 21
94.6256262903
 31
0.0
  0
LINE
  5
C9
330
1F
100
AcDbEntity
  8
0
  6
Continuous
 62
     7
370
    15
100
AcDbLine
 10
126.3938056432
 20
155.8599408653
 30
0.0
 11
125.6281202183
 21
156.6256262903
 31
0.0
  0
ARC
  5
CA
330
1F
100
AcDbEntity
  8
0
  6
Continuous
 62
     7
370
    15
100
AcDbCircle
 10
126.1109629308
 20
94.9084690028
 30
0.0
 40
0.4000000000000093
100
AcDbArc
 50
315.0
 51
0.0
  0
ARC
  5
CB
330
1F
100
AcDbEntity
  8
0
  6
Continuous
 62
     7
370
    15
100
AcDbCircle
 10
126.1109629308
 20
155.5770981529
 30
0.0
 40
0.4000000000000057
100
AcDbArc
 50
0.0
 51
45.0
  0
ARC
  5
CC
330
1F
100
AcDbEntity
  8
0
  6
Continuous
 62
     7
370
    15
100
AcDbCircle
 10
102.6766483557
 20
156.3427835778
 30
0.0
 40
0.4000000000000341
100
AcDbArc
 50
90.0
 51
135.0
  0
ARC
  5
CD
330
1F
100
AcDbEntity
  8
0
  6
Continuous
 62
     7
370
    15
100
AcDbCircle
 10
102.6766483557
 20
94.1427835778
 30
0.0
 40
0.3999999999999992
100
AcDbArc
 50
225.0
 51
270.0
  0
ARC
  5
CE
330
1F
100
AcDbEntity
  8
0
  6
Continuous
 62
     7
370
    15
100
AcDbCircle
 10
101.9109629308
 20
94.9084690028
 30
0.0
 40
0.3999999999999915
100
AcDbArc
 50
180.0
 51
225.0
  0
ARC
  5
CF
330
1F
100
AcDbEntity
  8
0
  6
Continuous
 62
     7
370
    15
100
AcDbCircle
 10
101.9109629308
 20
155.5770981529
 30
0.0
 40
0.3999999999999915
100
AcDbArc
 50
135.0
 51
180.0
  0
LINE
  5
D0
330
1F
100
AcDbEntity
  8
0
  6
Continuous
 62
     7
370
    15
100
AcDbLine
 10
113.6109629308
 20
98.7427835778
 30
0.0
 11
118.6109629308
 21
98.7427835778
 31
0.0
  0
LINE
  5
D1
330
1F
100
AcDbEntity
  8
0
  6
Continuous
 62
     7
370
    15
100
AcDbLine
 10
118.6109629308
 20
151.7427835778
 30
0.0
 11
113.6109629308
 21
151.7427835778
 31
0.0
  0
ARC
  5
D2
330
1F
100
AcDbEntity
  8
0
  6
Continuous
 62
     7
370
    15
100
AcDbCircle
 10
101.1109629308
 20
102.8427835778
 30
0.0
 40
0.4000000000000057
100
AcDbArc
 50
0.0
 51
90.0
  0
ARC
  5
D3
330
1F
100
AcDbEntity
  8
0
  6
Continuous
 62
     7
370
    15
100
AcDbCircle
 10
101.1109629308
 20
147.6427835778
 30
0.0
 40
0.4000000000000057
100
AcDbArc
 50
270.0
 51
0.0
  0
LINE
  5
D4
330
1F
100
AcDbEntity
  8
0
  6
Continuous
 62
     7
370
    15
100
AcDbLine
 10
99.5109629308
 20
103.0177835778
 30
0.0
 11
99.9934769879
 21
103.2427835778
 31
0.0
  0
LINE
  5
D5
330
1F
100
AcDbEntity
  8
0
  6
Continuous
 62
     7
370
    15
100
AcDbLine
 10
99.9934769879
 20
147.2427835778
 30
0.0
 11
99.5109629308
 21
147.4677835778
 31
0.0
  0
LINE
  5
D6
330
1F
100
AcDbEntity
  8
0
  6
Continuous
 62
     7
370
    15
100
AcDbLine
 10
99.5109629308
 20
147.4677835778
 30
0.0
 11
34.9666547035
 21
138.0549830849
 31
0.0
  0
LINE
  5
D7
330
1F
100
AcDbEntity
  8
0
  6
Continuous
 62
     7
370
    15
100
AcDbLine
 10
34.9666547035
 20
112.4305840707
 30
0.0
 11
99.5109629308
 21
103.0177835778
 31
0.0
  0
LINE
  5
D8
330
1F
100
AcDbEntity
  8
0
  6
Continuous
 62
     7
370
    15
100
AcDbLine
 10
99.9934769879
 20
103.2427835778
 30
0.0
 11
101.1109629308
 21
103.2427835778
 31
0.0
  0
LINE
  5
D9
330
1F
100
AcDbEntity
  8
0
  6
Continuous
 62
     7
370
    15
100
AcDbLine
 10
101.1109629308
 20
147.2427835778
 30
0.0
 11
99.9934769879
 21
147.2427835778
 31
0.0
  0
ARC
  5
DA
330
1F
100
AcDbEntity
  8
0
  6
Continuous
 62
     7
370
    15
100
AcDbCircle
 10
128.5109629308
 20
146.2427835778
 30
0.0
 40
2.0
100
AcDbArc
 50
180.0
 51
270.0
  0
ARC
  5
DB
330
1F
100
AcDbEntity
  8
0
  6
Continuous
 62
     7
370
    15
100
AcDbCircle
 10
128.5109629308
 20
104.2427835778
 30
0.0
 40
2.0
100
AcDbArc
 50
90.0
 51
180.0
  0
LINE
  5
DC
330
1F
100
AcDbEntity
  8
0
  6
Continuous
 62
     7
370
    15
100
AcDbLine
 10
128.5109629308
 20
106.2427835778
 30
0.0
 11
258.5109629308
 21
106.2427835778
 31
0.0
  0
LINE
  5
DD
330
1F
100
AcDbEntity
  8
0
  6
Continuous
 62
     7
370
    15
100
AcDbLine
 10
258.5109629308
 20
144.2427835778
 30
0.0
 11
128.5109629308
 21
144.2427835778
 31
0.0
  0
LINE
  5
DE
330
1F
100
AcDbEntity
  8
0
  6
Continuous
 62
     7
370
    15
100
AcDbLine
 10
258.5109629308
 20
106.2427835778
 30
0.0
 11
259.5109629308
 21
107.2427835778
 31
0.0
  0
LINE
  5
DF
330
1F
100
AcDbEntity
  8
0
  6
Continuous
 62
     7
370
    15
100
AcDbLine
 10
259.5109629308
 20
143.2427835778
 30
0.0
 11
258.5109629308
 21
144.2427835778
 31
0.0
  0
ARC
  5
E0
330
1F
100
AcDbEntity
  8
0
  6
Continuous
 62
     7
370
    15
100
AcDbCircle
 10
35.1109629308
 20
113.4201168572
 30
0.0
 40
1.000000000000015
100
AcDbArc
 50
180.0
 51
261.7027777778
  0
ARC
  5
E1
330
1F
100
AcDbEntity
  8
0
  6
Continuous
 62
     7
370
    15
100
AcDbCircle
 10
35.1109629308
 20
137.0654502984
 30
0.0
 40
1.000000000000015
100
AcDbArc
 50
98.2972222222
 51
180.0
  0
LINE
  5
E2
330
1F
100
AcDbEntity
  8
0
  6
Continuous
 62
     7
370
    15
100
AcDbLine
 10
281.2109629308
 20
135.2427835778
 30
0.0
 11
280.5109629308
 21
134.5427835778
 31
0.0
  0
LINE
  5
E3
330
1F
100
AcDbEntity
  8
0
  6
Continuous
 62
     7
370
    15
100
AcDbLine
 10
280.5109629308
 20
115.9427835778
 30
0.0
 11
281.2109629308
 21
115.2427835778
 31
0.0
  0
LINE
  5
E4
330
1F
100
AcDbEntity
  8
0
  6
Continuous
 62
     7
370
    15
100
AcDbLine
 10
281.2109629308
 20
115.2427835778
 30
0.0
 11
286.8109629308
 21
115.2427835778
 31
0.0
  0
LINE
  5
E5
330
1F
100
AcDbEntity
  8
0
  6
Continuous
 62
     7
370
    15
100
AcDbLine
 10
286.8109629308
 20
135.2427835778
 30
0.0
 11
281.2109629308
 21
135.2427835778
 31
0.0
  0
LINE
  5
E6
330
1F
100
AcDbEntity
  8
0
  6
Continuous
 62
     7
370
    15
100
AcDbLine
 10
286.8109629308
 20
115.2427835778
 30
0.0
 11
287.5109629308
 21
115.9427835778
 31
0.0
  0
LINE
  5
E7
330
1F
100
AcDbEntity
  8
0
  6
Continuous
 62
     7
370
    15
100
AcDbLine
 10
287.5109629308
 20
134.5427835778
 30
0.0
 11
286.8109629308
 21
135.2427835778
 31
0.0
  0
LINE
  5
E8
330
1F
100
AcDbEntity
  8
0
  6
Continuous
 62
     7
370
    15
100
AcDbLine
 10
259.5109629308
 20
117.2427835778
 30
0.0
 11
275.0387197443
 21
117.2427835778
 31
0.0
  0
LINE
  5
E9
330
1F
100
AcDbEntity
  8
0
  6
Continuous
 62
     7
370
    15
100
AcDbLine
 10
275.0387197443
 20
133.2427835778
 30
0.0
 11
259.5109629308
 21
133.2427835778
 31
0.0
  0
LINE
  5
EA
330
1F
100
AcDbEntity
  8
0
  6
Continuous
 62
     7
370
    15
100
AcDbLine
 10
275.0387197443
 20
117.2427835778
 30
0.0
 11
276.5109629308
 21
118.0927835778
 31
0.0
  0
LINE
  5
EB
330
1F
100
AcDbEntity
  8
0
  6
Continuous
 62
     7
370
    15
100
AcDbLine
 10
276.5109629308
 20
132.3927835778
 30
0.0
 11
275.0387197443
 21
133.2427835778
 31
0.0
  0
LINE
  5
EC
330
1F
100
AcDbEntity
  8
0
  6
Continuous
 62
     7
370
    15
100
AcDbLine
 10
276.5109629308
 20
121.2427835778
 30
0.0
 11
280.5109629308
 21
121.2427835778
 31
0.0
  0
LINE
  5
ED
330
1F
100
AcDbEntity
  8
0
  6
Continuous
 62
     7
370
    15
100
AcDbLine
 10
280.5109629308
 20
129.2427835778
 30
0.0
 11
276.5109629308
 21
129.2427835778
 31
0.0
  0
LINE
  5
EE
330
1F
100
AcDbEntity
  8
0
  6
Continuous
 62
     7
370
    15
100
AcDbLine
 10
113.6109629308
 20
98.0731565589
 30
0.0
 11
113.6109629308
 21
152.4124105967
 31
0.0
  0
LINE
  5
EF
330
1F
100
AcDbEntity
  8
0
  6
Continuous
 62
     7
370
    15
100
AcDbLine
 10
111.1108209244
 20
156.7427835778
 30
0.0
 11
111.1108209244
 21
93.7427835778
 31
0.0
  0
LINE
  5
F0
330
1F
100
AcDbEntity
  8
0
  6
Continuous
 62
     7
370
    15
100
AcDbLine
 10
121.1111049371
 20
156.7427835778
 30
0.0
 11
121.1111049371
 21
93.7427835778
 31
0.0
  0
LINE
  5
F1
330
1F
100
AcDbEntity
  8
0
  6
Continuous
 62
     7
370
    15
100
AcDbLine
 10
118.6109629308
 20
152.4124105967
 30
0.0
 11
118.6109629308
 21
98.0731565589
 31
0.0
  0
LINE
  5
F2
330
1F
100
AcDbEntity
  8
0
  6
Continuous
 62
     7
370
    15
100
AcDbLine
 10
102.6766483557
 20
133.8422207335
 30
0.0
 11
102.6766483557
 21
116.5253302046
 31
0.0
  0
SPLINE
  5
F3
330
1F
100
AcDbEntity
  8
0
  6
Continuous
 62
     7
370
    15
100
AcDbSpline
210
0.0
220
0.0
230
1.0
 70
     8
 71
     3
 72
    10
 73
     6
 74
     0
 42
0.000000001
 43
0.00000001
 40
0.0
 40
0.0
 40
0.0
 40
0.0
 40
0.5
 40
0.5
 40
1.0
 40
1.0
 40
1.0
 40
1.0
 10
102.6766483557115
 20
116.5253302045734
 30
0.0
 10
102.6195759967008
 20
116.5253302045734
 30
0.0
 10
102.5641856223651
 20
116.5403460330885
 30
0.0
 10
102.4679363321899
 20
116.5908697533185
 30
0.0
 10
102.4270067346947
 20
116.6258742432497
 30
0.0
 10
102.3938056432369
 20
116.6657308758316
 30
0.0
  0
LINE
  5
F4
330
1F
100
AcDbEntity
  8
0
  6
Continuous
 62
     7
370
    15
100
AcDbLine
 10
102.3938056432
 20
133.7473023231
 30
0.0
 11
102.3938056432
 21
116.6657308758
 31
0.0
  0
SPLINE
  5
F5
330
1F
100
AcDbEntity
  8
0
  6
Continuous
 62
     7
370
    15
100
AcDbSpline
210
0.0
220
0.0
230
1.0
 70
     8
 71
     3
 72
     8
 73
     4
 74
     0
 42
0.000000001
 43
0.00000001
 40
0.0
 40
0.0
 40
0.0
 40
0.0
 40
1.0
 40
1.0
 40
1.0
 40
1.0
 10
102.3938056432369
 20
133.7473023230719
 30
0.0
 10
102.4650819029423
 20
133.8050826079458
 30
0.0
 10
102.5679905704585
 20
133.8422207334779
 30
0.0
 10
102.6766483557115
 20
133.8422207334779
 30
0.0
  0
LINE
  5
F6
330
1F
100
AcDbEntity
  8
0
  6
Continuous
 62
     7
370
    15
100
AcDbLine
 10
101.6281202183
 20
133.8756262903
 30
0.0
 11
101.6281202183
 21
116.6099408653
 31
0.0
  0
SPLINE
  5
F7
330
1F
100
AcDbEntity
  8
0
  6
Continuous
 62
     7
370
    15
100
AcDbSpline
210
0.0
220
0.0
230
1.0
 70
    24
 71
     3
 72
    48
 73
    44
 74
     0
 42
0.000000001
 43
0.00000001
 40
0.0
 40
0.0
 40
0.0
 40
0.0
 40
0.0058385064319404
 40
0.0116693089493158
 40
0.0174943546965688
 40
0.0233155965948828
 40
0.0291349913950249
 40
0.0349544977109672
 40
0.0407760740441266
 40
0.0466016768081715
 40
0.052433258364339
 40
0.0582727650770806
 40
0.089145350198613
 40
0.1200234411251712
 40
0.1521828793930852
 40
0.1843478457387299
 40
0.2171915780133336
 40
0.2500409559989734
 40
0.2828846884350582
 40
0.3157340665820931
 40
0.3478935052954069
 40
0.3800584720856809
 40
0.4109310568584915
 40
0.4418091475090352
 40
0.5000012044288498
 40
0.5581932613486642
 40
0.589065846470147
 40
0.6199439373967544
 40
0.6521033756645433
 40
0.6842683420103128
 40
0.7171120742852076
 40
0.749961452270561
 40
0.7828051847069323
 40
0.8156545628536761
 40
0.847814001566413
 40
0.8799789683572596
 40
0.9108515531295611
 40
0.9417296437806183
 40
0.9533984789576975
 40
0.9650442808832407
 40
0.9766826922672035
 40
0.9883293855983584
 40
1.0
 40
1.0
 40
1.0
 40
1.0
 10
126.5109629307623
 20
155.5770981528529
 30
0.0
 10
126.5109629307623
 20
155.5761250396835
 30
0.0
 10
126.5109629307623
 20
155.5741800973684
 30
0.0
 10
126.5109629307623
 20
155.5584191405254
 30
0.0
 10
126.5109629307623
 20
155.5332509965673
 30
0.0
 10
126.5109629307623
 20
155.4977571518644
 30
0.0
 10
126.5109629307623
 20
155.4521833667223
 30
0.0
 10
126.5109629307623
 20
155.3964639402613
 30
0.0
 10
126.5109629307623
 20
155.3306161757704
 30
0.0
 10
126.5109629307623
 20
155.2546366884918
 30
0.0
 10
126.5109629307623
 20
155.1685219343514
 30
0.0
 10
126.5109629307623
 20
154.9348483858963
 30
0.0
 10
126.5109629307623
 20
154.4423705021085
 30
0.0
 10
126.5109629307623
 20
153.4780759729253
 30
0.0
 10
126.5109629307623
 20
152.2238215331365
 30
0.0
 10
126.5109629307623
 20
150.664493139694
 30
0.0
 10
126.5109629307623
 20
148.8301971908058
 30
0.0
 10
126.5109629307623
 20
146.7303050453564
 30
0.0
 10
126.5109629307623
 20
144.4035153553866
 30
0.0
 10
126.5109629307623
 20
141.8889886701982
 30
0.0
 10
126.5109629307623
 20
139.2207109776381
 30
0.0
 10
126.5109629307623
 20
136.4649838623682
 30
0.0
 10
126.5109629307623
 20
133.6382648139216
 30
0.0
 10
126.5109629307623
 20
129.9264064707886
 30
0.0
 10
126.5109629307623
 20
125.2427836957968
 30
0.0
 10
126.5109629307623
 20
120.5593354250483
 30
0.0
 10
126.5109629307623
 20
116.8474717060805
 30
0.0
 10
126.5109629307623
 20
114.0209086264713
 30
0.0
 10
126.5109629307623
 20
111.265014348897
 30
0.0
 10
126.5109629307623
 20
108.5968749179499
 30
0.0
 10
126.5109629307623
 20
106.0821928203558
 30
0.0
 10
126.5109629307623
 20
103.7555154279862
 30
0.0
 10
126.5109629307623
 20
101.6554837336959
 30
0.0
 10
126.5109629307623
 20
99.82126860238291
 30
0.0
 10
126.5109629307623
 20
98.26182526994239
 30
0.0
 10
126.5109629307623
 20
97.00762303469844
 30
0.0
 10
126.5109629307623
 20
96.04323694312545
 30
0.0
 10
126.5109629307623
 20
95.50829955330192
 30
0.0
 10
126.5109629307623
 20
95.22601829157605
 30
0.0
 10
126.5109629307623
 20
95.08393046793267
 30
0.0
 10
126.5109629307623
 20
94.98319099296954
 30
0.0
 10
126.5109629307623
 20
94.92012523260466
 30
0.0
 10
126.5109629307623
 20
94.91235706913818
 30
0.0
 10
126.5109629307623
 20
94.90846900275136
 30
0.0
  0
SPLINE
  5
F8
330
1F
100
AcDbEntity
  8
0
  6
Continuous
 62
     7
370
    15
100
AcDbSpline
210
0.0
220
0.0
230
1.0
 70
    24
 71
     3
 72
    10
 73
     6
 74
     0
 42
0.000000001
 43
0.00000001
 40
0.0
 40
0.0
 40
0.0
 40
0.0
 40
0.5
 40
0.5
 40
1.0
 40
1.0
 40
1.0
 40
1.0
 10
101.6281202182876
 20
116.6099408653275
 30
0.0
 10
101.5954662395515
 20
116.5772868865913
 30
0.0
 10
101.5674860582309
 20
116.5493067052707
 30
0.0
 10
101.5248407550258
 20
116.5066614020656
 30
0.0
 10
101.5109629307623
 20
116.4927835778021
 30
0.0
 10
101.5109629307623
 20
116.4927835778021
 30
0.0
  0
LINE
  5
F9
330
1F
100
AcDbEntity
  8
0
  6
Continuous
 62
     7
370
    15
100
AcDbLine
 10
101.5109629308
 20
133.9927835778
 30
0.0
 11
101.5109629308
 21
116.4927835778
 31
0.0
  0
SPLINE
  5
FA
330
1F
100
AcDbEntity
  8
0
  6
Continuous
 62
     7
370
    15
100
AcDbSpline
210
0.0
220
0.0
230
1.0
 70
    24
 71
     3
 72
    10
 73
     6
 74
     0
 42
0.000000001
 43
0.00000001
 40
0.0
 40
0.0
 40
0.0
 40
0.0
 40
0.5
 40
0.5
 40
1.0
 40
1.0
 40
1.0
 40
1.0
 10
101.5109629307623
 20
133.9927835778021
 30
0.0
 10
101.5109629307623
 20
133.9927835778021
 30
0.0
 10
101.5248035816188
 20
133.9789429269456
 30
0.0
 10
101.5669572148607
 20
133.9367892937037
 30
0.0
 10
101.5954446063337
 20
133.9083019022308
 30
0.0
 10
101.6281202182877
 20
133.8756262902768
 30
0.0
  0
SPLINE
  5
FB
330
1F
100
AcDbEntity
  8
0
  6
Continuous
 62
     7
370
    15
100
AcDbSpline
210
0.0
220
0.0
230
1.0
 70
    24
 71
     3
 72
    31
 73
    27
 74
     0
 42
0.000000001
 43
0.00000001
 40
0.0
 40
0.0
 40
0.0
 40
0.0
 40
0.0132854580495221
 40
0.026558201065996
 40
0.0398220414916953
 40
0.053080799448377
 40
0.0663382994513089
 40
0.0795983671042291
 40
0.0928648257896022
 40
0.1061414933684717
 40
0.1194321789041133
 40
0.1814715562902476
 40
0.2435241677305781
 40
0.3072305361806292
 40
0.3709504943136533
 40
0.5000015895060193
 40
0.6290526846983852
 40
0.6927590536053473
 40
0.7564790121947406
 40
0.8185183902650378
 40
0.8805710023897542
 40
0.9044770153604275
 40
0.9283506300036639
 40
0.952214130008963
 40
0.9760898273864541
 40
1.0
 40
1.0
 40
1.0
 40
1.0
 10
101.5109629307623
 20
94.90846900275136
 30
0.0
 10
101.5109629307623
 20
94.90930274466994
 30
0.0
 10
101.5109629307623
 20
94.91096943056273
 30
0.0
 10
101.5109629307623
 20
94.92450813805188
 30
0.0
 10
101.5109629307623
 20
94.94613094844348
 30
0.0
 10
101.5109629307623
 20
94.97662815528139
 30
0.0
 10
101.5109629307623
 20
95.01578812228735
 30
0.0
 10
101.5109629307623
 20
95.06366774704158
 30
0.0
 10
101.5109629307623
 20
95.12025091794555
 30
0.0
 10
101.5109629307623
 20
95.18554507181209
 30
0.0
 10
101.5109629307623
 20
95.3499585821101
 30
0.0
 10
101.5109629307623
 20
95.6891223579713
 30
0.0
 10
101.5109629307623
 20
96.3408846463721
 30
0.0
 10
101.5109629307623
 20
97.18515935844408
 30
0.0
 10
101.5109629307623
 20
98.57796365975064
 30
0.0
 10
101.5109629307623
 20
100.7842377111351
 30
0.0
 10
101.5109629307623
 20
103.5445259194315
 30
0.0
 10
101.5109629307623
 20
106.0245644907098
 30
0.0
 10
101.5109629307623
 20
107.983753611616
 30
0.0
 10
101.5109629307623
 20
110.0358858280566
 30
0.0
 10
101.5109629307623
 20
111.729627568448
 30
0.0
 10
101.5109629307623
 20
113.0194880695624
 30
0.0
 10
101.5109629307623
 20
113.8722572706215
 30
0.0
 10
101.5109629307623
 20
114.7354157104669
 30
0.0
 10
101.5109629307623
 20
115.6082408714461
 30
0.0
 10
101.5109629307623
 20
116.1977942307656
 30
0.0
 10
101.5109629307623
 20
116.4927835778021
 30
0.0
  0
SPLINE
  5
FC
330
1F
100
AcDbEntity
  8
0
  6
Continuous
 62
     7
370
    15
100
AcDbSpline
210
0.0
220
0.0
230
1.0
 70
    24
 71
     3
 72
    31
 73
    27
 74
     0
 42
0.000000001
 43
0.00000001
 40
0.0
 40
0.0
 40
0.0
 40
0.0
 40
0.0132867816814555
 40
0.0265605198041782
 40
0.0398250250914308
 40
0.0530841162271554
 40
0.0663416165737636
 40
0.0796013508697497
 40
0.092867141921359
 40
0.1061428073026018
 40
0.1194321560778229
 40
0.1814715350734103
 40
0.2435241481210339
 40
0.3072305182236126
 40
0.3709504780072807
 40
0.5000015765449409
 40
0.6290526750826012
 40
0.6927590456404511
 40
0.7564790058821241
 40
0.8185183855592075
 40
0.8805709992938832
 40
0.904477012883942
 40
0.9283506281458794
 40
0.9522141287697742
 40
0.9760898267663339
 40
1.0
 40
1.0
 40
1.0
 40
1.0
 10
101.5109629307623
 20
133.9927835778021
 30
0.0
 10
101.5109629307623
 20
134.1568963176015
 30
0.0
 10
101.5109629307623
 20
134.4849606886478
 30
0.0
 10
101.5109629307623
 20
134.9735380954067
 30
0.0
 10
101.5109629307623
 20
135.459159189502
 30
0.0
 10
101.5109629307623
 20
135.9415960044822
 30
0.0
 10
101.5109629307623
 20
136.4209093096127
 30
0.0
 10
101.5109629307623
 20
136.8970830633002
 30
0.0
 10
101.5109629307623
 20
137.3701199743154
 30
0.0
 10
101.5109629307623
 20
137.8400245585732
 30
0.0
 10
101.5109629307623
 20
138.8772519919517
 30
0.0
 10
101.5109629307623
 20
140.4495452284247
 30
0.0
 10
101.5109629307623
 20
142.5015250031902
 30
0.0
 10
101.5109629307623
 20
144.4608662962536
 30
0.0
 10
101.5109629307623
 20
146.9409246959972
 30
0.0
 10
101.5109629307623
 20
149.7013296111616
 30
0.0
 10
101.5109629307623
 20
151.9075098156433
 30
0.0
 10
101.5109629307623
 20
153.3003412927245
 30
0.0
 10
101.5109629307623
 20
154.1445746492039
 30
0.0
 10
101.5109629307623
 20
154.7964112220582
 30
0.0
 10
101.5109629307623
 20
155.1617784790351
 30
0.0
 10
101.5109629307623
 20
155.3561164737065
 30
0.0
 10
101.5109629307623
 20
155.4549831255489
 30
0.0
 10
101.5109629307623
 20
155.5250835899301
 30
0.0
 10
101.5109629307623
 20
155.5689772278276
 30
0.0
 10
101.5109629307623
 20
155.5743898761882
 30
0.0
 10
101.5109629307623
 20
155.5770981528529
 30
0.0
  0
LINE
  5
FD
330
1F
100
AcDbEntity
  8
0
  6
Continuous
 62
     7
370
    15
100
AcDbLine
 10
99.5109629308
 20
147.4677835778
 30
0.0
 11
99.5109629308
 21
103.0177835778
 31
0.0
  0
LINE
  5
FE
330
1F
100
AcDbEntity
  8
0
  6
Continuous
 62
     7
370
    15
100
AcDbLine
 10
99.9934769879
 20
147.2427835778
 30
0.0
 11
99.9934769879
 21
103.2427835778
 31
0.0
  0
LINE
  5
FF
330
1F
100
AcDbEntity
  8
0
  6
Continuous
 62
     7
370
    15
100
AcDbLine
 10
258.5109629308
 20
106.2427835778
 30
0.0
 11
258.5109629308
 21
144.2427835778
 31
0.0
  0
LINE
  5
100
330
1F
100
AcDbEntity
  8
0
  6
Continuous
 62
     7
370
    15
100
AcDbLine
 10
259.5109629308
 20
107.2427835778
 30
0.0
 11
259.5109629308
 21
143.2427835778
 31
0.0
  0
SPLINE
  5
101
330
1F
100
AcDbEntity
  8
0
  6
Continuous
 62
     7
370
    15
100
AcDbSpline
210
0.0
220
0.0
230
1.0
 70
    24
 71
     3
 72
    14
 73
    10
 74
     0
 42
0.000000001
 43
0.00000001
 40
0.0
 40
0.0
 40
0.0
 40
0.0
 40
0.25
 40
0.25
 40
0.5
 40
0.5
 40
0.75
 40
0.75
 40
1.0
 40
1.0
 40
1.0
 40
1.0
 10
34.11096293076223
 20
137.0654502983722
 30
0.0
 10
34.11096293076223
 20
137.0654502983722
 30
0.0
 10
34.11096293076223
 20
135.8197887400231
 30
0.0
 10
34.11096293076223
 20
131.3855540352284
 30
0.0
 10
34.11096293076223
 20
128.3782610069351
 30
0.0
 10
34.11096293076223
 20
122.1073061486691
 30
0.0
 10
34.11096293076223
 20
119.1000131203758
 30
0.0
 10
34.11096293076223
 20
114.6657784155812
 30
0.0
 10
34.11096293076223
 20
113.4201168572321
 30
0.0
 10
34.11096293076223
 20
113.4201168572321
 30
0.0
  0
LINE
  5
102
330
1F
100
AcDbEntity
  8
0
  6
Continuous
 62
     7
370
    15
100
AcDbLine
 10
281.2109629308
 20
115.2427835778
 30
0.0
 11
281.2109629308
 21
135.2427835778
 31
0.0
  0
LINE
  5
103
330
1F
100
AcDbEntity
  8
0
  6
Continuous
 62
     7
370
    15
100
AcDbLine
 10
280.5109629308
 20
134.5427835778
 30
0.0
 11
280.5109629308
 21
115.9427835778
 31
0.0
  0
LINE
  5
104
330
1F
100
AcDbEntity
  8
0
  6
Continuous
 62
     7
370
    15
100
AcDbLine
 10
286.8109629308
 20
115.2427835778
 30
0.0
 11
286.8109629308
 21
135.2427835778
 31
0.0
  0
LINE
  5
105
330
1F
100
AcDbEntity
  8
0
  6
Continuous
 62
     7
370
    15
100
AcDbLine
 10
287.5109629308
 20
115.9427835778
 30
0.0
 11
287.5109629308
 21
134.5427835778
 31
0.0
  0
LINE
  5
106
330
1F
100
AcDbEntity
  8
0
  6
Continuous
 62
     7
370
    15
100
AcDbLine
 10
275.0387197443
 20
117.2427835778
 30
0.0
 11
275.0387197443
 21
133.2427835778
 31
0.0
  0
LINE
  5
107
330
1F
100
AcDbEntity
  8
0
  6
Continuous
 62
     7
370
    15
100
AcDbLine
 10
276.5109629308
 20
118.0927835778
 30
0.0
 11
276.5109629308
 21
132.3927835778
 31
0.0
  0
LINE
  5
108
330
1F
100
AcDbEntity
  8
0
  6
Continuous
 62
     7
370
    15
100
AcDbLine
 10
264.1109629308
 20
108.4427835778
 30
0.0
 11
264.1109629308
 21
107.7427835778
 31
0.0
  0
LINE
  5
109
330
1F
100
AcDbEntity
  8
0
  6
Continuous
 62
     7
370
    15
100
AcDbLine
 10
264.5109629308
 20
109.0084690028
 30
0.0
 11
264.1109629308
 21
108.4427835778
 31
0.0
  0
LINE
  5
10A
330
1F
100
AcDbEntity
  8
0
  6
Continuous
 62
     7
370
    15
100
AcDbLine
 10
264.1109629308
 20
107.7427835778
 30
0.0
 11
264.5109629308
 21
107.7427835778
 31
0.0
  0
LINE
  5
10B
330
1F
100
AcDbEntity
  8
0
  6
Continuous
 62
     7
370
    15
100
AcDbLine
 10
264.5109629308
 20
109.0084690028
 30
0.0
 11
264.5109629308
 21
107.7427835778
 31
0.0
  0
LINE
  5
10C
330
1F
100
AcDbEntity
  8
0
  6
Continuous
 62
     7
370
    15
100
AcDbLine
 10
264.1109629308
 20
108.4427835778
 30
0.0
 11
259.5109629308
 21
108.4427835778
 31
0.0
  0
LINE
  5
10D
330
1F
100
AcDbEntity
  8
0
  6
Continuous
 62
     7
370
    15
100
AcDbLine
 10
259.5109629308
 20
115.0427835778
 30
0.0
 11
264.1109629308
 21
115.0427835778
 31
0.0
  0
LINE
  5
10E
330
1F
100
AcDbEntity
  8
0
  6
Continuous
 62
     7
370
    15
100
AcDbLine
 10
264.1109629308
 20
115.0427835778
 30
0.0
 11
264.5109629308
 21
114.4770981529
 31
0.0
  0
LINE
  5
10F
330
1F
100
AcDbEntity
  8
0
  6
Continuous
 62
     7
370
    15
100
AcDbLine
 10
264.5109629308
 20
114.4770981529
 30
0.0
 11
264.5109629308
 21
109.0084690028
 31
0.0
  0
LINE
  5
110
330
1F
100
AcDbEntity
  8
0
  6
Continuous
 62
     7
370
    15
100
AcDbLine
 10
259.5109629308
 20
107.7427835778
 30
0.0
 11
264.1109629308
 21
107.7427835778
 31
0.0
  0
LINE
  5
111
330
1F
100
AcDbEntity
  8
0
  6
Continuous
 62
     7
370
    15
100
AcDbLine
 10
264.1109629308
 20
115.7427835778
 30
0.0
 11
264.1109629308
 21
115.0427835778
 31
0.0
  0
LINE
  5
112
330
1F
100
AcDbEntity
  8
0
  6
Continuous
 62
     7
370
    15
100
AcDbLine
 10
264.5109629308
 20
115.7427835778
 30
0.0
 11
264.1109629308
 21
115.7427835778
 31
0.0
  0
LINE
  5
113
330
1F
100
AcDbEntity
  8
0
  6
Continuous
 62
     7
370
    15
100
AcDbLine
 10
264.5109629308
 20
115.7427835778
 30
0.0
 11
264.5109629308
 21
114.4770981529
 31
0.0
  0
LINE
  5
114
330
1F
100
AcDbEntity
  8
0
  6
Continuous
 62
     7
370
    15
100
AcDbLine
 10
264.1109629308
 20
115.7427835778
 30
0.0
 11
259.5109629308
 21
115.7427835778
 31
0.0
  0
LINE
  5
115
330
1F
100
AcDbEntity
  8
0
  6
Continuous
 62
     7
370
    15
100
AcDbLine
 10
259.5109629308
 20
134.7427835778
 30
0.0
 11
264.1109629308
 21
134.7427835778
 31
0.0
  0
LINE
  5
116
330
1F
100
AcDbEntity
  8
0
  6
Continuous
 62
     7
370
    15
100
AcDbLine
 10
264.1109629308
 20
135.4427835778
 30
0.0
 11
259.5109629308
 21
135.4427835778
 31
0.0
  0
LINE
  5
117
330
1F
100
AcDbEntity
  8
0
  6
Continuous
 62
     7
370
    15
100
AcDbLine
 10
264.1109629308
 20
135.4427835778
 30
0.0
 11
264.1109629308
 21
134.7427835778
 31
0.0
  0
LINE
  5
118
330
1F
100
AcDbEntity
  8
0
  6
Continuous
 62
     7
370
    15
100
AcDbLine
 10
264.5109629308
 20
136.0084690028
 30
0.0
 11
264.1109629308
 21
135.4427835778
 31
0.0
  0
LINE
  5
119
330
1F
100
AcDbEntity
  8
0
  6
Continuous
 62
     7
370
    15
100
AcDbLine
 10
264.5109629308
 20
136.0084690028
 30
0.0
 11
264.5109629308
 21
134.7427835778
 31
0.0
  0
LINE
  5
11A
330
1F
100
AcDbEntity
  8
0
  6
Continuous
 62
     7
370
    15
100
AcDbLine
 10
264.1109629308
 20
134.7427835778
 30
0.0
 11
264.5109629308
 21
134.7427835778
 31
0.0
  0
LINE
  5
11B
330
1F
100
AcDbEntity
  8
0
  6
Continuous
 62
     7
370
    15
100
AcDbLine
 10
259.5109629308
 20
142.0427835778
 30
0.0
 11
264.1109629308
 21
142.0427835778
 31
0.0
  0
LINE
  5
11C
330
1F
100
AcDbEntity
  8
0
  6
Continuous
 62
     7
370
    15
100
AcDbLine
 10
264.1109629308
 20
142.0427835778
 30
0.0
 11
264.5109629308
 21
141.4770981529
 31
0.0
  0
LINE
  5
11D
330
1F
100
AcDbEntity
  8
0
  6
Continuous
 62
     7
370
    15
100
AcDbLine
 10
264.5109629308
 20
141.4770981529
 30
0.0
 11
264.5109629308
 21
136.0084690028
 31
0.0
  0
LINE
  5
11E
330
1F
100
AcDbEntity
  8
0
  6
Continuous
 62
     7
370
    15
100
AcDbLine
 10
264.1109629308
 20
142.7427835778
 30
0.0
 11
264.1109629308
 21
142.0427835778
 31
0.0
  0
LINE
  5
11F
330
1F
100
AcDbEntity
  8
0
  6
Continuous
 62
     7
370
    15
100
AcDbLine
 10
264.5109629308
 20
142.7427835778
 30
0.0
 11
264.1109629308
 21
142.7427835778
 31
0.0
  0
LINE
  5
120
330
1F
100
AcDbEntity
  8
0
  6
Continuous
 62
     7
370
    15
100
AcDbLine
 10
264.5109629308
 20
142.7427835778
 30
0.0
 11
264.5109629308
 21
141.4770981529
 31
0.0
  0
LINE
  5
121
330
1F
100
AcDbEntity
  8
0
  6
Continuous
 62
     7
370
    15
100
AcDbLine
 10
264.1109629308
 20
142.7427835778
 30
0.0
 11
259.5109629308
 21
142.7427835778
 31
0.0
  0
LINE
  5
122
330
1F
100
AcDbEntity
  8
0
  6
Continuous
 62
     8
370
    15
100
AcDbLine
 10
125.3452775058
 20
156.7427835778
 30
0.0
 11
125.3452775058
 21
93.7427835778
 31
0.0
  0
LINE
  5
123
330
1F
100
AcDbEntity
  8
0
  6
Continuous
 62
     8
370
    15
100
AcDbLine
 10
125.6281202183
 20
156.6256262903
 30
0.0
 11
125.6281202183
 21
93.8599408653
 31
0.0
  0
LINE
  5
124
330
1F
100
AcDbEntity
  8
0
  6
Continuous
 62
     8
370
    15
100
AcDbLine
 10
102.6766483557
 20
116.5253302046
 30
0.0
 11
102.6766483557
 21
93.7427835778
 31
0.0
  0
LINE
  5
125
330
1F
100
AcDbEntity
  8
0
  6
Continuous
 62
     8
370
    15
100
AcDbLine
 10
102.6766483557
 20
156.7427835778
 30
0.0
 11
102.6766483557
 21
133.8422207335
 31
0.0
  0
LINE
  5
126
330
1F
100
AcDbEntity
  8
0
  6
Continuous
 62
     8
370
    15
100
AcDbLine
 10
102.3938056432
 20
156.6256262903
 30
0.0
 11
102.3938056432
 21
133.7473023231
 31
0.0
  0
LINE
  5
127
330
1F
100
AcDbEntity
  8
0
  6
Continuous
 62
     8
370
    15
100
AcDbLine
 10
102.3938056432
 20
116.6657308758
 30
0.0
 11
102.3938056432
 21
93.8599408653
 31
0.0
  0
LINE
  5
128
330
1F
100
AcDbEntity
  8
0
  6
Continuous
 62
     8
370
    15
100
AcDbLine
 10
101.6281202183
 20
94.6256262903
 30
0.0
 11
101.6281202183
 21
116.6099408653
 31
0.0
  0
LINE
  5
129
330
1F
100
AcDbEntity
  8
0
  6
Continuous
 62
     8
370
    15
100
AcDbLine
 10
101.6281202183
 20
133.8756262903
 30
0.0
 11
101.6281202183
 21
155.8599408653
 31
0.0
  0
LINE
  5
12A
330
1F
100
AcDbEntity
  8
0
  6
Continuous
 62
     8
370
    15
100
AcDbLine
 10
126.3938056432
 20
155.8599408653
 30
0.0
 11
126.3938056432
 21
94.6256262903
 31
0.0
  0
LINE
  5
12B
330
1F
100
AcDbEntity
  8
0
  6
Continuous
 62
     8
370
    15
100
AcDbLine
 10
101.1109629308
 20
103.2427835778
 30
0.0
 11
101.1109629308
 21
147.2427835778
 31
0.0
  0
LINE
  5
12C
330
1F
100
AcDbEntity
  8
0
  6
Continuous
 62
     8
370
    15
100
AcDbLine
 10
34.9666547035
 20
138.0549830849
 30
0.0
 11
34.9666547035
 21
112.4305840707
 31
0.0
  0
LINE
  5
12D
330
1F
100
AcDbEntity
  8
0
  6
Continuous
 62
     8
370
    15
100
AcDbLine
 10
128.5109629308
 20
144.2427835778
 30
0.0
 11
128.5109629308
 21
106.2427835778
 31
0.0
  0
DIMENSION
  5
12E
330
1F
100
AcDbEntity
  8
DIM
100
AcDbDimension
  2
_D
 10
294.7832003292
 20
117.2427835778
 30
0.0
 11
294.7832003292
 21
125.2427835778
 31
0.0
 70
   160
  1
%%c<>
 71
     2
 42
-1.0
  3
SLDDIMSTYLE0
100
AcDbAlignedDimension
 13
275.0387197443
 23
133.2427835778
 33
0.0
 14
275.0387197443
 24
117.2427835778
 34
0.0
 50
90.0
100
AcDbRotatedDimension
  0
DIMENSION
  5
13C
330
1F
100
AcDbEntity
  8
DIM
100
AcDbDimension
  2
_D_1
 10
301.7809864336
 20
106.2427835778
 30
0.0
 11
301.7809864336
 21
125.2427835778
 31
0.0
 70
   160
  1
%%c<>
 71
     2
 42
-1.0
  3
SLDDIMSTYLE1
100
AcDbAlignedDimension
 13
258.5109629308
 23
144.2427835778
 33
0.0
 14
258.5109629308
 24
106.2427835778
 34
0.0
 50
90.0
100
AcDbRotatedDimension
  0
DIMENSION
  5
148
330
1F
100
AcDbEntity
  8
DIM
100
AcDbDimension
  2
_D_2
 10
259.5109629308
 20
85.4777637045
 30
0.0
 11
268.0109629308
 21
85.4777637045
 31
0.0
 70
   160
  1
<>
 71
     2
 42
-1.0
  3
SLDDIMSTYLE0
100
AcDbAlignedDimension
 13
276.5109629308
 23
118.0927835778
 33
0.0
 14
259.5109629308
 24
107.2427835778
 34
0.0
 50
0.0
100
AcDbRotatedDimension
  0
DIMENSION
  5
154
330
1F
100
AcDbEntity
  8
DIM
100
AcDbDimension
  2
_D_3
 10
99.5109629308
 20
85.4777637045
 30
0.0
 11
179.5109629308
 21
85.4777637045
 31
0.0
 70
   160
  1
<>
 71
     2
 42
-1.0
  3
SLDDIMSTYLE1
100
AcDbAlignedDimension
 13
259.5109629308
 23
107.2427835778
 33
0.0
 14
99.5109629308
 24
103.0177835778
 34
0.0
 50
0.0
100
AcDbRotatedDimension
  0
DIMENSION
  5
15E
330
1F
100
AcDbEntity
  8
DIM
100
AcDbDimension
  2
_D_4
 10
287.5109629308
 20
76.1426835778
 30
0.0
 11
160.8109629308
 21
76.1426835778
 31
0.0
 70
   160
  1
<>
 71
     2
 42
-1.0
  3
SLDDIMSTYLE2
100
AcDbAlignedDimension
 13
34.1109629308
 23
113.4201168572
 33
0.0
 14
287.5109629308
 24
115.9427835778
 34
0.0
 50
0.0
100
AcDbRotatedDimension
  0
DIMENSION
  5
169
330
1F
100
AcDbEntity
  8
DIM
100
AcDbDimension
  2
_D_5
 10
25.965161694
 20
156.7427835778
 30
0.0
 11
25.965161694
 21
125.2427835778
 31
0.0
 70
   160
  1
%%c<>
 71
     2
 42
-1.0
  3
SLDDIMSTYLE1
100
AcDbAlignedDimension
 13
102.6766483557
 23
93.7427835778
 33
0.0
 14
102.6766483557
 24
156.7427835778
 34
0.0
 50
90.0
100
AcDbRotatedDimension
  0
LINE
  5
174
330
1F
100
AcDbEntity
  8
DIM
  6
CENTERX2
 48
1.8181818182
370
     0
100
AcDbLine
 10
30.8296629819
 20
125.2427835778
 30
0.0
 11
286.2067069168
 21
125.2427835778
 31
0.0
  0
ENDSEC
  0
SECTION
  2
OBJECTS
  0
DICTIONARY
  5
C
330
0
100
AcDbDictionary
281
     1
  3
ACAD_GROUP
350
D
  3
ACAD_LAYOUT
350
1A
  3
ACAD_MLINESTYLE
350
17
  3
ACAD_PLOTSETTINGS
350
19
  3
ACAD_PLOTSTYLENAME
350
E
  3
ACAD_SCALELIST
350
47
  0
DICTIONARY
  5
D
102
{ACAD_REACTORS
330
C
102
}
330
C
100
AcDbDictionary
281
     1
  0
DICTIONARY
  5
1A
102
{ACAD_REACTORS
330
C
102
}
330
C
100
AcDbDictionary
281
     1
  3
Layout1
350
1E
  3
Layout2
350
26
  3
Model
350
22
  0
DICTIONARY
  5
17
102
{ACAD_REACTORS
330
C
102
}
330
C
100
AcDbDictionary
281
     1
  3
Standard
350
18
  0
DICTIONARY
  5
19
102
{ACAD_REACTORS
330
C
102
}
330
C
100
AcDbDictionary
281
     1
  0
ACDBDICTIONARYWDFLT
  5
E
102
{ACAD_REACTORS
330
C
102
}
330
C
100
AcDbDictionary
281
     1
  3
Normal
350
F
100
AcDbDictionaryWithDefault
340
F
  0
DICTIONARY
  5
47
102
{ACAD_REACTORS
330
C
102
}
330
C
100
AcDbDictionary
281
     1
  3
A0
350
48
  3
A1
350
49
  3
A2
350
4A
  3
A3
350
4B
  3
A4
350
4C
  3
A5
350
4D
  3
A6
350
4E
  3
A7
350
4F
  3
A8
350
50
  3
A9
350
51
  3
B0
350
52
  3
B1
350
53
  3
B2
350
54
  3
B3
350
55
  3
B4
350
56
  3
B5
350
57
  3
B6
350
58
  3
B7
350
59
  3
B8
350
5A
  3
B9
350
5B
  3
C0
350
5C
  3
C1
350
5D
  3
C2
350
5E
  3
C3
350
5F
  3
C4
350
60
  3
C5
350
61
  3
C6
350
62
  3
C7
350
63
  3
C8
350
64
  3
C9
350
65
  3
D0
350
66
  3
D1
350
67
  3
D2
350
68
  0
LAYOUT
  5
1E
102
{ACAD_REACTORS
330
1A
102
}
330
1A
100
AcDbPlotSettings
  1

  2
none_device
  4

  6

 40
0.0
 41
0.0
 42
0.0
 43
0.0
 44
0.0
 45
0.0
 46
0.0
 47
0.0
 48
0.0
 49
0.0
140
0.0
141
0.0
142
1.0
143
1.0
 70
   688
 72
     1
 73
     0
 74
     5
  7

 75
    16
147
1.0
148
0.0
149
0.0
100
AcDbLayout
  1
Layout1
 70
     1
 71
     1
 10
0.0
 20
0.0
 11
420.0
 21
297.0
 12
0.0
 22
0.0
 32
0.0
 14
1.0000000000E+20
 24
1.0000000000E+20
 34
1.0000000000E+20
 15
-1.0000000000E+20
 25
-1.0000000000E+20
 35
-1.0000000000E+20
146
0.0
 13
0.0
 23
0.0
 33
0.0
 16
1.0
 26
0.0
 36
0.0
 17
0.0
 27
1.0
 37
0.0
 76
     0
330
1B
  0
LAYOUT
  5
26
102
{ACAD_REACTORS
330
1A
102
}
330
1A
100
AcDbPlotSettings
  1

  2
none_device
  4

  6

 40
0.0
 41
0.0
 42
0.0
 43
0.0
 44
0.0
 45
0.0
 46
0.0
 47
0.0
 48
0.0
 49
0.0
140
0.0
141
0.0
142
1.0
143
1.0
 70
   688
 72
     1
 73
     0
 74
     5
  7

 75
    16
147
1.0
148
0.0
149
0.0
100
AcDbLayout
  1
Layout2
 70
     1
 71
     2
 10
0.0
 20
0.0
 11
0.0
 21
0.0
 12
0.0
 22
0.0
 32
0.0
 14
0.0
 24
0.0
 34
0.0
 15
0.0
 25
0.0
 35
0.0
146
0.0
 13
0.0
 23
0.0
 33
0.0
 16
1.0
 26
0.0
 36
0.0
 17
0.0
 27
1.0
 37
0.0
 76
     0
330
23
  0
LAYOUT
  5
22
102
{ACAD_REACTORS
330
1A
102
}
330
1A
100
AcDbPlotSettings
  1

  2
none_device
  4
Letter_(8.50_x_11.00_Inches)
  6

 40
6.35
 41
6.35
 42
6.35000508
 43
6.35000508
 44
215.9
 45
279.4
 46
0.0
 47
0.0
 48
0.0
 49
0.0
140
0.0
141
0.0
142
1.0
143
1.0
 70
  1712
 72
     1
 73
     0
 74
     0
  7

 75
     0
147
1.0
148
0.0
149
0.0
100
AcDbLayout
  1
Model
 70
     1
 71
     0
 10
0.0
 20
0.0
 11
326.7
 21
231.0
 12
0.0
 22
0.0
 32
0.0
 14
0.0
 24
0.0
 34
0.0
 15
326.7
 25
231.0
 35
0.0
146
0.0
 13
0.0
 23
0.0
 33
0.0
 16
1.0
 26
0.0
 36
0.0
 17
0.0
 27
1.0
 37
0.0
 76
     0
330
1F
331
29
  0
MLINESTYLE
  5
18
102
{ACAD_REACTORS
330
17
102
}
330
17
100
AcDbMlineStyle
  2
Standard
 70
     0
  3

 62
   256
 51
90.0
 52
90.0
 71
     2
 49
0.5
 62
   256
  6
BYLAYER
 49
-0.5
 62
   256
  6
BYLAYER
  0
ACDBPLACEHOLDER
  5
F
102
{ACAD_REACTORS
330
E
102
}
330
E
  0
SCALE
  5
48
102
{ACAD_REACTORS
330
47
102
}
330
47
100
AcDbScale
 70
     0
300
1:1
140
1.0
141
1.0
290
     1
  0
SCALE
  5
49
102
{ACAD_REACTORS
330
47
102
}
330
47
100
AcDbScale
 70
     0
300
1:2
140
1.0
141
2.0
290
     0
  0
SCALE
  5
4A
102
{ACAD_REACTORS
330
47
102
}
330
47
100
AcDbScale
 70
     0
300
1:4
140
1.0
141
4.0
290
     0
  0
SCALE
  5
4B
102
{ACAD_REACTORS
330
47
102
}
330
47
100
AcDbScale
 70
     0
300
1:5
140
1.0
141
5.0
290
     0
  0
SCALE
  5
4C
102
{ACAD_REACTORS
330
47
102
}
330
47
100
AcDbScale
 70
     0
300
1:8
140
1.0
141
8.0
290
     0
  0
SCALE
  5
4D
102
{ACAD_REACTORS
330
47
102
}
330
47
100
AcDbScale
 70
     0
300
1:10
140
1.0
141
10.0
290
     0
  0
SCALE
  5
4E
102
{ACAD_REACTORS
330
47
102
}
330
47
100
AcDbScale
 70
     0
300
1:16
140
1.0
141
16.0
290
     0
  0
SCALE
  5
4F
102
{ACAD_REACTORS
330
47
102
}
330
47
100
AcDbScale
 70
     0
300
1:20
140
1.0
141
20.0
290
     0
  0
SCALE
  5
50
102
{ACAD_REACTORS
330
47
102
}
330
47
100
AcDbScale
 70
     0
300
1:30
140
1.0
141
30.0
290
     0
  0
SCALE
  5
51
102
{ACAD_REACTORS
330
47
102
}
330
47
100
AcDbScale
 70
     0
300
1:40
140
1.0
141
40.0
290
     0
  0
SCALE
  5
52
102
{ACAD_REACTORS
330
47
102
}
330
47
100
AcDbScale
 70
     0
300
1:50
140
1.0
141
50.0
290
     0
  0
SCALE
  5
53
102
{ACAD_REACTORS
330
47
102
}
330
47
100
AcDbScale
 70
     0
300
1:100
140
1.0
141
100.0
290
     0
  0
SCALE
  5
54
102
{ACAD_REACTORS
330
47
102
}
330
47
100
AcDbScale
 70
     0
300
2:1
140
2.0
141
1.0
290
     0
  0
SCALE
  5
55
102
{ACAD_REACTORS
330
47
102
}
330
47
100
AcDbScale
 70
     0
300
4:1
140
4.0
141
1.0
290
     0
  0
SCALE
  5
56
102
{ACAD_REACTORS
330
47
102
}
330
47
100
AcDbScale
 70
     0
300
8:1
140
8.0
141
1.0
290
     0
  0
SCALE
  5
57
102
{ACAD_REACTORS
330
47
102
}
330
47
100
AcDbScale
 70
     0
300
10:1
140
10.0
141
1.0
290
     0
  0
SCALE
  5
58
102
{ACAD_REACTORS
330
47
102
}
330
47
100
AcDbScale
 70
     0
300
100:1
140
100.0
141
1.0
290
     0
  0
SCALE
  5
59
102
{ACAD_REACTORS
330
47
102
}
330
47
100
AcDbScale
 70
     0
300
1/128" = 1'-0"
140
0.0078125
141
12.0
290
     0
  0
SCALE
  5
5A
102
{ACAD_REACTORS
330
47
102
}
330
47
100
AcDbScale
 70
     0
300
1/64" = 1'-0"
140
0.015625
141
12.0
290
     0
  0
SCALE
  5
5B
102
{ACAD_REACTORS
330
47
102
}
330
47
100
AcDbScale
 70
     0
300
1/32" = 1'-0"
140
0.03125
141
12.0
290
     0
  0
SCALE
  5
5C
102
{ACAD_REACTORS
330
47
102
}
330
47
100
AcDbScale
 70
     0
300
1/16" = 1'-0"
140
0.0625
141
12.0
290
     0
  0
SCALE
  5
5D
102
{ACAD_REACTORS
330
47
102
}
330
47
100
AcDbScale
 70
     0
300
3/32" = 1'-0"
140
0.09375
141
12.0
290
     0
  0
SCALE
  5
5E
102
{ACAD_REACTORS
330
47
102
}
330
47
100
AcDbScale
 70
     0
300
1/8" = 1'-0"
140
0.125
141
12.0
290
     0
  0
SCALE
  5
5F
102
{ACAD_REACTORS
330
47
102
}
330
47
100
AcDbScale
 70
     0
300
3/16" = 1'-0"
140
0.1875
141
12.0
290
     0
  0
SCALE
  5
60
102
{ACAD_REACTORS
330
47
102
}
330
47
100
AcDbScale
 70
     0
300
1/4" = 1'-0"
140
0.25
141
12.0
290
     0
  0
SCALE
  5
61
102
{ACAD_REACTORS
330
47
102
}
330
47
100
AcDbScale
 70
     0
300
3/8" = 1'-0"
140
0.375
141
12.0
290
     0
  0
SCALE
  5
62
102
{ACAD_REACTORS
330
47
102
}
330
47
100
AcDbScale
 70
     0
300
1/2" = 1'-0"
140
0.5
141
12.0
290
     0
  0
SCALE
  5
63
102
{ACAD_REACTORS
330
47
102
}
330
47
100
AcDbScale
 70
     0
300
3/4" = 1'-0"
140
0.75
141
12.0
290
     0
  0
SCALE
  5
64
102
{ACAD_REACTORS
330
47
102
}
330
47
100
AcDbScale
 70
     0
300
1" = 1'-0"
140
1.0
141
12.0
290
     0
  0
SCALE
  5
65
102
{ACAD_REACTORS
330
47
102
}
330
47
100
AcDbScale
 70
     0
300
1-1/2" = 1'-0"
140
1.5
141
12.0
290
     0
  0
SCALE
  5
66
102
{ACAD_REACTORS
330
47
102
}
330
47
100
AcDbScale
 70
     0
300
3" = 1'-0"
140
3.0
141
12.0
290
     0
  0
SCALE
  5
67
102
{ACAD_REACTORS
330
47
102
}
330
47
100
AcDbScale
 70
     0
300
6" = 1'-0"
140
6.0
141
12.0
290
     0
  0
SCALE
  5
68
102
{ACAD_REACTORS
330
47
102
}
330
47
100
AcDbScale
 70
     0
300
1'-0" = 1'-0"
140
12.0
141
12.0
290
     0
  0
ENDSEC
  0
EOF
