  0
SECTION
  2
HEADER
  9
$ACADVER
  1
AC1015
  9
$ACADMAINTVER
 70
     6
  9
$DWGCODEPAGE
  3
ANSI_1252
  9
$INSBASE
 10
0.0
 20
0.0
 30
0.0
  9
$EXTMIN
 10
0.0
 20
0.0
 30
0.0
  9
$EXTMAX
 10
198.0
 20
140.0
 30
0.0
  9
$LIMMIN
 10
0.0
 20
0.0
  9
$LIMMAX
 10
198.0
 20
140.0
  9
$ORTHOMODE
 70
     0
  9
$REGENMODE
 70
     1
  9
$FILLMODE
 70
     1
  9
$QTEXTMODE
 70
     0
  9
$MIRRTEXT
 70
     1
  9
$LTSCALE
 40
0.6666666667
  9
$ATTMODE
 70
     1
  9
$TEXTSIZE
 40
2.3518518519
  9
$TRACEWID
 40
1.0
  9
$TEXTSTYLE
  7
Standard
  9
$CLAYER
  8
0
  9
$CELTYPE
  6
ByLayer
  9
$CECOLOR
 62
   256
  9
$CELTSCALE
 40
1.0
  9
$DISPSILH
 70
     0
  9
$DIMSCALE
 40
1.0
  9
$DIMASZ
 40
2.2013333333
  9
$DIMEXO
 40
0.6666666667
  9
$DIMDLI
 40
3.75
  9
$DIMRND
 40
0.0
  9
$DIMDLE
 40
0.0
  9
$DIMEXE
 40
0.6666666667
  9
$DIMTP
 40
0.0
  9
$DIMTM
 40
0.0
  9
$DIMTXT
 40
2.3518518519
  9
$DIMCEN
 40
2.5
  9
$DIMTSZ
 40
0.0
  9
$DIMTOL
 70
     0
  9
$DIMLIM
 70
     0
  9
$DIMTIH
 70
     1
  9
$DIMTOH
 70
     1
  9
$DIMSE1
 70
     0
  9
$DIMSE2
 70
     0
  9
$DIMTAD
 70
     1
  9
$DIMZIN
 70
     0
  9
$DIMBLK
  1

  9
$DIMASO
 70
     1
  9
$DIMSHO
 70
     1
  9
$DIMPOST
  1

  9
$DIMAPOST
  1

  9
$DIMALT
 70
     0
  9
$DIMALTD
 70
     3
  9
$DIMALTF
 40
0.0393700787
  9
$DIMLFAC
 40
1.0
  9
$DIMTOFL
 70
     1
  9
$DIMTVP
 40
0.0
  9
$DIMTIX
 70
     0
  9
$DIMSOXD
 70
     0
  9
$DIMSAH
 70
     0
  9
$DIMBLK1
  1

  9
$DIMBLK2
  1

  9
$DIMSTYLE
  2
ISO-25
  9
$DIMCLRD
 70
     0
  9
$DIMCLRE
 70
     0
  9
$DIMCLRT
 70
     0
  9
$DIMTFAC
 40
1.0
  9
$DIMGAP
 40
1.016
  9
$DIMJUST
 70
     0
  9
$DIMSD1
 70
     0
  9
$DIMSD2
 70
     0
  9
$DIMTOLJ
 70
     0
  9
$DIMTZIN
 70
     0
  9
$DIMALTZ
 70
     0
  9
$DIMALTTZ
 70
     0
  9
$DIMUPT
 70
     0
  9
$DIMDEC
 70
     2
  9
$DIMTDEC
 70
     2
  9
$DIMALTU
 70
     2
  9
$DIMALTTD
 70
     3
  9
$DIMTXSTY
  7
Standard
  9
$DIMAUNIT
 70
     0
  9
$DIMADEC
 70
     2
  9
$DIMALTRND
 40
0.0
  9
$DIMAZIN
 70
     0
  9
$DIMDSEP
 70
    44
  9
$DIMATFIT
 70
     3
  9
$DIMFRAC
 70
     0
  9
$DIMLDRBLK
  1

  9
$DIMLUNIT
 70
     2
  9
$DIMLWD
 70
    -2
  9
$DIMLWE
 70
    -2
  9
$DIMTMOVE
 70
     0
  9
$LUNITS
 70
     2
  9
$LUPREC
 70
     2
  9
$SKETCHINC
 40
1.0
  9
$FILLETRAD
 40
10.0
  9
$AUNITS
 70
     1
  9
$AUPREC
 70
     2
  9
$MENU
  1
.
  9
$ELEVATION
 40
0.0
  9
$PELEVATION
 40
0.0
  9
$THICKNESS
 40
0.0
  9
$LIMCHECK
 70
     0
  9
$CHAMFERA
 40
0.0
  9
$CHAMFERB
 40
0.0
  9
$CHAMFERC
 40
0.0
  9
$CHAMFERD
 40
0.0
  9
$SKPOLY
 70
     0
  9
$TDCREATE
 40
2458597.490369444
  9
$TDUCREATE
 40
2458597.261202778
  9
$TDUPDATE
 40
2458597.490371991
  9
$TDUUPDATE
 40
2458597.261205324
  9
$TDINDWG
 40
0.0000000116
  9
$TDUSRTIMER
 40
0.0000000116
  9
$USRTIMER
 70
     1
  9
$ANGBASE
 50
0.0
  9
$ANGDIR
 70
     0
  9
$PDMODE
 70
     0
  9
$PDSIZE
 40
-1.0
  9
$PLINEWID
 40
0.0
  9
$SPLFRAME
 70
     0
  9
$SPLINETYPE
 70
     6
  9
$SPLINESEGS
 70
     8
  9
$HANDSEED
  5
15F
  9
$SURFTAB1
 70
     6
  9
$SURFTAB2
 70
     6
  9
$SURFTYPE
 70
     6
  9
$SURFU
 70
     6
  9
$SURFV
 70
     6
  9
$UCSBASE
  2

  9
$UCSNAME
  2

  9
$UCSORG
 10
0.0
 20
0.0
 30
0.0
  9
$UCSXDIR
 10
1.0
 20
0.0
 30
0.0
  9
$UCSYDIR
 10
0.0
 20
1.0
 30
0.0
  9
$UCSORTHOREF
  2

  9
$UCSORTHOVIEW
 70
     0
  9
$UCSORGTOP
 10
0.0
 20
0.0
 30
0.0
  9
$UCSORGBOTTOM
 10
0.0
 20
0.0
 30
0.0
  9
$UCSORGLEFT
 10
0.0
 20
0.0
 30
0.0
  9
$UCSORGRIGHT
 10
0.0
 20
0.0
 30
0.0
  9
$UCSORGFRONT
 10
0.0
 20
0.0
 30
0.0
  9
$UCSORGBACK
 10
0.0
 20
0.0
 30
0.0
  9
$PUCSBASE
  2

  9
$PUCSNAME
  2

  9
$PUCSORG
 10
0.0
 20
0.0
 30
0.0
  9
$PUCSXDIR
 10
1.0
 20
0.0
 30
0.0
  9
$PUCSYDIR
 10
0.0
 20
1.0
 30
0.0
  9
$PUCSORTHOREF
  2

  9
$PUCSORTHOVIEW
 70
     0
  9
$PUCSORGTOP
 10
0.0
 20
0.0
 30
0.0
  9
$PUCSORGBOTTOM
 10
0.0
 20
0.0
 30
0.0
  9
$PUCSORGLEFT
 10
0.0
 20
0.0
 30
0.0
  9
$PUCSORGRIGHT
 10
0.0
 20
0.0
 30
0.0
  9
$PUCSORGFRONT
 10
0.0
 20
0.0
 30
0.0
  9
$PUCSORGBACK
 10
0.0
 20
0.0
 30
0.0
  9
$USERI1
 70
     0
  9
$USERI2
 70
     0
  9
$USERI3
 70
     0
  9
$USERI4
 70
     0
  9
$USERI5
 70
     0
  9
$USERR1
 40
0.0
  9
$USERR2
 40
0.0
  9
$USERR3
 40
0.0
  9
$USERR4
 40
0.0
  9
$USERR5
 40
0.0
  9
$WORLDVIEW
 70
     1
  9
$SHADEDGE
 70
     3
  9
$SHADEDIF
 70
    70
  9
$TILEMODE
 70
     1
  9
$MAXACTVP
 70
    64
  9
$PINSBASE
 10
0.0
 20
0.0
 30
0.0
  9
$PLIMCHECK
 70
     0
  9
$PEXTMIN
 10
1.0000000000E+20
 20
1.0000000000E+20
 30
1.0000000000E+20
  9
$PEXTMAX
 10
-1.0000000000E+20
 20
-1.0000000000E+20
 30
-1.0000000000E+20
  9
$PLIMMIN
 10
0.0
 20
0.0
  9
$PLIMMAX
 10
420.0
 20
297.0
  9
$UNITMODE
 70
     0
  9
$VISRETAIN
 70
     1
  9
$PLINEGEN
 70
     0
  9
$PSLTSCALE
 70
     1
  9
$TREEDEPTH
 70
  3020
  9
$CMLSTYLE
  2
Standard
  9
$CMLJUST
 70
     0
  9
$CMLSCALE
 40
20.0
  9
$PROXYGRAPHICS
 70
     1
  9
$MEASUREMENT
 70
     1
  9
$CELWEIGHT
370
    -1
  9
$ENDCAPS
280
     0
  9
$JOINSTYLE
280
     0
  9
$LWDISPLAY
290
     1
  9
$INSUNITS
 70
     4
  9
$HYPERLINKBASE
  1

  9
$STYLESHEET
  1

  9
$XEDIT
290
     1
  9
$CEPSNTYPE
380
     0
  9
$PSTYLEMODE
290
     1
  9
$FINGERPRINTGUID
  2
{E58B5709-BF6B-4CDD-9D4A-D511E129F5FE}
  9
$VERSIONGUID
  2
{FAEB1C32-E019-11D5-929B-00C0DF256EC4}
  9
$EXTNAMES
290
     1
  9
$PSVPSCALE
 40
0.0
  9
$OLESTARTUP
290
     0
  0
ENDSEC
  0
SECTION
  2
CLASSES
  0
CLASS
  1
ACDBDICTIONARYWDFLT
  2
AcDbDictionaryWithDefault
  3
ObjectDBX Classes
 90
        0
280
     0
281
     0
  0
CLASS
  1
VISUALSTYLE
  2
AcDbVisualStyle
  3
ObjectDBX Classes
 90
     4095
280
     0
281
     0
  0
CLASS
  1
MATERIAL
  2
AcDbMaterial
  3
ObjectDBX Classes
 90
     1153
280
     0
281
     0
  0
CLASS
  1
SCALE
  2
AcDbScale
  3
ObjectDBX Classes
 90
     1153
280
     0
281
     0
  0
CLASS
  1
SUN
  2
AcDbSun
  3
SCENEOE
 90
     1153
280
     0
281
     0
  0
CLASS
  1
ACDBPLACEHOLDER
  2
AcDbPlaceHolder
  3
ObjectDBX Classes
 90
        0
280
     0
281
     0
  0
CLASS
  1
LAYOUT
  2
AcDbLayout
  3
ObjectDBX Classes
 90
        0
280
     0
281
     0
  0
ENDSEC
  0
SECTION
  2
TABLES
  0
TABLE
  2
VPORT
  5
8
330
0
100
AcDbSymbolTable
 70
     1
  0
VPORT
  5
29
330
8
100
AcDbSymbolTableRecord
100
AcDbViewportTableRecord
  2
*Active
 70
     0
 10
0.0
 20
0.0
 11
1.0
 21
1.0
 12
99.0
 22
70.0
 13
0.0
 23
0.0
 14
10.0
 24
10.0
 15
10.0
 25
10.0
 16
0.0
 26
0.0
 36
1.0
 17
0.0
 27
0.0
 37
0.0
 40
140.0
 41
1.4142857143
 42
50.0
 43
0.0
 44
0.0
 50
0.0
 51
0.0
 71
     0
 72
  2000
 73
     1
 74
     3
 75
     0
 76
     0
 77
     0
 78
     0
281
     0
 65
     1
110
0.0
120
0.0
130
0.0
111
1.0
121
0.0
131
0.0
112
0.0
122
1.0
132
0.0
 79
     0
146
0.0
  0
ENDTAB
  0
TABLE
  2
LTYPE
  5
5
330
0
100
AcDbSymbolTable
 70
     6
  0
LTYPE
  5
14
330
5
100
AcDbSymbolTableRecord
100
AcDbLinetypeTableRecord
  2
ByBlock
 70
     0
  3

 72
    65
 73
     0
 40
0.0
  0
LTYPE
  5
15
330
5
100
AcDbSymbolTableRecord
100
AcDbLinetypeTableRecord
  2
ByLayer
 70
     0
  3

 72
    65
 73
     0
 40
0.0
  0
LTYPE
  5
16
330
5
100
AcDbSymbolTableRecord
100
AcDbLinetypeTableRecord
  2
Continuous
 70
     0
  3
Solid line
 72
    65
 73
     0
 40
0.0
  0
LTYPE
  5
6A
330
5
100
AcDbSymbolTableRecord
100
AcDbLinetypeTableRecord
  2
HIDDEN
 70
     0
  3
Hidden __ __ __ __ __ __ __ __ __ __ __ __ __ __
 72
    65
 73
     2
 40
1.905
 49
1.27
 74
     0
 49
-0.635
 74
     0
  0
LTYPE
  5
6B
330
5
100
AcDbSymbolTableRecord
100
AcDbLinetypeTableRecord
  2
PHANTOM
 70
     0
  3
Phantom ______  __  __  ______  __  __  ______
 72
    65
 73
     6
 40
12.7
 49
6.35
 74
     0
 49
-1.27
 74
     0
 49
1.27
 74
     0
 49
-1.27
 74
     0
 49
1.27
 74
     0
 49
-1.27
 74
     0
  0
LTYPE
  5
6C
330
5
100
AcDbSymbolTableRecord
100
AcDbLinetypeTableRecord
  2
CENTER
 70
     0
  3
Center ____ _ ____ _ ____ _ ____ _ ____ _ ____
 72
    65
 73
     4
 40
10.16
 49
6.35
 74
     0
 49
-1.27
 74
     0
 49
1.27
 74
     0
 49
-1.27
 74
     0
  0
LTYPE
  5
6D
330
5
100
AcDbSymbolTableRecord
100
AcDbLinetypeTableRecord
  2
CENTERX2
 70
     0
  3
Center (2x) ________  __  ________  __  _____
 72
    65
 73
     4
 40
20.32
 49
12.7
 74
     0
 49
-2.54
 74
     0
 49
2.54
 74
     0
 49
-2.54
 74
     0
  0
LTYPE
  5
6E
330
5
100
AcDbSymbolTableRecord
100
AcDbLinetypeTableRecord
  2
DOT2
 70
     0
  3
Dot (.5x) ........................................
 72
    65
 73
     2
 40
0.635
 49
0.0
 74
     0
 49
-0.635
 74
     0
  0
ENDTAB
  0
TABLE
  2
LAYER
  5
2
330
0
100
AcDbSymbolTable
 70
     8
  0
LAYER
  5
10
330
2
100
AcDbSymbolTableRecord
100
AcDbLayerTableRecord
  2
0
 70
     0
 62
     7
  6
Continuous
370
    -3
390
F
  0
LAYER
  5
6F
330
2
100
AcDbSymbolTableRecord
100
AcDbLayerTableRecord
  2
FORMAT
 70
     0
 62
     7
  6
Continuous
370
    -3
390
F
  0
LAYER
  5
70
330
2
100
AcDbSymbolTableRecord
100
AcDbLayerTableRecord
  2
SLD-0
 70
     0
 62
     2
  6
Continuous
370
    -3
390
F
  0
LAYER
  5
71
330
2
100
AcDbSymbolTableRecord
100
AcDbLayerTableRecord
  2
DIM
 70
     0
 62
   179
  6
Continuous
370
    -3
390
F
  0
LAYER
  5
72
330
2
100
AcDbSymbolTableRecord
100
AcDbLayerTableRecord
  2
SLD-DEFPOINTS
 70
     0
 62
   179
  6
Continuous
370
    -3
390
F
  0
LAYER
  5
73
330
2
100
AcDbSymbolTableRecord
100
AcDbLayerTableRecord
  2
HAT
 70
     0
 62
   135
  6
Continuous
370
    -3
390
F
  0
LAYER
  5
74
330
2
100
AcDbSymbolTableRecord
100
AcDbLayerTableRecord
  2
JOB
 70
     0
 62
   201
  6
Continuous
370
    -3
390
F
  0
LAYER
  5
75
330
2
100
AcDbSymbolTableRecord
100
AcDbLayerTableRecord
  2
INSPECTION_REPORT
 70
     0
 62
   255
  6
Continuous
370
    -3
390
F
  0
ENDTAB
  0
TABLE
  2
STYLE
  5
3
330
0
100
AcDbSymbolTable
 70
     4
  0
STYLE
  5
11
330
3
100
AcDbSymbolTableRecord
100
AcDbTextStyleTableRecord
  2
Standard
 70
     0
 40
0.0
 41
1.0
 50
0.0
 71
     0
 42
2.3518518519
  3
txt
  4

  0
STYLE
  5
96
330
3
100
AcDbSymbolTableRecord
100
AcDbTextStyleTableRecord
  2
SLDTEXTSTYLE0
 70
     0
 40
0.0
 41
0.7
 50
0.0
 71
     0
 42
2.3518518519
  3
TXT
  4

  0
STYLE
  5
98
330
3
100
AcDbSymbolTableRecord
100
AcDbTextStyleTableRecord
  2
SLDTEXTSTYLE1
 70
     0
 40
0.0
 41
0.75
 50
0.0
 71
     0
 42
2.3518518519
  3
TXT
  4

  0
STYLE
  5
AB
330
3
100
AcDbSymbolTableRecord
100
AcDbTextStyleTableRecord
  2
SLDTEXTSTYLE2
 70
     0
 40
0.0
 41
0.6875
 50
0.0
 71
     0
 42
2.3518518519
  3
TXT
  4

  0
ENDTAB
  0
TABLE
  2
VIEW
  5
6
330
0
100
AcDbSymbolTable
 70
     0
  0
ENDTAB
  0
TABLE
  2
UCS
  5
7
330
0
100
AcDbSymbolTable
 70
     0
  0
ENDTAB
  0
TABLE
  2
APPID
  5
9
330
0
100
AcDbSymbolTable
 70
     1
  0
APPID
  5
12
330
9
100
AcDbSymbolTableRecord
100
AcDbRegAppTableRecord
  2
ACAD
 70
     0
  0
ENDTAB
  0
TABLE
  2
DIMSTYLE
  5
A
330
0
100
AcDbSymbolTable
 70
     3
100
AcDbDimStyleTable
  0
DIMSTYLE
105
27
330
A
100
AcDbSymbolTableRecord
100
AcDbDimStyleTableRecord
  2
ISO-25
 70
     0
 41
2.5
 42
0.625
 43
3.75
 44
1.25
 73
     0
 74
     0
 77
     1
 78
     8
140
2.5
141
2.5
143
0.0393700787
147
0.625
171
     3
172
     1
178
     0
271
     2
272
     2
274
     3
278
    44
283
     0
284
     8
340
11
  0
DIMSTYLE
105
10F
102
{ACAD_REACTORS
330
10E
102
}
330
A
100
AcDbSymbolTableRecord
100
AcDbDimStyleTableRecord
  2
SLDDIMSTYLE0
 70
     0
 41
2.2013333333
 44
0.0
 45
0.000000001
 73
     0
 74
     0
 77
     1
 78
     4
 79
     1
140
1.9402777778
147
0.4850694444
173
     1
178
     0
271
     2
272
     2
276
     2
284
    12
340
96
  0
DIMSTYLE
105
11A
102
{ACAD_REACTORS
330
119
102
}
330
A
100
AcDbSymbolTableRecord
100
AcDbDimStyleTableRecord
  2
SLDDIMSTYLE1
 70
     0
 41
2.2013333333
 44
0.0
 45
0.000000001
 73
     0
 74
     0
 77
     1
 78
    12
 79
     3
140
1.9402777778
147
0.4850694444
173
     1
178
     0
271
     0
272
     0
276
     2
284
    12
340
96
  0
ENDTAB
  0
TABLE
  2
BLOCK_RECORD
  5
1
330
0
100
AcDbSymbolTable
 70
     3
  0
BLOCK_RECORD
  5
1F
330
1
100
AcDbSymbolTableRecord
100
AcDbBlockTableRecord
  2
*Model_Space
340
22
  0
BLOCK_RECORD
  5
1B
330
1
100
AcDbSymbolTableRecord
100
AcDbBlockTableRecord
  2
*Paper_Space
340
1E
  0
BLOCK_RECORD
  5
23
330
1
100
AcDbSymbolTableRecord
100
AcDbBlockTableRecord
  2
*Paper_Space0
340
26
  0
BLOCK_RECORD
  5
110
330
1
100
AcDbSymbolTableRecord
100
AcDbBlockTableRecord
  2
_D
340
0
  0
BLOCK_RECORD
  5
11B
330
1
100
AcDbSymbolTableRecord
100
AcDbBlockTableRecord
  2
_D_1
340
0
  0
ENDTAB
  0
ENDSEC
  0
SECTION
  2
BLOCKS
  0
BLOCK
  5
20
330
1F
100
AcDbEntity
  8
0
100
AcDbBlockBegin
  2
*Model_Space
 70
     0
 10
0.0
 20
0.0
 30
0.0
  3
*Model_Space
  1
*Model_Space
  0
ENDBLK
  5
21
330
1F
100
AcDbEntity
  8
0
100
AcDbBlockEnd
  0
BLOCK
  5
1C
330
1B
100
AcDbEntity
 67
     1
  8
0
100
AcDbBlockBegin
  2
*Paper_Space
 70
     0
 10
0.0
 20
0.0
 30
0.0
  3
*Paper_Space
  1
*Paper_Space
  0
ENDBLK
  5
1D
330
1B
100
AcDbEntity
 67
     1
  8
0
100
AcDbBlockEnd
  0
BLOCK
  5
24
330
23
100
AcDbEntity
  8
0
100
AcDbBlockBegin
  2
*Paper_Space0
 70
     0
 10
0.0
 20
0.0
 30
0.0
  3
*Paper_Space0
  1
*Paper_Space0
  0
ENDBLK
  5
25
330
23
100
AcDbEntity
  8
0
100
AcDbBlockEnd
  0
BLOCK
  5
111
330
110
100
AcDbEntity
  8
0
100
AcDbBlockBegin
  2
_D
 70
     0
 10
0.0
 20
0.0
 30
0.0
  3
_D
  1
_D
  0
SOLID
  5
113
330
110
100
AcDbEntity
  8
DIM
100
AcDbTrace
 10
42.1618724191
 20
93.9082767818
 30
0.0
 11
41.8232057524
 21
91.7069434485
 31
0.0
 12
42.5005390858
 22
91.7069434485
 32
0.0
 13
42.5005390858
 23
91.7069434485
 33
0.0
  0
SOLID
  5
114
330
110
100
AcDbEntity
  8
DIM
100
AcDbTrace
 10
42.1618724191
 20
71.4103372989
 30
0.0
 11
42.5005390858
 21
73.6116706322
 31
0.0
 12
41.8232057524
 22
73.6116706322
 32
0.0
 13
41.8232057524
 23
73.6116706322
 33
0.0
  0
LINE
  5
115
330
110
100
AcDbEntity
  8
DIM
100
AcDbLine
 10
51.5876040898
 20
93.9082767818
 30
0.0
 11
41.4952057524
 21
93.9082767818
 31
0.0
  0
LINE
  5
116
330
110
100
AcDbEntity
  8
DIM
100
AcDbLine
 10
51.372296428
 20
71.4103372989
 30
0.0
 11
41.4952057524
 21
71.4103372989
 31
0.0
  0
LINE
  5
117
330
110
100
AcDbEntity
  8
DIM
100
AcDbLine
 10
42.1618724191
 20
93.9082767818
 30
0.0
 11
42.1618724191
 21
71.4103372989
 31
0.0
  0
MTEXT
  5
118
330
110
100
AcDbEntity
  8
DIM
100
AcDbMText
 10
39.6607227743
 20
80.1888265365
 30
0.0
 40
1.9402777778
 41
0.0
 71
     1
 72
     1
  1
22.50
  7
SLDTEXTSTYLE0
 11
-2.125504973284564E-14
 21
1.0
 31
0.0
 73
     1
 44
1.0
  0
ENDBLK
  5
112
330
110
100
AcDbEntity
  8
0
100
AcDbBlockEnd
  0
BLOCK
  5
11C
330
11B
100
AcDbEntity
  8
0
100
AcDbBlockBegin
  2
_D_1
 70
     0
 10
0.0
 20
0.0
 30
0.0
  3
_D_1
  1
_D_1
  0
SOLID
  5
11E
330
11B
100
AcDbEntity
  8
DIM
100
AcDbTrace
 10
45.7064043358
 20
65.8004355307
 30
0.0
 11
47.9077376692
 21
65.4617688641
 31
0.0
 12
47.9077376692
 22
66.1391021974
 32
0.0
 13
47.9077376692
 23
66.1391021974
 33
0.0
  0
SOLID
  5
11F
330
11B
100
AcDbEntity
  8
DIM
100
AcDbTrace
 10
155.5862281856
 20
65.8004355307
 30
0.0
 11
153.3848948523
 21
66.1391021974
 31
0.0
 12
153.3848948523
 22
65.4617688641
 32
0.0
 13
153.3848948523
 23
65.4617688641
 33
0.0
  0
LINE
  5
120
330
11B
100
AcDbEntity
  8
DIM
100
AcDbLine
 10
45.7064043358
 20
72.8552498262
 30
0.0
 11
45.7064043358
 21
65.1337688641
 31
0.0
  0
LINE
  5
121
330
11B
100
AcDbEntity
  8
DIM
100
AcDbLine
 10
155.5862281856
 20
81.9936706322
 30
0.0
 11
155.5862281856
 21
65.1337688641
 31
0.0
  0
LINE
  5
122
330
11B
100
AcDbEntity
  8
DIM
100
AcDbLine
 10
45.7064043358
 20
65.8004355307
 30
0.0
 11
155.5862281856
 21
65.8004355307
 31
0.0
  0
MTEXT
  5
123
330
11B
100
AcDbEntity
  8
DIM
100
AcDbMText
 10
98.6790901056
 20
68.3015851755
 30
0.0
 40
1.9402777778
 41
0.0
 71
     1
 72
     1
  1
110
  7
SLDTEXTSTYLE0
 73
     1
 44
1.0
  0
ENDBLK
  5
11D
330
11B
100
AcDbEntity
  8
0
100
AcDbBlockEnd
  0
ENDSEC
  0
SECTION
  2
ENTITIES
  0
LINE
  5
76
330
1F
100
AcDbEntity
  8
DIM
100
AcDbLine
 10
69.8029497927
 20
6.5273276379
 30
0.0
 11
69.8029497927
 21
3.1939943046
 31
0.0
  0
LINE
  5
77
330
1F
100
AcDbEntity
  8
DIM
100
AcDbLine
 10
169.6464011302
 20
6.5273276379
 30
0.0
 11
169.6464011302
 21
3.1939943046
 31
0.0
  0
LINE
  5
78
330
1F
100
AcDbEntity
  8
DIM
100
AcDbLine
 10
158.3011399544
 20
6.5273276379
 30
0.0
 11
158.3011399544
 21
3.1939943046
 31
0.0
  0
LINE
  5
79
330
1F
100
AcDbEntity
  8
DIM
100
AcDbLine
 10
185.936283126
 20
3.1939943046
 30
0.0
 11
185.936283126
 21
6.5273276379
 31
0.0
  0
LINE
  5
7A
330
1F
100
AcDbEntity
  8
DIM
100
AcDbLine
 10
75.0029497927
 20
6.5273276379
 30
0.0
 11
75.0029497927
 21
3.1939943046
 31
0.0
  0
LINE
  5
7B
330
1F
100
AcDbEntity
  8
DIM
100
AcDbLine
 10
87.7969180819
 20
6.5273276379
 30
0.0
 11
87.7969180819
 21
3.1939943046
 31
0.0
  0
LINE
  5
7C
330
1F
100
AcDbEntity
  8
DIM
100
AcDbLine
 10
194.6029497927
 20
3.1939943046
 30
0.0
 11
194.6029497927
 21
51.3606609712
 31
0.0
  0
LINE
  5
7D
330
1F
100
AcDbEntity
  8
DIM
100
AcDbLine
 10
190.5460031298
 20
40.0273276379
 30
0.0
 11
194.6029497927
 21
40.0273276379
 31
0.0
  0
LINE
  5
7E
330
1F
100
AcDbEntity
  8
DIM
100
AcDbLine
 10
99.4022339017
 20
6.0273276379
 30
0.0
 11
99.4022339017
 21
3.1939943046
 31
0.0
  0
LINE
  5
7F
330
1F
100
AcDbEntity
  8
DIM
100
AcDbLine
 10
131.175966107
 20
6.5273276379
 30
0.0
 11
131.175966107
 21
3.1939943046
 31
0.0
  0
LINE
  5
80
330
1F
100
AcDbEntity
  8
DIM
100
AcDbLine
 10
99.4022339017
 20
6.5273276379
 30
0.0
 11
99.4022339017
 21
6.0273276379
 31
0.0
  0
LINE
  5
81
330
1F
100
AcDbEntity
  8
DIM
100
AcDbLine
 10
191.2696164593
 20
11.6939463046
 30
0.0
 11
194.6029497927
 21
11.6939463046
 31
0.0
  0
LINE
  5
82
330
1F
100
AcDbEntity
  8
DIM
100
AcDbLine
 10
191.2696164593
 20
133.1939943046
 30
0.0
 11
6.6029497927
 21
133.1939943046
 31
0.0
  0
LINE
  5
83
330
1F
100
AcDbEntity
  8
DIM
100
AcDbLine
 10
194.6029497927
 20
136.5273276379
 30
0.0
 11
3.2696164593
 21
136.5273276379
 31
0.0
  0
LINE
  5
84
330
1F
100
AcDbEntity
  8
DIM
100
AcDbLine
 10
6.6029497927
 20
133.1939943046
 30
0.0
 11
6.6029497927
 21
6.5273276379
 31
0.0
  0
LINE
  5
85
330
1F
100
AcDbEntity
  8
DIM
100
AcDbLine
 10
3.2696164593
 20
136.5273276379
 30
0.0
 11
3.2696164593
 21
3.1939943046
 31
0.0
  0
LINE
  5
86
330
1F
100
AcDbEntity
  8
DIM
100
AcDbLine
 10
6.6029497927
 20
36.5273276379
 30
0.0
 11
3.2696164593
 21
36.5273276379
 31
0.0
  0
LINE
  5
87
330
1F
100
AcDbEntity
  8
DIM
100
AcDbLine
 10
3.2696164593
 20
69.8606609712
 30
0.0
 11
6.6029497927
 21
69.8606609712
 31
0.0
  0
LINE
  5
88
330
1F
100
AcDbEntity
  8
DIM
100
AcDbLine
 10
3.2696164593
 20
3.1939943046
 30
0.0
 11
194.6029497927
 21
3.1939943046
 31
0.0
  0
LINE
  5
89
330
1F
100
AcDbEntity
  8
DIM
100
AcDbLine
 10
6.6029497927
 20
6.5273276379
 30
0.0
 11
194.6029497927
 21
6.5273276379
 31
0.0
  0
LINE
  5
8A
330
1F
100
AcDbEntity
  8
DIM
100
AcDbLine
 10
32.2696164593
 20
3.1939943046
 30
0.0
 11
32.2696164593
 21
6.5273276379
 31
0.0
  0
LINE
  5
8B
330
1F
100
AcDbEntity
  8
DIM
100
AcDbLine
 10
65.6029497927
 20
6.5273276379
 30
0.0
 11
65.6029497927
 21
3.1939943046
 31
0.0
  0
LINE
  5
8C
330
1F
100
AcDbEntity
  8
DIM
100
AcDbLine
 10
6.6029497927
 20
103.1939943046
 30
0.0
 11
3.2696164593
 21
103.1939943046
 31
0.0
  0
LINE
  5
8D
330
1F
100
AcDbEntity
  8
DIM
100
AcDbLine
 10
32.2696164593
 20
133.1939943046
 30
0.0
 11
32.2696164593
 21
136.5273276379
 31
0.0
  0
LINE
  5
8E
330
1F
100
AcDbEntity
  8
DIM
100
AcDbLine
 10
65.6029497927
 20
136.5273276379
 30
0.0
 11
65.6029497927
 21
133.1939943046
 31
0.0
  0
LINE
  5
8F
330
1F
100
AcDbEntity
  8
DIM
100
AcDbLine
 10
98.936283126
 20
136.5273276379
 30
0.0
 11
98.936283126
 21
133.1939943046
 31
0.0
  0
LINE
  5
90
330
1F
100
AcDbEntity
  8
DIM
100
AcDbLine
 10
191.2696164593
 20
6.5273276379
 30
0.0
 11
191.2696164593
 21
133.1939943046
 31
0.0
  0
LINE
  5
91
330
1F
100
AcDbEntity
  8
DIM
100
AcDbLine
 10
194.6029497927
 20
51.3606609712
 30
0.0
 11
194.6029497927
 21
136.5273276379
 31
0.0
  0
LINE
  5
92
330
1F
100
AcDbEntity
  8
DIM
100
AcDbLine
 10
194.6029497927
 20
69.8606609712
 30
0.0
 11
191.2696164593
 21
69.8606609712
 31
0.0
  0
LINE
  5
93
330
1F
100
AcDbEntity
  8
DIM
100
AcDbLine
 10
132.2696164593
 20
136.5273276379
 30
0.0
 11
132.2696164593
 21
133.1939943046
 31
0.0
  0
LINE
  5
94
330
1F
100
AcDbEntity
  8
DIM
100
AcDbLine
 10
165.6029497927
 20
133.1939943046
 30
0.0
 11
165.6029497927
 21
136.5273276379
 31
0.0
  0
LINE
  5
95
330
1F
100
AcDbEntity
  8
DIM
100
AcDbLine
 10
191.2696164593
 20
103.1939943046
 30
0.0
 11
194.6029497927
 21
103.1939943046
 31
0.0
  0
MTEXT
  5
97
330
1F
100
AcDbEntity
  8
DIM
100
AcDbMText
 10
11.1197011726
 20
128.8763616962
 30
0.0
 40
2.8222222222
 41
0.0
 71
     1
 72
     1
  1
SPANNER E16M
  7
SLDTEXTSTYLE0
 73
     1
 44
1.0
  0
MTEXT
  5
99
330
1F
100
AcDbEntity
  8
DIM
 62
     7
100
AcDbMText
 10
131.8218524311
 20
5.2013010175
 30
0.0
 40
0.9990666667
 41
0.0
 71
     1
 72
     1
  1
WEIGHT:
  7
SLDTEXTSTYLE1
 73
     1
 44
1.0
  0
MTEXT
  5
9A
330
1F
100
AcDbEntity
  8
DIM
 62
     7
100
AcDbMText
 10
192.3980511699
 20
54.6270756722
 30
0.0
 40
1.2347222222
 41
0.0
 71
     1
 72
     1
  1
C
  7
SLDTEXTSTYLE1
 73
     1
 44
1.0
  0
MTEXT
  5
9B
330
1F
100
AcDbEntity
  8
DIM
 62
     7
100
AcDbMText
 10
188.695720413
 20
9.9026546557
 30
0.0
 40
1.9402777778
 41
0.0
 71
     1
 72
     1
  1
A4
  7
SLDTEXTSTYLE1
 73
     1
 44
1.0
  0
MTEXT
  5
9C
330
1F
100
AcDbEntity
  8
DIM
 62
     7
100
AcDbMText
 10
181.7140635704
 20
135.6393385736
 30
0.0
 40
1.2347222222
 41
0.0
 71
     1
 72
     1
  1
6
  7
SLDTEXTSTYLE1
 73
     1
 44
1.0
  0
MTEXT
  5
9D
330
1F
100
AcDbEntity
  8
DIM
 62
     7
100
AcDbMText
 10
148.3807302371
 20
135.6393385736
 30
0.0
 40
1.2347222222
 41
0.0
 71
     1
 72
     1
  1
5
  7
SLDTEXTSTYLE1
 73
     1
 44
1.0
  0
MTEXT
  5
9E
330
1F
100
AcDbEntity
  8
DIM
 62
     7
100
AcDbMText
 10
192.3807329038
 20
120.6393385736
 30
0.0
 40
1.2347222222
 41
0.0
 71
     1
 72
     1
  1
A
  7
SLDTEXTSTYLE1
 73
     1
 44
1.0
  0
MTEXT
  5
9F
330
1F
100
AcDbEntity
  8
DIM
 62
     7
100
AcDbMText
 10
192.3807329038
 20
87.3060052403
 30
0.0
 40
1.2347222222
 41
0.0
 71
     1
 72
     1
  1
B
  7
SLDTEXTSTYLE1
 73
     1
 44
1.0
  0
MTEXT
  5
A0
330
1F
100
AcDbEntity
  8
DIM
 62
     7
100
AcDbMText
 10
115.0473969038
 20
135.6393385736
 30
0.0
 40
1.2347222222
 41
0.0
 71
     1
 72
     1
  1
4
  7
SLDTEXTSTYLE1
 73
     1
 44
1.0
  0
MTEXT
  5
A1
330
1F
100
AcDbEntity
  8
DIM
 62
     7
100
AcDbMText
 10
15.3251746816
 20
135.6393385736
 30
0.0
 40
1.2347222222
 41
0.0
 71
     1
 72
     1
  1
1
  7
SLDTEXTSTYLE1
 73
     1
 44
1.0
  0
MTEXT
  5
A2
330
1F
100
AcDbEntity
  8
DIM
 62
     7
100
AcDbMText
 10
48.3807302371
 20
135.6393385736
 30
0.0
 40
1.2347222222
 41
0.0
 71
     1
 72
     1
  1
2
  7
SLDTEXTSTYLE1
 73
     1
 44
1.0
  0
MTEXT
  5
A3
330
1F
100
AcDbEntity
  8
DIM
 62
     7
100
AcDbMText
 10
81.7140635704
 20
135.6393385736
 30
0.0
 40
1.2347222222
 41
0.0
 71
     1
 72
     1
  1
3
  7
SLDTEXTSTYLE1
 73
     1
 44
1.0
  0
MTEXT
  5
A4
330
1F
100
AcDbEntity
  8
DIM
 62
     7
100
AcDbMText
 10
4.3807275704
 20
120.6393385736
 30
0.0
 40
1.2347222222
 41
0.0
 71
     1
 72
     1
  1
A
  7
SLDTEXTSTYLE1
 73
     1
 44
1.0
  0
MTEXT
  5
A5
330
1F
100
AcDbEntity
  8
DIM
 62
     7
100
AcDbMText
 10
48.3807302371
 20
5.6393385736
 30
0.0
 40
1.2347222222
 41
0.0
 71
     1
 72
     1
  1
2
  7
SLDTEXTSTYLE1
 73
     1
 44
1.0
  0
MTEXT
  5
A6
330
1F
100
AcDbEntity
  8
DIM
 62
     7
100
AcDbMText
 10
15.3251746816
 20
5.6393385736
 30
0.0
 40
1.2347222222
 41
0.0
 71
     1
 72
     1
  1
1
  7
SLDTEXTSTYLE1
 73
     1
 44
1.0
  0
MTEXT
  5
A7
330
1F
100
AcDbEntity
  8
DIM
 62
     7
100
AcDbMText
 10
4.3807275704
 20
20.6393385736
 30
0.0
 40
1.2347222222
 41
0.0
 71
     1
 72
     1
  1
D
  7
SLDTEXTSTYLE1
 73
     1
 44
1.0
  0
MTEXT
  5
A8
330
1F
100
AcDbEntity
  8
DIM
 62
     7
100
AcDbMText
 10
4.3807275704
 20
53.9726719069
 30
0.0
 40
1.2347222222
 41
0.0
 71
     1
 72
     1
  1
C
  7
SLDTEXTSTYLE1
 73
     1
 44
1.0
  0
MTEXT
  5
A9
330
1F
100
AcDbEntity
  8
DIM
 62
     7
100
AcDbMText
 10
4.3807275704
 20
87.3060052403
 30
0.0
 40
1.2347222222
 41
0.0
 71
     1
 72
     1
  1
B
  7
SLDTEXTSTYLE1
 73
     1
 44
1.0
  0
MTEXT
  5
AA
330
1F
100
AcDbEntity
  8
DIM
 62
     7
100
AcDbMText
 10
192.3980511699
 20
54.6270756722
 30
0.0
 40
1.2347222222
 41
0.0
 71
     1
 72
     1
  1
C
  7
SLDTEXTSTYLE1
 73
     1
 44
1.0
  0
MTEXT
  5
AC
330
1F
100
AcDbEntity
  8
DIM
 62
     7
100
AcDbMText
 10
171.0169105417
 20
5.1273858209
 30
0.0
 40
1.0
 41
0.0
 71
     1
 72
     1
  1
SHEET 1 OF 1
  7
SLDTEXTSTYLE2
 73
     1
 44
1.0
  0
MTEXT
  5
AD
330
1F
100
AcDbEntity
  8
DIM
 62
     7
100
AcDbMText
 10
100.247853589
 20
5.2355783224
 30
0.0
 40
1.0
 41
0.0
 71
     1
 72
     1
  1
MATERIAL:
  7
SLDTEXTSTYLE1
 73
     1
 44
1.0
  0
MTEXT
  5
AE
330
1F
100
AcDbEntity
  8
DIM
 62
     7
100
AcDbMText
 10
181.7140635704
 20
135.6393385736
 30
0.0
 40
1.2347222222
 41
0.0
 71
     1
 72
     1
  1
6
  7
SLDTEXTSTYLE1
 73
     1
 44
1.0
  0
MTEXT
  5
AF
330
1F
100
AcDbEntity
  8
DIM
 62
     7
100
AcDbMText
 10
148.3807302371
 20
135.6393385736
 30
0.0
 40
1.2347222222
 41
0.0
 71
     1
 72
     1
  1
5
  7
SLDTEXTSTYLE1
 73
     1
 44
1.0
  0
MTEXT
  5
B0
330
1F
100
AcDbEntity
  8
DIM
 62
     7
100
AcDbMText
 10
192.3807329038
 20
120.6393385736
 30
0.0
 40
1.2347222222
 41
0.0
 71
     1
 72
     1
  1
A
  7
SLDTEXTSTYLE1
 73
     1
 44
1.0
  0
MTEXT
  5
B1
330
1F
100
AcDbEntity
  8
DIM
 62
     7
100
AcDbMText
 10
192.3807329038
 20
87.3060052403
 30
0.0
 40
1.2347222222
 41
0.0
 71
     1
 72
     1
  1
B
  7
SLDTEXTSTYLE1
 73
     1
 44
1.0
  0
MTEXT
  5
B2
330
1F
100
AcDbEntity
  8
DIM
 62
     7
100
AcDbMText
 10
115.0473969038
 20
135.6393385736
 30
0.0
 40
1.2347222222
 41
0.0
 71
     1
 72
     1
  1
4
  7
SLDTEXTSTYLE1
 73
     1
 44
1.0
  0
MTEXT
  5
B3
330
1F
100
AcDbEntity
  8
DIM
 62
     7
100
AcDbMText
 10
15.3251746816
 20
135.6393385736
 30
0.0
 40
1.2347222222
 41
0.0
 71
     1
 72
     1
  1
1
  7
SLDTEXTSTYLE1
 73
     1
 44
1.0
  0
MTEXT
  5
B4
330
1F
100
AcDbEntity
  8
DIM
 62
     7
100
AcDbMText
 10
48.3807302371
 20
135.6393385736
 30
0.0
 40
1.2347222222
 41
0.0
 71
     1
 72
     1
  1
2
  7
SLDTEXTSTYLE1
 73
     1
 44
1.0
  0
MTEXT
  5
B5
330
1F
100
AcDbEntity
  8
DIM
 62
     7
100
AcDbMText
 10
81.7140635704
 20
135.6393385736
 30
0.0
 40
1.2347222222
 41
0.0
 71
     1
 72
     1
  1
3
  7
SLDTEXTSTYLE1
 73
     1
 44
1.0
  0
MTEXT
  5
B6
330
1F
100
AcDbEntity
  8
DIM
 62
     7
100
AcDbMText
 10
4.3807275704
 20
120.6393385736
 30
0.0
 40
1.2347222222
 41
0.0
 71
     1
 72
     1
  1
A
  7
SLDTEXTSTYLE1
 73
     1
 44
1.0
  0
MTEXT
  5
B7
330
1F
100
AcDbEntity
  8
DIM
 62
     7
100
AcDbMText
 10
48.3807302371
 20
5.6393385736
 30
0.0
 40
1.2347222222
 41
0.0
 71
     1
 72
     1
  1
2
  7
SLDTEXTSTYLE1
 73
     1
 44
1.0
  0
MTEXT
  5
B8
330
1F
100
AcDbEntity
  8
DIM
 62
     7
100
AcDbMText
 10
15.3251746816
 20
5.6393385736
 30
0.0
 40
1.2347222222
 41
0.0
 71
     1
 72
     1
  1
1
  7
SLDTEXTSTYLE1
 73
     1
 44
1.0
  0
MTEXT
  5
B9
330
1F
100
AcDbEntity
  8
DIM
 62
     7
100
AcDbMText
 10
4.3807275704
 20
20.6393385736
 30
0.0
 40
1.2347222222
 41
0.0
 71
     1
 72
     1
  1
D
  7
SLDTEXTSTYLE1
 73
     1
 44
1.0
  0
MTEXT
  5
BA
330
1F
100
AcDbEntity
  8
DIM
 62
     7
100
AcDbMText
 10
4.3807275704
 20
53.9726719069
 30
0.0
 40
1.2347222222
 41
0.0
 71
     1
 72
     1
  1
C
  7
SLDTEXTSTYLE1
 73
     1
 44
1.0
  0
MTEXT
  5
BB
330
1F
100
AcDbEntity
  8
DIM
 62
     7
100
AcDbMText
 10
4.3807275704
 20
87.3060052403
 30
0.0
 40
1.2347222222
 41
0.0
 71
     1
 72
     1
  1
B
  7
SLDTEXTSTYLE1
 73
     1
 44
1.0
  0
SPLINE
  5
BC
330
1F
100
AcDbEntity
  8
0
  6
Continuous
 62
     7
370
    15
100
AcDbSpline
210
0.0
220
0.0
230
1.0
 70
     8
 71
     3
 72
     9
 73
     5
 74
     0
 42
0.000000001
 43
0.00000001
 40
0.0
 40
0.0
 40
0.0
 40
0.0
 40
0.5687151908320665
 40
1.0
 40
1.0
 40
1.0
 40
1.0
 10
59.65367186680511
 20
74.3791103811352
 30
0.0
 10
59.6771978117317
 20
74.39906920412928
 30
0.0
 10
59.71856464227506
 20
74.43416378805428
 30
0.0
 10
59.76789579927929
 20
74.45650842053537
 30
0.0
 10
59.78917157791388
 20
74.4661453210909
 30
0.0
  0
SPLINE
  5
BD
330
1F
100
AcDbEntity
  8
0
  6
Continuous
 62
     7
370
    15
100
AcDbSpline
210
0.0
220
0.0
230
1.0
 70
     8
 71
     3
 72
    10
 73
     6
 74
     0
 42
0.000000001
 43
0.00000001
 40
0.0
 40
0.0
 40
0.0
 40
0.0
 40
0.0610558277545123
 40
0.5346080607500547
 40
0.9999999999999999
 40
0.9999999999999999
 40
0.9999999999999999
 40
0.9999999999999999
 10
59.79969650071737
 20
74.4714262368785
 30
0.0
 10
59.80327652765401
 20
74.4732635063202
 30
0.0
 10
59.83462343307521
 20
74.4893507348358
 30
0.0
 10
59.89987620233951
 20
74.50513233697022
 30
0.0
 10
59.96156639500901
 20
74.5089490831306
 30
0.0
 10
59.9921434189129
 20
74.51084087068274
 30
0.0
  0
LINE
  5
BE
330
1F
100
AcDbEntity
  8
0
  6
Continuous
 62
     7
370
    15
100
AcDbLine
 10
59.9921372195
 20
90.8098390811
 30
0.0
 11
59.8380402918
 21
90.8364007929
 31
0.0
  0
LINE
  5
BF
330
1F
100
AcDbEntity
  8
0
  6
Continuous
 62
     7
370
    15
100
AcDbLine
 10
47.9474175519
 20
72.7678334934
 30
0.0
 11
48.7195114828
 21
74.634595594
 31
0.0
  0
ARC
  5
C0
330
1F
100
AcDbEntity
  8
0
  6
Continuous
 62
     7
370
    15
100
AcDbCircle
 10
52.0389630946
 20
82.6603372989
 30
0.0
 40
10.70524994899996
100
AcDbArc
 50
235.0000000012
 51
247.5299832599
  0
ARC
  5
C1
330
1F
100
AcDbEntity
  8
0
  6
Continuous
 62
     7
370
    15
100
AcDbCircle
 10
52.0389630946
 20
82.6603372989
 30
0.0
 40
8.685118820000001
100
AcDbArc
 50
235.0000000011
 51
247.529983258
  0
LINE
  5
C2
330
1F
100
AcDbEntity
  8
0
  6
Continuous
 62
     7
370
    15
100
AcDbLine
 10
47.0573835927
 20
75.5459044625
 30
0.0
 11
45.8986839788
 21
73.8911099184
 31
0.0
  0
LINE
  5
C3
330
1F
100
AcDbEntity
  8
0
  6
Continuous
 62
     7
370
    15
100
AcDbLine
 10
48.1402139456
 20
93.2131689129
 30
0.0
 11
48.3290000599
 21
92.7021773072
 31
0.0
  0
ARC
  5
C4
330
1F
100
AcDbEntity
  8
0
  6
Continuous
 62
     7
370
    15
100
AcDbCircle
 10
52.0389630946
 20
82.6603372989
 30
0.0
 40
10.70524994945363
100
AcDbArc
 50
110.2767770009
 51
124.9999999987
  0
ARC
  5
C5
330
1F
100
AcDbEntity
  8
0
  6
Continuous
 62
     7
370
    15
100
AcDbCircle
 10
52.0389630946
 20
82.6603372989
 30
0.0
 40
11.25000000000001
100
AcDbArc
 50
110.2767769951
 51
123.4300561675
  0
ARC
  5
C6
330
1F
100
AcDbEntity
  8
0
  6
Continuous
 62
     7
370
    15
100
AcDbCircle
 10
46.0064043356
 20
91.7987581049
 30
0.0
 40
0.2999999998194628
100
AcDbArc
 50
123.4300560211
 51
215.0000000233
  0
LINE
  5
C7
330
1F
100
AcDbEntity
  8
0
  6
Continuous
 62
     7
370
    15
100
AcDbLine
 10
45.8986839786
 20
91.4295646798
 30
0.0
 11
45.7606587226
 21
91.626685174
 31
0.0
  0
LINE
  5
C8
330
1F
100
AcDbEntity
  8
0
  6
Continuous
 62
     7
370
    15
100
AcDbLine
 10
47.739214131
 20
72.2644410485
 30
0.0
 11
47.9474175519
 21
72.7678334934
 31
0.0
  0
LINE
  5
C9
330
1F
100
AcDbEntity
  8
0
  6
Continuous
 62
     7
370
    15
100
AcDbLine
 10
45.8986839788
 20
73.8911099184
 30
0.0
 11
45.7606587225
 21
73.6939894238
 31
0.0
  0
ARC
  5
CA
330
1F
100
AcDbEntity
  8
0
  6
Continuous
 62
     7
370
    15
100
AcDbCircle
 10
52.0389630946
 20
82.6603372989
 30
0.0
 40
11.25000000018997
100
AcDbArc
 50
236.5699438259
 51
247.5299832505
  0
ARC
  5
CB
330
1F
100
AcDbEntity
  8
0
  6
Continuous
 62
     7
370
    15
100
AcDbCircle
 10
46.0064043356
 20
73.5219164929
 30
0.0
 40
0.2999999999097231
100
AcDbArc
 50
144.9999999879
 51
236.5699437311
  0
LINE
  5
CC
330
1F
100
AcDbEntity
  8
0
  6
Continuous
 62
     7
370
    15
100
AcDbLine
 10
63.1273579289
 20
80.7603372992
 30
0.0
 11
62.5904331598
 21
80.8523395296
 31
0.0
  0
ARC
  5
CD
330
1F
100
AcDbEntity
  8
0
  6
Continuous
 62
     7
370
    15
100
AcDbCircle
 10
52.0389630946
 20
82.6603372989
 30
0.0
 40
10.70524994899996
100
AcDbArc
 50
350.2767769994
 51
7.5299832607
  0
LINE
  5
CE
330
1F
100
AcDbEntity
  8
0
  6
Continuous
 62
     7
370
    15
100
AcDbLine
 10
63.191947824
 20
84.1345935953
 30
0.0
 11
62.6518954686
 21
84.0632068211
 31
0.0
  0
ARC
  5
CF
330
1F
100
AcDbEntity
  8
0
  6
Continuous
 62
     7
370
    15
100
AcDbCircle
 10
52.0389630946
 20
82.6603372989
 30
0.0
 40
11.25
100
AcDbArc
 50
350.2767770013
 51
7.5299832689
  0
ARC
  5
D0
330
1F
100
AcDbEntity
  8
0
  6
Continuous
 62
     7
370
    15
100
AcDbCircle
 10
52.0389630946
 20
82.6603372989
 30
0.0
 40
10.70524994899996
100
AcDbArc
 50
290.2767770009
 51
307.5299832599
  0
LINE
  5
D1
330
1F
100
AcDbEntity
  8
0
  6
Continuous
 62
     7
370
    15
100
AcDbLine
 10
55.9377122459
 20
72.1075056857
 30
0.0
 11
55.7489261293
 21
72.6184972906
 31
0.0
  0
LINE
  5
D2
330
1F
100
AcDbEntity
  8
0
  6
Continuous
 62
     7
370
    15
100
AcDbLine
 10
58.8921988644
 20
73.7386973441
 30
0.0
 11
58.5603499259
 21
74.1707030154
 31
0.0
  0
ARC
  5
D3
330
1F
100
AcDbEntity
  8
0
  6
Continuous
 62
     7
370
    15
100
AcDbCircle
 10
52.0389630946
 20
82.6603372989
 30
0.0
 40
11.25
100
AcDbArc
 50
290.2767770069
 51
307.5299832738
  0
ARC
  5
D4
330
1F
100
AcDbEntity
  8
0
  6
Continuous
 62
     7
370
    15
100
AcDbCircle
 10
52.0389630946
 20
82.6603372989
 30
0.0
 40
10.70524994899997
100
AcDbArc
 50
50.276777002
 51
67.5299832599
  0
LINE
  5
D5
330
1F
100
AcDbEntity
  8
0
  6
Continuous
 62
     7
370
    15
100
AcDbLine
 10
56.3387120561
 20
93.0562335502
 30
0.0
 11
56.1305086373
 21
92.5528411045
 31
0.0
  0
LINE
  5
D6
330
1F
100
AcDbEntity
  8
0
  6
Continuous
 62
     7
370
    15
100
AcDbLine
 10
59.2286087794
 20
91.3131689122
 30
0.0
 11
58.880470125
 21
90.8941795383
 31
0.0
  0
ARC
  5
D7
330
1F
100
AcDbEntity
  8
0
  6
Continuous
 62
     7
370
    15
100
AcDbCircle
 10
52.0389630946
 20
82.6603372989
 30
0.0
 40
11.25
100
AcDbArc
 50
50.276776997
 51
67.5299832622
  0
ARC
  5
D8
330
1F
100
AcDbEntity
  8
0
  6
Continuous
 62
     7
370
    15
100
AcDbCircle
 10
52.0389630946
 20
82.6603372989
 30
0.0
 40
8.68511882234239
100
AcDbArc
 50
110.2767770027
 51
125.0000000087
  0
LINE
  5
D9
330
1F
100
AcDbEntity
  8
0
  6
Continuous
 62
     7
370
    15
100
AcDbLine
 10
49.0290875728
 20
90.8072347612
 30
0.0
 11
48.3290000599
 21
92.7021773072
 31
0.0
  0
LINE
  5
DA
330
1F
100
AcDbEntity
  8
0
  6
Continuous
 62
     7
370
    15
100
AcDbLine
 10
47.0573835902
 20
89.7747701364
 30
0.0
 11
45.8986839786
 21
91.4295646798
 31
0.0
  0
ARC
  5
DB
330
1F
100
AcDbEntity
  8
0
  6
Continuous
 62
     7
370
    15
100
AcDbCircle
 10
52.0389630946
 20
82.6603372989
 30
0.0
 40
8.685118820000005
100
AcDbArc
 50
50.2767770083
 51
67.5299832462
  0
LINE
  5
DC
330
1F
100
AcDbEntity
  8
0
  6
Continuous
 62
     7
370
    15
100
AcDbLine
 10
56.1305086373
 20
92.5528411045
 30
0.0
 11
55.3584147082
 21
90.6860790031
 31
0.0
  0
LINE
  5
DD
330
1F
100
AcDbEntity
  8
0
  6
Continuous
 62
     7
370
    15
100
AcDbLine
 10
57.5894454974
 20
89.3404146947
 30
0.0
 11
58.880470125
 21
90.8941795383
 31
0.0
  0
ARC
  5
DE
330
1F
100
AcDbEntity
  8
0
  6
Continuous
 62
     7
370
    15
100
AcDbCircle
 10
52.0389630946
 20
82.6603372989
 30
0.0
 40
8.685118820000001
100
AcDbArc
 50
290.2767769916
 51
307.529983257
  0
LINE
  5
DF
330
1F
100
AcDbEntity
  8
0
  6
Continuous
 62
     7
370
    15
100
AcDbLine
 10
55.0488386149
 20
74.5134398361
 30
0.0
 11
55.7489261293
 21
72.6184972906
 31
0.0
  0
LINE
  5
E0
330
1F
100
AcDbEntity
  8
0
  6
Continuous
 62
     7
370
    15
100
AcDbLine
 10
58.5603499259
 20
74.1707030154
 30
0.0
 11
57.3297334893
 21
75.7727370239
 31
0.0
  0
ARC
  5
E1
330
1F
100
AcDbEntity
  8
0
  6
Continuous
 62
     7
370
    15
100
AcDbCircle
 10
52.0389630946
 20
82.6603372989
 30
0.0
 40
8.685118820000003
100
AcDbArc
 50
350.2767770126
 51
7.5299832516
  0
LINE
  5
E2
330
1F
100
AcDbEntity
  8
0
  6
Continuous
 62
     7
370
    15
100
AcDbLine
 10
62.6518954686
 20
84.0632068211
 30
0.0
 11
60.6491851014
 21
83.7984787279
 31
0.0
  0
LINE
  5
E3
330
1F
100
AcDbEntity
  8
0
  6
Continuous
 62
     7
370
    15
100
AcDbLine
 10
60.5993210202
 20
81.1935172334
 30
0.0
 11
62.5904331598
 21
80.8523395296
 31
0.0
  0
SPLINE
  5
E4
330
1F
100
AcDbEntity
  8
0
  6
Continuous
 62
     7
370
    15
100
AcDbSpline
210
0.0
220
0.0
230
1.0
 70
     8
 71
     3
 72
    10
 73
     6
 74
     0
 42
0.000000001
 43
0.00000001
 40
0.0
 40
0.0
 40
0.0
 40
0.0
 40
0.5
 40
0.5
 40
1.0
 40
1.0
 40
1.0
 40
1.0
 10
47.99388798064693
 20
76.66033729903401
 30
0.0
 10
47.93605851589385
 20
76.66033729903519
 30
0.0
 10
47.88780777635883
 20
76.64480217796907
 30
0.0
 10
47.80648595598019
 20
76.59919658449742
 30
0.0
 10
47.77355816418917
 20
76.56870774933702
 30
0.0
 10
47.74814236751425
 20
76.53241023004784
 30
0.0
  0
SPLINE
  5
E5
330
1F
100
AcDbEntity
  8
0
  6
Continuous
 62
     7
370
    15
100
AcDbSpline
210
0.0
220
0.0
230
1.0
 70
    24
 71
     3
 72
    12
 73
     8
 74
     0
 42
0.000000001
 43
0.00000001
 40
0.0
 40
0.0
 40
0.0
 40
0.0
 40
0.2500000000000001
 40
0.2500000000000001
 40
0.5000000000000001
 40
0.5000000000000001
 40
1.0
 40
1.0
 40
1.0
 40
1.0
 10
52.03896309414863
 20
76.66033729900286
 30
0.0
 10
51.67097112570667
 20
76.66033729900285
 30
0.0
 10
51.31016804500363
 20
76.66033729891392
 30
0.0
 10
50.60082559664699
 20
76.66033729891392
 30
0.0
 10
50.24969226958464
 20
76.66033729891392
 30
0.0
 10
49.23267005787522
 20
76.6603372989139
 30
0.0
 10
48.60198205424444
 20
76.66033729891389
 30
0.0
 10
47.99388798062772
 20
76.66033729891389
 30
0.0
  0
LINE
  5
E6
330
1F
100
AcDbEntity
  8
0
  6
Continuous
 62
     7
370
    15
100
AcDbLine
 10
52.0389630946
 20
76.6603372989
 30
0.0
 11
52.0389630939
 21
73.9752184789
 31
0.0
  0
ARC
  5
E7
330
1F
100
AcDbEntity
  8
0
  6
Continuous
 62
     7
370
    15
100
AcDbCircle
 10
52.0389630946
 20
82.6603372989
 30
0.0
 40
8.685118820000001
100
AcDbArc
 50
247.529983258
 51
269.9999999949
  0
LINE
  5
E8
330
1F
100
AcDbEntity
  8
0
  6
Continuous
 62
     7
370
    15
100
AcDbLine
 10
47.7481423675
 20
76.5324102298
 30
0.0
 11
47.0573835927
 21
75.5459044625
 31
0.0
  0
ARC
  5
E9
330
1F
100
AcDbEntity
  8
0
  6
Continuous
 62
     7
370
    15
100
AcDbCircle
 10
52.0389630946
 20
82.6603372989
 30
0.0
 40
8.685118820000014
100
AcDbArc
 50
90.0000000235
 51
110.2767770027
  0
LINE
  5
EA
330
1F
100
AcDbEntity
  8
0
  6
Continuous
 62
     7
370
    15
100
AcDbLine
 10
52.0389630911
 20
91.3454561189
 30
0.0
 11
52.0389630934
 21
88.6603372989
 31
0.0
  0
SPLINE
  5
EB
330
1F
100
AcDbEntity
  8
0
  6
Continuous
 62
     7
370
    15
100
AcDbSpline
210
0.0
220
0.0
230
1.0
 70
    24
 71
     3
 72
    12
 73
     8
 74
     0
 42
0.000000001
 43
0.00000001
 40
0.0
 40
0.0
 40
0.0
 40
0.0
 40
0.4999999999999999
 40
0.4999999999999999
 40
0.7499999999999999
 40
0.7499999999999999
 40
1.0
 40
1.0
 40
1.0
 40
1.0
 10
47.99388798154465
 20
88.66033729891389
 30
0.0
 10
48.6015075467073
 20
88.6603372989139
 30
0.0
 10
49.23103358652011
 20
88.6603372989139
 30
0.0
 10
50.2431613491916
 20
88.66033729891392
 30
0.0
 10
50.59557709362426
 20
88.66033729891392
 30
0.0
 10
51.30891235588968
 20
88.66033729891392
 30
0.0
 10
51.67087992642766
 20
88.66033729891392
 30
0.0
 10
52.0389630941389
 20
88.66033729891394
 30
0.0
  0
SPLINE
  5
EC
330
1F
100
AcDbEntity
  8
0
  6
Continuous
 62
     7
370
    15
100
AcDbSpline
210
0.0
220
0.0
230
1.0
 70
     8
 71
     3
 72
    10
 73
     6
 74
     0
 42
0.000000001
 43
0.00000001
 40
0.0
 40
0.0
 40
0.0
 40
0.0
 40
0.5
 40
0.5
 40
1.0
 40
1.0
 40
1.0
 40
1.0
 10
47.74814236729369
 20
88.78826436742578
 30
0.0
 10
47.77361805707147
 20
88.75188131196354
 30
0.0
 10
47.80613855079984
 20
88.72170611456689
 30
0.0
 10
47.88783167110302
 20
88.67582587602251
 30
0.0
 10
47.93581195817762
 20
88.66033729873861
 30
0.0
 10
47.99388798154432
 20
88.66033729891355
 30
0.0
  0
LINE
  5
ED
330
1F
100
AcDbEntity
  8
0
  6
Continuous
 62
     7
370
    15
100
AcDbLine
 10
47.0573835902
 20
89.7747701364
 30
0.0
 11
47.7481423671
 21
88.7882643677
 31
0.0
  0
ARC
  5
EE
330
1F
100
AcDbEntity
  8
0
  6
Continuous
 62
     7
370
    15
100
AcDbCircle
 10
52.0389630946
 20
82.6603372989
 30
0.0
 40
8.685118820000014
100
AcDbArc
 50
67.5299832462
 51
90.0000000235
  0
ARC
  5
EF
330
1F
100
AcDbEntity
  8
0
  6
Continuous
 62
     7
370
    15
100
AcDbCircle
 10
52.0389630946
 20
82.6603372989
 30
0.0
 40
11.24999999999999
100
AcDbArc
 50
67.5299832637
 51
110.2767769974
  0
ARC
  5
F0
330
1F
100
AcDbEntity
  8
0
  6
Continuous
 62
     7
370
    15
100
AcDbCircle
 10
52.0389630946
 20
82.6603372989
 30
0.0
 40
8.685118820000001
100
AcDbArc
 50
269.9999999949
 51
290.2767769916
  0
ARC
  5
F1
330
1F
100
AcDbEntity
  8
0
  6
Continuous
 62
     7
370
    15
100
AcDbCircle
 10
52.0389630946
 20
82.6603372989
 30
0.0
 40
11.25
100
AcDbArc
 50
247.5299832461
 51
290.2767770033
  0
ARC
  5
F2
330
1F
100
AcDbEntity
  8
0
  6
Continuous
 62
     7
370
    15
100
AcDbCircle
 10
52.0389630946
 20
82.6603372989
 30
0.0
 40
8.685118820000005
100
AcDbArc
 50
7.5299832516
 51
50.2767770083
  0
ARC
  5
F3
330
1F
100
AcDbEntity
  8
0
  6
Continuous
 62
     7
370
    15
100
AcDbCircle
 10
52.0389630946
 20
82.6603372989
 30
0.0
 40
8.685118820000003
100
AcDbArc
 50
307.529983257
 51
350.2767770126
  0
ARC
  5
F4
330
1F
100
AcDbEntity
  8
0
  6
Continuous
 62
     7
370
    15
100
AcDbCircle
 10
52.0389630946
 20
82.6603372989
 30
0.0
 40
6.000000000000014
100
AcDbArc
 50
270.0
 51
90.0000000118
  0
ARC
  5
F5
330
1F
100
AcDbEntity
  8
0
  6
Continuous
 62
     7
370
    15
100
AcDbCircle
 10
52.0389630946
 20
82.6603372989
 30
0.0
 40
11.25
100
AcDbArc
 50
7.5299832727
 51
50.2767769943
  0
ARC
  5
F6
330
1F
100
AcDbEntity
  8
0
  6
Continuous
 62
     7
370
    15
100
AcDbCircle
 10
52.0389630946
 20
82.6603372989
 30
0.0
 40
11.25
100
AcDbArc
 50
307.5299832738
 51
350.2767770021
  0
LINE
  5
F7
330
1F
100
AcDbEntity
  8
0
  6
Continuous
 62
     7
370
    15
100
AcDbLine
 10
60.9663523976
 20
89.5060819799
 30
0.0
 11
61.3631252556
 21
89.8103372989
 31
0.0
  0
SPLINE
  5
F8
330
1F
100
AcDbEntity
  8
0
  6
Continuous
 62
     7
370
    15
100
AcDbSpline
210
0.0
220
0.0
230
1.0
 70
     8
 71
     3
 72
    26
 73
    22
 74
     0
 42
0.000000001
 43
0.00000001
 40
0.0
 40
0.0
 40
0.0
 40
0.0
 40
0.0198783373373497
 40
0.0397317151170536
 40
0.0595735382122717
 40
0.0794172349125429
 40
0.0992762297067134
 40
0.1191639161043204
 40
0.1811684125664537
 40
0.2432071976594918
 40
0.3069616930169726
 40
0.3707514448481559
 40
0.5000049591438452
 40
0.6292584734395348
 40
0.6930129701042427
 40
0.7568027232413405
 40
0.8188072216511401
 40
0.880846008691594
 40
0.9205744424914821
 40
0.9602566044120796
 40
1.0
 40
1.0
 40
1.0
 40
1.0
 10
61.36312525544357
 20
89.81033729879631
 30
0.0
 10
61.42448106210526
 20
89.72907551248579
 30
0.0
 10
61.54711563609845
 20
89.56665397346073
 30
0.0
 10
61.72290496426363
 20
89.31717603624391
 30
0.0
 10
61.8925033429177
 20
89.06369238543984
 30
0.0
 10
62.05534096450097
 20
88.80576842182077
 30
0.0
 10
62.21157046874674
 20
88.54351478134576
 30
0.0
 10
62.46661012023534
 20
88.08896698637625
 30
0.0
 10
62.79296772844113
 20
87.42689671252177
 30
0.0
 10
63.1469653447725
 20
86.53141705204344
 30
0.0
 10
63.4292292141678
 20
85.60104968734625
 30
0.0
 10
63.70476905558318
 20
84.31360860492818
 30
0.0
 10
63.84533544734116
 20
82.66033764544902
 30
0.0
 10
63.70478554883164
 20
81.00724580477686
 30
0.0
 10
63.4292724741635
 20
79.7198019945232
 30
0.0
 10
63.14709387448697
 20
78.78958918051043
 30
0.0
 10
62.79299839405938
 20
77.89395591858413
 30
0.0
 10
62.42184352623442
 20
77.14054025135825
 30
0.0
 10
62.05867038377578
 20
76.51337303356615
 30
0.0
 10
61.72736676746693
 20
76.00030495105064
 30
0.0
 10
61.48460147996141
 20
75.67374377121676
 30
0.0
 10
61.36312525544373
 20
75.51033729903175
 30
0.0
  0
LINE
  5
F9
330
1F
100
AcDbEntity
  8
0
  6
Continuous
 62
     7
370
    15
100
AcDbLine
 10
60.9663523357
 20
75.8145925371
 30
0.0
 11
61.3631252045
 21
75.5103372322
 31
0.0
  0
SPLINE
  5
FA
330
1F
100
AcDbEntity
  8
0
  6
Continuous
 62
     7
370
    15
100
AcDbSpline
210
0.0
220
0.0
230
1.0
 70
     8
 71
     3
 72
    18
 73
    14
 74
     0
 42
0.000000001
 43
0.00000001
 40
0.0
 40
0.0
 40
0.0
 40
0.0
 40
0.0613642613246893
 40
0.1315561448128832
 40
0.263911030680921
 40
0.3951060341398978
 40
0.5251268112894405
 40
0.662653133014077
 40
0.7747850262808869
 40
0.835362269876858
 40
0.890646903815944
 40
0.946464671748837
 40
1.0
 40
1.0
 40
1.0
 40
1.0
 10
61.36312525564087
 20
75.51033729891402
 30
0.0
 10
61.32998808725994
 20
75.48178045024146
 30
0.0
 10
61.25894676731075
 20
75.42055867655318
 30
0.0
 10
61.11468464952241
 20
75.30076256568867
 30
0.0
 10
60.93072354525412
 20
75.15466484652826
 30
0.0
 10
60.71469975215523
 20
74.99272796260821
 30
0.0
 10
60.50056192127041
 20
74.84082831132544
 30
0.0
 10
60.30770116923941
 20
74.71034481788526
 30
0.0
 10
60.16686668761336
 20
74.61995069578677
 30
0.0
 10
60.08164507191273
 20
74.56616557190111
 30
0.0
 10
60.03105969422419
 20
74.5347781428981
 30
0.0
 10
59.99775315259276
 20
74.51424940223676
 30
0.0
 10
59.99343516599842
 20
74.51162306084744
 30
0.0
 10
59.9913212356409
 20
74.51033729891402
 30
0.0
  0
ARC
  5
FB
330
1F
100
AcDbEntity
  8
0
  6
Continuous
 62
     7
370
    15
100
AcDbCircle
 10
59.9913212356
 20
74.0103372989
 30
0.0
 40
0.5
100
AcDbArc
 50
90.0000000103
 51
132.5938102353
  0
SPLINE
  5
FC
330
1F
100
AcDbEntity
  8
0
  6
Continuous
 62
     7
370
    15
100
AcDbSpline
210
0.0
220
0.0
230
1.0
 70
     8
 71
     3
 72
    10
 73
     6
 74
     0
 42
0.000000001
 43
0.00000001
 40
0.0
 40
0.0
 40
0.0
 40
0.0
 40
0.5
 40
0.5
 40
1.0
 40
1.0
 40
1.0
 40
1.0
 10
59.65292301664072
 20
90.94225219291401
 30
0.0
 10
59.69748596391742
 20
90.90128334694687
 30
0.0
 10
59.75132726025852
 20
90.86724492480582
 30
0.0
 10
59.86811431085071
 20
90.82171882409237
 30
0.0
 10
59.9307877522614
 20
90.81033729891402
 30
0.0
 10
59.99132123564072
 20
90.81033729891402
 30
0.0
  0
SPLINE
  5
FD
330
1F
100
AcDbEntity
  8
0
  6
Continuous
 62
     7
370
    15
100
AcDbSpline
210
0.0
220
0.0
230
1.0
 70
     8
 71
     3
 72
    20
 73
    16
 74
     0
 42
0.000000001
 43
0.00000001
 40
0.0
 40
0.0
 40
0.0
 40
0.0
 40
0.0268186604495004
 40
0.0540019087914105
 40
0.0817747164295249
 40
0.1103481325503416
 40
0.1655774857037129
 40
0.2261430583760098
 40
0.3383449694562361
 40
0.4760335459585998
 40
0.605294850349045
 40
0.7370444963845949
 40
0.8687059501167756
 40
0.9387387792709833
 40
1.0
 40
1.0
 40
1.0
 40
1.0
 10
59.99132123564071
 20
90.81033729891341
 30
0.0
 10
59.99184552174186
 20
90.81001905927347
 30
0.0
 10
59.99290122138306
 20
90.80937825366571
 30
0.0
 10
60.00137216883118
 20
90.80419335477026
 30
0.0
 10
60.0148628850433
 20
90.79588662759825
 30
0.0
 10
60.03954303423402
 20
90.7806287929172
 30
0.0
 10
60.08257480506936
 20
90.75392912086765
 30
0.0
 10
60.16789175026761
 20
90.70006923394526
 30
0.0
 10
60.30907502974654
 20
90.60942733251292
 30
0.0
 10
60.50179173104898
 20
90.47899241762863
 30
0.0
 10
60.71597192907377
 20
90.32701672268085
 30
0.0
 10
60.93155431236813
 20
90.16536871503173
 30
0.0
 10
61.11537011123634
 20
90.01934745447451
 30
0.0
 10
61.25912918719506
 20
89.89996056768506
 30
0.0
 10
61.33003903533764
 20
89.83885083081155
 30
0.0
 10
61.36312525564074
 20
89.81033729891404
 30
0.0
  0
LINE
  5
FE
330
1F
100
AcDbEntity
  8
0
  6
Continuous
 62
     7
370
    15
100
AcDbLine
 10
61.3631252567
 20
75.5103372985
 30
0.0
 11
147.4362281856
 21
75.5103372985
 31
0.0
  0
LINE
  5
FF
330
1F
100
AcDbEntity
  8
0
  6
Continuous
 62
     7
370
    15
100
AcDbLine
 10
147.4362281856
 20
75.5103372985
 30
0.0
 11
147.4362281856
 21
74.5103372989
 31
0.0
  0
LINE
  5
100
330
1F
100
AcDbEntity
  8
0
  6
Continuous
 62
     7
370
    15
100
AcDbLine
 10
147.4362281856
 20
74.5103372989
 30
0.0
 11
59.9913212356
 21
74.5103372989
 31
0.0
  0
LINE
  5
101
330
1F
100
AcDbEntity
  8
0
  6
Continuous
 62
     7
370
    15
100
AcDbLine
 10
61.3631252783
 20
89.8103372989
 30
0.0
 11
147.4362282328
 21
89.8103372989
 31
0.0
  0
SPLINE
  5
102
330
1F
100
AcDbEntity
  8
0
  6
Continuous
 62
     7
370
    15
100
AcDbSpline
210
0.0
220
0.0
230
1.0
 70
     8
 71
     3
 72
    34
 73
    30
 74
     0
 42
0.000000001
 43
0.00000001
 40
0.0
 40
0.0
 40
0.0
 40
0.0
 40
0.1250000000000017
 40
0.1250000000000017
 40
0.1875000000000014
 40
0.1875000000000014
 40
0.2500000000000012
 40
0.2500000000000012
 40
0.3125000000000009
 40
0.3125000000000009
 40
0.3750000000000006
 40
0.3750000000000006
 40
0.4375000000000003
 40
0.4375000000000003
 40
0.5
 40
0.5
 40
0.5624999999999998
 40
0.5624999999999998
 40
0.6249999999999996
 40
0.6249999999999996
 40
0.6874999999999992
 40
0.6874999999999992
 40
0.749999999999999
 40
0.749999999999999
 40
0.8124999999999987
 40
0.8124999999999987
 40
0.8749999999999984
 40
0.8749999999999984
 40
1.0
 40
1.0
 40
1.0
 40
1.0
 10
147.4362281856407
 20
89.81033729883181
 30
0.0
 10
148.032061519003
 20
89.81033729883181
 30
0.0
 10
148.7060681857023
 20
89.73788396549934
 30
0.0
 10
149.8043081857556
 20
89.41756396550308
 30
0.0
 10
150.1842376963577
 20
89.27505766242852
 30
0.0
 10
150.9545108100592
 20
88.89954951952164
 30
0.0
 10
151.344894852497
 20
88.66633729884515
 30
0.0
 10
152.1075615192007
 20
88.09433729885181
 30
0.0
 10
152.4797354105054
 20
87.75527693731199
 30
0.0
 10
153.1666935640384
 20
86.96813738643607
 30
0.0
 10
153.481153214769
 20
86.51985286980438
 30
0.0
 10
154.008950215948
 20
85.53023349265325
 30
0.0
 10
154.2218179295597
 20
84.98895268350331
 30
0.0
 10
154.5106384423942
 20
83.85172191428576
 30
0.0
 10
154.5862281859876
 20
83.2561706322414
 30
0.0
 10
154.5862281859876
 20
82.0645039655886
 30
0.0
 10
154.5106384423943
 20
81.46895268354423
 30
0.0
 10
154.2218179295597
 20
80.33172191432669
 30
0.0
 10
154.0089502159481
 20
79.79044110517673
 30
0.0
 10
153.4811532147691
 20
78.8008217280256
 30
0.0
 10
153.1666935640386
 20
78.35253721139392
 30
0.0
 10
152.4797354105056
 20
77.56539766051797
 30
0.0
 10
152.1075615192008
 20
77.22633729897815
 30
0.0
 10
151.3448948524971
 20
76.6543372989848
 30
0.0
 10
150.9545108100593
 20
76.4211250783083
 30
0.0
 10
150.1842376963579
 20
76.0456169354014
 30
0.0
 10
149.8043081857558
 20
75.90311063232684
 30
0.0
 10
148.7060681857025
 20
75.58279063233054
 30
0.0
 10
148.0320615190032
 20
75.51033729899805
 30
0.0
 10
147.4362281856409
 20
75.51033729899805
 30
0.0
  0
SPLINE
  5
103
330
1F
100
AcDbEntity
  8
0
  6
Continuous
 62
     7
370
    15
100
AcDbSpline
210
0.0
220
0.0
230
1.0
 70
     8
 71
     3
 72
    30
 73
    26
 74
     0
 42
0.000000001
 43
0.00000001
 40
0.0
 40
0.0
 40
0.0
 40
0.0
 40
0.1250000000000014
 40
0.1250000000000014
 40
0.2500000000000029
 40
0.2500000000000029
 40
0.3125000000000022
 40
0.3125000000000022
 40
0.3750000000000014
 40
0.3750000000000014
 40
0.4375000000000008
 40
0.4375000000000008
 40
0.5
 40
0.5
 40
0.5624999999999993
 40
0.5624999999999993
 40
0.6249999999999986
 40
0.6249999999999986
 40
0.6874999999999978
 40
0.6874999999999978
 40
0.7499999999999971
 40
0.7499999999999971
 40
0.8749999999999986
 40
0.8749999999999986
 40
1.0
 40
1.0
 40
1.0
 40
1.0
 10
147.4362281856409
 20
79.16033729883401
 30
0.0
 10
147.7278948522788
 20
79.16033729883401
 30
0.0
 10
148.0578281855796
 20
79.19580396550151
 30
0.0
 10
148.774628185509
 20
79.40487063217302
 30
0.0
 10
149.1628948521375
 20
79.58033729884374
 30
0.0
 10
149.7228948520823
 20
80.00033729885347
 30
0.0
 10
149.9050778757712
 20
80.16631090241017
 30
0.0
 10
150.2413510977309
 20
80.55162396928593
 30
0.0
 10
150.3952823952688
 20
80.7710639424699
 30
0.0
 10
150.6536445636401
 20
81.25549300822505
 30
0.0
 10
150.7578455423158
 20
81.52045564208389
 30
0.0
 10
150.8992262129133
 20
82.0771420326293
 30
0.0
 10
150.9362281852962
 20
82.36867063224156
 30
0.0
 10
150.9362281852962
 20
82.95200396558837
 30
0.0
 10
150.8992262129133
 20
83.24353256520064
 30
0.0
 10
150.7578455423157
 20
83.80021895574605
 30
0.0
 10
150.6536445636401
 20
84.06518158960489
 30
0.0
 10
150.3952823952687
 20
84.54961065536001
 30
0.0
 10
150.241351097731
 20
84.76905062854401
 30
0.0
 10
149.9050778757712
 20
85.15436369541973
 30
0.0
 10
149.7228948520823
 20
85.32033729897645
 30
0.0
 10
149.1628948521374
 20
85.74033729898616
 30
0.0
 10
148.774628185509
 20
85.91580396565688
 30
0.0
 10
148.0578281855796
 20
86.12487063232837
 30
0.0
 10
147.7278948522788
 20
86.16033729899586
 30
0.0
 10
147.4362281856408
 20
86.16033729899586
 30
0.0
  0
SPLINE
  5
104
330
1F
100
AcDbEntity
  8
0
  6
Continuous
 62
     7
370
    15
100
AcDbSpline
210
0.0
220
0.0
230
1.0
 70
     8
 71
     3
 72
    30
 73
    26
 74
     0
 42
0.000000001
 43
0.00000001
 40
0.0
 40
0.0
 40
0.0
 40
0.0
 40
0.1249999999999999
 40
0.1249999999999999
 40
0.2499999999999999
 40
0.2499999999999999
 40
0.3124999999999999
 40
0.3124999999999999
 40
0.3749999999999999
 40
0.3749999999999999
 40
0.4374999999999999
 40
0.4374999999999999
 40
0.4999999999999999
 40
0.4999999999999999
 40
0.5624999999999999
 40
0.5624999999999999
 40
0.6249999999999999
 40
0.6249999999999999
 40
0.6875
 40
0.6875
 40
0.75
 40
0.75
 40
0.875
 40
0.875
 40
1.0
 40
1.0
 40
1.0
 40
1.0
 10
147.4362281856408
 20
86.16033729899809
 30
0.0
 10
147.144561519003
 20
86.16033729899807
 30
0.0
 10
146.8146281857024
 20
86.12487063233057
 30
0.0
 10
146.0978281857734
 20
85.91580396565894
 30
0.0
 10
145.7095615191452
 20
85.7403372989881
 30
0.0
 10
145.1495615192007
 20
85.3203372989781
 30
0.0
 10
144.967378495512
 20
85.15436369542127
 30
0.0
 10
144.6311052735524
 20
84.76905062854527
 30
0.0
 10
144.4771739760147
 20
84.54961065536116
 30
0.0
 10
144.2188118076435
 20
84.06518158960571
 30
0.0
 10
144.114610828968
 20
83.80021895574671
 30
0.0
 10
143.9732301583705
 20
83.24353256520094
 30
0.0
 10
143.9362281859876
 20
82.95200396558849
 30
0.0
 10
143.9362281859876
 20
82.36867063224129
 30
0.0
 10
143.9732301583706
 20
82.07714203262886
 30
0.0
 10
144.114610828968
 20
81.52045564208308
 30
0.0
 10
144.2188118076436
 20
81.25549300822408
 30
0.0
 10
144.4771739760148
 20
80.77106394246863
 30
0.0
 10
144.6311052735525
 20
80.55162396928452
 30
0.0
 10
144.967378495512
 20
80.16631090240854
 30
0.0
 10
145.1495615192008
 20
80.00033729885172
 30
0.0
 10
145.7095615191453
 20
79.58033729884174
 30
0.0
 10
146.0978281857735
 20
79.4048706321709
 30
0.0
 10
146.8146281857025
 20
79.19580396549928
 30
0.0
 10
147.1445615190031
 20
79.16033729883178
 30
0.0
 10
147.4362281856409
 20
79.16033729883178
 30
0.0
  0
LINE
  5
105
330
1F
100
AcDbEntity
  8
0
  6
Continuous
 62
     7
370
    15
100
AcDbLine
 10
59.9913212356
 20
90.8103372989
 30
0.0
 11
147.4362281856
 21
90.8103372989
 31
0.0
  0
LINE
  5
106
330
1F
100
AcDbEntity
  8
0
  6
Continuous
 62
     7
370
    15
100
AcDbLine
 10
147.4362281856
 20
90.8103372989
 30
0.0
 11
147.4362281856
 21
89.8103372989
 31
0.0
  0
ARC
  5
107
330
1F
100
AcDbEntity
  8
0
  6
Continuous
 62
     7
370
    15
100
AcDbCircle
 10
147.4362281856
 20
82.6603372989
 30
0.0
 40
8.15000000000002
100
AcDbArc
 50
269.9999999765
 51
90.0
  0
ARC
  5
108
330
1F
100
AcDbEntity
  8
0
  6
Continuous
 62
     7
370
    15
100
AcDbCircle
 10
147.4362281856
 20
82.6603372989
 30
0.0
 40
2.5
100
AcDbArc
 50
90.0
 51
269.9999999765
  0
SPLINE
  5
109
330
1F
100
AcDbEntity
  8
0
  6
Continuous
 62
     7
370
    15
100
AcDbSpline
210
0.0
220
0.0
230
1.0
 70
    24
 71
     3
 72
    14
 73
    10
 74
     0
 42
0.000000001
 43
0.00000001
 40
0.0
 40
0.0
 40
0.0
 40
0.0
 40
0.2500000000000006
 40
0.2500000000000006
 40
0.5000000000000011
 40
0.5000000000000011
 40
0.7500000000000006
 40
0.7500000000000006
 40
1.0
 40
1.0
 40
1.0
 40
1.0
 10
147.4362281856409
 20
79.16033729904811
 30
0.0
 10
147.4362281856409
 20
79.2781884292332
 30
0.0
 10
147.4362281856409
 20
79.4053350581927
 30
0.0
 10
147.4362281856408
 20
79.65152895890442
 30
0.0
 10
147.4362281856408
 20
79.76981300717294
 30
0.0
 10
147.4362281856409
 20
79.96507515298384
 30
0.0
 10
147.4362281856409
 20
80.0413926397686
 30
0.0
 10
147.4362281856409
 20
80.13885855996143
 30
0.0
 10
147.4362281856409
 20
80.16033729874789
 30
0.0
 10
147.4362281856409
 20
80.16033729870988
 30
0.0
  0
SPLINE
  5
10A
330
1F
100
AcDbEntity
  8
0
  6
Continuous
 62
     7
370
    15
100
AcDbSpline
210
0.0
220
0.0
230
1.0
 70
    24
 71
     3
 72
    14
 73
    10
 74
     0
 42
0.000000001
 43
0.00000001
 40
0.0
 40
0.0
 40
0.0
 40
0.0
 40
0.25
 40
0.25
 40
0.5
 40
0.5
 40
0.75
 40
0.75
 40
1.0
 40
1.0
 40
1.0
 40
1.0
 10
147.4362281856408
 20
86.16033729878174
 30
0.0
 10
147.4362281856408
 20
86.04248616860777
 30
0.0
 10
147.4362281856408
 20
85.91533953966122
 30
0.0
 10
147.4362281856408
 20
85.66914563897095
 30
0.0
 10
147.4362281856408
 20
85.5508615907105
 30
0.0
 10
147.4362281856408
 20
85.35559944490274
 30
0.0
 10
147.4362281856408
 20
85.27928195811292
 30
0.0
 10
147.4362281856408
 20
85.18181603789937
 30
0.0
 10
147.4362281856408
 20
85.16033729909766
 30
0.0
 10
147.4362281856408
 20
85.16033729911997
 30
0.0
  0
ARC
  5
10B
330
1F
100
AcDbEntity
  8
0
  6
Continuous
 62
     7
370
    15
100
AcDbCircle
 10
147.4362281856
 20
82.6603372989
 30
0.0
 40
2.5
100
AcDbArc
 50
269.9999999765
 51
90.0
  0
LINE
  5
10C
330
1F
100
AcDbEntity
  8
DIM
100
AcDbLine
 10
52.2542707565
 20
93.9082767818
 30
0.0
 11
57.6012117437
 21
93.9082767818
 31
0.0
  0
LINE
  5
10D
330
1F
100
AcDbEntity
  8
DIM
100
AcDbLine
 10
52.0389630946
 20
71.4103372989
 30
0.0
 11
56.6893059745
 21
71.4103372989
 31
0.0
  0
DIMENSION
  5
10E
330
1F
100
AcDbEntity
  8
DIM
100
AcDbDimension
  2
_D
 10
42.1618724191
 20
71.4103372989
 30
0.0
 11
42.1618724191
 21
83.1567330315
 31
0.0
 70
   160
  1
<>
 71
     2
 42
-1.0
  3
SLDDIMSTYLE0
100
AcDbAlignedDimension
 13
52.2542707565
 23
93.9082767818
 33
0.0
 14
52.0389630946
 24
71.4103372989
 34
0.0
 50
90.0
100
AcDbRotatedDimension
  0
DIMENSION
  5
119
330
1F
100
AcDbEntity
  8
DIM
100
AcDbDimension
  2
_D_1
 10
155.5862281856
 20
65.8004355307
 30
0.0
 11
100.6463162607
 21
65.8004355307
 31
0.0
 70
   160
  1
<>
 71
     2
 42
-1.0
  3
SLDDIMSTYLE1
100
AcDbAlignedDimension
 13
45.7064043358
 23
73.5219164929
 33
0.0
 14
155.5862281856
 24
82.6603372989
 34
0.0
100
AcDbRotatedDimension
  0
LINE
  5
124
330
1F
100
AcDbEntity
  8
0
  6
Continuous
 62
     7
370
    15
100
AcDbLine
 10
63.2889630946
 20
38.8529953781
 30
0.0
 11
63.2889630946
 21
44.0529953759
 31
0.0
  0
ARC
  5
125
330
1F
100
AcDbEntity
  8
0
  6
Continuous
 62
     7
370
    15
100
AcDbCircle
 10
46.0064043355
 20
34.3529953755
 30
0.0
 40
0.2999999999999972
100
AcDbArc
 50
179.9999999313
 51
270.0000000142
  0
LINE
  5
126
330
1F
100
AcDbEntity
  8
0
  6
Continuous
 62
     7
370
    15
100
AcDbLine
 10
45.7064043356
 20
44.0529953759
 30
0.0
 11
45.7064043356
 21
34.3529953759
 31
0.0
  0
SPLINE
  5
127
330
1F
100
AcDbEntity
  8
0
  6
Continuous
 62
     7
370
    15
100
AcDbSpline
210
0.0
220
0.0
230
1.0
 70
     8
 71
     3
 72
    13
 73
     9
 74
     0
 42
0.000000001
 43
0.00000001
 40
0.0
 40
0.0
 40
0.0
 40
0.0
 40
0.2394568444529236
 40
0.3683606603284864
 40
0.5000000001127595
 40
0.6316393398783368
 40
0.760543155702328
 40
1.0
 40
1.0
 40
1.0
 40
1.0
 10
155.5862281858657
 20
37.35299537585269
 30
0.0
 10
155.5728701957815
 20
37.47879169658349
 30
0.0
 10
155.5523213655348
 20
37.67230638135752
 30
0.0
 10
155.427623767863
 20
37.90512246412525
 30
0.0
 10
155.298561999879
 20
38.06532918999339
 30
0.0
 10
155.1383552740213
 20
38.19439095794607
 30
0.0
 10
154.9055391913308
 20
38.31908855552456
 30
0.0
 10
154.7120245066481
 20
38.33963738564596
 30
0.0
 10
154.5862281859876
 20
38.35299537564755
 30
0.0
  0
SPLINE
  5
128
330
1F
100
AcDbEntity
  8
0
  6
Continuous
 62
     7
370
    15
100
AcDbSpline
210
0.0
220
0.0
230
1.0
 70
     8
 71
     3
 72
    13
 73
     9
 74
     0
 42
0.000000001
 43
0.00000001
 40
0.0
 40
0.0
 40
0.0
 40
0.0
 40
0.2394568442975677
 40
0.3683606601214856
 40
0.4999999998870308
 40
0.6316393396712815
 40
0.7605431555468805
 40
1.0
 40
1.0
 40
1.0
 40
1.0
 10
154.5862281859876
 20
34.05299537605765
 30
0.0
 10
154.7120245066477
 20
34.06635336605915
 30
0.0
 10
154.9055391913299
 20
34.08690219618043
 30
0.0
 10
155.1383552740198
 20
34.21159979375827
 30
0.0
 10
155.2985619998773
 20
34.34066156171027
 30
0.0
 10
155.4276237678614
 20
34.50086828757773
 30
0.0
 10
155.5523213655337
 20
34.7336843703446
 30
0.0
 10
155.5728701957811
 20
34.92719905511823
 30
0.0
 10
155.5862281858657
 20
35.05299537584879
 30
0.0
  0
LINE
  5
129
330
1F
100
AcDbEntity
  8
0
  6
Continuous
 62
     7
370
    15
100
AcDbLine
 10
155.5862281856
 20
35.0529953757
 30
0.0
 11
155.5862281856
 21
37.3529953759
 31
0.0
  0
SPLINE
  5
12A
330
1F
100
AcDbEntity
  8
0
  6
Continuous
 62
     7
370
    15
100
AcDbSpline
210
0.0
220
0.0
230
1.0
 70
     8
 71
     3
 72
    13
 73
     9
 74
     0
 42
0.000000001
 43
0.00000001
 40
0.0
 40
0.0
 40
0.0
 40
0.0
 40
0.2394568445871168
 40
0.3683606605423817
 40
0.5000000003745717
 40
0.6316393401400279
 40
0.7605431559140678
 40
1.0
 40
1.0
 40
1.0
 40
1.0
 10
63.7889630941889
 20
38.3529953755864
 30
0.0
 10
63.72606493361364
 20
38.35967437076102
 30
0.0
 10
63.62930759090182
 20
38.36994878608845
 30
0.0
 10
63.5128995492328
 20
38.43229758536976
 30
0.0
 10
63.43279618618718
 20
38.49682846976562
 30
0.0
 10
63.36826530225024
 20
38.57693183311923
 30
0.0
 10
63.30591650370445
 20
38.69333987496454
 30
0.0
 10
63.29564208899653
 20
38.79009721756485
 30
0.0
 10
63.28896309422624
 20
38.8529953780525
 30
0.0
  0
SPLINE
  5
12B
330
1F
100
AcDbEntity
  8
0
  6
Continuous
 62
     7
370
    15
100
AcDbSpline
210
0.0
220
0.0
230
1.0
 70
    24
 71
     3
 72
    14
 73
    10
 74
     0
 42
0.000000001
 43
0.00000001
 40
0.0
 40
0.0
 40
0.0
 40
0.0
 40
0.2500000000000001
 40
0.2500000000000001
 40
0.5000000000000002
 40
0.5000000000000002
 40
0.7500000000000001
 40
0.7500000000000001
 40
1.0
 40
1.0
 40
1.0
 40
1.0
 10
52.03896309464093
 20
34.05299537546673
 30
0.0
 10
52.7987439200623
 20
34.05299537546673
 30
0.0
 10
53.57628778822342
 20
34.05299537546673
 30
0.0
 10
55.11459021014053
 20
34.05299537546673
 30
0.0
 10
55.87493394484878
 20
34.05299537546673
 30
0.0
 10
57.323048377048
 20
34.05299537546673
 30
0.0
 10
58.01041742663151
 20
34.05299537546673
 30
0.0
 10
59.26682674484174
 20
34.05299537546673
 30
0.0
 10
59.83566292878682
 20
34.05299537546673
 30
0.0
 10
60.33233394021999
 20
34.05299537546673
 30
0.0
  0
SPLINE
  5
12C
330
1F
100
AcDbEntity
  8
0
  6
Continuous
 62
     7
370
    15
100
AcDbSpline
210
0.0
220
0.0
230
1.0
 70
    24
 71
     3
 72
    10
 73
     6
 74
     0
 42
0.000000001
 43
0.00000001
 40
0.0
 40
0.0
 40
0.0
 40
0.0
 40
0.5
 40
0.5
 40
1.0
 40
1.0
 40
1.0
 40
1.0
 10
52.03896309464093
 20
34.35299537566003
 30
0.0
 10
52.03896309464093
 20
34.28228469744499
 30
0.0
 10
52.03896309464093
 20
34.19944198497552
 30
0.0
 10
52.03896309464093
 20
34.08228469746469
 30
0.0
 10
52.03896309464093
 20
34.05299537556398
 30
0.0
 10
52.03896309464093
 20
34.05299537546673
 30
0.0
  0
LINE
  5
12D
330
1F
100
AcDbEntity
  8
0
  6
Continuous
 62
     7
370
    15
100
AcDbLine
 10
59.8295981807
 20
34.3529953759
 30
0.0
 11
52.03896309
 21
34.3529953759
 31
0.0
  0
SPLINE
  5
12E
330
1F
100
AcDbEntity
  8
0
  6
Continuous
 62
     7
370
    15
100
AcDbSpline
210
0.0
220
0.0
230
1.0
 70
     8
 71
     3
 72
    15
 73
    11
 74
     0
 42
0.000000001
 43
0.00000001
 40
0.0
 40
0.0
 40
0.0
 40
0.0
 40
0.1060990345427849
 40
0.2501385356396483
 40
0.399001383994443
 40
0.5000710366864497
 40
0.6323007805052695
 40
0.7500327315253956
 40
0.878527346417996
 40
1.0
 40
1.0
 40
1.0
 40
1.0
 10
60.33233394021993
 20
34.05299537546673
 30
0.0
 10
60.31886484053684
 20
34.05365599016929
 30
0.0
 10
60.28711016071686
 20
34.05521345197874
 30
0.0
 10
60.23443436983312
 20
34.07022771169326
 30
0.0
 10
60.17900563952831
 20
34.09667280466217
 30
0.0
 10
60.12061591229047
 20
34.13246999789288
 30
0.0
 10
60.06271885276865
 20
34.17415974041371
 30
0.0
 10
59.99303359650789
 20
34.22813166194257
 30
0.0
 10
59.91808472794865
 20
34.28797593264504
 30
0.0
 10
59.85853609075973
 20
34.33173195240244
 30
0.0
 10
59.82959817812552
 20
34.35299537566003
 30
0.0
  0
SPLINE
  5
12F
330
1F
100
AcDbEntity
  8
0
  6
Continuous
 62
     7
370
    15
100
AcDbSpline
210
0.0
220
0.0
230
1.0
 70
    24
 71
     3
 72
    10
 73
     6
 74
     0
 42
0.000000001
 43
0.00000001
 40
0.0
 40
0.0
 40
0.0
 40
0.0
 40
0.5
 40
0.5
 40
1.0
 40
1.0
 40
1.0
 40
1.0
 10
46.00640433546685
 20
34.05299537546673
 30
0.0
 10
46.88251002887478
 20
34.05299537546673
 30
0.0
 10
47.86248858569198
 20
34.05299537546673
 30
0.0
 10
49.91674056723411
 20
34.05299537546673
 30
0.0
 10
50.98918025531594
 20
34.05299537546673
 30
0.0
 10
52.03896309464093
 20
34.05299537546673
 30
0.0
  0
LWPOLYLINE
  5
130
330
1F
100
AcDbEntity
  8
0
  6
Continuous
 62
     7
370
    15
100
AcDbPolyline
 90
        9
 70
   128
 43
0.0
 10
45.8411279554
 20
34.3529953757
 10
45.8443036947
 20
34.2944682791
 10
45.8537088707
 20
34.238190346
 10
45.8689820478
 20
34.1863243058
 10
45.8895362864
 20
34.1408633414
 10
45.9145816985
 20
34.1035544921
 10
45.9431558031
 20
34.0758315161
 10
45.9741605133
 20
34.0587597917
 10
46.0064043355
 20
34.0529953755
  0
LINE
  5
131
330
1F
100
AcDbEntity
  8
0
  6
Continuous
 62
     7
370
    15
100
AcDbLine
 10
52.0389630946
 20
34.3529953757
 30
0.0
 11
45.8411279554
 21
34.3529953757
 31
0.0
  0
LINE
  5
132
330
1F
100
AcDbEntity
  8
0
  6
Continuous
 62
     7
370
    15
100
AcDbLine
 10
55.9377122452
 20
39.0529953736
 30
0.0
 11
55.9377122459
 21
44.0529953759
 31
0.0
  0
LINE
  5
133
330
1F
100
AcDbEntity
  8
0
  6
Continuous
 62
     7
370
    15
100
AcDbLine
 10
55.9377122459
 20
44.0529953759
 30
0.0
 11
58.8921988644
 21
44.0529953759
 31
0.0
  0
LINE
  5
134
330
1F
100
AcDbEntity
  8
0
  6
Continuous
 62
     7
370
    15
100
AcDbLine
 10
58.8921988644
 20
44.0529953759
 30
0.0
 11
58.8921988644
 21
39.0529953713
 31
0.0
  0
LINE
  5
135
330
1F
100
AcDbEntity
  8
0
  6
Continuous
 62
     7
370
    15
100
AcDbLine
 10
58.8921988644
 20
39.0529953713
 30
0.0
 11
63.127357929
 21
39.0529953736
 31
0.0
  0
LINE
  5
136
330
1F
100
AcDbEntity
  8
0
  6
Continuous
 62
     7
370
    15
100
AcDbLine
 10
63.127357929
 20
39.0529953736
 30
0.0
 11
63.1273579289
 21
44.0529953759
 31
0.0
  0
LINE
  5
137
330
1F
100
AcDbEntity
  8
0
  6
Continuous
 62
     7
370
    15
100
AcDbLine
 10
63.1273579289
 20
44.0529953759
 30
0.0
 11
63.2889630946
 21
44.0529953759
 31
0.0
  0
LINE
  5
138
330
1F
100
AcDbEntity
  8
0
  6
Continuous
 62
     7
370
    15
100
AcDbLine
 10
59.2286087798
 20
39.0529953736
 30
0.0
 11
59.2286087794
 21
44.0529953759
 31
0.0
  0
SPLINE
  5
139
330
1F
100
AcDbEntity
  8
0
  6
Continuous
 62
     7
370
    15
100
AcDbSpline
210
0.0
220
0.0
230
1.0
 70
     8
 71
     3
 72
    16
 73
    12
 74
     0
 42
0.000000001
 43
0.00000001
 40
0.0
 40
0.0
 40
0.0
 40
0.0
 40
0.2499999999999992
 40
0.2499999999999992
 40
0.4999999999999984
 40
0.4999999999999984
 40
0.6249999999999987
 40
0.6249999999999987
 40
0.7499999999999988
 40
0.7499999999999988
 40
1.0
 40
1.0
 40
1.0
 40
1.0
 10
60.96635239764088
 20
38.8529953758526
 30
0.0
 10
60.83072536364089
 20
38.8529953638526
 30
0.0
 10
60.69120753664088
 20
38.8194583068526
 30
0.0
 10
60.41256578464088
 20
38.69177782151927
 30
0.0
 10
60.27629799114088
 20
38.59980538985259
 30
0.0
 10
60.08101919964088
 20
38.41140054785259
 30
0.0
 10
60.01907642764089
 20
38.3413937218526
 30
0.0
 10
59.90396027430757
 20
38.18520274985259
 30
0.0
 10
59.8500990576409
 20
38.0977987878526
 30
0.0
 10
59.7123383676409
 20
37.8121112478526
 30
0.0
 10
59.65292304864089
 20
37.58756908385259
 30
0.0
 10
59.6529230166409
 20
37.35299537585259
 30
0.0
  0
LINE
  5
13A
330
1F
100
AcDbEntity
  8
0
  6
Continuous
 62
     7
370
    15
100
AcDbLine
 10
59.6529230136
 20
37.3529953806
 30
0.0
 11
59.6529230136
 21
35.0529953715
 31
0.0
  0
SPLINE
  5
13B
330
1F
100
AcDbEntity
  8
0
  6
Continuous
 62
     7
370
    15
100
AcDbSpline
210
0.0
220
0.0
230
1.0
 70
     8
 71
     3
 72
    10
 73
     6
 74
     0
 42
0.000000001
 43
0.00000001
 40
0.0
 40
0.0
 40
0.0
 40
0.0
 40
0.5
 40
0.5
 40
1.0
 40
1.0
 40
1.0
 40
1.0
 10
59.6529230166409
 20
35.0529953758526
 30
0.0
 10
59.65292303264089
 20
34.92537285985259
 30
0.0
 10
59.6698101236409
 20
34.80148248018593
 30
0.0
 10
59.7323623676409
 20
34.5631845028526
 30
0.0
 10
59.7763519286409
 20
34.4541688258526
 30
0.0
 10
59.82959818064089
 20
34.35299537585259
 30
0.0
  0
LINE
  5
13C
330
1F
100
AcDbEntity
  8
0
  6
Continuous
 62
     7
370
    15
100
AcDbLine
 10
45.8411279554
 20
34.3529953757
 30
0.0
 11
45.8411287529
 21
44.0529953759
 31
0.0
  0
LINE
  5
13D
330
1F
100
AcDbEntity
  8
0
  6
Continuous
 62
     7
370
    15
100
AcDbLine
 10
45.8411287529
 20
44.0529953759
 30
0.0
 11
47.739214131
 21
44.0529953759
 31
0.0
  0
LINE
  5
13E
330
1F
100
AcDbEntity
  8
0
  6
Continuous
 62
     7
370
    15
100
AcDbLine
 10
47.739214131
 20
44.0529953759
 30
0.0
 11
47.7392141302
 21
39.0529953736
 31
0.0
  0
LINE
  5
13F
330
1F
100
AcDbEntity
  8
0
  6
Continuous
 62
     7
370
    15
100
AcDbLine
 10
47.7392141302
 20
39.0529953736
 30
0.0
 11
55.9377122452
 21
39.0529953736
 31
0.0
  0
LINE
  5
140
330
1F
100
AcDbEntity
  8
0
  6
Continuous
 62
     7
370
    15
100
AcDbLine
 10
55.0488386149
 20
39.0529953759
 30
0.0
 11
55.7489261293
 21
44.0529953759
 31
0.0
  0
LINE
  5
141
330
1F
100
AcDbEntity
  8
0
  6
Continuous
 62
     7
370
    15
100
AcDbLine
 10
55.9377122459
 20
44.0529953759
 30
0.0
 11
55.7489261293
 21
44.0529953759
 31
0.0
  0
LINE
  5
142
330
1F
100
AcDbEntity
  8
0
  6
Continuous
 62
     7
370
    15
100
AcDbLine
 10
47.9474175519
 20
44.0529953759
 30
0.0
 11
48.7195114828
 21
39.0529953759
 31
0.0
  0
LINE
  5
143
330
1F
100
AcDbEntity
  8
0
  6
Continuous
 62
     7
370
    15
100
AcDbLine
 10
47.739214131
 20
44.0529953759
 30
0.0
 11
47.9474175519
 21
44.0529953759
 31
0.0
  0
LINE
  5
144
330
1F
100
AcDbEntity
  8
0
  6
Continuous
 62
     7
370
    15
100
AcDbLine
 10
45.8411287529
 20
44.0529953759
 30
0.0
 11
45.7064043356
 21
44.0529953759
 31
0.0
  0
LINE
  5
145
330
1F
100
AcDbEntity
  8
0
  6
Continuous
 62
     7
370
    15
100
AcDbLine
 10
59.9913212356
 20
37.3529953759
 30
0.0
 11
59.6529230137
 21
37.3529953759
 31
0.0
  0
LINE
  5
146
330
1F
100
AcDbEntity
  8
0
  6
Continuous
 62
     7
370
    15
100
AcDbLine
 10
59.9913212356
 20
35.0529953759
 30
0.0
 11
59.9913212356
 21
37.3529953759
 31
0.0
  0
SPLINE
  5
147
330
1F
100
AcDbEntity
  8
0
  6
Continuous
 62
     7
370
    15
100
AcDbSpline
210
0.0
220
0.0
230
1.0
 70
     8
 71
     3
 72
    10
 73
     6
 74
     0
 42
0.000000001
 43
0.00000001
 40
0.0
 40
0.0
 40
0.0
 40
0.0
 40
0.5
 40
0.5
 40
1.0
 40
1.0
 40
1.0
 40
1.0
 10
59.65292301664088
 20
35.05299556157466
 30
0.0
 10
59.69748596391771
 20
35.05299555050104
 30
0.0
 10
59.75132726025873
 20
35.05299553903568
 30
0.0
 10
59.86811431085077
 20
35.0529955176704
 30
0.0
 10
59.93078775226138
 20
35.05299550782026
 30
0.0
 10
59.99132123564088
 20
35.0529954996673
 30
0.0
  0
SPLINE
  5
148
330
1F
100
AcDbEntity
  8
0
  6
Continuous
 62
     7
370
    15
100
AcDbSpline
210
0.0
220
0.0
230
1.0
 70
     8
 71
     3
 72
     8
 73
     4
 74
     0
 42
0.000000001
 43
0.00000001
 40
0.0
 40
0.0
 40
0.0
 40
0.0
 40
1.0
 40
1.0
 40
1.0
 40
1.0
 10
60.17584862864089
 20
34.5863287088526
 30
0.0
 10
60.0646622906409
 20
34.7211791388526
 30
0.0
 10
59.99132126764089
 20
34.88283202385259
 30
0.0
 10
59.9913212356409
 20
35.0529953758526
 30
0.0
  0
ARC
  5
149
330
1F
100
AcDbEntity
  8
0
  6
Continuous
 62
     7
370
    15
100
AcDbCircle
 10
60.5917294623
 20
33.5956179926
 30
0.0
 40
1.074460139337315
100
AcDbArc
 50
112.7717041543
 51
135.1792536185
  0
ARC
  5
14A
330
1F
100
AcDbEntity
  8
0
  6
Continuous
 62
     7
370
    15
100
AcDbCircle
 10
61.4214528495
 20
38.8067097394
 30
0.0
 40
0.4574481805141894
100
AcDbArc
 50
174.1927462181
 51
262.6744702504
  0
SPLINE
  5
14B
330
1F
100
AcDbEntity
  8
0
  6
Continuous
 62
     7
370
    15
100
AcDbSpline
210
0.0
220
0.0
230
1.0
 70
     8
 71
     3
 72
    18
 73
    14
 74
     0
 42
0.000000001
 43
0.00000001
 40
0.0
 40
0.0
 40
0.0
 40
0.0
 40
0.0613642613246893
 40
0.1315561448128832
 40
0.263911030680921
 40
0.3951060341398978
 40
0.5251268112894405
 40
0.662653133014077
 40
0.7747850262808869
 40
0.835362269876858
 40
0.890646903815944
 40
0.946464671748837
 40
1.0
 40
1.0
 40
1.0
 40
1.0
 10
61.36312525564087
 20
38.3529953758526
 30
0.0
 10
61.32998808725994
 20
38.35227411516047
 30
0.0
 10
61.25894676731075
 20
38.35072783603947
 30
0.0
 10
61.11468464952241
 20
38.33393770946475
 30
0.0
 10
60.93072354525412
 20
38.29339435966532
 30
0.0
 10
60.71469975215523
 20
38.21493337916748
 30
0.0
 10
60.50056192127041
 20
38.10418678678782
 30
0.0
 10
60.30770116923941
 20
37.96385455826331
 30
0.0
 10
60.16686668761336
 20
37.81696011505642
 30
0.0
 10
60.08164507191273
 20
37.68863654495067
 30
0.0
 10
60.03105969422419
 20
37.58132298843405
 30
0.0
 10
59.99775315259276
 20
37.46930181390183
 30
0.0
 10
59.99343516599842
 20
37.39122094872727
 30
0.0
 10
59.9913212356409
 20
37.35299537585259
 30
0.0
  0
LINE
  5
14C
330
1F
100
AcDbEntity
  8
0
  6
Continuous
 62
     7
370
    15
100
AcDbLine
 10
59.9913212607
 20
35.0529953762
 30
0.0
 11
147.436228184
 21
35.052995376
 31
0.0
  0
LINE
  5
14D
330
1F
100
AcDbEntity
  8
0
  6
Continuous
 62
     7
370
    15
100
AcDbLine
 10
147.436228184
 20
35.052995376
 30
0.0
 11
147.4362281856
 21
34.0529953759
 31
0.0
  0
SPLINE
  5
14E
330
1F
100
AcDbEntity
  8
0
  6
Continuous
 62
     7
370
    15
100
AcDbSpline
210
0.0
220
0.0
230
1.0
 70
     8
 71
     3
 72
    10
 73
     6
 74
     0
 42
0.000000001
 43
0.00000001
 40
0.0
 40
0.0
 40
0.0
 40
0.0
 40
0.499999999999999
 40
0.499999999999999
 40
1.0
 40
1.0
 40
1.0
 40
1.0
 10
60.33233394164089
 20
34.0529953758526
 30
0.0
 10
60.36045602564089
 20
34.0529953758526
 30
0.0
 10
60.38237392697422
 20
34.10423753651926
 30
0.0
 10
60.3510304096409
 20
34.2983562378526
 30
0.0
 10
60.2974883406409
 20
34.4387999708526
 30
0.0
 10
60.1758486286409
 20
34.5863287088526
 30
0.0
  0
LINE
  5
14F
330
1F
100
AcDbEntity
  8
0
  6
Continuous
 62
     7
370
    15
100
AcDbLine
 10
60.3323339022
 20
34.0529953759
 30
0.0
 11
147.4362281836
 21
34.0529953759
 31
0.0
  0
LINE
  5
150
330
1F
100
AcDbEntity
  8
0
  6
Continuous
 62
     7
370
    15
100
AcDbLine
 10
147.4362281856
 20
37.3529953759
 30
0.0
 11
59.9913212356
 21
37.3529953759
 31
0.0
  0
LINE
  5
151
330
1F
100
AcDbEntity
  8
0
  6
Continuous
 62
     7
370
    15
100
AcDbLine
 10
147.436228184
 20
35.052995376
 30
0.0
 11
147.4362281823
 21
37.3529953759
 31
0.0
  0
LINE
  5
152
330
1F
100
AcDbEntity
  8
0
  6
Continuous
 62
     7
370
    15
100
AcDbLine
 10
61.3631252567
 20
38.3529953759
 30
0.0
 11
147.4362281856
 21
38.3529953759
 31
0.0
  0
LINE
  5
153
330
1F
100
AcDbEntity
  8
0
  6
Continuous
 62
     7
370
    15
100
AcDbLine
 10
147.4362281856
 20
38.3529953759
 30
0.0
 11
147.4362281856
 21
37.3529953762
 31
0.0
  0
SPLINE
  5
154
330
1F
100
AcDbEntity
  8
0
  6
Continuous
 62
     7
370
    15
100
AcDbSpline
210
0.0
220
0.0
230
1.0
 70
    24
 71
     3
 72
    20
 73
    16
 74
     0
 42
0.000000001
 43
0.00000001
 40
0.0
 40
0.0
 40
0.0
 40
0.0
 40
0.125
 40
0.125
 40
0.25
 40
0.25
 40
0.375
 40
0.375
 40
0.5
 40
0.5
 40
0.625
 40
0.625
 40
0.75
 40
0.75
 40
1.0
 40
1.0
 40
1.0
 40
1.0
 10
154.5862281859876
 20
38.35299537564755
 30
0.0
 10
154.5862281859812
 20
38.35299537564755
 30
0.0
 10
154.5106384423823
 20
38.35299537564755
 30
0.0
 10
154.2218179295391
 20
38.35299537564755
 30
0.0
 10
154.0089502159245
 20
38.35299537564755
 30
0.0
 10
153.4811532147419
 20
38.35299537564755
 30
0.0
 10
153.1666935640106
 20
38.35299537564755
 30
0.0
 10
152.4797354104782
 20
38.35299537564755
 30
0.0
 10
152.1075615191746
 20
38.35299537564755
 30
0.0
 10
151.3448948524743
 20
38.35299537564755
 30
0.0
 10
150.9545108100385
 20
38.35299537564755
 30
0.0
 10
150.1842376963415
 20
38.35299537564755
 30
0.0
 10
149.8043081857417
 20
38.35299537564755
 30
0.0
 10
148.7060681856952
 20
38.35299537564755
 30
0.0
 10
148.0320615189999
 20
38.35299537564755
 30
0.0
 10
147.4362281856409
 20
38.35299537564755
 30
0.0
  0
SPLINE
  5
155
330
1F
100
AcDbEntity
  8
0
  6
Continuous
 62
     7
370
    15
100
AcDbSpline
210
0.0
220
0.0
230
1.0
 70
    24
 71
     3
 72
    20
 73
    16
 74
     0
 42
0.000000001
 43
0.00000001
 40
0.0
 40
0.0
 40
0.0
 40
0.0
 40
0.2500000000000032
 40
0.2500000000000032
 40
0.3750000000000026
 40
0.3750000000000026
 40
0.5000000000000021
 40
0.5000000000000021
 40
0.6250000000000016
 40
0.6250000000000016
 40
0.750000000000001
 40
0.750000000000001
 40
0.8750000000000006
 40
0.8750000000000006
 40
1.0
 40
1.0
 40
1.0
 40
1.0
 10
147.4362281856409
 20
34.05299537605765
 30
0.0
 10
148.0320615190064
 20
34.05299537605765
 30
0.0
 10
148.7060681857098
 20
34.05299537605765
 30
0.0
 10
149.8043081857698
 20
34.05299537605765
 30
0.0
 10
150.1842376963743
 20
34.05299537605765
 30
0.0
 10
150.9545108100801
 20
34.05299537605765
 30
0.0
 10
151.3448948525201
 20
34.05299537605765
 30
0.0
 10
152.107561519227
 20
34.05299537605765
 30
0.0
 10
152.4797354105329
 20
34.05299537605765
 30
0.0
 10
153.1666935640665
 20
34.05299537605765
 30
0.0
 10
153.4811532147964
 20
34.05299537605765
 30
0.0
 10
154.0089502159718
 20
34.05299537605765
 30
0.0
 10
154.2218179295803
 20
34.05299537605765
 30
0.0
 10
154.5106384424062
 20
34.05299537605765
 30
0.0
 10
154.586228185994
 20
34.05299537605765
 30
0.0
 10
154.5862281859876
 20
34.05299537605765
 30
0.0
  0
LINE
  5
156
330
1F
100
AcDbEntity
  8
0
  6
Continuous
 62
     7
370
    15
100
AcDbLine
 10
60.5993210202
 20
39.0529953759
 30
0.0
 11
62.5904331598
 21
44.0529953759
 31
0.0
  0
LINE
  5
157
330
1F
100
AcDbEntity
  8
0
  6
Continuous
 62
     7
370
    15
100
AcDbLine
 10
63.1273579289
 20
44.0529953759
 30
0.0
 11
62.5904331598
 21
44.0529953759
 31
0.0
  0
LINE
  5
158
330
1F
100
AcDbEntity
  8
0
  6
Continuous
 62
     7
370
    15
100
AcDbLine
 10
59.2286087794
 20
44.0529953759
 30
0.0
 11
58.8921988644
 21
44.0529953759
 31
0.0
  0
LINE
  5
159
330
1F
100
AcDbEntity
  8
0
  6
Continuous
 62
     7
370
    15
100
AcDbLine
 10
49.0290875728
 20
39.0529953759
 30
0.0
 11
48.3290000599
 21
44.0529953759
 31
0.0
  0
LINE
  5
15A
330
1F
100
AcDbEntity
  8
0
  6
Continuous
 62
     7
370
    15
100
AcDbLine
 10
48.3290000599
 20
44.0529953759
 30
0.0
 11
47.947417552
 21
44.0529953759
 31
0.0
  0
LINE
  5
15B
330
1F
100
AcDbEntity
  8
0
  6
Continuous
 62
     8
370
    15
100
AcDbLine
 10
63.2889630946
 20
38.8529953781
 30
0.0
 11
60.9663523964
 21
38.8529953781
 31
0.0
  0
LINE
  5
15C
330
1F
100
AcDbEntity
  8
0
  6
Continuous
 62
     8
370
    15
100
AcDbLine
 10
45.8411279554
 20
34.3529953757
 30
0.0
 11
45.7064043356
 21
34.3529953759
 31
0.0
  0
LINE
  5
15D
330
1F
100
AcDbEntity
  8
0
  6
Continuous
 62
     8
370
    15
100
AcDbLine
 10
147.4362281823
 20
37.3529953759
 30
0.0
 11
155.5862281814
 21
37.3529953759
 31
0.0
  0
LINE
  5
15E
330
1F
100
AcDbEntity
  8
0
  6
Continuous
 62
     8
370
    15
100
AcDbLine
 10
147.436228184
 20
35.052995376
 30
0.0
 11
155.5862281854
 21
35.0529953757
 31
0.0
  0
ENDSEC
  0
SECTION
  2
OBJECTS
  0
DICTIONARY
  5
C
330
0
100
AcDbDictionary
281
     1
  3
ACAD_GROUP
350
D
  3
ACAD_LAYOUT
350
1A
  3
ACAD_MLINESTYLE
350
17
  3
ACAD_PLOTSETTINGS
350
19
  3
ACAD_PLOTSTYLENAME
350
E
  3
ACAD_SCALELIST
350
47
  0
DICTIONARY
  5
D
102
{ACAD_REACTORS
330
C
102
}
330
C
100
AcDbDictionary
281
     1
  0
DICTIONARY
  5
1A
102
{ACAD_REACTORS
330
C
102
}
330
C
100
AcDbDictionary
281
     1
  3
Layout1
350
1E
  3
Layout2
350
26
  3
Model
350
22
  0
DICTIONARY
  5
17
102
{ACAD_REACTORS
330
C
102
}
330
C
100
AcDbDictionary
281
     1
  3
Standard
350
18
  0
DICTIONARY
  5
19
102
{ACAD_REACTORS
330
C
102
}
330
C
100
AcDbDictionary
281
     1
  0
ACDBDICTIONARYWDFLT
  5
E
102
{ACAD_REACTORS
330
C
102
}
330
C
100
AcDbDictionary
281
     1
  3
Normal
350
F
100
AcDbDictionaryWithDefault
340
F
  0
DICTIONARY
  5
47
102
{ACAD_REACTORS
330
C
102
}
330
C
100
AcDbDictionary
281
     1
  3
A0
350
48
  3
A1
350
49
  3
A2
350
4A
  3
A3
350
4B
  3
A4
350
4C
  3
A5
350
4D
  3
A6
350
4E
  3
A7
350
4F
  3
A8
350
50
  3
A9
350
51
  3
B0
350
52
  3
B1
350
53
  3
B2
350
54
  3
B3
350
55
  3
B4
350
56
  3
B5
350
57
  3
B6
350
58
  3
B7
350
59
  3
B8
350
5A
  3
B9
350
5B
  3
C0
350
5C
  3
C1
350
5D
  3
C2
350
5E
  3
C3
350
5F
  3
C4
350
60
  3
C5
350
61
  3
C6
350
62
  3
C7
350
63
  3
C8
350
64
  3
C9
350
65
  3
D0
350
66
  3
D1
350
67
  3
D2
350
68
  0
LAYOUT
  5
1E
102
{ACAD_REACTORS
330
1A
102
}
330
1A
100
AcDbPlotSettings
  1

  2
none_device
  4

  6

 40
0.0
 41
0.0
 42
0.0
 43
0.0
 44
0.0
 45
0.0
 46
0.0
 47
0.0
 48
0.0
 49
0.0
140
0.0
141
0.0
142
1.0
143
1.0
 70
   688
 72
     1
 73
     0
 74
     5
  7

 75
    16
147
1.0
148
0.0
149
0.0
100
AcDbLayout
  1
Layout1
 70
     1
 71
     1
 10
0.0
 20
0.0
 11
420.0
 21
297.0
 12
0.0
 22
0.0
 32
0.0
 14
1.0000000000E+20
 24
1.0000000000E+20
 34
1.0000000000E+20
 15
-1.0000000000E+20
 25
-1.0000000000E+20
 35
-1.0000000000E+20
146
0.0
 13
0.0
 23
0.0
 33
0.0
 16
1.0
 26
0.0
 36
0.0
 17
0.0
 27
1.0
 37
0.0
 76
     0
330
1B
  0
LAYOUT
  5
26
102
{ACAD_REACTORS
330
1A
102
}
330
1A
100
AcDbPlotSettings
  1

  2
none_device
  4

  6

 40
0.0
 41
0.0
 42
0.0
 43
0.0
 44
0.0
 45
0.0
 46
0.0
 47
0.0
 48
0.0
 49
0.0
140
0.0
141
0.0
142
1.0
143
1.0
 70
   688
 72
     1
 73
     0
 74
     5
  7

 75
    16
147
1.0
148
0.0
149
0.0
100
AcDbLayout
  1
Layout2
 70
     1
 71
     2
 10
0.0
 20
0.0
 11
0.0
 21
0.0
 12
0.0
 22
0.0
 32
0.0
 14
0.0
 24
0.0
 34
0.0
 15
0.0
 25
0.0
 35
0.0
146
0.0
 13
0.0
 23
0.0
 33
0.0
 16
1.0
 26
0.0
 36
0.0
 17
0.0
 27
1.0
 37
0.0
 76
     0
330
23
  0
LAYOUT
  5
22
102
{ACAD_REACTORS
330
1A
102
}
330
1A
100
AcDbPlotSettings
  1

  2
none_device
  4
Letter_(8.50_x_11.00_Inches)
  6

 40
6.35
 41
6.35
 42
6.35000508
 43
6.35000508
 44
215.9
 45
279.4
 46
0.0
 47
0.0
 48
0.0
 49
0.0
140
0.0
141
0.0
142
1.0
143
1.0
 70
  1712
 72
     1
 73
     0
 74
     0
  7

 75
     0
147
1.0
148
0.0
149
0.0
100
AcDbLayout
  1
Model
 70
     1
 71
     0
 10
0.0
 20
0.0
 11
198.0
 21
140.0
 12
0.0
 22
0.0
 32
0.0
 14
0.0
 24
0.0
 34
0.0
 15
198.0
 25
140.0
 35
0.0
146
0.0
 13
0.0
 23
0.0
 33
0.0
 16
1.0
 26
0.0
 36
0.0
 17
0.0
 27
1.0
 37
0.0
 76
     0
330
1F
331
29
  0
MLINESTYLE
  5
18
102
{ACAD_REACTORS
330
17
102
}
330
17
100
AcDbMlineStyle
  2
Standard
 70
     0
  3

 62
   256
 51
90.0
 52
90.0
 71
     2
 49
0.5
 62
   256
  6
BYLAYER
 49
-0.5
 62
   256
  6
BYLAYER
  0
ACDBPLACEHOLDER
  5
F
102
{ACAD_REACTORS
330
E
102
}
330
E
  0
SCALE
  5
48
102
{ACAD_REACTORS
330
47
102
}
330
47
100
AcDbScale
 70
     0
300
1:1
140
1.0
141
1.0
290
     1
  0
SCALE
  5
49
102
{ACAD_REACTORS
330
47
102
}
330
47
100
AcDbScale
 70
     0
300
1:2
140
1.0
141
2.0
290
     0
  0
SCALE
  5
4A
102
{ACAD_REACTORS
330
47
102
}
330
47
100
AcDbScale
 70
     0
300
1:4
140
1.0
141
4.0
290
     0
  0
SCALE
  5
4B
102
{ACAD_REACTORS
330
47
102
}
330
47
100
AcDbScale
 70
     0
300
1:5
140
1.0
141
5.0
290
     0
  0
SCALE
  5
4C
102
{ACAD_REACTORS
330
47
102
}
330
47
100
AcDbScale
 70
     0
300
1:8
140
1.0
141
8.0
290
     0
  0
SCALE
  5
4D
102
{ACAD_REACTORS
330
47
102
}
330
47
100
AcDbScale
 70
     0
300
1:10
140
1.0
141
10.0
290
     0
  0
SCALE
  5
4E
102
{ACAD_REACTORS
330
47
102
}
330
47
100
AcDbScale
 70
     0
300
1:16
140
1.0
141
16.0
290
     0
  0
SCALE
  5
4F
102
{ACAD_REACTORS
330
47
102
}
330
47
100
AcDbScale
 70
     0
300
1:20
140
1.0
141
20.0
290
     0
  0
SCALE
  5
50
102
{ACAD_REACTORS
330
47
102
}
330
47
100
AcDbScale
 70
     0
300
1:30
140
1.0
141
30.0
290
     0
  0
SCALE
  5
51
102
{ACAD_REACTORS
330
47
102
}
330
47
100
AcDbScale
 70
     0
300
1:40
140
1.0
141
40.0
290
     0
  0
SCALE
  5
52
102
{ACAD_REACTORS
330
47
102
}
330
47
100
AcDbScale
 70
     0
300
1:50
140
1.0
141
50.0
290
     0
  0
SCALE
  5
53
102
{ACAD_REACTORS
330
47
102
}
330
47
100
AcDbScale
 70
     0
300
1:100
140
1.0
141
100.0
290
     0
  0
SCALE
  5
54
102
{ACAD_REACTORS
330
47
102
}
330
47
100
AcDbScale
 70
     0
300
2:1
140
2.0
141
1.0
290
     0
  0
SCALE
  5
55
102
{ACAD_REACTORS
330
47
102
}
330
47
100
AcDbScale
 70
     0
300
4:1
140
4.0
141
1.0
290
     0
  0
SCALE
  5
56
102
{ACAD_REACTORS
330
47
102
}
330
47
100
AcDbScale
 70
     0
300
8:1
140
8.0
141
1.0
290
     0
  0
SCALE
  5
57
102
{ACAD_REACTORS
330
47
102
}
330
47
100
AcDbScale
 70
     0
300
10:1
140
10.0
141
1.0
290
     0
  0
SCALE
  5
58
102
{ACAD_REACTORS
330
47
102
}
330
47
100
AcDbScale
 70
     0
300
100:1
140
100.0
141
1.0
290
     0
  0
SCALE
  5
59
102
{ACAD_REACTORS
330
47
102
}
330
47
100
AcDbScale
 70
     0
300
1/128" = 1'-0"
140
0.0078125
141
12.0
290
     0
  0
SCALE
  5
5A
102
{ACAD_REACTORS
330
47
102
}
330
47
100
AcDbScale
 70
     0
300
1/64" = 1'-0"
140
0.015625
141
12.0
290
     0
  0
SCALE
  5
5B
102
{ACAD_REACTORS
330
47
102
}
330
47
100
AcDbScale
 70
     0
300
1/32" = 1'-0"
140
0.03125
141
12.0
290
     0
  0
SCALE
  5
5C
102
{ACAD_REACTORS
330
47
102
}
330
47
100
AcDbScale
 70
     0
300
1/16" = 1'-0"
140
0.0625
141
12.0
290
     0
  0
SCALE
  5
5D
102
{ACAD_REACTORS
330
47
102
}
330
47
100
AcDbScale
 70
     0
300
3/32" = 1'-0"
140
0.09375
141
12.0
290
     0
  0
SCALE
  5
5E
102
{ACAD_REACTORS
330
47
102
}
330
47
100
AcDbScale
 70
     0
300
1/8" = 1'-0"
140
0.125
141
12.0
290
     0
  0
SCALE
  5
5F
102
{ACAD_REACTORS
330
47
102
}
330
47
100
AcDbScale
 70
     0
300
3/16" = 1'-0"
140
0.1875
141
12.0
290
     0
  0
SCALE
  5
60
102
{ACAD_REACTORS
330
47
102
}
330
47
100
AcDbScale
 70
     0
300
1/4" = 1'-0"
140
0.25
141
12.0
290
     0
  0
SCALE
  5
61
102
{ACAD_REACTORS
330
47
102
}
330
47
100
AcDbScale
 70
     0
300
3/8" = 1'-0"
140
0.375
141
12.0
290
     0
  0
SCALE
  5
62
102
{ACAD_REACTORS
330
47
102
}
330
47
100
AcDbScale
 70
     0
300
1/2" = 1'-0"
140
0.5
141
12.0
290
     0
  0
SCALE
  5
63
102
{ACAD_REACTORS
330
47
102
}
330
47
100
AcDbScale
 70
     0
300
3/4" = 1'-0"
140
0.75
141
12.0
290
     0
  0
SCALE
  5
64
102
{ACAD_REACTORS
330
47
102
}
330
47
100
AcDbScale
 70
     0
300
1" = 1'-0"
140
1.0
141
12.0
290
     0
  0
SCALE
  5
65
102
{ACAD_REACTORS
330
47
102
}
330
47
100
AcDbScale
 70
     0
300
1-1/2" = 1'-0"
140
1.5
141
12.0
290
     0
  0
SCALE
  5
66
102
{ACAD_REACTORS
330
47
102
}
330
47
100
AcDbScale
 70
     0
300
3" = 1'-0"
140
3.0
141
12.0
290
     0
  0
SCALE
  5
67
102
{ACAD_REACTORS
330
47
102
}
330
47
100
AcDbScale
 70
     0
300
6" = 1'-0"
140
6.0
141
12.0
290
     0
  0
SCALE
  5
68
102
{ACAD_REACTORS
330
47
102
}
330
47
100
AcDbScale
 70
     0
300
1'-0" = 1'-0"
140
12.0
141
12.0
290
     0
  0
ENDSEC
  0
EOF
