  0
SECTION
  2
HEADER
  9
$ACADVER
  1
AC1015
  9
$ACADMAINTVER
 70
     6
  9
$DWGCODEPAGE
  3
ANSI_1252
  9
$INSBASE
 10
0.0
 20
0.0
 30
0.0
  9
$EXTMIN
 10
0.0
 20
0.0
 30
0.0
  9
$EXTMAX
 10
237.6
 20
168.0
 30
0.0
  9
$LIMMIN
 10
0.0
 20
0.0
  9
$LIMMAX
 10
237.6
 20
168.0
  9
$ORTHOMODE
 70
     0
  9
$REGENMODE
 70
     1
  9
$FILLMODE
 70
     1
  9
$QTEXTMODE
 70
     0
  9
$MIRRTEXT
 70
     1
  9
$LTSCALE
 40
0.8
  9
$ATTMODE
 70
     1
  9
$TEXTSIZE
 40
2.8222222222
  9
$TRACEWID
 40
1.0
  9
$TEXTSTYLE
  7
Standard
  9
$CLAYER
  8
0
  9
$CELTYPE
  6
ByLayer
  9
$CECOLOR
 62
   256
  9
$CELTSCALE
 40
1.0
  9
$DISPSILH
 70
     0
  9
$DIMSCALE
 40
1.0
  9
$DIMASZ
 40
2.6416
  9
$DIMEXO
 40
0.8
  9
$DIMDLI
 40
3.75
  9
$DIMRND
 40
0.0
  9
$DIMDLE
 40
0.0
  9
$DIMEXE
 40
0.8
  9
$DIMTP
 40
0.0
  9
$DIMTM
 40
0.0
  9
$DIMTXT
 40
2.8222222222
  9
$DIMCEN
 40
2.5
  9
$DIMTSZ
 40
0.0
  9
$DIMTOL
 70
     0
  9
$DIMLIM
 70
     0
  9
$DIMTIH
 70
     1
  9
$DIMTOH
 70
     1
  9
$DIMSE1
 70
     0
  9
$DIMSE2
 70
     0
  9
$DIMTAD
 70
     1
  9
$DIMZIN
 70
     0
  9
$DIMBLK
  1

  9
$DIMASO
 70
     1
  9
$DIMSHO
 70
     1
  9
$DIMPOST
  1

  9
$DIMAPOST
  1

  9
$DIMALT
 70
     0
  9
$DIMALTD
 70
     3
  9
$DIMALTF
 40
0.0393700787
  9
$DIMLFAC
 40
1.0
  9
$DIMTOFL
 70
     1
  9
$DIMTVP
 40
0.0
  9
$DIMTIX
 70
     0
  9
$DIMSOXD
 70
     0
  9
$DIMSAH
 70
     0
  9
$DIMBLK1
  1

  9
$DIMBLK2
  1

  9
$DIMSTYLE
  2
ISO-25
  9
$DIMCLRD
 70
     0
  9
$DIMCLRE
 70
     0
  9
$DIMCLRT
 70
     0
  9
$DIMTFAC
 40
1.0
  9
$DIMGAP
 40
1.2192
  9
$DIMJUST
 70
     0
  9
$DIMSD1
 70
     0
  9
$DIMSD2
 70
     0
  9
$DIMTOLJ
 70
     0
  9
$DIMTZIN
 70
     0
  9
$DIMALTZ
 70
     0
  9
$DIMALTTZ
 70
     0
  9
$DIMUPT
 70
     0
  9
$DIMDEC
 70
     2
  9
$DIMTDEC
 70
     2
  9
$DIMALTU
 70
     2
  9
$DIMALTTD
 70
     3
  9
$DIMTXSTY
  7
Standard
  9
$DIMAUNIT
 70
     0
  9
$DIMADEC
 70
     2
  9
$DIMALTRND
 40
0.0
  9
$DIMAZIN
 70
     0
  9
$DIMDSEP
 70
    44
  9
$DIMATFIT
 70
     3
  9
$DIMFRAC
 70
     0
  9
$DIMLDRBLK
  1

  9
$DIMLUNIT
 70
     2
  9
$DIMLWD
 70
    -2
  9
$DIMLWE
 70
    -2
  9
$DIMTMOVE
 70
     0
  9
$LUNITS
 70
     2
  9
$LUPREC
 70
     2
  9
$SKETCHINC
 40
1.0
  9
$FILLETRAD
 40
10.0
  9
$AUNITS
 70
     1
  9
$AUPREC
 70
     2
  9
$MENU
  1
.
  9
$ELEVATION
 40
0.0
  9
$PELEVATION
 40
0.0
  9
$THICKNESS
 40
0.0
  9
$LIMCHECK
 70
     0
  9
$CHAMFERA
 40
0.0
  9
$CHAMFERB
 40
0.0
  9
$CHAMFERC
 40
0.0
  9
$CHAMFERD
 40
0.0
  9
$SKPOLY
 70
     0
  9
$TDCREATE
 40
2458597.498292164
  9
$TDUCREATE
 40
2458597.269125498
  9
$TDUPDATE
 40
2458597.498292975
  9
$TDUUPDATE
 40
2458597.269126308
  9
$TDINDWG
 40
0.0000000116
  9
$TDUSRTIMER
 40
0.0000000116
  9
$USRTIMER
 70
     1
  9
$ANGBASE
 50
0.0
  9
$ANGDIR
 70
     0
  9
$PDMODE
 70
     0
  9
$PDSIZE
 40
-1.0
  9
$PLINEWID
 40
0.0
  9
$SPLFRAME
 70
     0
  9
$SPLINETYPE
 70
     6
  9
$SPLINESEGS
 70
     8
  9
$HANDSEED
  5
155
  9
$SURFTAB1
 70
     6
  9
$SURFTAB2
 70
     6
  9
$SURFTYPE
 70
     6
  9
$SURFU
 70
     6
  9
$SURFV
 70
     6
  9
$UCSBASE
  2

  9
$UCSNAME
  2

  9
$UCSORG
 10
0.0
 20
0.0
 30
0.0
  9
$UCSXDIR
 10
1.0
 20
0.0
 30
0.0
  9
$UCSYDIR
 10
0.0
 20
1.0
 30
0.0
  9
$UCSORTHOREF
  2

  9
$UCSORTHOVIEW
 70
     0
  9
$UCSORGTOP
 10
0.0
 20
0.0
 30
0.0
  9
$UCSORGBOTTOM
 10
0.0
 20
0.0
 30
0.0
  9
$UCSORGLEFT
 10
0.0
 20
0.0
 30
0.0
  9
$UCSORGRIGHT
 10
0.0
 20
0.0
 30
0.0
  9
$UCSORGFRONT
 10
0.0
 20
0.0
 30
0.0
  9
$UCSORGBACK
 10
0.0
 20
0.0
 30
0.0
  9
$PUCSBASE
  2

  9
$PUCSNAME
  2

  9
$PUCSORG
 10
0.0
 20
0.0
 30
0.0
  9
$PUCSXDIR
 10
1.0
 20
0.0
 30
0.0
  9
$PUCSYDIR
 10
0.0
 20
1.0
 30
0.0
  9
$PUCSORTHOREF
  2

  9
$PUCSORTHOVIEW
 70
     0
  9
$PUCSORGTOP
 10
0.0
 20
0.0
 30
0.0
  9
$PUCSORGBOTTOM
 10
0.0
 20
0.0
 30
0.0
  9
$PUCSORGLEFT
 10
0.0
 20
0.0
 30
0.0
  9
$PUCSORGRIGHT
 10
0.0
 20
0.0
 30
0.0
  9
$PUCSORGFRONT
 10
0.0
 20
0.0
 30
0.0
  9
$PUCSORGBACK
 10
0.0
 20
0.0
 30
0.0
  9
$USERI1
 70
     0
  9
$USERI2
 70
     0
  9
$USERI3
 70
     0
  9
$USERI4
 70
     0
  9
$USERI5
 70
     0
  9
$USERR1
 40
0.0
  9
$USERR2
 40
0.0
  9
$USERR3
 40
0.0
  9
$USERR4
 40
0.0
  9
$USERR5
 40
0.0
  9
$WORLDVIEW
 70
     1
  9
$SHADEDGE
 70
     3
  9
$SHADEDIF
 70
    70
  9
$TILEMODE
 70
     1
  9
$MAXACTVP
 70
    64
  9
$PINSBASE
 10
0.0
 20
0.0
 30
0.0
  9
$PLIMCHECK
 70
     0
  9
$PEXTMIN
 10
1.0000000000E+20
 20
1.0000000000E+20
 30
1.0000000000E+20
  9
$PEXTMAX
 10
-1.0000000000E+20
 20
-1.0000000000E+20
 30
-1.0000000000E+20
  9
$PLIMMIN
 10
0.0
 20
0.0
  9
$PLIMMAX
 10
420.0
 20
297.0
  9
$UNITMODE
 70
     0
  9
$VISRETAIN
 70
     1
  9
$PLINEGEN
 70
     0
  9
$PSLTSCALE
 70
     1
  9
$TREEDEPTH
 70
  3020
  9
$CMLSTYLE
  2
Standard
  9
$CMLJUST
 70
     0
  9
$CMLSCALE
 40
20.0
  9
$PROXYGRAPHICS
 70
     1
  9
$MEASUREMENT
 70
     1
  9
$CELWEIGHT
370
    -1
  9
$ENDCAPS
280
     0
  9
$JOINSTYLE
280
     0
  9
$LWDISPLAY
290
     1
  9
$INSUNITS
 70
     4
  9
$HYPERLINKBASE
  1

  9
$STYLESHEET
  1

  9
$XEDIT
290
     1
  9
$CEPSNTYPE
380
     0
  9
$PSTYLEMODE
290
     1
  9
$FINGERPRINTGUID
  2
{1F38B11E-418C-4646-B7C1-5FAFC451237A}
  9
$VERSIONGUID
  2
{FAEB1C32-E019-11D5-929B-00C0DF256EC4}
  9
$EXTNAMES
290
     1
  9
$PSVPSCALE
 40
0.0
  9
$OLESTARTUP
290
     0
  0
ENDSEC
  0
SECTION
  2
CLASSES
  0
CLASS
  1
ACDBDICTIONARYWDFLT
  2
AcDbDictionaryWithDefault
  3
ObjectDBX Classes
 90
        0
280
     0
281
     0
  0
CLASS
  1
VISUALSTYLE
  2
AcDbVisualStyle
  3
ObjectDBX Classes
 90
     4095
280
     0
281
     0
  0
CLASS
  1
MATERIAL
  2
AcDbMaterial
  3
ObjectDBX Classes
 90
     1153
280
     0
281
     0
  0
CLASS
  1
SCALE
  2
AcDbScale
  3
ObjectDBX Classes
 90
     1153
280
     0
281
     0
  0
CLASS
  1
SUN
  2
AcDbSun
  3
SCENEOE
 90
     1153
280
     0
281
     0
  0
CLASS
  1
ACDBPLACEHOLDER
  2
AcDbPlaceHolder
  3
ObjectDBX Classes
 90
        0
280
     0
281
     0
  0
CLASS
  1
LAYOUT
  2
AcDbLayout
  3
ObjectDBX Classes
 90
        0
280
     0
281
     0
  0
ENDSEC
  0
SECTION
  2
TABLES
  0
TABLE
  2
VPORT
  5
8
330
0
100
AcDbSymbolTable
 70
     1
  0
VPORT
  5
29
330
8
100
AcDbSymbolTableRecord
100
AcDbViewportTableRecord
  2
*Active
 70
     0
 10
0.0
 20
0.0
 11
1.0
 21
1.0
 12
118.8
 22
84.0
 13
0.0
 23
0.0
 14
10.0
 24
10.0
 15
10.0
 25
10.0
 16
0.0
 26
0.0
 36
1.0
 17
0.0
 27
0.0
 37
0.0
 40
168.0
 41
1.4142857143
 42
50.0
 43
0.0
 44
0.0
 50
0.0
 51
0.0
 71
     0
 72
  2000
 73
     1
 74
     3
 75
     0
 76
     0
 77
     0
 78
     0
281
     0
 65
     1
110
0.0
120
0.0
130
0.0
111
1.0
121
0.0
131
0.0
112
0.0
122
1.0
132
0.0
 79
     0
146
0.0
  0
ENDTAB
  0
TABLE
  2
LTYPE
  5
5
330
0
100
AcDbSymbolTable
 70
     6
  0
LTYPE
  5
14
330
5
100
AcDbSymbolTableRecord
100
AcDbLinetypeTableRecord
  2
ByBlock
 70
     0
  3

 72
    65
 73
     0
 40
0.0
  0
LTYPE
  5
15
330
5
100
AcDbSymbolTableRecord
100
AcDbLinetypeTableRecord
  2
ByLayer
 70
     0
  3

 72
    65
 73
     0
 40
0.0
  0
LTYPE
  5
16
330
5
100
AcDbSymbolTableRecord
100
AcDbLinetypeTableRecord
  2
Continuous
 70
     0
  3
Solid line
 72
    65
 73
     0
 40
0.0
  0
LTYPE
  5
6A
330
5
100
AcDbSymbolTableRecord
100
AcDbLinetypeTableRecord
  2
HIDDEN
 70
     0
  3
Hidden __ __ __ __ __ __ __ __ __ __ __ __ __ __
 72
    65
 73
     2
 40
1.905
 49
1.27
 74
     0
 49
-0.635
 74
     0
  0
LTYPE
  5
6B
330
5
100
AcDbSymbolTableRecord
100
AcDbLinetypeTableRecord
  2
PHANTOM
 70
     0
  3
Phantom ______  __  __  ______  __  __  ______
 72
    65
 73
     6
 40
12.7
 49
6.35
 74
     0
 49
-1.27
 74
     0
 49
1.27
 74
     0
 49
-1.27
 74
     0
 49
1.27
 74
     0
 49
-1.27
 74
     0
  0
LTYPE
  5
6C
330
5
100
AcDbSymbolTableRecord
100
AcDbLinetypeTableRecord
  2
CENTER
 70
     0
  3
Center ____ _ ____ _ ____ _ ____ _ ____ _ ____
 72
    65
 73
     4
 40
10.16
 49
6.35
 74
     0
 49
-1.27
 74
     0
 49
1.27
 74
     0
 49
-1.27
 74
     0
  0
LTYPE
  5
6D
330
5
100
AcDbSymbolTableRecord
100
AcDbLinetypeTableRecord
  2
CENTERX2
 70
     0
  3
Center (2x) ________  __  ________  __  _____
 72
    65
 73
     4
 40
20.32
 49
12.7
 74
     0
 49
-2.54
 74
     0
 49
2.54
 74
     0
 49
-2.54
 74
     0
  0
LTYPE
  5
6E
330
5
100
AcDbSymbolTableRecord
100
AcDbLinetypeTableRecord
  2
DOT2
 70
     0
  3
Dot (.5x) ........................................
 72
    65
 73
     2
 40
0.635
 49
0.0
 74
     0
 49
-0.635
 74
     0
  0
ENDTAB
  0
TABLE
  2
LAYER
  5
2
330
0
100
AcDbSymbolTable
 70
     8
  0
LAYER
  5
10
330
2
100
AcDbSymbolTableRecord
100
AcDbLayerTableRecord
  2
0
 70
     0
 62
     7
  6
Continuous
370
    -3
390
F
  0
LAYER
  5
6F
330
2
100
AcDbSymbolTableRecord
100
AcDbLayerTableRecord
  2
FORMAT
 70
     0
 62
     7
  6
Continuous
370
    -3
390
F
  0
LAYER
  5
70
330
2
100
AcDbSymbolTableRecord
100
AcDbLayerTableRecord
  2
SLD-0
 70
     0
 62
     2
  6
Continuous
370
    -3
390
F
  0
LAYER
  5
71
330
2
100
AcDbSymbolTableRecord
100
AcDbLayerTableRecord
  2
DIM
 70
     0
 62
   179
  6
Continuous
370
    -3
390
F
  0
LAYER
  5
72
330
2
100
AcDbSymbolTableRecord
100
AcDbLayerTableRecord
  2
SLD-DEFPOINTS
 70
     0
 62
   179
  6
Continuous
370
    -3
390
F
  0
LAYER
  5
73
330
2
100
AcDbSymbolTableRecord
100
AcDbLayerTableRecord
  2
HAT
 70
     0
 62
   135
  6
Continuous
370
    -3
390
F
  0
LAYER
  5
74
330
2
100
AcDbSymbolTableRecord
100
AcDbLayerTableRecord
  2
JOB
 70
     0
 62
   201
  6
Continuous
370
    -3
390
F
  0
LAYER
  5
75
330
2
100
AcDbSymbolTableRecord
100
AcDbLayerTableRecord
  2
INSPECTION_REPORT
 70
     0
 62
   255
  6
Continuous
370
    -3
390
F
  0
ENDTAB
  0
TABLE
  2
STYLE
  5
3
330
0
100
AcDbSymbolTable
 70
     4
  0
STYLE
  5
11
330
3
100
AcDbSymbolTableRecord
100
AcDbTextStyleTableRecord
  2
Standard
 70
     0
 40
0.0
 41
1.0
 50
0.0
 71
     0
 42
2.8222222222
  3
txt
  4

  0
STYLE
  5
96
330
3
100
AcDbSymbolTableRecord
100
AcDbTextStyleTableRecord
  2
SLDTEXTSTYLE0
 70
     0
 40
0.0
 41
0.7
 50
0.0
 71
     0
 42
2.8222222222
  3
TXT
  4

  0
STYLE
  5
98
330
3
100
AcDbSymbolTableRecord
100
AcDbTextStyleTableRecord
  2
SLDTEXTSTYLE1
 70
     0
 40
0.0
 41
0.75
 50
0.0
 71
     0
 42
2.8222222222
  3
TXT
  4

  0
STYLE
  5
AB
330
3
100
AcDbSymbolTableRecord
100
AcDbTextStyleTableRecord
  2
SLDTEXTSTYLE2
 70
     0
 40
0.0
 41
0.6875
 50
0.0
 71
     0
 42
2.8222222222
  3
TXT
  4

  0
ENDTAB
  0
TABLE
  2
VIEW
  5
6
330
0
100
AcDbSymbolTable
 70
     0
  0
ENDTAB
  0
TABLE
  2
UCS
  5
7
330
0
100
AcDbSymbolTable
 70
     0
  0
ENDTAB
  0
TABLE
  2
APPID
  5
9
330
0
100
AcDbSymbolTable
 70
     1
  0
APPID
  5
12
330
9
100
AcDbSymbolTableRecord
100
AcDbRegAppTableRecord
  2
ACAD
 70
     0
  0
ENDTAB
  0
TABLE
  2
DIMSTYLE
  5
A
330
0
100
AcDbSymbolTable
 70
     3
100
AcDbDimStyleTable
  0
DIMSTYLE
105
27
330
A
100
AcDbSymbolTableRecord
100
AcDbDimStyleTableRecord
  2
ISO-25
 70
     0
 41
2.5
 42
0.625
 43
3.75
 44
1.25
 73
     0
 74
     0
 77
     1
 78
     8
140
2.5
141
2.5
143
0.0393700787
147
0.625
171
     3
172
     1
178
     0
271
     2
272
     2
274
     3
278
    44
283
     0
284
     8
340
11
  0
DIMSTYLE
105
105
102
{ACAD_REACTORS
330
104
102
}
330
A
100
AcDbSymbolTableRecord
100
AcDbDimStyleTableRecord
  2
SLDDIMSTYLE0
 70
     0
 41
2.6416
 44
0.0
 45
0.000000001
 73
     0
 74
     0
 77
     1
 78
    12
 79
     3
140
2.3283333333
147
0.5820833333
173
     1
178
     0
271
     2
272
     2
276
     2
284
    12
340
96
  0
DIMSTYLE
105
110
102
{ACAD_REACTORS
330
10F
102
}
330
A
100
AcDbSymbolTableRecord
100
AcDbDimStyleTableRecord
  2
SLDDIMSTYLE1
 70
     0
 41
2.6416
 44
0.0
 45
0.000000001
 73
     0
 74
     0
 77
     1
 78
    12
 79
     3
140
2.3283333333
147
0.5820833333
173
     1
178
     0
271
     0
272
     2
276
     2
284
    12
340
96
  0
ENDTAB
  0
TABLE
  2
BLOCK_RECORD
  5
1
330
0
100
AcDbSymbolTable
 70
     3
  0
BLOCK_RECORD
  5
1F
330
1
100
AcDbSymbolTableRecord
100
AcDbBlockTableRecord
  2
*Model_Space
340
22
  0
BLOCK_RECORD
  5
1B
330
1
100
AcDbSymbolTableRecord
100
AcDbBlockTableRecord
  2
*Paper_Space
340
1E
  0
BLOCK_RECORD
  5
23
330
1
100
AcDbSymbolTableRecord
100
AcDbBlockTableRecord
  2
*Paper_Space0
340
26
  0
BLOCK_RECORD
  5
106
330
1
100
AcDbSymbolTableRecord
100
AcDbBlockTableRecord
  2
_D
340
0
  0
BLOCK_RECORD
  5
111
330
1
100
AcDbSymbolTableRecord
100
AcDbBlockTableRecord
  2
_D_1
340
0
  0
ENDTAB
  0
ENDSEC
  0
SECTION
  2
BLOCKS
  0
BLOCK
  5
20
330
1F
100
AcDbEntity
  8
0
100
AcDbBlockBegin
  2
*Model_Space
 70
     0
 10
0.0
 20
0.0
 30
0.0
  3
*Model_Space
  1
*Model_Space
  0
ENDBLK
  5
21
330
1F
100
AcDbEntity
  8
0
100
AcDbBlockEnd
  0
BLOCK
  5
1C
330
1B
100
AcDbEntity
 67
     1
  8
0
100
AcDbBlockBegin
  2
*Paper_Space
 70
     0
 10
0.0
 20
0.0
 30
0.0
  3
*Paper_Space
  1
*Paper_Space
  0
ENDBLK
  5
1D
330
1B
100
AcDbEntity
 67
     1
  8
0
100
AcDbBlockEnd
  0
BLOCK
  5
24
330
23
100
AcDbEntity
  8
0
100
AcDbBlockBegin
  2
*Paper_Space0
 70
     0
 10
0.0
 20
0.0
 30
0.0
  3
*Paper_Space0
  1
*Paper_Space0
  0
ENDBLK
  5
25
330
23
100
AcDbEntity
  8
0
100
AcDbBlockEnd
  0
BLOCK
  5
107
330
106
100
AcDbEntity
  8
0
100
AcDbBlockBegin
  2
_D
 70
     0
 10
0.0
 20
0.0
 30
0.0
  3
_D
  1
_D
  0
SOLID
  5
109
330
106
100
AcDbEntity
  8
DIM
100
AcDbTrace
 10
54.9797584189
 20
117.2513792446
 30
0.0
 11
54.5733584189
 21
114.6097792446
 31
0.0
 12
55.3861584189
 22
114.6097792446
 32
0.0
 13
55.3861584189
 23
114.6097792446
 33
0.0
  0
SOLID
  5
10A
330
106
100
AcDbEntity
  8
DIM
100
AcDbTrace
 10
54.9797584189
 20
81.2520701458
 30
0.0
 11
55.3861584189
 21
83.8936701458
 31
0.0
 12
54.5733584189
 22
83.8936701458
 32
0.0
 13
54.5733584189
 23
83.8936701458
 33
0.0
  0
LINE
  5
10B
330
106
100
AcDbEntity
  8
DIM
100
AcDbLine
 10
69.8067401147
 20
117.2513792446
 30
0.0
 11
54.1797584189
 21
117.2513792446
 31
0.0
  0
LINE
  5
10C
330
106
100
AcDbEntity
  8
DIM
100
AcDbLine
 10
69.583705561
 20
81.2520701458
 30
0.0
 11
54.1797584189
 21
81.2520701458
 31
0.0
  0
LINE
  5
10D
330
106
100
AcDbEntity
  8
DIM
100
AcDbLine
 10
54.9797584189
 20
117.2513792446
 30
0.0
 11
54.9797584189
 21
81.2520701458
 31
0.0
  0
MTEXT
  5
10E
330
106
100
AcDbEntity
  8
DIM
100
AcDbMText
 10
51.9783788452
 20
97.6779437711
 30
0.0
 40
2.3283333333
 41
0.0
 71
     1
 72
     1
  1
36
  7
SLDTEXTSTYLE0
 11
-1.503780079494476E-14
 21
1.0
 31
0.0
 73
     1
 44
1.0
  0
ENDBLK
  5
108
330
106
100
AcDbEntity
  8
0
100
AcDbBlockEnd
  0
BLOCK
  5
112
330
111
100
AcDbEntity
  8
0
100
AcDbBlockBegin
  2
_D_1
 70
     0
 10
0.0
 20
0.0
 30
0.0
  3
_D_1
  1
_D_1
  0
SOLID
  5
114
330
111
100
AcDbEntity
  8
DIM
100
AcDbTrace
 10
60.371309035
 20
75.7318090312
 30
0.0
 11
63.012909035
 21
75.3254090312
 31
0.0
 12
63.012909035
 22
76.1382090312
 32
0.0
 13
63.012909035
 23
76.1382090312
 33
0.0
  0
SOLID
  5
115
330
111
100
AcDbEntity
  8
DIM
100
AcDbTrace
 10
190.1708469839
 20
75.7318090312
 30
0.0
 11
187.5292469839
 21
76.1382090312
 31
0.0
 12
187.5292469839
 22
75.3254090312
 32
0.0
 13
187.5292469839
 23
75.3254090312
 33
0.0
  0
LINE
  5
116
330
111
100
AcDbEntity
  8
DIM
100
AcDbLine
 10
60.371309035
 20
83.8356279822
 30
0.0
 11
60.371309035
 21
74.9318090312
 31
0.0
  0
LINE
  5
117
330
111
100
AcDbEntity
  8
DIM
100
AcDbLine
 10
190.1708469839
 20
98.4517246952
 30
0.0
 11
190.1708469839
 21
74.9318090312
 31
0.0
  0
LINE
  5
118
330
111
100
AcDbEntity
  8
DIM
100
AcDbLine
 10
60.371309035
 20
75.7318090312
 30
0.0
 11
190.1708469839
 21
75.7318090312
 31
0.0
  0
MTEXT
  5
119
330
111
100
AcDbEntity
  8
DIM
100
AcDbMText
 10
122.9104066233
 20
78.7331886049
 30
0.0
 40
2.3283333333
 41
0.0
 71
     1
 72
     1
  1
130
  7
SLDTEXTSTYLE0
 73
     1
 44
1.0
  0
ENDBLK
  5
113
330
111
100
AcDbEntity
  8
0
100
AcDbBlockEnd
  0
ENDSEC
  0
SECTION
  2
ENTITIES
  0
LINE
  5
76
330
1F
100
AcDbEntity
  8
DIM
100
AcDbLine
 10
83.7635397512
 20
7.8327931655
 30
0.0
 11
83.7635397512
 21
3.8327931655
 31
0.0
  0
LINE
  5
77
330
1F
100
AcDbEntity
  8
DIM
100
AcDbLine
 10
203.5756813562
 20
7.8327931655
 30
0.0
 11
203.5756813562
 21
3.8327931655
 31
0.0
  0
LINE
  5
78
330
1F
100
AcDbEntity
  8
DIM
100
AcDbLine
 10
189.9613679453
 20
7.8327931655
 30
0.0
 11
189.9613679453
 21
3.8327931655
 31
0.0
  0
LINE
  5
79
330
1F
100
AcDbEntity
  8
DIM
100
AcDbLine
 10
223.1235397512
 20
3.8327931655
 30
0.0
 11
223.1235397512
 21
7.8327931655
 31
0.0
  0
LINE
  5
7A
330
1F
100
AcDbEntity
  8
DIM
100
AcDbLine
 10
90.0035397512
 20
7.8327931655
 30
0.0
 11
90.0035397512
 21
3.8327931655
 31
0.0
  0
LINE
  5
7B
330
1F
100
AcDbEntity
  8
DIM
100
AcDbLine
 10
105.3563016982
 20
7.8327931655
 30
0.0
 11
105.3563016982
 21
3.8327931655
 31
0.0
  0
LINE
  5
7C
330
1F
100
AcDbEntity
  8
DIM
100
AcDbLine
 10
233.5235397512
 20
3.8327931655
 30
0.0
 11
233.5235397512
 21
61.6327931655
 31
0.0
  0
LINE
  5
7D
330
1F
100
AcDbEntity
  8
DIM
100
AcDbLine
 10
228.6552037557
 20
48.0327931655
 30
0.0
 11
233.5235397512
 21
48.0327931655
 31
0.0
  0
LINE
  5
7E
330
1F
100
AcDbEntity
  8
DIM
100
AcDbLine
 10
119.282680682
 20
7.2327931655
 30
0.0
 11
119.282680682
 21
3.8327931655
 31
0.0
  0
LINE
  5
7F
330
1F
100
AcDbEntity
  8
DIM
100
AcDbLine
 10
157.4111593283
 20
7.8327931655
 30
0.0
 11
157.4111593283
 21
3.8327931655
 31
0.0
  0
LINE
  5
80
330
1F
100
AcDbEntity
  8
DIM
100
AcDbLine
 10
119.282680682
 20
7.8327931655
 30
0.0
 11
119.282680682
 21
7.2327931655
 31
0.0
  0
LINE
  5
81
330
1F
100
AcDbEntity
  8
DIM
100
AcDbLine
 10
229.5235397512
 20
14.0327355655
 30
0.0
 11
233.5235397512
 21
14.0327355655
 31
0.0
  0
LINE
  5
82
330
1F
100
AcDbEntity
  8
DIM
100
AcDbLine
 10
229.5235397512
 20
159.8327931655
 30
0.0
 11
7.9235397512
 21
159.8327931655
 31
0.0
  0
LINE
  5
83
330
1F
100
AcDbEntity
  8
DIM
100
AcDbLine
 10
233.5235397512
 20
163.8327931655
 30
0.0
 11
3.9235397512
 21
163.8327931655
 31
0.0
  0
LINE
  5
84
330
1F
100
AcDbEntity
  8
DIM
100
AcDbLine
 10
7.9235397512
 20
159.8327931655
 30
0.0
 11
7.9235397512
 21
7.8327931655
 31
0.0
  0
LINE
  5
85
330
1F
100
AcDbEntity
  8
DIM
100
AcDbLine
 10
3.9235397512
 20
163.8327931655
 30
0.0
 11
3.9235397512
 21
3.8327931655
 31
0.0
  0
LINE
  5
86
330
1F
100
AcDbEntity
  8
DIM
100
AcDbLine
 10
7.9235397512
 20
43.8327931655
 30
0.0
 11
3.9235397512
 21
43.8327931655
 31
0.0
  0
LINE
  5
87
330
1F
100
AcDbEntity
  8
DIM
100
AcDbLine
 10
3.9235397512
 20
83.8327931655
 30
0.0
 11
7.9235397512
 21
83.8327931655
 31
0.0
  0
LINE
  5
88
330
1F
100
AcDbEntity
  8
DIM
100
AcDbLine
 10
3.9235397512
 20
3.8327931655
 30
0.0
 11
233.5235397512
 21
3.8327931655
 31
0.0
  0
LINE
  5
89
330
1F
100
AcDbEntity
  8
DIM
100
AcDbLine
 10
7.9235397512
 20
7.8327931655
 30
0.0
 11
233.5235397512
 21
7.8327931655
 31
0.0
  0
LINE
  5
8A
330
1F
100
AcDbEntity
  8
DIM
100
AcDbLine
 10
38.7235397512
 20
3.8327931655
 30
0.0
 11
38.7235397512
 21
7.8327931655
 31
0.0
  0
LINE
  5
8B
330
1F
100
AcDbEntity
  8
DIM
100
AcDbLine
 10
78.7235397512
 20
7.8327931655
 30
0.0
 11
78.7235397512
 21
3.8327931655
 31
0.0
  0
LINE
  5
8C
330
1F
100
AcDbEntity
  8
DIM
100
AcDbLine
 10
7.9235397512
 20
123.8327931655
 30
0.0
 11
3.9235397512
 21
123.8327931655
 31
0.0
  0
LINE
  5
8D
330
1F
100
AcDbEntity
  8
DIM
100
AcDbLine
 10
38.7235397512
 20
159.8327931655
 30
0.0
 11
38.7235397512
 21
163.8327931655
 31
0.0
  0
LINE
  5
8E
330
1F
100
AcDbEntity
  8
DIM
100
AcDbLine
 10
78.7235397512
 20
163.8327931655
 30
0.0
 11
78.7235397512
 21
159.8327931655
 31
0.0
  0
LINE
  5
8F
330
1F
100
AcDbEntity
  8
DIM
100
AcDbLine
 10
118.7235397512
 20
163.8327931655
 30
0.0
 11
118.7235397512
 21
159.8327931655
 31
0.0
  0
LINE
  5
90
330
1F
100
AcDbEntity
  8
DIM
100
AcDbLine
 10
229.5235397512
 20
7.8327931655
 30
0.0
 11
229.5235397512
 21
159.8327931655
 31
0.0
  0
LINE
  5
91
330
1F
100
AcDbEntity
  8
DIM
100
AcDbLine
 10
233.5235397512
 20
61.6327931655
 30
0.0
 11
233.5235397512
 21
163.8327931655
 31
0.0
  0
LINE
  5
92
330
1F
100
AcDbEntity
  8
DIM
100
AcDbLine
 10
233.5235397512
 20
83.8327931655
 30
0.0
 11
229.5235397512
 21
83.8327931655
 31
0.0
  0
LINE
  5
93
330
1F
100
AcDbEntity
  8
DIM
100
AcDbLine
 10
158.7235397512
 20
163.8327931655
 30
0.0
 11
158.7235397512
 21
159.8327931655
 31
0.0
  0
LINE
  5
94
330
1F
100
AcDbEntity
  8
DIM
100
AcDbLine
 10
198.7235397512
 20
159.8327931655
 30
0.0
 11
198.7235397512
 21
163.8327931655
 31
0.0
  0
LINE
  5
95
330
1F
100
AcDbEntity
  8
DIM
100
AcDbLine
 10
229.5235397512
 20
123.8327931655
 30
0.0
 11
233.5235397512
 21
123.8327931655
 31
0.0
  0
MTEXT
  5
97
330
1F
100
AcDbEntity
  8
DIM
100
AcDbMText
 10
13.3436414071
 20
154.6516340354
 30
0.0
 40
3.3866666667
 41
0.0
 71
     1
 72
     1
  1
SPANNER E25M
  7
SLDTEXTSTYLE0
 73
     1
 44
1.0
  0
MTEXT
  5
99
330
1F
100
AcDbEntity
  8
DIM
 62
     7
100
AcDbMText
 10
158.1862229173
 20
6.241561221
 30
0.0
 40
1.19888
 41
0.0
 71
     1
 72
     1
  1
WEIGHT:
  7
SLDTEXTSTYLE1
 73
     1
 44
1.0
  0
MTEXT
  5
9A
330
1F
100
AcDbEntity
  8
DIM
 62
     7
100
AcDbMText
 10
230.8776614038
 20
65.5524908066
 30
0.0
 40
1.4816666667
 41
0.0
 71
     1
 72
     1
  1
C
  7
SLDTEXTSTYLE1
 73
     1
 44
1.0
  0
MTEXT
  5
9B
330
1F
100
AcDbEntity
  8
DIM
 62
     7
100
AcDbMText
 10
226.4348644956
 20
11.8831855869
 30
0.0
 40
2.3283333333
 41
0.0
 71
     1
 72
     1
  1
A4
  7
SLDTEXTSTYLE1
 73
     1
 44
1.0
  0
MTEXT
  5
9C
330
1F
100
AcDbEntity
  8
DIM
 62
     7
100
AcDbMText
 10
218.0568762845
 20
162.7672062883
 30
0.0
 40
1.4816666667
 41
0.0
 71
     1
 72
     1
  1
6
  7
SLDTEXTSTYLE1
 73
     1
 44
1.0
  0
MTEXT
  5
9D
330
1F
100
AcDbEntity
  8
DIM
 62
     7
100
AcDbMText
 10
178.0568762845
 20
162.7672062883
 30
0.0
 40
1.4816666667
 41
0.0
 71
     1
 72
     1
  1
5
  7
SLDTEXTSTYLE1
 73
     1
 44
1.0
  0
MTEXT
  5
9E
330
1F
100
AcDbEntity
  8
DIM
 62
     7
100
AcDbMText
 10
230.8568794845
 20
144.7672062883
 30
0.0
 40
1.4816666667
 41
0.0
 71
     1
 72
     1
  1
A
  7
SLDTEXTSTYLE1
 73
     1
 44
1.0
  0
MTEXT
  5
9F
330
1F
100
AcDbEntity
  8
DIM
 62
     7
100
AcDbMText
 10
230.8568794845
 20
104.7672062883
 30
0.0
 40
1.4816666667
 41
0.0
 71
     1
 72
     1
  1
B
  7
SLDTEXTSTYLE1
 73
     1
 44
1.0
  0
MTEXT
  5
A0
330
1F
100
AcDbEntity
  8
DIM
 62
     7
100
AcDbMText
 10
138.0568762845
 20
162.7672062883
 30
0.0
 40
1.4816666667
 41
0.0
 71
     1
 72
     1
  1
4
  7
SLDTEXTSTYLE1
 73
     1
 44
1.0
  0
MTEXT
  5
A1
330
1F
100
AcDbEntity
  8
DIM
 62
     7
100
AcDbMText
 10
18.3902096179
 20
162.7672062883
 30
0.0
 40
1.4816666667
 41
0.0
 71
     1
 72
     1
  1
1
  7
SLDTEXTSTYLE1
 73
     1
 44
1.0
  0
MTEXT
  5
A2
330
1F
100
AcDbEntity
  8
DIM
 62
     7
100
AcDbMText
 10
58.0568762845
 20
162.7672062883
 30
0.0
 40
1.4816666667
 41
0.0
 71
     1
 72
     1
  1
2
  7
SLDTEXTSTYLE1
 73
     1
 44
1.0
  0
MTEXT
  5
A3
330
1F
100
AcDbEntity
  8
DIM
 62
     7
100
AcDbMText
 10
98.0568762845
 20
162.7672062883
 30
0.0
 40
1.4816666667
 41
0.0
 71
     1
 72
     1
  1
3
  7
SLDTEXTSTYLE1
 73
     1
 44
1.0
  0
MTEXT
  5
A4
330
1F
100
AcDbEntity
  8
DIM
 62
     7
100
AcDbMText
 10
5.2568730845
 20
144.7672062883
 30
0.0
 40
1.4816666667
 41
0.0
 71
     1
 72
     1
  1
A
  7
SLDTEXTSTYLE1
 73
     1
 44
1.0
  0
MTEXT
  5
A5
330
1F
100
AcDbEntity
  8
DIM
 62
     7
100
AcDbMText
 10
58.0568762845
 20
6.7672062883
 30
0.0
 40
1.4816666667
 41
0.0
 71
     1
 72
     1
  1
2
  7
SLDTEXTSTYLE1
 73
     1
 44
1.0
  0
MTEXT
  5
A6
330
1F
100
AcDbEntity
  8
DIM
 62
     7
100
AcDbMText
 10
18.3902096179
 20
6.7672062883
 30
0.0
 40
1.4816666667
 41
0.0
 71
     1
 72
     1
  1
1
  7
SLDTEXTSTYLE1
 73
     1
 44
1.0
  0
MTEXT
  5
A7
330
1F
100
AcDbEntity
  8
DIM
 62
     7
100
AcDbMText
 10
5.2568730845
 20
24.7672062883
 30
0.0
 40
1.4816666667
 41
0.0
 71
     1
 72
     1
  1
D
  7
SLDTEXTSTYLE1
 73
     1
 44
1.0
  0
MTEXT
  5
A8
330
1F
100
AcDbEntity
  8
DIM
 62
     7
100
AcDbMText
 10
5.2568730845
 20
64.7672062883
 30
0.0
 40
1.4816666667
 41
0.0
 71
     1
 72
     1
  1
C
  7
SLDTEXTSTYLE1
 73
     1
 44
1.0
  0
MTEXT
  5
A9
330
1F
100
AcDbEntity
  8
DIM
 62
     7
100
AcDbMText
 10
5.2568730845
 20
104.7672062883
 30
0.0
 40
1.4816666667
 41
0.0
 71
     1
 72
     1
  1
B
  7
SLDTEXTSTYLE1
 73
     1
 44
1.0
  0
MTEXT
  5
AA
330
1F
100
AcDbEntity
  8
DIM
 62
     7
100
AcDbMText
 10
230.8776614038
 20
65.5524908066
 30
0.0
 40
1.4816666667
 41
0.0
 71
     1
 72
     1
  1
C
  7
SLDTEXTSTYLE1
 73
     1
 44
1.0
  0
MTEXT
  5
AC
330
1F
100
AcDbEntity
  8
DIM
 62
     7
100
AcDbMText
 10
205.22029265
 20
6.1528629851
 30
0.0
 40
1.2
 41
0.0
 71
     1
 72
     1
  1
SHEET 1 OF 1
  7
SLDTEXTSTYLE2
 73
     1
 44
1.0
  0
MTEXT
  5
AD
330
1F
100
AcDbEntity
  8
DIM
 62
     7
100
AcDbMText
 10
120.2974243068
 20
6.2826939869
 30
0.0
 40
1.2
 41
0.0
 71
     1
 72
     1
  1
MATERIAL:
  7
SLDTEXTSTYLE1
 73
     1
 44
1.0
  0
MTEXT
  5
AE
330
1F
100
AcDbEntity
  8
DIM
 62
     7
100
AcDbMText
 10
218.0568762845
 20
162.7672062883
 30
0.0
 40
1.4816666667
 41
0.0
 71
     1
 72
     1
  1
6
  7
SLDTEXTSTYLE1
 73
     1
 44
1.0
  0
MTEXT
  5
AF
330
1F
100
AcDbEntity
  8
DIM
 62
     7
100
AcDbMText
 10
178.0568762845
 20
162.7672062883
 30
0.0
 40
1.4816666667
 41
0.0
 71
     1
 72
     1
  1
5
  7
SLDTEXTSTYLE1
 73
     1
 44
1.0
  0
MTEXT
  5
B0
330
1F
100
AcDbEntity
  8
DIM
 62
     7
100
AcDbMText
 10
230.8568794845
 20
144.7672062883
 30
0.0
 40
1.4816666667
 41
0.0
 71
     1
 72
     1
  1
A
  7
SLDTEXTSTYLE1
 73
     1
 44
1.0
  0
MTEXT
  5
B1
330
1F
100
AcDbEntity
  8
DIM
 62
     7
100
AcDbMText
 10
230.8568794845
 20
104.7672062883
 30
0.0
 40
1.4816666667
 41
0.0
 71
     1
 72
     1
  1
B
  7
SLDTEXTSTYLE1
 73
     1
 44
1.0
  0
MTEXT
  5
B2
330
1F
100
AcDbEntity
  8
DIM
 62
     7
100
AcDbMText
 10
138.0568762845
 20
162.7672062883
 30
0.0
 40
1.4816666667
 41
0.0
 71
     1
 72
     1
  1
4
  7
SLDTEXTSTYLE1
 73
     1
 44
1.0
  0
MTEXT
  5
B3
330
1F
100
AcDbEntity
  8
DIM
 62
     7
100
AcDbMText
 10
18.3902096179
 20
162.7672062883
 30
0.0
 40
1.4816666667
 41
0.0
 71
     1
 72
     1
  1
1
  7
SLDTEXTSTYLE1
 73
     1
 44
1.0
  0
MTEXT
  5
B4
330
1F
100
AcDbEntity
  8
DIM
 62
     7
100
AcDbMText
 10
58.0568762845
 20
162.7672062883
 30
0.0
 40
1.4816666667
 41
0.0
 71
     1
 72
     1
  1
2
  7
SLDTEXTSTYLE1
 73
     1
 44
1.0
  0
MTEXT
  5
B5
330
1F
100
AcDbEntity
  8
DIM
 62
     7
100
AcDbMText
 10
98.0568762845
 20
162.7672062883
 30
0.0
 40
1.4816666667
 41
0.0
 71
     1
 72
     1
  1
3
  7
SLDTEXTSTYLE1
 73
     1
 44
1.0
  0
MTEXT
  5
B6
330
1F
100
AcDbEntity
  8
DIM
 62
     7
100
AcDbMText
 10
5.2568730845
 20
144.7672062883
 30
0.0
 40
1.4816666667
 41
0.0
 71
     1
 72
     1
  1
A
  7
SLDTEXTSTYLE1
 73
     1
 44
1.0
  0
MTEXT
  5
B7
330
1F
100
AcDbEntity
  8
DIM
 62
     7
100
AcDbMText
 10
58.0568762845
 20
6.7672062883
 30
0.0
 40
1.4816666667
 41
0.0
 71
     1
 72
     1
  1
2
  7
SLDTEXTSTYLE1
 73
     1
 44
1.0
  0
MTEXT
  5
B8
330
1F
100
AcDbEntity
  8
DIM
 62
     7
100
AcDbMText
 10
18.3902096179
 20
6.7672062883
 30
0.0
 40
1.4816666667
 41
0.0
 71
     1
 72
     1
  1
1
  7
SLDTEXTSTYLE1
 73
     1
 44
1.0
  0
MTEXT
  5
B9
330
1F
100
AcDbEntity
  8
DIM
 62
     7
100
AcDbMText
 10
5.2568730845
 20
24.7672062883
 30
0.0
 40
1.4816666667
 41
0.0
 71
     1
 72
     1
  1
D
  7
SLDTEXTSTYLE1
 73
     1
 44
1.0
  0
MTEXT
  5
BA
330
1F
100
AcDbEntity
  8
DIM
 62
     7
100
AcDbMText
 10
5.2568730845
 20
64.7672062883
 30
0.0
 40
1.4816666667
 41
0.0
 71
     1
 72
     1
  1
C
  7
SLDTEXTSTYLE1
 73
     1
 44
1.0
  0
MTEXT
  5
BB
330
1F
100
AcDbEntity
  8
DIM
 62
     7
100
AcDbMText
 10
5.2568730845
 20
104.7672062883
 30
0.0
 40
1.4816666667
 41
0.0
 71
     1
 72
     1
  1
B
  7
SLDTEXTSTYLE1
 73
     1
 44
1.0
  0
LINE
  5
BC
330
1F
100
AcDbEntity
  8
0
  6
Continuous
 62
     7
370
    15
100
AcDbLine
 10
85.3187917366
 20
89.0408558116
 30
0.0
 11
85.3516522856
 21
89.0823111639
 31
0.0
  0
ARC
  5
BD
330
1F
100
AcDbEntity
  8
0
  6
Continuous
 62
     7
370
    15
100
AcDbCircle
 10
70.4952228379
 20
99.2517246952
 30
0.0
 40
17.28162196100005
100
AcDbArc
 50
112.5304076841
 51
125.0000000004
  0
LINE
  5
BE
330
1F
100
AcDbEntity
  8
0
  6
Continuous
 62
     7
370
    15
100
AcDbLine
 10
63.5980963356
 20
115.8778982181
 30
0.0
 11
63.8733599051
 21
115.214349445
 31
0.0
  0
ARC
  5
BF
330
1F
100
AcDbEntity
  8
0
  6
Continuous
 62
     7
370
    15
100
AcDbCircle
 10
60.8713090349
 20
113.8678214082
 30
0.0
 40
0.5000000003545408
100
AcDbArc
 50
123.3627551925
 51
215.0000000454
  0
LINE
  5
C0
330
1F
100
AcDbEntity
  8
0
  6
Continuous
 62
     7
370
    15
100
AcDbLine
 10
60.5828916998
 20
113.4080006519
 30
0.0
 11
60.4617330127
 21
113.5810331895
 31
0.0
  0
ARC
  5
C1
330
1F
100
AcDbEntity
  8
0
  6
Continuous
 62
     7
370
    15
100
AcDbCircle
 10
70.4952228379
 20
99.2517246952
 30
0.0
 40
18.00000000000001
100
AcDbArc
 50
112.530407692
 51
123.3627549291
  0
ARC
  5
C2
330
1F
100
AcDbEntity
  8
0
  6
Continuous
 62
     7
370
    15
100
AcDbCircle
 10
70.4952228379
 20
99.2517246952
 30
0.0
 40
17.28162196100002
100
AcDbArc
 50
352.5304076827
 51
6.7596467297
  0
LINE
  5
C3
330
1F
100
AcDbEntity
  8
0
  6
Continuous
 62
     7
370
    15
100
AcDbLine
 10
88.3700985996
 20
101.370407423
 30
0.0
 11
87.6567142555
 21
101.2858510254
 31
0.0
  0
LINE
  5
C4
330
1F
100
AcDbEntity
  8
0
  6
Continuous
 62
     7
370
    15
100
AcDbLine
 10
88.3424747277
 20
96.9117246996
 30
0.0
 11
87.6301928486
 21
97.00511384
 31
0.0
  0
ARC
  5
C5
330
1F
100
AcDbEntity
  8
0
  6
Continuous
 62
     7
370
    15
100
AcDbCircle
 10
70.4952228379
 20
99.2517246952
 30
0.0
 40
18.0
100
AcDbArc
 50
352.5304076978
 51
6.7596467323
  0
ARC
  5
C6
330
1F
100
AcDbEntity
  8
0
  6
Continuous
 62
     7
370
    15
100
AcDbCircle
 10
70.4952228379
 20
99.2517246952
 30
0.0
 40
17.28162196100003
100
AcDbArc
 50
52.5304076836
 51
66.759646732
  0
LINE
  5
C7
330
1F
100
AcDbEntity
  8
0
  6
Continuous
 62
     7
370
    15
100
AcDbLine
 10
77.5978276552
 20
115.7911625578
 30
0.0
 11
77.3143634696
 21
115.131075395
 31
0.0
  0
LINE
  5
C8
330
1F
100
AcDbEntity
  8
0
  6
Continuous
 62
     7
370
    15
100
AcDbLine
 10
81.4453482253
 20
113.5378982206
 30
0.0
 11
81.008329916
 21
112.9677385901
 31
0.0
  0
ARC
  5
C9
330
1F
100
AcDbEntity
  8
0
  6
Continuous
 62
     7
370
    15
100
AcDbCircle
 10
70.4952228379
 20
99.2517246952
 30
0.0
 40
18.00000000000001
100
AcDbArc
 50
52.5304076917
 51
66.759646728
  0
ARC
  5
CA
330
1F
100
AcDbEntity
  8
0
  6
Continuous
 62
     7
370
    15
100
AcDbCircle
 10
70.4952228379
 20
99.2517246952
 30
0.0
 40
17.28162196100002
100
AcDbArc
 50
235.0000000003
 51
246.759646732
  0
LINE
  5
CB
330
1F
100
AcDbEntity
  8
0
  6
Continuous
 62
     7
370
    15
100
AcDbLine
 10
63.3926180254
 20
82.7122868306
 30
0.0
 11
63.6760822061
 21
83.3723739954
 31
0.0
  0
ARC
  5
CC
330
1F
100
AcDbEntity
  8
0
  6
Continuous
 62
     7
370
    15
100
AcDbCircle
 10
60.8713090349
 20
84.6356279822
 30
0.0
 40
0.5000000001772649
100
AcDbArc
 50
144.9999999861
 51
236.6372445697
  0
LINE
  5
CD
330
1F
100
AcDbEntity
  8
0
  6
Continuous
 62
     7
370
    15
100
AcDbLine
 10
60.5828916992
 20
85.0954487372
 30
0.0
 11
60.4617330126
 21
84.9224162006
 31
0.0
  0
ARC
  5
CE
330
1F
100
AcDbEntity
  8
0
  6
Continuous
 62
     7
370
    15
100
AcDbCircle
 10
70.4952228379
 20
99.2517246952
 30
0.0
 40
18.00000000016205
100
AcDbArc
 50
236.6372450643
 51
246.7596467449
  0
ARC
  5
CF
330
1F
100
AcDbEntity
  8
0
  6
Continuous
 62
     7
370
    15
100
AcDbCircle
 10
70.4952228379
 20
99.2517246952
 30
0.0
 40
14.84302139021806
100
AcDbArc
 50
6.7596467296
 51
52.5304076843
  0
ARC
  5
D0
330
1F
100
AcDbEntity
  8
0
  6
Continuous
 62
     7
370
    15
100
AcDbCircle
 10
70.4952228379
 20
99.2517246952
 30
0.0
 40
14.84302139021804
100
AcDbArc
 50
306.7596467312
 51
352.5304076821
  0
ARC
  5
D1
330
1F
100
AcDbEntity
  8
0
  6
Continuous
 62
     7
370
    15
100
AcDbCircle
 10
70.4952228379
 20
99.2517246952
 30
0.0
 40
17.28162196100002
100
AcDbArc
 50
292.5304076841
 51
306.7596467301
  0
ARC
  5
D2
330
1F
100
AcDbEntity
  8
0
  6
Continuous
 62
     7
370
    15
100
AcDbCircle
 10
70.4952228379
 20
99.2517246952
 30
0.0
 40
14.84302139021803
100
AcDbArc
 50
246.7596467315
 51
292.5304076841
  0
ARC
  5
D3
330
1F
100
AcDbEntity
  8
0
  6
Continuous
 62
     7
370
    15
100
AcDbCircle
 10
70.4952228379
 20
99.2517246952
 30
0.0
 40
14.82482287921418
100
AcDbArc
 50
235.0000000008
 51
125.000000006
  0
ARC
  5
D4
330
1F
100
AcDbEntity
  8
0
  6
Continuous
 62
     7
370
    15
100
AcDbCircle
 10
70.4952228379
 20
99.2517246952
 30
0.0
 40
14.84302139021806
100
AcDbArc
 50
66.7596467315
 51
112.5304076841
  0
LINE
  5
D5
330
1F
100
AcDbEntity
  8
0
  6
Continuous
 62
     7
370
    15
100
AcDbLine
 10
87.6567142555
 20
101.2858510254
 30
0.0
 11
85.2350652424
 21
100.9988165305
 31
0.0
  0
LINE
  5
D6
330
1F
100
AcDbEntity
  8
0
  6
Continuous
 62
     7
370
    15
100
AcDbLine
 10
63.6760822061
 20
83.3723739954
 30
0.0
 11
64.6383275481
 21
85.6131008073
 31
0.0
  0
LINE
  5
D7
330
1F
100
AcDbEntity
  8
0
  6
Continuous
 62
     7
370
    15
100
AcDbLine
 10
85.2122862572
 20
97.3221319141
 30
0.0
 11
87.6301928486
 21
97.00511384
 31
0.0
  0
LINE
  5
D8
330
1F
100
AcDbEntity
  8
0
  6
Continuous
 62
     7
370
    15
100
AcDbLine
 10
76.1826781806
 20
85.5415775146
 30
0.0
 11
77.1170857706
 21
83.2890999454
 31
0.0
  0
LINE
  5
D9
330
1F
100
AcDbEntity
  8
0
  6
Continuous
 62
     7
370
    15
100
AcDbLine
 10
80.8375736232
 20
85.4065003259
 30
0.0
 11
79.3781699525
 21
87.360192643
 31
0.0
  0
LINE
  5
DA
330
1F
100
AcDbEntity
  8
0
  6
Continuous
 62
     7
370
    15
100
AcDbLine
 10
77.3143634696
 20
115.131075395
 30
0.0
 11
76.3521181276
 21
112.8903485831
 31
0.0
  0
LINE
  5
DB
330
1F
100
AcDbEntity
  8
0
  6
Continuous
 62
     7
370
    15
100
AcDbLine
 10
64.8077674951
 20
112.9618718758
 30
0.0
 11
63.8733599051
 21
115.214349445
 31
0.0
  0
LINE
  5
DC
330
1F
100
AcDbEntity
  8
0
  6
Continuous
 62
     7
370
    15
100
AcDbLine
 10
79.5248309145
 20
111.0322790953
 30
0.0
 11
81.008329916
 21
112.9677385901
 31
0.0
  0
LINE
  5
DD
330
1F
100
AcDbEntity
  8
0
  6
Continuous
 62
     7
370
    15
100
AcDbLine
 10
61.9920537616
 20
87.1079407275
 30
0.0
 11
60.5828916992
 21
85.0954487372
 31
0.0
  0
LINE
  5
DE
330
1F
100
AcDbEntity
  8
0
  6
Continuous
 62
     7
370
    15
100
AcDbLine
 10
61.99205376
 20
111.395508662
 30
0.0
 11
60.5828916998
 21
113.4080006519
 31
0.0
  0
LINE
  5
DF
330
1F
100
AcDbEntity
  8
0
  6
Continuous
 62
     7
370
    15
100
AcDbLine
 10
77.3923493352
 20
82.6255511703
 30
0.0
 11
77.1170857706
 21
83.2890999454
 31
0.0
  0
LINE
  5
E0
330
1F
100
AcDbEntity
  8
0
  6
Continuous
 62
     7
370
    15
100
AcDbLine
 10
81.2674937849
 20
84.8309695609
 30
0.0
 11
80.8375736232
 21
85.4065003259
 31
0.0
  0
ARC
  5
E1
330
1F
100
AcDbEntity
  8
0
  6
Continuous
 62
     7
370
    15
100
AcDbCircle
 10
70.4952228379
 20
99.2517246952
 30
0.0
 40
18.0
100
AcDbArc
 50
292.5304076751
 51
306.7596467377
  0
ARC
  5
E2
330
1F
100
AcDbEntity
  8
0
  6
Continuous
 62
     7
370
    15
100
AcDbCircle
 10
70.4952228379
 20
99.2517246952
 30
0.0
 40
18.00000000000001
100
AcDbArc
 50
66.7596467258
 51
112.530407688
  0
ARC
  5
E3
330
1F
100
AcDbEntity
  8
0
  6
Continuous
 62
     7
370
    15
100
AcDbCircle
 10
70.4952228379
 20
99.2517246952
 30
0.0
 40
18.0
100
AcDbArc
 50
246.7596467449
 51
292.5304076795
  0
ARC
  5
E4
330
1F
100
AcDbEntity
  8
0
  6
Continuous
 62
     7
370
    15
100
AcDbCircle
 10
70.4952228379
 20
99.2517246952
 30
0.0
 40
18.0
100
AcDbArc
 50
306.7596467334
 51
352.5304076978
  0
ARC
  5
E5
330
1F
100
AcDbEntity
  8
0
  6
Continuous
 62
     7
370
    15
100
AcDbCircle
 10
70.4952228379
 20
99.2517246952
 30
0.0
 40
18.0
100
AcDbArc
 50
6.7596467311
 51
52.5304076871
  0
SPLINE
  5
E6
330
1F
100
AcDbEntity
  8
0
  6
Continuous
 62
     7
370
    15
100
AcDbSpline
210
0.0
220
0.0
230
1.0
 70
     8
 71
     3
 72
    10
 73
     6
 74
     0
 42
0.000000001
 43
0.00000001
 40
0.0
 40
0.0
 40
0.0
 40
0.0
 40
0.5
 40
0.5
 40
1.0
 40
1.0
 40
1.0
 40
1.0
 10
63.82345173498559
 20
89.35172469511507
 30
0.0
 10
63.72706273115863
 20
89.35172469513813
 30
0.0
 10
63.6466466712048
 20
89.32583092008953
 30
0.0
 10
63.5111124859224
 20
89.2498213374659
 30
0.0
 10
63.45623448189119
 20
89.19900750480865
 30
0.0
 10
63.41387571346242
 20
89.13851291444168
 30
0.0
  0
SPLINE
  5
E7
330
1F
100
AcDbEntity
  8
0
  6
Continuous
 62
     7
370
    15
100
AcDbSpline
210
0.0
220
0.0
230
1.0
 70
    24
 71
     3
 72
    12
 73
     8
 74
     0
 42
0.000000001
 43
0.00000001
 40
0.0
 40
0.0
 40
0.0
 40
0.0
 40
0.5
 40
0.5
 40
0.75
 40
0.75
 40
1.0
 40
1.0
 40
1.0
 40
1.0
 10
69.08454924028278
 20
89.35172469512993
 30
0.0
 10
68.12654651133421
 20
89.35172469512992
 30
0.0
 10
67.21817192076773
 20
89.351724695208
 30
0.0
 10
65.90149983021188
 20
89.35172469520799
 30
0.0
 10
65.47274440209856
 20
89.35172469520798
 30
0.0
 10
64.63549477446374
 20
89.35172469520798
 30
0.0
 10
64.22602848705526
 20
89.35172469520796
 30
0.0
 10
63.8234517350047
 20
89.35172469520796
 30
0.0
  0
ARC
  5
E8
330
1F
100
AcDbEntity
  8
0
  6
Continuous
 62
     7
370
    15
100
AcDbCircle
 10
70.4952228379
 20
99.2517246952
 30
0.0
 40
10.00000000001178
100
AcDbArc
 50
261.8903855439
 51
98.1096144565
  0
SPLINE
  5
E9
330
1F
100
AcDbEntity
  8
0
  6
Continuous
 62
     7
370
    15
100
AcDbSpline
210
0.0
220
0.0
230
1.0
 70
    24
 71
     3
 72
    12
 73
     8
 74
     0
 42
0.000000001
 43
0.00000001
 40
0.0
 40
0.0
 40
0.0
 40
0.0
 40
0.4999999999999998
 40
0.4999999999999998
 40
0.7499999999999999
 40
0.7499999999999999
 40
1.0
 40
1.0
 40
1.0
 40
1.0
 10
63.82345173557324
 20
109.151724695208
 30
0.0
 10
64.62838980010824
 20
109.151724695208
 30
0.0
 10
65.45723314880205
 20
109.151724695208
 30
0.0
 10
66.76369198376125
 20
109.151724695208
 30
0.0
 10
67.20987950279877
 20
109.151724695208
 30
0.0
 10
68.13106874447601
 20
109.151724695208
 30
0.0
 10
68.60435143677465
 20
109.151724695208
 30
0.0
 10
69.08454923973393
 20
109.151724695208
 30
0.0
  0
SPLINE
  5
EA
330
1F
100
AcDbEntity
  8
0
  6
Continuous
 62
     7
370
    15
100
AcDbSpline
210
0.0
220
0.0
230
1.0
 70
     8
 71
     3
 72
    10
 73
     6
 74
     0
 42
0.000000001
 43
0.00000001
 40
0.0
 40
0.0
 40
0.0
 40
0.0
 40
0.5
 40
0.5
 40
1.0
 40
1.0
 40
1.0
 40
1.0
 10
63.41387571244216
 20
109.3649364774311
 30
0.0
 10
63.45633430318124
 20
109.3042993255724
 30
0.0
 10
63.51053348772898
 20
109.2540082497512
 30
0.0
 10
63.64668621556414
 20
109.1775410266112
 30
0.0
 10
63.72665165749517
 20
109.1517246950705
 30
0.0
 10
63.82345173557269
 20
109.1517246952074
 30
0.0
  0
LINE
  5
EB
330
1F
100
AcDbEntity
  8
0
  6
Continuous
 62
     7
370
    15
100
AcDbLine
 10
63.4138757131
 20
89.1385129138
 30
0.0
 11
61.9920537616
 21
87.1079407275
 31
0.0
  0
LINE
  5
EC
330
1F
100
AcDbEntity
  8
0
  6
Continuous
 62
     7
370
    15
100
AcDbLine
 10
61.99205376
 20
111.395508662
 30
0.0
 11
63.4138757121
 21
109.3649364768
 31
0.0
  0
ARC
  5
ED
330
1F
100
AcDbEntity
  8
0
  6
Continuous
 62
     7
370
    15
100
AcDbCircle
 10
85.7267690499
 20
109.7517246944
 30
0.0
 40
0.4999999993856511
100
AcDbArc
 50
214.5807783829
 51
270.0
  0
SPLINE
  5
EE
330
1F
100
AcDbEntity
  8
0
  6
Continuous
 62
     7
370
    15
100
AcDbSpline
210
0.0
220
0.0
230
1.0
 70
     8
 71
     3
 72
    19
 73
    15
 74
     0
 42
0.000000001
 43
0.00000001
 40
0.0
 40
0.0
 40
0.0
 40
0.0
 40
0.0445841037964045
 40
0.0899519092041648
 40
0.1364201931648055
 40
0.1842838873682774
 40
0.2338130016767831
 40
0.3488781750698509
 40
0.4813971854351726
 40
0.5965147318916544
 40
0.7394235651977294
 40
0.8693732860055259
 40
0.9433170079001885
 40
1.0
 40
1.0
 40
1.0
 40
1.0
 10
85.72676904986578
 20
109.2517246952082
 30
0.0
 10
85.72747643555594
 20
109.251057641638
 30
0.0
 10
85.7289036413974
 20
109.2497118089965
 30
0.0
 10
85.74028968479519
 20
109.238788404908
 30
0.0
 10
85.75839964532484
 20
109.2212008814458
 30
0.0
 10
85.78392069548771
 20
109.1962192654384
 30
0.0
 10
85.83062641633998
 20
109.1502550097314
 30
0.0
 10
85.91482494975182
 20
109.0671165535633
 30
0.0
 10
86.03822200602183
 20
108.9409927005771
 30
0.0
 10
86.1851289143377
 20
108.7877332618458
 30
0.0
 10
86.33838311611225
 20
108.6208933397491
 30
0.0
 10
86.47863363614954
 20
108.462890676705
 30
0.0
 10
86.58364071679954
 20
108.3407517020772
 30
0.0
 10
86.63581337467869
 20
108.2786657290299
 30
0.0
 10
86.65845271286578
 20
108.2517246952082
 30
0.0
  0
LINE
  5
EF
330
1F
100
AcDbEntity
  8
0
  6
Continuous
 62
     7
370
    15
100
AcDbLine
 10
86.2216086629
 20
108.0084814522
 30
0.0
 11
86.6584527129
 21
108.2517246952
 31
0.0
  0
SPLINE
  5
F0
330
1F
100
AcDbEntity
  8
0
  6
Continuous
 62
     7
370
    15
100
AcDbSpline
210
0.0
220
0.0
230
1.0
 70
     8
 71
     3
 72
    26
 73
    22
 74
     0
 42
0.000000001
 43
0.00000001
 40
0.0
 40
0.0
 40
0.0
 40
0.0
 40
0.0202584022937532
 40
0.0405012270528389
 40
0.0607370434625782
 40
0.0809744296110001
 40
0.1012219615910241
 40
0.1214882026152972
 40
0.1837026002254914
 40
0.2459455293229123
 40
0.3091964999985603
 40
0.3724764775494782
 40
0.500003178842367
 40
0.6275298801352559
 40
0.6907808511865203
 40
0.7540608291134506
 40
0.8162752273073708
 40
0.8785181569935286
 40
0.919017278469382
 40
0.9594883362437098
 40
1.0
 40
1.0
 40
1.0
 40
1.0
 10
86.6584527126151
 20
108.2517246950665
 30
0.0
 10
86.71953569191552
 20
108.1404801425109
 30
0.0
 10
86.84165468125326
 20
107.9180765779989
 30
0.0
 10
87.01604776338881
 20
107.5798693195005
 30
0.0
 10
87.18387675831073
 20
107.238525823325
 30
0.0
 10
87.34452123040194
 20
106.8937021319988
 30
0.0
 10
87.49814695317757
 20
106.5454859408475
 30
0.0
 10
87.7457524808029
 20
105.9514662424063
 30
0.0
 10
88.0595277678587
 20
105.1001618052427
 30
0.0
 10
88.3956781438822
 20
103.9725740544489
 30
0.0
 10
88.6610318463139
 20
102.8192921851199
 30
0.0
 10
88.91745759556754
 20
101.2476424324387
 30
0.0
 10
89.04719718445115
 20
99.25172495725403
 30
0.0
 10
88.91747086437289
 20
97.25598804170849
 30
0.0
 10
88.6610643273664
 20
95.68433713137799
 30
0.0
 10
88.39578165389037
 20
94.53122016101776
 30
0.0
 10
88.0595419138564
 20
93.4034709882356
 30
0.0
 10
87.70209332805928
 20
92.43308948788143
 30
0.0
 10
87.3479430342219
 20
91.60861618115193
 30
0.0
 10
87.0208661044466
 20
90.9211097447437
 30
0.0
 10
86.77929755195478
 20
90.47492761934093
 30
0.0
 10
86.65845271261529
 20
90.25172469534992
 30
0.0
  0
LINE
  5
F1
330
1F
100
AcDbEntity
  8
0
  6
Continuous
 62
     7
370
    15
100
AcDbLine
 10
86.2216086158
 20
90.4949678544
 30
0.0
 11
86.658452677
 21
90.2517246308
 31
0.0
  0
SPLINE
  5
F2
330
1F
100
AcDbEntity
  8
0
  6
Continuous
 62
     7
370
    15
100
AcDbSpline
210
0.0
220
0.0
230
1.0
 70
     8
 71
     3
 72
    17
 73
    13
 74
     0
 42
0.000000001
 43
0.00000001
 40
0.0
 40
0.0
 40
0.0
 40
0.0
 40
0.0567058915239596
 40
0.1306999195226086
 40
0.2613745174764656
 40
0.4045735335615177
 40
0.51998903642566
 40
0.6521790506524845
 40
0.7670581946938794
 40
0.8483409741811877
 40
0.9255367861547042
 40
1.0
 40
1.0
 40
1.0
 40
1.0
 10
86.65845271286598
 20
90.2517246952082
 30
0.0
 10
86.6358092454638
 20
90.22477884700149
 30
0.0
 10
86.58361891236714
 20
90.16267206942622
 30
0.0
 10
86.47831410578073
 20
90.04018737159694
 30
0.0
 10
86.3376598115142
 20
89.88175052409929
 30
0.0
 10
86.18395928596145
 20
89.71446184390477
 30
0.0
 10
86.03706583160992
 20
89.56126554759778
 30
0.0
 10
85.9139543622691
 20
89.43546321342286
 30
0.0
 10
85.82098436094057
 20
89.34367328873256
 30
0.0
 10
85.76468394161255
 20
89.2883280085108
 30
0.0
 10
85.7328017488212
 20
89.25742449592843
 30
0.0
 10
85.72875564858813
 20
89.25360166883334
 30
0.0
 10
85.726769049866
 20
89.2517246952082
 30
0.0
  0
ARC
  5
F3
330
1F
100
AcDbEntity
  8
0
  6
Continuous
 62
     7
370
    15
100
AcDbCircle
 10
85.7267690499
 20
88.7517246952
 30
0.0
 40
0.5
100
AcDbArc
 50
90.0000000103
 51
145.4192209862
  0
LINE
  5
F4
330
1F
100
AcDbEntity
  8
0
  6
Continuous
 62
     7
370
    15
100
AcDbLine
 10
86.6584527389
 20
108.2517246952
 30
0.0
 11
180.1708469903
 21
108.2517246952
 31
0.0
  0
SPLINE
  5
F5
330
1F
100
AcDbEntity
  8
0
  6
Continuous
 62
     7
370
    15
100
AcDbSpline
210
0.0
220
0.0
230
1.0
 70
     8
 71
     3
 72
    38
 73
    34
 74
     0
 42
0.000000001
 43
0.00000001
 40
0.0
 40
0.0
 40
0.0
 40
0.0
 40
0.0625
 40
0.0625
 40
0.125
 40
0.125
 40
0.1875
 40
0.1875
 40
0.25
 40
0.25
 40
0.3125
 40
0.3125
 40
0.375
 40
0.375
 40
0.4375
 40
0.4375
 40
0.5
 40
0.5
 40
0.5625
 40
0.5625
 40
0.625
 40
0.625
 40
0.6875
 40
0.6875
 40
0.75
 40
0.75
 40
0.8125
 40
0.8125
 40
0.875
 40
0.875
 40
0.9375
 40
0.9375
 40
1.0
 40
1.0
 40
1.0
 40
1.0
 10
180.1708469838658
 20
108.2517246953447
 30
0.0
 10
180.5458469838712
 20
108.2517246953447
 30
0.0
 10
180.9445175923821
 20
108.2284652388481
 30
0.0
 10
181.7865569063578
 20
108.1156921164406
 30
0.0
 10
182.2300469838958
 20
108.0261246953413
 30
0.0
 10
183.1516469839092
 20
107.7573246953373
 30
0.0
 10
183.6298799343013
 20
107.5779461320219
 30
0.0
 10
184.5994544829835
 20
107.1052785395391
 30
0.0
 10
185.0908469839375
 20
106.8117246953231
 30
0.0
 10
186.0508469839515
 20
106.0917246953122
 30
0.0
 10
186.5193176163471
 20
105.664935429027
 30
0.0
 10
187.3840201871986
 20
104.6741303999259
 30
0.0
 10
187.7798435237691
 20
104.1098561831717
 30
0.0
 10
188.4442033853704
 20
102.8641814426685
 30
0.0
 10
188.7121487591381
 20
102.1828489556084
 30
0.0
 10
189.0756990550015
 20
100.7513696656461
 30
0.0
 10
189.170846983997
 20
100.0017246952206
 30
0.0
 10
189.170846983997
 20
98.50172469519799
 30
0.0
 10
189.0756990550015
 20
97.7520797247725
 30
0.0
 10
188.7121487591382
 20
96.32060043481012
 30
0.0
 10
188.4442033853705
 20
95.63926794775004
 30
0.0
 10
187.7798435237692
 20
94.39359320724684
 30
0.0
 10
187.3840201871986
 20
93.82931899049261
 30
0.0
 10
186.5193176163472
 20
92.83851396139154
 30
0.0
 10
186.0508469839516
 20
92.41172469510626
 30
0.0
 10
185.0908469839376
 20
91.69172469509542
 30
0.0
 10
184.5994544829836
 20
91.3981708508794
 30
0.0
 10
183.6298799343015
 20
90.92550325839656
 30
0.0
 10
183.1516469839094
 20
90.74612469508114
 30
0.0
 10
182.230046983896
 20
90.4773246950771
 30
0.0
 10
181.786556906358
 20
90.38775727397777
 30
0.0
 10
180.9445175923823
 20
90.27498415157024
 30
0.0
 10
180.5458469838715
 20
90.25172469507368
 30
0.0
 10
180.170846983866
 20
90.25172469507368
 30
0.0
  0
LINE
  5
F6
330
1F
100
AcDbEntity
  8
0
  6
Continuous
 62
     7
370
    15
100
AcDbLine
 10
86.6584526828
 20
90.2517246956
 30
0.0
 11
180.1708469839
 21
90.2517246956
 31
0.0
  0
SPLINE
  5
F7
330
1F
100
AcDbEntity
  8
0
  6
Continuous
 62
     7
370
    15
100
AcDbSpline
210
0.0
220
0.0
230
1.0
 70
     8
 71
     3
 72
    30
 73
    26
 74
     0
 42
0.000000001
 43
0.00000001
 40
0.0
 40
0.0
 40
0.0
 40
0.0
 40
0.125
 40
0.125
 40
0.2500000000000001
 40
0.2500000000000001
 40
0.3125
 40
0.3125
 40
0.375
 40
0.375
 40
0.4375
 40
0.4375
 40
0.5
 40
0.5
 40
0.5625
 40
0.5625
 40
0.625
 40
0.625
 40
0.6875
 40
0.6875
 40
0.75
 40
0.75
 40
0.875
 40
0.875
 40
1.0
 40
1.0
 40
1.0
 40
1.0
 10
180.1708469838659
 20
95.25172469509302
 30
0.0
 10
180.5041803171677
 20
95.25172469509302
 30
0.0
 10
180.8812469837986
 20
95.29225802842754
 30
0.0
 10
181.7004469837209
 20
95.53119136176782
 30
0.0
 10
182.1441803170121
 20
95.73172469510698
 30
0.0
 10
182.7841803169513
 20
96.21172469512092
 30
0.0
 10
182.9923894868822
 20
96.4014088134726
 30
0.0
 10
183.3767017405519
 20
96.84176660419034
 30
0.0
 10
183.5526232234528
 20
97.0925551449735
 30
0.0
 10
183.8478942730212
 20
97.64618836298267
 30
0.0
 10
183.9669811057938
 20
97.94900280168028
 30
0.0
 10
184.1285590150487
 20
98.58521581945023
 30
0.0
 10
184.1708469834865
 20
98.91839136186621
 30
0.0
 10
184.1708469834865
 20
99.58505802855224
 30
0.0
 10
184.1285590150487
 20
99.91823357096823
 30
0.0
 10
183.9669811057938
 20
100.5544465887382
 30
0.0
 10
183.8478942730212
 20
100.8572610274358
 30
0.0
 10
183.5526232234528
 20
101.4108942454449
 30
0.0
 10
183.3767017405519
 20
101.6616827862281
 30
0.0
 10
182.9923894868821
 20
102.1020405769458
 30
0.0
 10
182.7841803169513
 20
102.2917246952975
 30
0.0
 10
182.1441803170119
 20
102.7717246953114
 30
0.0
 10
181.7004469837208
 20
102.9722580286506
 30
0.0
 10
180.8812469837985
 20
103.2111913619908
 30
0.0
 10
180.5041803171675
 20
103.2517246953254
 30
0.0
 10
180.1708469838659
 20
103.2517246953254
 30
0.0
  0
SPLINE
  5
F8
330
1F
100
AcDbEntity
  8
0
  6
Continuous
 62
     7
370
    15
100
AcDbSpline
210
0.0
220
0.0
230
1.0
 70
     8
 71
     3
 72
    30
 73
    26
 74
     0
 42
0.000000001
 43
0.00000001
 40
0.0
 40
0.0
 40
0.0
 40
0.0
 40
0.125
 40
0.125
 40
0.25
 40
0.25
 40
0.3124999999999999
 40
0.3124999999999999
 40
0.3749999999999999
 40
0.3749999999999999
 40
0.4374999999999999
 40
0.4374999999999999
 40
0.4999999999999999
 40
0.4999999999999999
 40
0.5624999999999999
 40
0.5624999999999999
 40
0.625
 40
0.625
 40
0.6875
 40
0.6875
 40
0.75
 40
0.75
 40
0.875
 40
0.875
 40
1.0
 40
1.0
 40
1.0
 40
1.0
 10
180.1708469838658
 20
103.2517246950738
 30
0.0
 10
179.8375136505434
 20
103.2517246950738
 30
0.0
 10
179.4604469838891
 20
103.2111913617418
 30
0.0
 10
178.6412469839159
 20
102.9722580284165
 30
0.0
 10
178.1975136505972
 20
102.77172469509
 30
0.0
 10
177.5575136506181
 20
102.2917246951062
 30
0.0
 10
177.3493044806743
 20
102.1020405767665
 30
0.0
 10
176.9649922269808
 20
101.6616827860765
 30
0.0
 10
176.7890707440689
 20
101.4108942453091
 30
0.0
 10
176.4937996944822
 20
100.8572610273347
 30
0.0
 10
176.3747128617022
 20
100.5544465886562
 30
0.0
 10
176.2131349524373
 20
99.91823357092623
 30
0.0
 10
176.1708469839969
 20
99.5850580285312
 30
0.0
 10
176.1708469839969
 20
98.91839136188709
 30
0.0
 10
176.2131349524373
 20
98.58521581949206
 30
0.0
 10
176.3747128617022
 20
97.94900280176213
 30
0.0
 10
176.4937996944823
 20
97.64618836308358
 30
0.0
 10
176.7890707440689
 20
97.09255514510924
 30
0.0
 10
176.9649922269808
 20
96.84176660434184
 30
0.0
 10
177.3493044806744
 20
96.40140881365181
 30
0.0
 10
177.5575136506182
 20
96.21172469531207
 30
0.0
 10
178.1975136505972
 20
95.73172469532834
 30
0.0
 10
178.641246983916
 20
95.5311913620018
 30
0.0
 10
179.4604469838892
 20
95.29225802867656
 30
0.0
 10
179.8375136505435
 20
95.25172469534459
 30
0.0
 10
180.1708469838659
 20
95.2517246953446
 30
0.0
  0
LINE
  5
F9
330
1F
100
AcDbEntity
  8
0
  6
Continuous
 62
     7
370
    15
100
AcDbLine
 10
180.1708469839
 20
90.2517246956
 30
0.0
 11
180.1708469839
 21
89.2517246952
 31
0.0
  0
LINE
  5
FA
330
1F
100
AcDbEntity
  8
0
  6
Continuous
 62
     7
370
    15
100
AcDbLine
 10
180.1708469839
 20
89.2517246952
 30
0.0
 11
85.7267690498
 21
89.2517246952
 31
0.0
  0
LINE
  5
FB
330
1F
100
AcDbEntity
  8
0
  6
Continuous
 62
     7
370
    15
100
AcDbLine
 10
85.7267690499
 20
109.2517246952
 30
0.0
 11
180.1708469839
 21
109.2517246952
 31
0.0
  0
LINE
  5
FC
330
1F
100
AcDbEntity
  8
0
  6
Continuous
 62
     7
370
    15
100
AcDbLine
 10
180.1708469839
 20
109.2517246952
 30
0.0
 11
180.1708469839
 21
108.2517246948
 31
0.0
  0
ARC
  5
FD
330
1F
100
AcDbEntity
  8
0
  6
Continuous
 62
     7
370
    15
100
AcDbCircle
 10
180.1708469839
 20
99.2517246952
 30
0.0
 40
10.0
100
AcDbArc
 50
269.9999999765
 51
90.0
  0
SPLINE
  5
FE
330
1F
100
AcDbEntity
  8
0
  6
Continuous
 62
     7
370
    15
100
AcDbSpline
210
0.0
220
0.0
230
1.0
 70
    24
 71
     3
 72
    14
 73
    10
 74
     0
 42
0.000000001
 43
0.00000001
 40
0.0
 40
0.0
 40
0.0
 40
0.0
 40
0.2500000000000003
 40
0.2500000000000003
 40
0.5000000000000002
 40
0.5000000000000002
 40
0.7500000000000001
 40
0.7500000000000001
 40
1.0
 40
1.0
 40
1.0
 40
1.0
 10
180.1708469838659
 20
95.25172469534236
 30
0.0
 10
180.1708469838659
 20
95.36957582552745
 30
0.0
 10
180.170846983866
 20
95.49672245448696
 30
0.0
 10
180.1708469838659
 20
95.74291635519869
 30
0.0
 10
180.1708469838659
 20
95.86120040346721
 30
0.0
 10
180.1708469838659
 20
96.05646254927811
 30
0.0
 10
180.1708469838659
 20
96.13278003606285
 30
0.0
 10
180.1708469838659
 20
96.23024595625569
 30
0.0
 10
180.1708469838659
 20
96.25172469504216
 30
0.0
 10
180.1708469838659
 20
96.25172469500414
 30
0.0
  0
ARC
  5
FF
330
1F
100
AcDbEntity
  8
0
  6
Continuous
 62
     7
370
    15
100
AcDbCircle
 10
180.1708469839
 20
99.2517246952
 30
0.0
 40
3.0
100
AcDbArc
 50
269.9999999765
 51
90.0
  0
SPLINE
  5
100
330
1F
100
AcDbEntity
  8
0
  6
Continuous
 62
     7
370
    15
100
AcDbSpline
210
0.0
220
0.0
230
1.0
 70
    24
 71
     3
 72
    14
 73
    10
 74
     0
 42
0.000000001
 43
0.00000001
 40
0.0
 40
0.0
 40
0.0
 40
0.0
 40
0.25
 40
0.25
 40
0.5
 40
0.5
 40
0.75
 40
0.75
 40
1.0
 40
1.0
 40
1.0
 40
1.0
 10
180.1708469838659
 20
103.251724695076
 30
0.0
 10
180.1708469838658
 20
103.133873564902
 30
0.0
 10
180.1708469838658
 20
103.0067269359555
 30
0.0
 10
180.1708469838658
 20
102.7605330352652
 30
0.0
 10
180.1708469838659
 20
102.6422489870048
 30
0.0
 10
180.1708469838659
 20
102.446986841197
 30
0.0
 10
180.1708469838659
 20
102.3706693544072
 30
0.0
 10
180.1708469838659
 20
102.2732034341936
 30
0.0
 10
180.1708469838659
 20
102.2517246953919
 30
0.0
 10
180.1708469838659
 20
102.2517246954142
 30
0.0
  0
ARC
  5
101
330
1F
100
AcDbEntity
  8
0
  6
Continuous
 62
     7
370
    15
100
AcDbCircle
 10
180.1708469839
 20
99.2517246952
 30
0.0
 40
3.0
100
AcDbArc
 50
90.0
 51
269.9999999765
  0
LINE
  5
102
330
1F
100
AcDbEntity
  8
DIM
100
AcDbLine
 10
70.6067401147
 20
117.2513792446
 30
0.0
 11
78.829221838
 21
117.2513792446
 31
0.0
  0
LINE
  5
103
330
1F
100
AcDbEntity
  8
DIM
100
AcDbLine
 10
70.383705561
 20
81.2520701458
 30
0.0
 11
78.0686580177
 21
81.2520701458
 31
0.0
  0
DIMENSION
  5
104
330
1F
100
AcDbEntity
  8
DIM
100
AcDbDimension
  2
_D
 10
54.9797584189
 20
81.2520701458
 30
0.0
 11
54.9797584189
 21
99.2517246952
 31
0.0
 70
   160
  1
<>
 71
     2
 42
-1.0
  3
SLDDIMSTYLE0
100
AcDbAlignedDimension
 13
70.6067401147
 23
117.2513792446
 33
0.0
 14
70.383705561
 24
81.2520701458
 34
0.0
 50
90.0
100
AcDbRotatedDimension
  0
DIMENSION
  5
10F
330
1F
100
AcDbEntity
  8
DIM
100
AcDbDimension
  2
_D_1
 10
190.1708469839
 20
75.7318090312
 30
0.0
 11
125.2710780094
 21
75.7318090312
 31
0.0
 70
   160
  1
<>
 71
     2
 42
-1.0
  3
SLDDIMSTYLE1
100
AcDbAlignedDimension
 13
60.371309035
 23
84.6356279822
 33
0.0
 14
190.1708469839
 24
99.2517246952
 34
0.0
100
AcDbRotatedDimension
  0
LINE
  5
11A
330
1F
100
AcDbEntity
  8
0
  6
Continuous
 62
     7
370
    15
100
AcDbLine
 10
88.4952228379
 20
46.4116978423
 30
0.0
 11
88.4952228379
 21
56.4116978383
 31
0.0
  0
ARC
  5
11B
330
1F
100
AcDbEntity
  8
0
  6
Continuous
 62
     7
370
    15
100
AcDbCircle
 10
60.8713090345
 20
42.4116978379
 30
0.0
 40
0.4999999998102709
100
AcDbArc
 50
179.9999999559
 51
270.0000000549
  0
LINE
  5
11C
330
1F
100
AcDbEntity
  8
0
  6
Continuous
 62
     7
370
    15
100
AcDbLine
 10
60.3713090349
 20
56.4116978383
 30
0.0
 11
60.3713090349
 21
42.4116978383
 31
0.0
  0
SPLINE
  5
11D
330
1F
100
AcDbEntity
  8
0
  6
Continuous
 62
     7
370
    15
100
AcDbSpline
210
0.0
220
0.0
230
1.0
 70
     8
 71
     3
 72
    13
 73
     9
 74
     0
 42
0.000000001
 43
0.00000001
 40
0.0
 40
0.0
 40
0.0
 40
0.0
 40
0.2394568443800354
 40
0.3683606602033752
 40
0.4999999999501241
 40
0.631639339708934
 40
0.7605431555626372
 40
1.0
 40
1.0
 40
1.0
 40
1.0
 10
189.170846983997
 20
41.91169783852817
 30
0.0
 10
189.2966433046774
 20
41.92505582854691
 30
0.0
 10
189.490157989367
 20
41.9456046586922
 30
0.0
 10
189.7229740720344
 20
42.07030225628674
 30
0.0
 10
189.8831807978246
 20
42.19936402423069
 30
0.0
 10
190.0122425657299
 20
42.35957075007324
 30
0.0
 10
190.1369401633039
 20
42.5923868328015
 30
0.0
 10
190.1574889935263
 20
42.78590151752228
 30
0.0
 10
190.1708469835952
 20
42.91169783822307
 30
0.0
  0
SPLINE
  5
11E
330
1F
100
AcDbEntity
  8
0
  6
Continuous
 62
     7
370
    15
100
AcDbSpline
210
0.0
220
0.0
230
1.0
 70
     8
 71
     3
 72
    13
 73
     9
 74
     0
 42
0.000000001
 43
0.00000001
 40
0.0
 40
0.0
 40
0.0
 40
0.0
 40
0.2394568444321186
 40
0.3683606602851782
 40
0.5000000000444699
 40
0.6316393397925033
 40
0.7605431556175042
 40
1.0
 40
1.0
 40
1.0
 40
1.0
 10
190.1708469835952
 20
44.91169783832328
 30
0.0
 10
190.1574889935377
 20
45.03749415903066
 30
0.0
 10
190.1369401633327
 20
45.23100884376272
 30
0.0
 10
190.0122425657701
 20
45.46382492651315
 30
0.0
 10
189.8831807978667
 20
45.6240316523749
 30
0.0
 10
189.7229740720715
 20
45.75309342033636
 30
0.0
 10
189.4901579893909
 20
45.87779101794884
 30
0.0
 10
189.2966433046867
 20
45.89833984809729
 30
0.0
 10
189.170846983997
 20
45.91169783811807
 30
0.0
  0
LINE
  5
11F
330
1F
100
AcDbEntity
  8
0
  6
Continuous
 62
     7
370
    15
100
AcDbLine
 10
190.1708469839
 20
42.9116978382
 30
0.0
 11
190.1708469839
 21
44.9116978383
 31
0.0
  0
SPLINE
  5
120
330
1F
100
AcDbEntity
  8
0
  6
Continuous
 62
     7
370
    15
100
AcDbSpline
210
0.0
220
0.0
230
1.0
 70
     8
 71
     3
 72
    13
 73
     9
 74
     0
 42
0.000000001
 43
0.00000001
 40
0.0
 40
0.0
 40
0.0
 40
0.0
 40
0.2394568447157812
 40
0.368360660712962
 40
0.5000000005690066
 40
0.6316393403375461
 40
0.7605431560869409
 40
1.0
 40
1.0
 40
1.0
 40
1.0
 10
88.99522283755871
 20
45.91169783805692
 30
0.0
 10
88.93232467680252
 20
45.91837683326517
 30
0.0
 10
88.83556733381958
 20
45.92865124864357
 30
0.0
 10
88.71915929191555
 20
45.99100004825591
 30
0.0
 10
88.63905592879782
 20
46.05553093297102
 30
0.0
 10
88.5745250449111
 20
46.13563429667249
 30
0.0
 10
88.51217624657866
 20
46.25204233891865
 30
0.0
 10
88.50190183213252
 20
46.34879968171782
 30
0.0
 10
88.49522283753363
 20
46.41169784232307
 30
0.0
  0
SPLINE
  5
121
330
1F
100
AcDbEntity
  8
0
  6
Continuous
 62
     7
370
    15
100
AcDbSpline
210
0.0
220
0.0
230
1.0
 70
    24
 71
     3
 72
    14
 73
    10
 74
     0
 42
0.000000001
 43
0.00000001
 40
0.0
 40
0.0
 40
0.0
 40
0.0
 40
0.25
 40
0.25
 40
0.5
 40
0.5
 40
0.75
 40
0.75
 40
1.0
 40
1.0
 40
1.0
 40
1.0
 10
70.49522283786607
 20
41.91169783805692
 30
0.0
 10
71.93140126613417
 20
41.91169783805692
 30
0.0
 10
73.41602197121806
 20
41.91169783805692
 30
0.0
 10
76.34031336999124
 20
41.91169783805692
 30
0.0
 10
77.7783440704441
 20
41.91169783805692
 30
0.0
 10
80.4537509818022
 20
41.91169783805692
 30
0.0
 10
81.68956352479536
 20
41.91169783805692
 30
0.0
 10
83.84479916425929
 20
41.91169783805692
 30
0.0
 10
84.76374327646771
 20
41.91169783805692
 30
0.0
 10
85.5035538592796
 20
41.91169783805692
 30
0.0
  0
SPLINE
  5
122
330
1F
100
AcDbEntity
  8
0
  6
Continuous
 62
     7
370
    15
100
AcDbSpline
210
0.0
220
0.0
230
1.0
 70
    24
 71
     3
 72
    14
 73
    10
 74
     0
 42
0.000000001
 43
0.00000001
 40
0.0
 40
0.0
 40
0.0
 40
0.0
 40
0.25
 40
0.25
 40
0.5
 40
0.5
 40
0.75
 40
0.75
 40
1.0
 40
1.0
 40
1.0
 40
1.0
 10
70.49522283786608
 20
42.41169783804425
 30
0.0
 10
70.49522283786608
 20
42.35277227296778
 30
0.0
 10
70.49522283786608
 20
42.28919895852884
 30
0.0
 10
70.49522283786608
 20
42.16610200825861
 30
0.0
 10
70.49522283786608
 20
42.106959984168
 30
0.0
 10
70.49522283786608
 20
42.00932891129477
 30
0.0
 10
70.49522283786608
 20
41.97117016788994
 30
0.0
 10
70.49522283786608
 20
41.92243720767864
 30
0.0
 10
70.49522283786608
 20
41.91169783818315
 30
0.0
 10
70.49522283786607
 20
41.91169783805692
 30
0.0
  0
LINE
  5
123
330
1F
100
AcDbEntity
  8
0
  6
Continuous
 62
     7
370
    15
100
AcDbLine
 10
85.372299538
 20
42.4116978383
 30
0.0
 11
70.4952228342
 21
42.411697838
 31
0.0
  0
SPLINE
  5
124
330
1F
100
AcDbEntity
  8
0
  6
Continuous
 62
     7
370
    15
100
AcDbSpline
210
0.0
220
0.0
230
1.0
 70
     8
 71
     3
 72
    15
 73
    11
 74
     0
 42
0.000000001
 43
0.00000001
 40
0.0
 40
0.0
 40
0.0
 40
0.0
 40
0.0581505639976269
 40
0.1253954614778146
 40
0.250326092866741
 40
0.5000808336110557
 40
0.6334138627051207
 40
0.7500992353900053
 40
0.8808657967597833
 40
1.0
 40
1.0
 40
1.0
 40
1.0
 10
85.50355385923216
 20
41.91169783805692
 30
0.0
 10
85.50360855398432
 20
41.91199418311084
 30
0.0
 10
85.50372649735782
 20
41.91263321947159
 30
0.0
 10
85.5036195097588
 20
41.91982403908289
 30
0.0
 10
85.50204239647684
 20
41.94503705612729
 30
0.0
 10
85.49509300193712
 20
42.00515613053912
 30
0.0
 10
85.47744028391013
 20
42.09890629954909
 30
0.0
 10
85.45504428139871
 20
42.18829648195332
 30
0.0
 10
85.42434931232887
 20
42.29128045686338
 30
0.0
 10
85.38910258069798
 20
42.37282393697054
 30
0.0
 10
85.37229954571639
 20
42.41169783776538
 30
0.0
  0
SPLINE
  5
125
330
1F
100
AcDbEntity
  8
0
  6
Continuous
 62
     7
370
    15
100
AcDbSpline
210
0.0
220
0.0
230
1.0
 70
    24
 71
     3
 72
    10
 73
     6
 74
     0
 42
0.000000001
 43
0.00000001
 40
0.0
 40
0.0
 40
0.0
 40
0.0
 40
0.4999999999999999
 40
0.4999999999999999
 40
1.0
 40
1.0
 40
1.0
 40
1.0
 10
60.87130903444843
 20
41.91169783805692
 30
0.0
 10
62.26982193602785
 20
41.91169783805692
 30
0.0
 10
63.83339974847448
 20
41.91169783805692
 30
0.0
 10
67.11032431964449
 20
41.91169783805692
 30
0.0
 10
68.82076923675749
 20
41.91169783805692
 30
0.0
 10
70.49522283786607
 20
41.91169783805692
 30
0.0
  0
SPLINE
  5
126
330
1F
100
AcDbEntity
  8
0
  6
Continuous
 62
     7
370
    15
100
AcDbSpline
210
0.0
220
0.0
230
1.0
 70
     8
 71
     3
 72
    14
 73
    10
 74
     0
 42
0.000000001
 43
0.00000001
 40
0.0
 40
0.0
 40
0.0
 40
0.0
 40
0.25
 40
0.25
 40
0.5
 40
0.5
 40
0.75
 40
0.75
 40
1.0
 40
1.0
 40
1.0
 40
1.0
 10
60.59634006932452
 20
42.41169783776538
 30
0.0
 10
60.59634006929886
 20
42.35277227270958
 30
0.0
 10
60.60224605586235
 20
42.28919895830459
 30
0.0
 10
60.6290461590546
 20
42.16610200811517
 30
0.0
 10
60.65003109941144
 20
42.10695998407063
 30
0.0
 10
60.70372212957367
 20
42.00932891127093
 30
0.0
 10
60.73624657192287
 20
41.97117016789249
 30
0.0
 10
60.80394225404584
 20
41.92243720770066
 30
0.0
 10
60.83890363104813
 20
41.91169783819877
 30
0.0
 10
60.87130903437559
 20
41.91169783805692
 30
0.0
  0
LINE
  5
127
330
1F
100
AcDbEntity
  8
0
  6
Continuous
 62
     7
370
    15
100
AcDbLine
 10
70.4952228342
 20
42.411697838
 30
0.0
 11
60.5963400618
 21
42.4116978383
 31
0.0
  0
LINE
  5
128
330
1F
100
AcDbEntity
  8
0
  6
Continuous
 62
     7
370
    15
100
AcDbLine
 10
77.3923493365
 20
49.7116978353
 30
0.0
 11
77.3923493352
 21
56.4116978383
 31
0.0
  0
LINE
  5
129
330
1F
100
AcDbEntity
  8
0
  6
Continuous
 62
     7
370
    15
100
AcDbLine
 10
77.3923493352
 20
56.4116978383
 30
0.0
 11
81.2674937849
 21
56.4116978383
 31
0.0
  0
LINE
  5
12A
330
1F
100
AcDbEntity
  8
0
  6
Continuous
 62
     7
370
    15
100
AcDbLine
 10
81.2674937849
 20
56.4116978383
 30
0.0
 11
81.2674937838
 21
49.7116978353
 31
0.0
  0
LINE
  5
12B
330
1F
100
AcDbEntity
  8
0
  6
Continuous
 62
     7
370
    15
100
AcDbLine
 10
81.2674937838
 20
49.7116978353
 30
0.0
 11
88.3424747277
 21
49.7116978323
 31
0.0
  0
LINE
  5
12C
330
1F
100
AcDbEntity
  8
0
  6
Continuous
 62
     7
370
    15
100
AcDbLine
 10
88.3424747277
 20
49.7116978323
 30
0.0
 11
88.3424747277
 21
56.4116978383
 31
0.0
  0
LINE
  5
12D
330
1F
100
AcDbEntity
  8
0
  6
Continuous
 62
     7
370
    15
100
AcDbLine
 10
88.3424747277
 20
56.4116978383
 30
0.0
 11
88.4952228379
 21
56.4116978383
 31
0.0
  0
LINE
  5
12E
330
1F
100
AcDbEntity
  8
0
  6
Continuous
 62
     7
370
    15
100
AcDbLine
 10
81.4453482265
 20
49.7116978353
 30
0.0
 11
81.4453482253
 21
56.4116978383
 31
0.0
  0
SPLINE
  5
12F
330
1F
100
AcDbEntity
  8
0
  6
Continuous
 62
     7
370
    15
100
AcDbSpline
210
0.0
220
0.0
230
1.0
 70
     8
 71
     3
 72
    16
 73
    12
 74
     0
 42
0.000000001
 43
0.00000001
 40
0.0
 40
0.0
 40
0.0
 40
0.0
 40
0.2499999999999999
 40
0.2499999999999999
 40
0.4999999999999998
 40
0.4999999999999998
 40
0.7499999999999997
 40
0.7499999999999997
 40
0.8749999999999998
 40
0.8749999999999998
 40
1.0
 40
1.0
 40
1.0
 40
1.0
 10
86.22160866286599
 20
46.41169783832312
 30
0.0
 10
86.11975458486599
 20
46.41169782632312
 30
0.0
 10
86.01738937886599
 20
46.37758651682312
 30
0.0
 10
85.81259037086599
 20
46.24156660682312
 30
0.0
 10
85.71396015286598
 20
46.14149733132312
 30
0.0
 10
85.53613544086599
 20
45.87744921665646
 30
0.0
 10
85.457954123366
 20
45.71345135532312
 30
0.0
 10
85.37488011236601
 20
45.43246091532312
 30
0.0
 10
85.35258380826602
 20
45.33143283692312
 30
0.0
 10
85.32285081786597
 20
45.12516064332311
 30
0.0
 10
85.315105645866
 20
45.01967721332312
 30
0.0
 10
85.315105638866
 20
44.91169783832311
 30
0.0
  0
LINE
  5
130
330
1F
100
AcDbEntity
  8
0
  6
Continuous
 62
     7
370
    15
100
AcDbLine
 10
85.3151056414
 20
44.9116978443
 30
0.0
 11
85.3151056414
 21
42.9116978423
 31
0.0
  0
SPLINE
  5
131
330
1F
100
AcDbEntity
  8
0
  6
Continuous
 62
     7
370
    15
100
AcDbSpline
210
0.0
220
0.0
230
1.0
 70
     8
 71
     3
 72
     8
 73
     4
 74
     0
 42
0.000000001
 43
0.00000001
 40
0.0
 40
0.0
 40
0.0
 40
0.0
 40
1.0
 40
1.0
 40
1.0
 40
1.0
 10
85.315105638866
 20
42.91169783832311
 30
0.0
 10
85.315105640866
 20
42.73832863632312
 30
0.0
 10
85.335101133866
 20
42.57046436432312
 30
0.0
 10
85.372299541866
 20
42.41169783832311
 30
0.0
  0
LINE
  5
132
330
1F
100
AcDbEntity
  8
0
  6
Continuous
 62
     7
370
    15
100
AcDbLine
 10
60.5963400618
 20
42.4116978383
 30
0.0
 11
60.5963400655
 21
56.4116978383
 31
0.0
  0
LINE
  5
133
330
1F
100
AcDbEntity
  8
0
  6
Continuous
 62
     7
370
    15
100
AcDbLine
 10
60.5963400655
 20
56.4116978383
 30
0.0
 11
63.3926180254
 21
56.4116978383
 31
0.0
  0
LINE
  5
134
330
1F
100
AcDbEntity
  8
0
  6
Continuous
 62
     7
370
    15
100
AcDbLine
 10
63.3926180254
 20
56.4116978383
 30
0.0
 11
63.3926180254
 21
49.7116978323
 31
0.0
  0
LINE
  5
135
330
1F
100
AcDbEntity
  8
0
  6
Continuous
 62
     7
370
    15
100
AcDbLine
 10
63.3926180254
 20
49.7116978323
 30
0.0
 11
77.3923493365
 21
49.7116978353
 31
0.0
  0
LINE
  5
136
330
1F
100
AcDbEntity
  8
0
  6
Continuous
 62
     7
370
    15
100
AcDbLine
 10
76.1826781806
 20
49.7116978369
 30
0.0
 11
77.1170857706
 21
56.4116978383
 31
0.0
  0
LINE
  5
137
330
1F
100
AcDbEntity
  8
0
  6
Continuous
 62
     7
370
    15
100
AcDbLine
 10
77.3923493352
 20
56.4116978383
 30
0.0
 11
77.1170857706
 21
56.4116978383
 31
0.0
  0
LINE
  5
138
330
1F
100
AcDbEntity
  8
0
  6
Continuous
 62
     7
370
    15
100
AcDbLine
 10
63.6760822061
 20
56.4116978383
 30
0.0
 11
64.6383275481
 21
49.7116978369
 31
0.0
  0
LINE
  5
139
330
1F
100
AcDbEntity
  8
0
  6
Continuous
 62
     7
370
    15
100
AcDbLine
 10
63.3926180254
 20
56.4116978383
 30
0.0
 11
63.6760822061
 21
56.4116978383
 31
0.0
  0
LINE
  5
13A
330
1F
100
AcDbEntity
  8
0
  6
Continuous
 62
     7
370
    15
100
AcDbLine
 10
85.2122862572
 20
49.7116978369
 30
0.0
 11
87.6301928486
 21
56.4116978383
 31
0.0
  0
LINE
  5
13B
330
1F
100
AcDbEntity
  8
0
  6
Continuous
 62
     7
370
    15
100
AcDbLine
 10
63.8733599051
 20
56.4116978383
 30
0.0
 11
63.6760822061
 21
56.4116978383
 31
0.0
  0
LINE
  5
13C
330
1F
100
AcDbEntity
  8
0
  6
Continuous
 62
     7
370
    15
100
AcDbLine
 10
64.8077674951
 20
49.7116978369
 30
0.0
 11
63.8733599051
 21
56.4116978383
 31
0.0
  0
LINE
  5
13D
330
1F
100
AcDbEntity
  8
0
  6
Continuous
 62
     7
370
    15
100
AcDbLine
 10
60.5963400655
 20
56.4116978383
 30
0.0
 11
60.3713090349
 21
56.4116978383
 31
0.0
  0
LINE
  5
13E
330
1F
100
AcDbEntity
  8
0
  6
Continuous
 62
     7
370
    15
100
AcDbLine
 10
85.7267690498
 20
44.9116978383
 30
0.0
 11
85.3151056416
 21
44.9116978383
 31
0.0
  0
LINE
  5
13F
330
1F
100
AcDbEntity
  8
0
  6
Continuous
 62
     7
370
    15
100
AcDbLine
 10
85.7267690498
 20
42.9116978383
 30
0.0
 11
85.7267690498
 21
44.9116978383
 31
0.0
  0
LWPOLYLINE
  5
140
330
1F
100
AcDbEntity
  8
0
  6
Continuous
 62
     7
370
    15
100
AcDbPolyline
 90
        9
 70
   128
 43
0.0
 10
85.315105639
 20
42.9116975642
 10
85.3523385005
 20
42.9116975776
 10
85.3950382195
 20
42.9116975908
 10
85.4425813608
 20
42.9116976036
 10
85.4942737725
 20
42.9116976158
 10
85.5493607218
 20
42.9116976273
 10
85.607037914
 20
42.9116976378
 10
85.6664632357
 20
42.9116976473
 10
85.7267690499
 20
42.9116976556
  0
SPLINE
  5
141
330
1F
100
AcDbEntity
  8
0
  6
Continuous
 62
     7
370
    15
100
AcDbSpline
210
0.0
220
0.0
230
1.0
 70
     8
 71
     3
 72
     8
 73
     4
 74
     0
 42
0.000000001
 43
0.00000001
 40
0.0
 40
0.0
 40
0.0
 40
0.0
 40
1.0
 40
1.0
 40
1.0
 40
1.0
 10
85.78555167286599
 20
42.57836450532312
 30
0.0
 10
85.747321266866
 20
42.68420526932312
 30
0.0
 10
85.726769051866
 20
42.79611837032311
 30
0.0
 10
85.726769049866
 20
42.91169783832311
 30
0.0
  0
ARC
  5
142
330
1F
100
AcDbEntity
  8
0
  6
Continuous
 62
     7
370
    15
100
AcDbCircle
 10
85.986890011
 20
41.4834782198
 30
0.0
 40
1.113244404759224
100
AcDbArc
 50
100.4196970302
 51
123.5092404811
  0
ARC
  5
143
330
1F
100
AcDbEntity
  8
0
  6
Continuous
 62
     7
370
    15
100
AcDbCircle
 10
86.6923133192
 20
46.3821142134
 30
0.0
 40
0.4716334473946301
100
AcDbArc
 50
176.4037106572
 51
265.8829416353
  0
SPLINE
  5
144
330
1F
100
AcDbEntity
  8
0
  6
Continuous
 62
     7
370
    15
100
AcDbSpline
210
0.0
220
0.0
230
1.0
 70
     8
 71
     3
 72
    17
 73
    13
 74
     0
 42
0.000000001
 43
0.00000001
 40
0.0
 40
0.0
 40
0.0
 40
0.0
 40
0.0567058915239596
 40
0.1306999195226086
 40
0.2613745174764656
 40
0.4045735335615177
 40
0.51998903642566
 40
0.6521790506524845
 40
0.7670581946938794
 40
0.8483409741811877
 40
0.9255367861547042
 40
1.0
 40
1.0
 40
1.0
 40
1.0
 10
86.65845271286598
 20
45.91169783832312
 30
0.0
 10
86.6358092454638
 20
45.9110531323689
 30
0.0
 10
86.58361891236714
 20
45.90956716655359
 30
0.0
 10
86.47831410578073
 20
45.89251361543983
 30
0.0
 10
86.3376598115142
 20
45.84764993818113
 30
0.0
 10
86.18395928596145
 20
45.76217874558361
 30
0.0
 10
86.03706583160992
 20
45.64318933148337
 30
0.0
 10
85.9139543622691
 20
45.50082725856902
 30
0.0
 10
85.82098436094057
 20
45.34218253380654
 30
0.0
 10
85.76468394161255
 20
45.19127676414212
 30
0.0
 10
85.7328017488212
 20
45.05223998720135
 30
0.0
 10
85.72875564858813
 20
44.95797908912685
 30
0.0
 10
85.726769049866
 20
44.91169783832311
 30
0.0
  0
SPLINE
  5
145
330
1F
100
AcDbEntity
  8
0
  6
Continuous
 62
     7
370
    15
100
AcDbSpline
210
0.0
220
0.0
230
1.0
 70
     8
 71
     3
 72
    12
 73
     8
 74
     0
 42
0.000000001
 43
0.00000001
 40
0.0
 40
0.0
 40
0.0
 40
0.0
 40
0.25
 40
0.25
 40
0.5
 40
0.5
 40
1.0
 40
1.0
 40
1.0
 40
1.0
 10
85.78555167286599
 20
42.57836450532312
 30
0.0
 10
85.82080934002718
 20
42.48074438230901
 30
0.0
 10
85.83298737390801
 20
42.38749236204693
 30
0.0
 10
85.82452074151699
 20
42.22028586054655
 30
0.0
 10
85.80368704790494
 20
42.1473962314384
 30
0.0
 10
85.71080176415022
 20
41.97200082572796
 30
0.0
 10
85.60859979758244
 20
41.91169783832249
 30
0.0
 10
85.503553857866
 20
41.91169783832312
 30
0.0
  0
LINE
  5
146
330
1F
100
AcDbEntity
  8
0
  6
Continuous
 62
     7
370
    15
100
AcDbLine
 10
85.7267690405
 20
42.9116978383
 30
0.0
 11
180.1708469818
 21
42.9116978383
 31
0.0
  0
LINE
  5
147
330
1F
100
AcDbEntity
  8
0
  6
Continuous
 62
     7
370
    15
100
AcDbLine
 10
180.1708469818
 20
42.9116978383
 30
0.0
 11
180.1708469839
 21
41.9116978383
 31
0.0
  0
LINE
  5
148
330
1F
100
AcDbEntity
  8
0
  6
Continuous
 62
     7
370
    15
100
AcDbLine
 10
85.5035538811
 20
41.9116978383
 30
0.0
 11
180.1708470172
 21
41.9116978383
 31
0.0
  0
LINE
  5
149
330
1F
100
AcDbEntity
  8
0
  6
Continuous
 62
     7
370
    15
100
AcDbLine
 10
180.1708469839
 20
44.9116978383
 30
0.0
 11
85.7267690498
 21
44.9116978383
 31
0.0
  0
LINE
  5
14A
330
1F
100
AcDbEntity
  8
0
  6
Continuous
 62
     7
370
    15
100
AcDbLine
 10
180.1708469818
 20
42.9116978383
 30
0.0
 11
180.1708469798
 21
44.9116978383
 31
0.0
  0
LINE
  5
14B
330
1F
100
AcDbEntity
  8
0
  6
Continuous
 62
     7
370
    15
100
AcDbLine
 10
86.6584526828
 20
45.9116978383
 30
0.0
 11
180.1708469839
 21
45.9116978383
 31
0.0
  0
LINE
  5
14C
330
1F
100
AcDbEntity
  8
0
  6
Continuous
 62
     7
370
    15
100
AcDbLine
 10
180.1708469839
 20
45.9116978383
 30
0.0
 11
180.1708469839
 21
44.9116978385
 31
0.0
  0
SPLINE
  5
14D
330
1F
100
AcDbEntity
  8
0
  6
Continuous
 62
     7
370
    15
100
AcDbSpline
210
0.0
220
0.0
230
1.0
 70
    24
 71
     3
 72
    22
 73
    18
 74
     0
 42
0.000000001
 43
0.00000001
 40
0.0
 40
0.0
 40
0.0
 40
0.0
 40
0.125
 40
0.125
 40
0.25
 40
0.25
 40
0.375
 40
0.375
 40
0.5
 40
0.5
 40
0.625
 40
0.625
 40
0.75
 40
0.75
 40
0.875
 40
0.875
 40
1.0
 40
1.0
 40
1.0
 40
1.0
 10
180.170846983866
 20
41.91169783852817
 30
0.0
 10
180.5458469838734
 20
41.91169783852817
 30
0.0
 10
180.9445175923865
 20
41.91169783852817
 30
0.0
 10
181.7865569063673
 20
41.91169783852817
 30
0.0
 10
182.230046983908
 20
41.91169783852817
 30
0.0
 10
183.1516469839271
 20
41.91169783852817
 30
0.0
 10
183.629879934322
 20
41.91169783852817
 30
0.0
 10
184.5994544830099
 20
41.91169783852817
 30
0.0
 10
185.0908469839665
 20
41.91169783852817
 30
0.0
 10
186.0508469839845
 20
41.91169783852817
 30
0.0
 10
186.5193176163816
 20
41.91169783852817
 30
0.0
 10
187.3840201872337
 20
41.91169783852817
 30
0.0
 10
187.7798435238035
 20
41.91169783852817
 30
0.0
 10
188.4442033854003
 20
41.91169783852817
 30
0.0
 10
188.7121487591642
 20
41.91169783852817
 30
0.0
 10
189.0756990550166
 20
41.91169783852817
 30
0.0
 10
189.170846984005
 20
41.91169783852817
 30
0.0
 10
189.170846983997
 20
41.91169783852817
 30
0.0
  0
SPLINE
  5
14E
330
1F
100
AcDbEntity
  8
0
  6
Continuous
 62
     7
370
    15
100
AcDbSpline
210
0.0
220
0.0
230
1.0
 70
    24
 71
     3
 72
    22
 73
    18
 74
     0
 42
0.000000001
 43
0.00000001
 40
0.0
 40
0.0
 40
0.0
 40
0.0
 40
0.1249999999999999
 40
0.1249999999999999
 40
0.2499999999999999
 40
0.2499999999999999
 40
0.3749999999999998
 40
0.3749999999999998
 40
0.4999999999999998
 40
0.4999999999999998
 40
0.6249999999999998
 40
0.6249999999999998
 40
0.7499999999999999
 40
0.7499999999999999
 40
0.8749999999999999
 40
0.8749999999999999
 40
1.0
 40
1.0
 40
1.0
 40
1.0
 10
189.170846983997
 20
45.91169783811807
 30
0.0
 10
189.170846983989
 20
45.91169783811807
 30
0.0
 10
189.0756990549865
 20
45.91169783811807
 30
0.0
 10
188.7121487591123
 20
45.91169783811806
 30
0.0
 10
188.4442033853407
 20
45.91169783811807
 30
0.0
 10
187.7798435237348
 20
45.91169783811807
 30
0.0
 10
187.3840201871635
 20
45.91169783811807
 30
0.0
 10
186.5193176163128
 20
45.91169783811807
 30
0.0
 10
186.0508469839186
 20
45.91169783811807
 30
0.0
 10
185.0908469839088
 20
45.91169783811807
 30
0.0
 10
184.5994544829574
 20
45.91169783811807
 30
0.0
 10
183.6298799342808
 20
45.91169783811807
 30
0.0
 10
183.1516469838917
 20
45.91169783811807
 30
0.0
 10
182.2300469838839
 20
45.91169783811807
 30
0.0
 10
181.7865569063488
 20
45.91169783811807
 30
0.0
 10
180.944517592378
 20
45.91169783811807
 30
0.0
 10
180.5458469838694
 20
45.91169783811807
 30
0.0
 10
180.170846983866
 20
45.91169783811807
 30
0.0
  0
LINE
  5
14F
330
1F
100
AcDbEntity
  8
0
  6
Continuous
 62
     7
370
    15
100
AcDbLine
 10
88.3424747277
 20
56.4116978383
 30
0.0
 11
87.6301928486
 21
56.4116978383
 31
0.0
  0
LINE
  5
150
330
1F
100
AcDbEntity
  8
0
  6
Continuous
 62
     7
370
    15
100
AcDbLine
 10
81.4453482253
 20
56.4116978383
 30
0.0
 11
81.2674937849
 21
56.4116978383
 31
0.0
  0
LINE
  5
151
330
1F
100
AcDbEntity
  8
0
  6
Continuous
 62
     8
370
    15
100
AcDbLine
 10
88.4952228379
 20
46.4116978423
 30
0.0
 11
86.2216086603
 21
46.4116978423
 31
0.0
  0
LINE
  5
152
330
1F
100
AcDbEntity
  8
0
  6
Continuous
 62
     8
370
    15
100
AcDbLine
 10
60.5963400689
 20
42.4116978383
 30
0.0
 11
60.3713090347
 21
42.4116978383
 31
0.0
  0
LINE
  5
153
330
1F
100
AcDbEntity
  8
0
  6
Continuous
 62
     8
370
    15
100
AcDbLine
 10
180.1708469818
 20
42.9116978383
 30
0.0
 11
190.1708469837
 21
42.9116978382
 31
0.0
  0
LINE
  5
154
330
1F
100
AcDbEntity
  8
0
  6
Continuous
 62
     8
370
    15
100
AcDbLine
 10
180.1708469798
 20
44.9116978383
 30
0.0
 11
190.1708469731
 21
44.9116978383
 31
0.0
  0
ENDSEC
  0
SECTION
  2
OBJECTS
  0
DICTIONARY
  5
C
330
0
100
AcDbDictionary
281
     1
  3
ACAD_GROUP
350
D
  3
ACAD_LAYOUT
350
1A
  3
ACAD_MLINESTYLE
350
17
  3
ACAD_PLOTSETTINGS
350
19
  3
ACAD_PLOTSTYLENAME
350
E
  3
ACAD_SCALELIST
350
47
  0
DICTIONARY
  5
D
102
{ACAD_REACTORS
330
C
102
}
330
C
100
AcDbDictionary
281
     1
  0
DICTIONARY
  5
1A
102
{ACAD_REACTORS
330
C
102
}
330
C
100
AcDbDictionary
281
     1
  3
Layout1
350
1E
  3
Layout2
350
26
  3
Model
350
22
  0
DICTIONARY
  5
17
102
{ACAD_REACTORS
330
C
102
}
330
C
100
AcDbDictionary
281
     1
  3
Standard
350
18
  0
DICTIONARY
  5
19
102
{ACAD_REACTORS
330
C
102
}
330
C
100
AcDbDictionary
281
     1
  0
ACDBDICTIONARYWDFLT
  5
E
102
{ACAD_REACTORS
330
C
102
}
330
C
100
AcDbDictionary
281
     1
  3
Normal
350
F
100
AcDbDictionaryWithDefault
340
F
  0
DICTIONARY
  5
47
102
{ACAD_REACTORS
330
C
102
}
330
C
100
AcDbDictionary
281
     1
  3
A0
350
48
  3
A1
350
49
  3
A2
350
4A
  3
A3
350
4B
  3
A4
350
4C
  3
A5
350
4D
  3
A6
350
4E
  3
A7
350
4F
  3
A8
350
50
  3
A9
350
51
  3
B0
350
52
  3
B1
350
53
  3
B2
350
54
  3
B3
350
55
  3
B4
350
56
  3
B5
350
57
  3
B6
350
58
  3
B7
350
59
  3
B8
350
5A
  3
B9
350
5B
  3
C0
350
5C
  3
C1
350
5D
  3
C2
350
5E
  3
C3
350
5F
  3
C4
350
60
  3
C5
350
61
  3
C6
350
62
  3
C7
350
63
  3
C8
350
64
  3
C9
350
65
  3
D0
350
66
  3
D1
350
67
  3
D2
350
68
  0
LAYOUT
  5
1E
102
{ACAD_REACTORS
330
1A
102
}
330
1A
100
AcDbPlotSettings
  1

  2
none_device
  4

  6

 40
0.0
 41
0.0
 42
0.0
 43
0.0
 44
0.0
 45
0.0
 46
0.0
 47
0.0
 48
0.0
 49
0.0
140
0.0
141
0.0
142
1.0
143
1.0
 70
   688
 72
     1
 73
     0
 74
     5
  7

 75
    16
147
1.0
148
0.0
149
0.0
100
AcDbLayout
  1
Layout1
 70
     1
 71
     1
 10
0.0
 20
0.0
 11
420.0
 21
297.0
 12
0.0
 22
0.0
 32
0.0
 14
1.0000000000E+20
 24
1.0000000000E+20
 34
1.0000000000E+20
 15
-1.0000000000E+20
 25
-1.0000000000E+20
 35
-1.0000000000E+20
146
0.0
 13
0.0
 23
0.0
 33
0.0
 16
1.0
 26
0.0
 36
0.0
 17
0.0
 27
1.0
 37
0.0
 76
     0
330
1B
  0
LAYOUT
  5
26
102
{ACAD_REACTORS
330
1A
102
}
330
1A
100
AcDbPlotSettings
  1

  2
none_device
  4

  6

 40
0.0
 41
0.0
 42
0.0
 43
0.0
 44
0.0
 45
0.0
 46
0.0
 47
0.0
 48
0.0
 49
0.0
140
0.0
141
0.0
142
1.0
143
1.0
 70
   688
 72
     1
 73
     0
 74
     5
  7

 75
    16
147
1.0
148
0.0
149
0.0
100
AcDbLayout
  1
Layout2
 70
     1
 71
     2
 10
0.0
 20
0.0
 11
0.0
 21
0.0
 12
0.0
 22
0.0
 32
0.0
 14
0.0
 24
0.0
 34
0.0
 15
0.0
 25
0.0
 35
0.0
146
0.0
 13
0.0
 23
0.0
 33
0.0
 16
1.0
 26
0.0
 36
0.0
 17
0.0
 27
1.0
 37
0.0
 76
     0
330
23
  0
LAYOUT
  5
22
102
{ACAD_REACTORS
330
1A
102
}
330
1A
100
AcDbPlotSettings
  1

  2
none_device
  4
Letter_(8.50_x_11.00_Inches)
  6

 40
6.35
 41
6.35
 42
6.35000508
 43
6.35000508
 44
215.9
 45
279.4
 46
0.0
 47
0.0
 48
0.0
 49
0.0
140
0.0
141
0.0
142
1.0
143
1.0
 70
  1712
 72
     1
 73
     0
 74
     0
  7

 75
     0
147
1.0
148
0.0
149
0.0
100
AcDbLayout
  1
Model
 70
     1
 71
     0
 10
0.0
 20
0.0
 11
237.6
 21
168.0
 12
0.0
 22
0.0
 32
0.0
 14
0.0
 24
0.0
 34
0.0
 15
237.6
 25
168.0
 35
0.0
146
0.0
 13
0.0
 23
0.0
 33
0.0
 16
1.0
 26
0.0
 36
0.0
 17
0.0
 27
1.0
 37
0.0
 76
     0
330
1F
331
29
  0
MLINESTYLE
  5
18
102
{ACAD_REACTORS
330
17
102
}
330
17
100
AcDbMlineStyle
  2
Standard
 70
     0
  3

 62
   256
 51
90.0
 52
90.0
 71
     2
 49
0.5
 62
   256
  6
BYLAYER
 49
-0.5
 62
   256
  6
BYLAYER
  0
ACDBPLACEHOLDER
  5
F
102
{ACAD_REACTORS
330
E
102
}
330
E
  0
SCALE
  5
48
102
{ACAD_REACTORS
330
47
102
}
330
47
100
AcDbScale
 70
     0
300
1:1
140
1.0
141
1.0
290
     1
  0
SCALE
  5
49
102
{ACAD_REACTORS
330
47
102
}
330
47
100
AcDbScale
 70
     0
300
1:2
140
1.0
141
2.0
290
     0
  0
SCALE
  5
4A
102
{ACAD_REACTORS
330
47
102
}
330
47
100
AcDbScale
 70
     0
300
1:4
140
1.0
141
4.0
290
     0
  0
SCALE
  5
4B
102
{ACAD_REACTORS
330
47
102
}
330
47
100
AcDbScale
 70
     0
300
1:5
140
1.0
141
5.0
290
     0
  0
SCALE
  5
4C
102
{ACAD_REACTORS
330
47
102
}
330
47
100
AcDbScale
 70
     0
300
1:8
140
1.0
141
8.0
290
     0
  0
SCALE
  5
4D
102
{ACAD_REACTORS
330
47
102
}
330
47
100
AcDbScale
 70
     0
300
1:10
140
1.0
141
10.0
290
     0
  0
SCALE
  5
4E
102
{ACAD_REACTORS
330
47
102
}
330
47
100
AcDbScale
 70
     0
300
1:16
140
1.0
141
16.0
290
     0
  0
SCALE
  5
4F
102
{ACAD_REACTORS
330
47
102
}
330
47
100
AcDbScale
 70
     0
300
1:20
140
1.0
141
20.0
290
     0
  0
SCALE
  5
50
102
{ACAD_REACTORS
330
47
102
}
330
47
100
AcDbScale
 70
     0
300
1:30
140
1.0
141
30.0
290
     0
  0
SCALE
  5
51
102
{ACAD_REACTORS
330
47
102
}
330
47
100
AcDbScale
 70
     0
300
1:40
140
1.0
141
40.0
290
     0
  0
SCALE
  5
52
102
{ACAD_REACTORS
330
47
102
}
330
47
100
AcDbScale
 70
     0
300
1:50
140
1.0
141
50.0
290
     0
  0
SCALE
  5
53
102
{ACAD_REACTORS
330
47
102
}
330
47
100
AcDbScale
 70
     0
300
1:100
140
1.0
141
100.0
290
     0
  0
SCALE
  5
54
102
{ACAD_REACTORS
330
47
102
}
330
47
100
AcDbScale
 70
     0
300
2:1
140
2.0
141
1.0
290
     0
  0
SCALE
  5
55
102
{ACAD_REACTORS
330
47
102
}
330
47
100
AcDbScale
 70
     0
300
4:1
140
4.0
141
1.0
290
     0
  0
SCALE
  5
56
102
{ACAD_REACTORS
330
47
102
}
330
47
100
AcDbScale
 70
     0
300
8:1
140
8.0
141
1.0
290
     0
  0
SCALE
  5
57
102
{ACAD_REACTORS
330
47
102
}
330
47
100
AcDbScale
 70
     0
300
10:1
140
10.0
141
1.0
290
     0
  0
SCALE
  5
58
102
{ACAD_REACTORS
330
47
102
}
330
47
100
AcDbScale
 70
     0
300
100:1
140
100.0
141
1.0
290
     0
  0
SCALE
  5
59
102
{ACAD_REACTORS
330
47
102
}
330
47
100
AcDbScale
 70
     0
300
1/128" = 1'-0"
140
0.0078125
141
12.0
290
     0
  0
SCALE
  5
5A
102
{ACAD_REACTORS
330
47
102
}
330
47
100
AcDbScale
 70
     0
300
1/64" = 1'-0"
140
0.015625
141
12.0
290
     0
  0
SCALE
  5
5B
102
{ACAD_REACTORS
330
47
102
}
330
47
100
AcDbScale
 70
     0
300
1/32" = 1'-0"
140
0.03125
141
12.0
290
     0
  0
SCALE
  5
5C
102
{ACAD_REACTORS
330
47
102
}
330
47
100
AcDbScale
 70
     0
300
1/16" = 1'-0"
140
0.0625
141
12.0
290
     0
  0
SCALE
  5
5D
102
{ACAD_REACTORS
330
47
102
}
330
47
100
AcDbScale
 70
     0
300
3/32" = 1'-0"
140
0.09375
141
12.0
290
     0
  0
SCALE
  5
5E
102
{ACAD_REACTORS
330
47
102
}
330
47
100
AcDbScale
 70
     0
300
1/8" = 1'-0"
140
0.125
141
12.0
290
     0
  0
SCALE
  5
5F
102
{ACAD_REACTORS
330
47
102
}
330
47
100
AcDbScale
 70
     0
300
3/16" = 1'-0"
140
0.1875
141
12.0
290
     0
  0
SCALE
  5
60
102
{ACAD_REACTORS
330
47
102
}
330
47
100
AcDbScale
 70
     0
300
1/4" = 1'-0"
140
0.25
141
12.0
290
     0
  0
SCALE
  5
61
102
{ACAD_REACTORS
330
47
102
}
330
47
100
AcDbScale
 70
     0
300
3/8" = 1'-0"
140
0.375
141
12.0
290
     0
  0
SCALE
  5
62
102
{ACAD_REACTORS
330
47
102
}
330
47
100
AcDbScale
 70
     0
300
1/2" = 1'-0"
140
0.5
141
12.0
290
     0
  0
SCALE
  5
63
102
{ACAD_REACTORS
330
47
102
}
330
47
100
AcDbScale
 70
     0
300
3/4" = 1'-0"
140
0.75
141
12.0
290
     0
  0
SCALE
  5
64
102
{ACAD_REACTORS
330
47
102
}
330
47
100
AcDbScale
 70
     0
300
1" = 1'-0"
140
1.0
141
12.0
290
     0
  0
SCALE
  5
65
102
{ACAD_REACTORS
330
47
102
}
330
47
100
AcDbScale
 70
     0
300
1-1/2" = 1'-0"
140
1.5
141
12.0
290
     0
  0
SCALE
  5
66
102
{ACAD_REACTORS
330
47
102
}
330
47
100
AcDbScale
 70
     0
300
3" = 1'-0"
140
3.0
141
12.0
290
     0
  0
SCALE
  5
67
102
{ACAD_REACTORS
330
47
102
}
330
47
100
AcDbScale
 70
     0
300
6" = 1'-0"
140
6.0
141
12.0
290
     0
  0
SCALE
  5
68
102
{ACAD_REACTORS
330
47
102
}
330
47
100
AcDbScale
 70
     0
300
1'-0" = 1'-0"
140
12.0
141
12.0
290
     0
  0
ENDSEC
  0
EOF
