  0
SECTION
  2
HEADER
  9
$ACADVER
  1
AC1015
  9
$ACADMAINTVER
 70
     6
  9
$DWGCODEPAGE
  3
ANSI_1252
  9
$INSBASE
 10
0.0
 20
0.0
 30
0.0
  9
$EXTMIN
 10
0.0
 20
0.0
 30
0.0
  9
$EXTMAX
 10
356.4
 20
252.0
 30
0.0
  9
$LIMMIN
 10
0.0
 20
0.0
  9
$LIMMAX
 10
356.4
 20
252.0
  9
$ORTHOMODE
 70
     0
  9
$REGENMODE
 70
     1
  9
$FILLMODE
 70
     1
  9
$QTEXTMODE
 70
     0
  9
$MIRRTEXT
 70
     1
  9
$LTSCALE
 40
1.2
  9
$ATTMODE
 70
     1
  9
$TEXTSIZE
 40
4.2333333333
  9
$TRACEWID
 40
1.0
  9
$TEXTSTYLE
  7
Standard
  9
$CLAYER
  8
0
  9
$CELTYPE
  6
ByLayer
  9
$CECOLOR
 62
   256
  9
$CELTSCALE
 40
1.0
  9
$DISPSILH
 70
     0
  9
$DIMSCALE
 40
1.0
  9
$DIMASZ
 40
3.9624
  9
$DIMEXO
 40
1.2
  9
$DIMDLI
 40
3.75
  9
$DIMRND
 40
0.0
  9
$DIMDLE
 40
0.0
  9
$DIMEXE
 40
1.2
  9
$DIMTP
 40
0.0
  9
$DIMTM
 40
0.0
  9
$DIMTXT
 40
4.2333333333
  9
$DIMCEN
 40
2.5
  9
$DIMTSZ
 40
0.0
  9
$DIMTOL
 70
     0
  9
$DIMLIM
 70
     0
  9
$DIMTIH
 70
     1
  9
$DIMTOH
 70
     1
  9
$DIMSE1
 70
     0
  9
$DIMSE2
 70
     0
  9
$DIMTAD
 70
     1
  9
$DIMZIN
 70
     0
  9
$DIMBLK
  1

  9
$DIMASO
 70
     1
  9
$DIMSHO
 70
     1
  9
$DIMPOST
  1

  9
$DIMAPOST
  1

  9
$DIMALT
 70
     0
  9
$DIMALTD
 70
     3
  9
$DIMALTF
 40
0.0393700787
  9
$DIMLFAC
 40
1.0
  9
$DIMTOFL
 70
     1
  9
$DIMTVP
 40
0.0
  9
$DIMTIX
 70
     0
  9
$DIMSOXD
 70
     0
  9
$DIMSAH
 70
     0
  9
$DIMBLK1
  1

  9
$DIMBLK2
  1

  9
$DIMSTYLE
  2
ISO-25
  9
$DIMCLRD
 70
     0
  9
$DIMCLRE
 70
     0
  9
$DIMCLRT
 70
     0
  9
$DIMTFAC
 40
1.0
  9
$DIMGAP
 40
1.8288
  9
$DIMJUST
 70
     0
  9
$DIMSD1
 70
     0
  9
$DIMSD2
 70
     0
  9
$DIMTOLJ
 70
     0
  9
$DIMTZIN
 70
     0
  9
$DIMALTZ
 70
     0
  9
$DIMALTTZ
 70
     0
  9
$DIMUPT
 70
     0
  9
$DIMDEC
 70
     2
  9
$DIMTDEC
 70
     2
  9
$DIMALTU
 70
     2
  9
$DIMALTTD
 70
     3
  9
$DIMTXSTY
  7
Standard
  9
$DIMAUNIT
 70
     0
  9
$DIMADEC
 70
     2
  9
$DIMALTRND
 40
0.0
  9
$DIMAZIN
 70
     0
  9
$DIMDSEP
 70
    44
  9
$DIMATFIT
 70
     3
  9
$DIMFRAC
 70
     0
  9
$DIMLDRBLK
  1

  9
$DIMLUNIT
 70
     2
  9
$DIMLWD
 70
    -2
  9
$DIMLWE
 70
    -2
  9
$DIMTMOVE
 70
     0
  9
$LUNITS
 70
     2
  9
$LUPREC
 70
     2
  9
$SKETCHINC
 40
1.0
  9
$FILLETRAD
 40
10.0
  9
$AUNITS
 70
     1
  9
$AUPREC
 70
     2
  9
$MENU
  1
.
  9
$ELEVATION
 40
0.0
  9
$PELEVATION
 40
0.0
  9
$THICKNESS
 40
0.0
  9
$LIMCHECK
 70
     0
  9
$CHAMFERA
 40
0.0
  9
$CHAMFERB
 40
0.0
  9
$CHAMFERC
 40
0.0
  9
$CHAMFERD
 40
0.0
  9
$SKPOLY
 70
     0
  9
$TDCREATE
 40
2458596.495558947
  9
$TDUCREATE
 40
2458596.26639228
  9
$TDUPDATE
 40
2458596.495559664
  9
$TDUUPDATE
 40
2458596.266392997
  9
$TDINDWG
 40
0.0000000116
  9
$TDUSRTIMER
 40
0.0000000116
  9
$USRTIMER
 70
     1
  9
$ANGBASE
 50
0.0
  9
$ANGDIR
 70
     0
  9
$PDMODE
 70
     0
  9
$PDSIZE
 40
-1.0
  9
$PLINEWID
 40
0.0
  9
$SPLFRAME
 70
     0
  9
$SPLINETYPE
 70
     6
  9
$SPLINESEGS
 70
     8
  9
$HANDSEED
  5
120
  9
$SURFTAB1
 70
     6
  9
$SURFTAB2
 70
     6
  9
$SURFTYPE
 70
     6
  9
$SURFU
 70
     6
  9
$SURFV
 70
     6
  9
$UCSBASE
  2

  9
$UCSNAME
  2

  9
$UCSORG
 10
0.0
 20
0.0
 30
0.0
  9
$UCSXDIR
 10
1.0
 20
0.0
 30
0.0
  9
$UCSYDIR
 10
0.0
 20
1.0
 30
0.0
  9
$UCSORTHOREF
  2

  9
$UCSORTHOVIEW
 70
     0
  9
$UCSORGTOP
 10
0.0
 20
0.0
 30
0.0
  9
$UCSORGBOTTOM
 10
0.0
 20
0.0
 30
0.0
  9
$UCSORGLEFT
 10
0.0
 20
0.0
 30
0.0
  9
$UCSORGRIGHT
 10
0.0
 20
0.0
 30
0.0
  9
$UCSORGFRONT
 10
0.0
 20
0.0
 30
0.0
  9
$UCSORGBACK
 10
0.0
 20
0.0
 30
0.0
  9
$PUCSBASE
  2

  9
$PUCSNAME
  2

  9
$PUCSORG
 10
0.0
 20
0.0
 30
0.0
  9
$PUCSXDIR
 10
1.0
 20
0.0
 30
0.0
  9
$PUCSYDIR
 10
0.0
 20
1.0
 30
0.0
  9
$PUCSORTHOREF
  2

  9
$PUCSORTHOVIEW
 70
     0
  9
$PUCSORGTOP
 10
0.0
 20
0.0
 30
0.0
  9
$PUCSORGBOTTOM
 10
0.0
 20
0.0
 30
0.0
  9
$PUCSORGLEFT
 10
0.0
 20
0.0
 30
0.0
  9
$PUCSORGRIGHT
 10
0.0
 20
0.0
 30
0.0
  9
$PUCSORGFRONT
 10
0.0
 20
0.0
 30
0.0
  9
$PUCSORGBACK
 10
0.0
 20
0.0
 30
0.0
  9
$USERI1
 70
     0
  9
$USERI2
 70
     0
  9
$USERI3
 70
     0
  9
$USERI4
 70
     0
  9
$USERI5
 70
     0
  9
$USERR1
 40
0.0
  9
$USERR2
 40
0.0
  9
$USERR3
 40
0.0
  9
$USERR4
 40
0.0
  9
$USERR5
 40
0.0
  9
$WORLDVIEW
 70
     1
  9
$SHADEDGE
 70
     3
  9
$SHADEDIF
 70
    70
  9
$TILEMODE
 70
     1
  9
$MAXACTVP
 70
    64
  9
$PINSBASE
 10
0.0
 20
0.0
 30
0.0
  9
$PLIMCHECK
 70
     0
  9
$PEXTMIN
 10
1.0000000000E+20
 20
1.0000000000E+20
 30
1.0000000000E+20
  9
$PEXTMAX
 10
-1.0000000000E+20
 20
-1.0000000000E+20
 30
-1.0000000000E+20
  9
$PLIMMIN
 10
0.0
 20
0.0
  9
$PLIMMAX
 10
420.0
 20
297.0
  9
$UNITMODE
 70
     0
  9
$VISRETAIN
 70
     1
  9
$PLINEGEN
 70
     0
  9
$PSLTSCALE
 70
     1
  9
$TREEDEPTH
 70
  3020
  9
$CMLSTYLE
  2
Standard
  9
$CMLJUST
 70
     0
  9
$CMLSCALE
 40
20.0
  9
$PROXYGRAPHICS
 70
     1
  9
$MEASUREMENT
 70
     1
  9
$CELWEIGHT
370
    -1
  9
$ENDCAPS
280
     0
  9
$JOINSTYLE
280
     0
  9
$LWDISPLAY
290
     1
  9
$INSUNITS
 70
     4
  9
$HYPERLINKBASE
  1

  9
$STYLESHEET
  1

  9
$XEDIT
290
     1
  9
$CEPSNTYPE
380
     0
  9
$PSTYLEMODE
290
     1
  9
$FINGERPRINTGUID
  2
{07C51ECB-64C4-4A15-90F5-754B1F4F4F36}
  9
$VERSIONGUID
  2
{FAEB1C32-E019-11D5-929B-00C0DF256EC4}
  9
$EXTNAMES
290
     1
  9
$PSVPSCALE
 40
0.0
  9
$OLESTARTUP
290
     0
  0
ENDSEC
  0
SECTION
  2
CLASSES
  0
CLASS
  1
ACDBDICTIONARYWDFLT
  2
AcDbDictionaryWithDefault
  3
ObjectDBX Classes
 90
        0
280
     0
281
     0
  0
CLASS
  1
VISUALSTYLE
  2
AcDbVisualStyle
  3
ObjectDBX Classes
 90
     4095
280
     0
281
     0
  0
CLASS
  1
MATERIAL
  2
AcDbMaterial
  3
ObjectDBX Classes
 90
     1153
280
     0
281
     0
  0
CLASS
  1
SCALE
  2
AcDbScale
  3
ObjectDBX Classes
 90
     1153
280
     0
281
     0
  0
CLASS
  1
SUN
  2
AcDbSun
  3
SCENEOE
 90
     1153
280
     0
281
     0
  0
CLASS
  1
ACDBPLACEHOLDER
  2
AcDbPlaceHolder
  3
ObjectDBX Classes
 90
        0
280
     0
281
     0
  0
CLASS
  1
LAYOUT
  2
AcDbLayout
  3
ObjectDBX Classes
 90
        0
280
     0
281
     0
  0
ENDSEC
  0
SECTION
  2
TABLES
  0
TABLE
  2
VPORT
  5
8
330
0
100
AcDbSymbolTable
 70
     1
  0
VPORT
  5
29
330
8
100
AcDbSymbolTableRecord
100
AcDbViewportTableRecord
  2
*Active
 70
     0
 10
0.0
 20
0.0
 11
1.0
 21
1.0
 12
178.2
 22
126.0
 13
0.0
 23
0.0
 14
10.0
 24
10.0
 15
10.0
 25
10.0
 16
0.0
 26
0.0
 36
1.0
 17
0.0
 27
0.0
 37
0.0
 40
252.0
 41
1.4142857143
 42
50.0
 43
0.0
 44
0.0
 50
0.0
 51
0.0
 71
     0
 72
  2000
 73
     1
 74
     3
 75
     0
 76
     0
 77
     0
 78
     0
281
     0
 65
     1
110
0.0
120
0.0
130
0.0
111
1.0
121
0.0
131
0.0
112
0.0
122
1.0
132
0.0
 79
     0
146
0.0
  0
ENDTAB
  0
TABLE
  2
LTYPE
  5
5
330
0
100
AcDbSymbolTable
 70
     6
  0
LTYPE
  5
14
330
5
100
AcDbSymbolTableRecord
100
AcDbLinetypeTableRecord
  2
ByBlock
 70
     0
  3

 72
    65
 73
     0
 40
0.0
  0
LTYPE
  5
15
330
5
100
AcDbSymbolTableRecord
100
AcDbLinetypeTableRecord
  2
ByLayer
 70
     0
  3

 72
    65
 73
     0
 40
0.0
  0
LTYPE
  5
16
330
5
100
AcDbSymbolTableRecord
100
AcDbLinetypeTableRecord
  2
Continuous
 70
     0
  3
Solid line
 72
    65
 73
     0
 40
0.0
  0
LTYPE
  5
6A
330
5
100
AcDbSymbolTableRecord
100
AcDbLinetypeTableRecord
  2
HIDDEN
 70
     0
  3
Hidden __ __ __ __ __ __ __ __ __ __ __ __ __ __
 72
    65
 73
     2
 40
1.905
 49
1.27
 74
     0
 49
-0.635
 74
     0
  0
LTYPE
  5
6B
330
5
100
AcDbSymbolTableRecord
100
AcDbLinetypeTableRecord
  2
PHANTOM
 70
     0
  3
Phantom ______  __  __  ______  __  __  ______
 72
    65
 73
     6
 40
12.7
 49
6.35
 74
     0
 49
-1.27
 74
     0
 49
1.27
 74
     0
 49
-1.27
 74
     0
 49
1.27
 74
     0
 49
-1.27
 74
     0
  0
LTYPE
  5
6C
330
5
100
AcDbSymbolTableRecord
100
AcDbLinetypeTableRecord
  2
CENTER
 70
     0
  3
Center ____ _ ____ _ ____ _ ____ _ ____ _ ____
 72
    65
 73
     4
 40
10.16
 49
6.35
 74
     0
 49
-1.27
 74
     0
 49
1.27
 74
     0
 49
-1.27
 74
     0
  0
LTYPE
  5
6D
330
5
100
AcDbSymbolTableRecord
100
AcDbLinetypeTableRecord
  2
CENTERX2
 70
     0
  3
Center (2x) ________  __  ________  __  _____
 72
    65
 73
     4
 40
20.32
 49
12.7
 74
     0
 49
-2.54
 74
     0
 49
2.54
 74
     0
 49
-2.54
 74
     0
  0
LTYPE
  5
6E
330
5
100
AcDbSymbolTableRecord
100
AcDbLinetypeTableRecord
  2
DOT2
 70
     0
  3
Dot (.5x) ........................................
 72
    65
 73
     2
 40
0.635
 49
0.0
 74
     0
 49
-0.635
 74
     0
  0
ENDTAB
  0
TABLE
  2
LAYER
  5
2
330
0
100
AcDbSymbolTable
 70
     8
  0
LAYER
  5
10
330
2
100
AcDbSymbolTableRecord
100
AcDbLayerTableRecord
  2
0
 70
     0
 62
     7
  6
Continuous
370
    -3
390
F
  0
LAYER
  5
6F
330
2
100
AcDbSymbolTableRecord
100
AcDbLayerTableRecord
  2
FORMAT
 70
     0
 62
     7
  6
Continuous
370
    -3
390
F
  0
LAYER
  5
70
330
2
100
AcDbSymbolTableRecord
100
AcDbLayerTableRecord
  2
SLD-0
 70
     0
 62
     2
  6
Continuous
370
    -3
390
F
  0
LAYER
  5
71
330
2
100
AcDbSymbolTableRecord
100
AcDbLayerTableRecord
  2
DIM
 70
     0
 62
   179
  6
Continuous
370
    -3
390
F
  0
LAYER
  5
72
330
2
100
AcDbSymbolTableRecord
100
AcDbLayerTableRecord
  2
SLD-DEFPOINTS
 70
     0
 62
   179
  6
Continuous
370
    -3
390
F
  0
LAYER
  5
73
330
2
100
AcDbSymbolTableRecord
100
AcDbLayerTableRecord
  2
HAT
 70
     0
 62
   135
  6
Continuous
370
    -3
390
F
  0
LAYER
  5
74
330
2
100
AcDbSymbolTableRecord
100
AcDbLayerTableRecord
  2
JOB
 70
     0
 62
   201
  6
Continuous
370
    -3
390
F
  0
LAYER
  5
75
330
2
100
AcDbSymbolTableRecord
100
AcDbLayerTableRecord
  2
INSPECTION_REPORT
 70
     0
 62
   255
  6
Continuous
370
    -3
390
F
  0
ENDTAB
  0
TABLE
  2
STYLE
  5
3
330
0
100
AcDbSymbolTable
 70
     5
  0
STYLE
  5
11
330
3
100
AcDbSymbolTableRecord
100
AcDbTextStyleTableRecord
  2
Standard
 70
     0
 40
0.0
 41
1.0
 50
0.0
 71
     0
 42
4.2333333333
  3
txt
  4

  0
STYLE
  5
96
330
3
100
AcDbSymbolTableRecord
100
AcDbTextStyleTableRecord
  2
SLDTEXTSTYLE0
 70
     0
 40
0.0
 41
0.6333333333
 50
0.0
 71
     0
 42
4.2333333333
  3
TXT
  4

  0
STYLE
  5
98
330
3
100
AcDbSymbolTableRecord
100
AcDbTextStyleTableRecord
  2
SLDTEXTSTYLE1
 70
     0
 40
0.0
 41
0.75
 50
0.0
 71
     0
 42
4.2333333333
  3
TXT
  4

  0
STYLE
  5
AB
330
3
100
AcDbSymbolTableRecord
100
AcDbTextStyleTableRecord
  2
SLDTEXTSTYLE2
 70
     0
 40
0.0
 41
0.6875
 50
0.0
 71
     0
 42
4.2333333333
  3
TXT
  4

  0
STYLE
  5
FC
330
3
100
AcDbSymbolTableRecord
100
AcDbTextStyleTableRecord
  2
SLDTEXTSTYLE3
 70
     0
 40
0.0
 41
0.7
 50
0.0
 71
     0
 42
4.2333333333
  3
TXT
  4

  0
ENDTAB
  0
TABLE
  2
VIEW
  5
6
330
0
100
AcDbSymbolTable
 70
     0
  0
ENDTAB
  0
TABLE
  2
UCS
  5
7
330
0
100
AcDbSymbolTable
 70
     0
  0
ENDTAB
  0
TABLE
  2
APPID
  5
9
330
0
100
AcDbSymbolTable
 70
     1
  0
APPID
  5
12
330
9
100
AcDbSymbolTableRecord
100
AcDbRegAppTableRecord
  2
ACAD
 70
     0
  0
ENDTAB
  0
TABLE
  2
DIMSTYLE
  5
A
330
0
100
AcDbSymbolTable
 70
     4
100
AcDbDimStyleTable
  0
DIMSTYLE
105
27
330
A
100
AcDbSymbolTableRecord
100
AcDbDimStyleTableRecord
  2
ISO-25
 70
     0
 41
2.5
 42
0.625
 43
3.75
 44
1.25
 73
     0
 74
     0
 77
     1
 78
     8
140
2.5
141
2.5
143
0.0393700787
147
0.625
171
     3
172
     1
178
     0
271
     2
272
     2
274
     3
278
    44
283
     0
284
     8
340
11
  0
DIMSTYLE
105
FD
102
{ACAD_REACTORS
330
FB
102
}
330
A
100
AcDbSymbolTableRecord
100
AcDbDimStyleTableRecord
  2
SLDDIMSTYLE0
 70
     0
 41
3.9624
 44
0.0
 45
0.000000001
 73
     0
 74
     0
 77
     1
 78
    12
 79
     3
140
3.4925
147
0.873125
173
     1
178
     0
271
     0
272
     0
276
     2
284
    12
340
FC
  0
DIMSTYLE
105
108
102
{ACAD_REACTORS
330
107
102
}
330
A
100
AcDbSymbolTableRecord
100
AcDbDimStyleTableRecord
  2
SLDDIMSTYLE1
 70
     0
 41
3.9624
 44
0.0
 45
0.000000001
 73
     0
 74
     0
 77
     1
 78
    12
 79
     3
140
3.4925
147
0.873125
173
     1
178
     0
271
     2
272
     2
276
     2
284
    12
340
FC
  0
DIMSTYLE
105
114
102
{ACAD_REACTORS
330
113
102
}
330
A
100
AcDbSymbolTableRecord
100
AcDbDimStyleTableRecord
  2
SLDDIMSTYLE2
 70
     0
 41
3.9624
 44
0.0
 45
0.000000001
 73
     0
 74
     0
 77
     1
 78
    12
 79
     3
140
3.4925
147
0.873125
173
     1
178
     0
271
     0
272
     2
276
     2
284
    12
340
FC
  0
ENDTAB
  0
TABLE
  2
BLOCK_RECORD
  5
1
330
0
100
AcDbSymbolTable
 70
     5
  0
BLOCK_RECORD
  5
1F
330
1
100
AcDbSymbolTableRecord
100
AcDbBlockTableRecord
  2
*Model_Space
340
22
  0
BLOCK_RECORD
  5
1B
330
1
100
AcDbSymbolTableRecord
100
AcDbBlockTableRecord
  2
*Paper_Space
340
1E
  0
BLOCK_RECORD
  5
23
330
1
100
AcDbSymbolTableRecord
100
AcDbBlockTableRecord
  2
*Paper_Space0
340
26
  0
BLOCK_RECORD
  5
C0
330
1
100
AcDbSymbolTableRecord
100
AcDbBlockTableRecord
  2
SW_CENTERMARKSYMBOL_0
340
0
102
{BLKREFS
331
CB
102
}
  0
BLOCK_RECORD
  5
FE
330
1
100
AcDbSymbolTableRecord
100
AcDbBlockTableRecord
  2
_D
340
0
  0
BLOCK_RECORD
  5
109
330
1
100
AcDbSymbolTableRecord
100
AcDbBlockTableRecord
  2
_D_1
340
0
  0
BLOCK_RECORD
  5
115
330
1
100
AcDbSymbolTableRecord
100
AcDbBlockTableRecord
  2
_D_2
340
0
  0
ENDTAB
  0
ENDSEC
  0
SECTION
  2
BLOCKS
  0
BLOCK
  5
20
330
1F
100
AcDbEntity
  8
0
100
AcDbBlockBegin
  2
*Model_Space
 70
     0
 10
0.0
 20
0.0
 30
0.0
  3
*Model_Space
  1
*Model_Space
  0
ENDBLK
  5
21
330
1F
100
AcDbEntity
  8
0
100
AcDbBlockEnd
  0
BLOCK
  5
1C
330
1B
100
AcDbEntity
 67
     1
  8
0
100
AcDbBlockBegin
  2
*Paper_Space
 70
     0
 10
0.0
 20
0.0
 30
0.0
  3
*Paper_Space
  1
*Paper_Space
  0
ENDBLK
  5
1D
330
1B
100
AcDbEntity
 67
     1
  8
0
100
AcDbBlockEnd
  0
BLOCK
  5
24
330
23
100
AcDbEntity
  8
0
100
AcDbBlockBegin
  2
*Paper_Space0
 70
     0
 10
0.0
 20
0.0
 30
0.0
  3
*Paper_Space0
  1
*Paper_Space0
  0
ENDBLK
  5
25
330
23
100
AcDbEntity
  8
0
100
AcDbBlockEnd
  0
BLOCK
  5
C1
330
C0
100
AcDbEntity
  8
0
100
AcDbBlockBegin
  2
SW_CENTERMARKSYMBOL_0
 70
     0
 10
0.0
 20
0.0
 30
0.0
  3
SW_CENTERMARKSYMBOL_0
  1
SW_CENTERMARKSYMBOL_0
  0
LINE
  5
C3
330
C0
100
AcDbEntity
  8
DIM
 62
     0
100
AcDbLine
 10
0.0
 20
0.0
 30
0.0
 11
0.0
 21
2.5
 31
0.0
  0
LINE
  5
C4
330
C0
100
AcDbEntity
  8
DIM
 62
     0
100
AcDbLine
 10
0.0
 20
0.0
 30
0.0
 11
-2.5
 21
0.0
 31
0.0
  0
LINE
  5
C5
330
C0
100
AcDbEntity
  8
DIM
 62
     0
100
AcDbLine
 10
0.0
 20
0.0
 30
0.0
 11
0.0
 21
-2.5
 31
0.0
  0
LINE
  5
C6
330
C0
100
AcDbEntity
  8
DIM
 62
     0
100
AcDbLine
 10
0.0
 20
0.0
 30
0.0
 11
2.5
 21
0.0
 31
0.0
  0
LINE
  5
C7
330
C0
100
AcDbEntity
  8
DIM
 62
     0
100
AcDbLine
 10
0.0
 20
5.0
 30
0.0
 11
0.0
 21
27.5
 31
0.0
  0
LINE
  5
C8
330
C0
100
AcDbEntity
  8
DIM
 62
     0
100
AcDbLine
 10
-5.0
 20
0.0
 30
0.0
 11
-27.5
 21
0.0
 31
0.0
  0
LINE
  5
C9
330
C0
100
AcDbEntity
  8
DIM
 62
     0
100
AcDbLine
 10
0.0
 20
-5.0
 30
0.0
 11
0.0
 21
-27.5
 31
0.0
  0
LINE
  5
CA
330
C0
100
AcDbEntity
  8
DIM
 62
     0
100
AcDbLine
 10
5.0
 20
0.0
 30
0.0
 11
27.5
 21
0.0
 31
0.0
  0
ENDBLK
  5
C2
330
C0
100
AcDbEntity
  8
0
100
AcDbBlockEnd
  0
BLOCK
  5
FF
330
FE
100
AcDbEntity
  8
0
100
AcDbBlockBegin
  2
_D
 70
     0
 10
0.0
 20
0.0
 30
0.0
  3
_D
  1
_D
  0
SOLID
  5
101
330
FE
100
AcDbEntity
  8
DIM
100
AcDbTrace
 10
259.4734096671
 20
96.5433714875
 30
0.0
 11
255.5110096671
 21
97.1529714875
 31
0.0
 12
255.5110096671
 22
95.9337714875
 32
0.0
 13
255.5110096671
 23
95.9337714875
 33
0.0
  0
SOLID
  5
102
330
FE
100
AcDbEntity
  8
DIM
100
AcDbTrace
 10
154.1734096672
 20
96.5433714875
 30
0.0
 11
158.1358096672
 21
95.9337714875
 31
0.0
 12
158.1358096672
 22
97.1529714875
 32
0.0
 13
158.1358096672
 23
97.1529714875
 33
0.0
  0
LINE
  5
103
330
FE
100
AcDbEntity
  8
DIM
100
AcDbLine
 10
259.4734096671
 20
120.6520784152
 30
0.0
 11
259.4734096671
 21
95.3433714875
 31
0.0
  0
LINE
  5
104
330
FE
100
AcDbEntity
  8
DIM
100
AcDbLine
 10
154.1734096672
 20
115.4170784178
 30
0.0
 11
154.1734096672
 21
95.3433714875
 31
0.0
  0
LINE
  5
105
330
FE
100
AcDbEntity
  8
DIM
100
AcDbLine
 10
259.4734096671
 20
96.5433714875
 30
0.0
 11
154.1734096672
 21
96.5433714875
 31
0.0
  0
MTEXT
  5
106
330
FE
100
AcDbEntity
  8
DIM
100
AcDbMText
 10
203.2824025879
 20
101.0454408481
 30
0.0
 40
3.4925
 41
0.0
 71
     1
 72
     1
  1
105
  7
SLDTEXTSTYLE3
 73
     1
 44
1.0
  0
ENDBLK
  5
100
330
FE
100
AcDbEntity
  8
0
100
AcDbBlockEnd
  0
BLOCK
  5
10A
330
109
100
AcDbEntity
  8
0
100
AcDbBlockBegin
  2
_D_1
 70
     0
 10
0.0
 20
0.0
 30
0.0
  3
_D_1
  1
_D_1
  0
SOLID
  5
10C
330
109
100
AcDbEntity
  8
DIM
100
AcDbTrace
 10
267.1762997513
 20
154.8520784152
 30
0.0
 11
266.5666997513
 21
150.8896784152
 31
0.0
 12
267.7858997513
 22
150.8896784152
 32
0.0
 13
267.7858997513
 23
150.8896784152
 33
0.0
  0
SOLID
  5
10D
330
109
100
AcDbEntity
  8
DIM
100
AcDbTrace
 10
267.1762997513
 20
104.8520784152
 30
0.0
 11
267.7858997513
 21
108.8144784152
 31
0.0
 12
266.5666997513
 22
108.8144784152
 32
0.0
 13
266.5666997513
 23
108.8144784152
 33
0.0
  0
LINE
  5
10E
330
109
100
AcDbEntity
  8
DIM
100
AcDbLine
 10
225.3790110931
 20
154.8520784152
 30
0.0
 11
268.3762997513
 21
154.8520784152
 31
0.0
  0
LINE
  5
10F
330
109
100
AcDbEntity
  8
DIM
100
AcDbLine
 10
225.3790110931
 20
104.8520784152
 30
0.0
 11
268.3762997513
 21
104.8520784152
 31
0.0
  0
LINE
  5
110
330
109
100
AcDbEntity
  8
DIM
100
AcDbLine
 10
267.1762997513
 20
154.8520784152
 30
0.0
 11
267.1762997513
 21
104.8520784152
 31
0.0
  0
MTEXT
  5
111
330
109
100
AcDbEntity
  8
DIM
100
AcDbMText
 10
262.6742303908
 20
124.7910254893
 30
0.0
 40
3.4925
 41
0.0
 71
     1
 72
     1
  1
%%c
  7
SLDTEXTSTYLE3
 11
-7.044195017643634E-15
 21
1.0
 31
0.0
 73
     1
 44
1.0
  0
MTEXT
  5
112
330
109
100
AcDbEntity
  8
DIM
100
AcDbMText
 10
262.6742303908
 20
130.1917885688
 30
0.0
 40
3.4925
 41
0.0
 71
     1
 72
     1
  1
50
  7
SLDTEXTSTYLE3
 11
-7.044195017643634E-15
 21
1.0
 31
0.0
 73
     1
 44
1.0
  0
ENDBLK
  5
10B
330
109
100
AcDbEntity
  8
0
100
AcDbBlockEnd
  0
BLOCK
  5
116
330
115
100
AcDbEntity
  8
0
100
AcDbBlockBegin
  2
_D_2
 70
     0
 10
0.0
 20
0.0
 30
0.0
  3
_D_2
  1
_D_2
  0
SOLID
  5
118
330
115
100
AcDbEntity
  8
DIM
100
AcDbTrace
 10
147.5874303681
 20
153.6020784152
 30
0.0
 11
146.9778303681
 21
149.6396784152
 31
0.0
 12
148.1970303681
 22
149.6396784152
 32
0.0
 13
148.1970303681
 23
149.6396784152
 33
0.0
  0
SOLID
  5
119
330
115
100
AcDbEntity
  8
DIM
100
AcDbTrace
 10
147.5874303681
 20
106.1020784152
 30
0.0
 11
148.1970303681
 21
110.0644784152
 31
0.0
 12
146.9778303681
 22
110.0644784152
 32
0.0
 13
146.9778303681
 23
110.0644784152
 33
0.0
  0
LINE
  5
11A
330
115
100
AcDbEntity
  8
DIM
100
AcDbLine
 10
153.9734096671
 20
153.6020784152
 30
0.0
 11
146.3874303681
 21
153.6020784152
 31
0.0
  0
LINE
  5
11B
330
115
100
AcDbEntity
  8
DIM
100
AcDbLine
 10
153.9734096671
 20
106.1020784152
 30
0.0
 11
146.3874303681
 21
106.1020784152
 31
0.0
  0
LINE
  5
11C
330
115
100
AcDbEntity
  8
DIM
100
AcDbLine
 10
147.5874303681
 20
153.6020784152
 30
0.0
 11
147.5874303681
 21
106.1020784152
 31
0.0
  0
MTEXT
  5
11D
330
115
100
AcDbEntity
  8
DIM
100
AcDbMText
 10
143.0853610076
 20
124.7910254893
 30
0.0
 40
3.4925
 41
0.0
 71
     1
 72
     1
  1
%%c
  7
SLDTEXTSTYLE3
 11
-7.044195017643634E-15
 21
1.0
 31
0.0
 73
     1
 44
1.0
  0
MTEXT
  5
11E
330
115
100
AcDbEntity
  8
DIM
100
AcDbMText
 10
143.0853610076
 20
130.1917885688
 30
0.0
 40
3.4925
 41
0.0
 71
     1
 72
     1
  1
48
  7
SLDTEXTSTYLE3
 11
-7.044195017643634E-15
 21
1.0
 31
0.0
 73
     1
 44
1.0
  0
ENDBLK
  5
117
330
115
100
AcDbEntity
  8
0
100
AcDbBlockEnd
  0
ENDSEC
  0
SECTION
  2
ENTITIES
  0
LINE
  5
76
330
1F
100
AcDbEntity
  8
DIM
100
AcDbLine
 10
125.6453096268
 20
11.7491897482
 30
0.0
 11
125.6453096268
 21
5.7491897482
 31
0.0
  0
LINE
  5
77
330
1F
100
AcDbEntity
  8
DIM
100
AcDbLine
 10
305.3635220344
 20
11.7491897482
 30
0.0
 11
305.3635220344
 21
5.7491897482
 31
0.0
  0
LINE
  5
78
330
1F
100
AcDbEntity
  8
DIM
100
AcDbLine
 10
284.9420519179
 20
11.7491897482
 30
0.0
 11
284.9420519179
 21
5.7491897482
 31
0.0
  0
LINE
  5
79
330
1F
100
AcDbEntity
  8
DIM
100
AcDbLine
 10
334.6853096268
 20
5.7491897482
 30
0.0
 11
334.6853096268
 21
11.7491897482
 31
0.0
  0
LINE
  5
7A
330
1F
100
AcDbEntity
  8
DIM
100
AcDbLine
 10
135.0053096268
 20
11.7491897482
 30
0.0
 11
135.0053096268
 21
5.7491897482
 31
0.0
  0
LINE
  5
7B
330
1F
100
AcDbEntity
  8
DIM
100
AcDbLine
 10
158.0344525473
 20
11.7491897482
 30
0.0
 11
158.0344525473
 21
5.7491897482
 31
0.0
  0
LINE
  5
7C
330
1F
100
AcDbEntity
  8
DIM
100
AcDbLine
 10
350.2853096268
 20
5.7491897482
 30
0.0
 11
350.2853096268
 21
92.4491897482
 31
0.0
  0
LINE
  5
7D
330
1F
100
AcDbEntity
  8
DIM
100
AcDbLine
 10
342.9828056336
 20
72.0491897482
 30
0.0
 11
350.2853096268
 21
72.0491897482
 31
0.0
  0
LINE
  5
7E
330
1F
100
AcDbEntity
  8
DIM
100
AcDbLine
 10
178.924021023
 20
10.8491897482
 30
0.0
 11
178.924021023
 21
5.7491897482
 31
0.0
  0
LINE
  5
7F
330
1F
100
AcDbEntity
  8
DIM
100
AcDbLine
 10
236.1167389925
 20
11.7491897482
 30
0.0
 11
236.1167389925
 21
5.7491897482
 31
0.0
  0
LINE
  5
80
330
1F
100
AcDbEntity
  8
DIM
100
AcDbLine
 10
178.924021023
 20
11.7491897482
 30
0.0
 11
178.924021023
 21
10.8491897482
 31
0.0
  0
LINE
  5
81
330
1F
100
AcDbEntity
  8
DIM
100
AcDbLine
 10
344.2853096268
 20
21.0491033482
 30
0.0
 11
350.2853096268
 21
21.0491033482
 31
0.0
  0
LINE
  5
82
330
1F
100
AcDbEntity
  8
DIM
100
AcDbLine
 10
344.2853096268
 20
239.7491897482
 30
0.0
 11
11.8853096268
 21
239.7491897482
 31
0.0
  0
LINE
  5
83
330
1F
100
AcDbEntity
  8
DIM
100
AcDbLine
 10
350.2853096268
 20
245.7491897482
 30
0.0
 11
5.8853096268
 21
245.7491897482
 31
0.0
  0
LINE
  5
84
330
1F
100
AcDbEntity
  8
DIM
100
AcDbLine
 10
11.8853096268
 20
239.7491897482
 30
0.0
 11
11.8853096268
 21
11.7491897482
 31
0.0
  0
LINE
  5
85
330
1F
100
AcDbEntity
  8
DIM
100
AcDbLine
 10
5.8853096268
 20
245.7491897482
 30
0.0
 11
5.8853096268
 21
5.7491897482
 31
0.0
  0
LINE
  5
86
330
1F
100
AcDbEntity
  8
DIM
100
AcDbLine
 10
11.8853096268
 20
65.7491897482
 30
0.0
 11
5.8853096268
 21
65.7491897482
 31
0.0
  0
LINE
  5
87
330
1F
100
AcDbEntity
  8
DIM
100
AcDbLine
 10
5.8853096268
 20
125.7491897482
 30
0.0
 11
11.8853096268
 21
125.7491897482
 31
0.0
  0
LINE
  5
88
330
1F
100
AcDbEntity
  8
DIM
100
AcDbLine
 10
5.8853096268
 20
5.7491897482
 30
0.0
 11
350.2853096268
 21
5.7491897482
 31
0.0
  0
LINE
  5
89
330
1F
100
AcDbEntity
  8
DIM
100
AcDbLine
 10
11.8853096268
 20
11.7491897482
 30
0.0
 11
350.2853096268
 21
11.7491897482
 31
0.0
  0
LINE
  5
8A
330
1F
100
AcDbEntity
  8
DIM
100
AcDbLine
 10
58.0853096268
 20
5.7491897482
 30
0.0
 11
58.0853096268
 21
11.7491897482
 31
0.0
  0
LINE
  5
8B
330
1F
100
AcDbEntity
  8
DIM
100
AcDbLine
 10
118.0853096268
 20
11.7491897482
 30
0.0
 11
118.0853096268
 21
5.7491897482
 31
0.0
  0
LINE
  5
8C
330
1F
100
AcDbEntity
  8
DIM
100
AcDbLine
 10
11.8853096268
 20
185.7491897482
 30
0.0
 11
5.8853096268
 21
185.7491897482
 31
0.0
  0
LINE
  5
8D
330
1F
100
AcDbEntity
  8
DIM
100
AcDbLine
 10
58.0853096268
 20
239.7491897482
 30
0.0
 11
58.0853096268
 21
245.7491897482
 31
0.0
  0
LINE
  5
8E
330
1F
100
AcDbEntity
  8
DIM
100
AcDbLine
 10
118.0853096268
 20
245.7491897482
 30
0.0
 11
118.0853096268
 21
239.7491897482
 31
0.0
  0
LINE
  5
8F
330
1F
100
AcDbEntity
  8
DIM
100
AcDbLine
 10
178.0853096268
 20
245.7491897482
 30
0.0
 11
178.0853096268
 21
239.7491897482
 31
0.0
  0
LINE
  5
90
330
1F
100
AcDbEntity
  8
DIM
100
AcDbLine
 10
344.2853096268
 20
11.7491897482
 30
0.0
 11
344.2853096268
 21
239.7491897482
 31
0.0
  0
LINE
  5
91
330
1F
100
AcDbEntity
  8
DIM
100
AcDbLine
 10
350.2853096268
 20
92.4491897482
 30
0.0
 11
350.2853096268
 21
245.7491897482
 31
0.0
  0
LINE
  5
92
330
1F
100
AcDbEntity
  8
DIM
100
AcDbLine
 10
350.2853096268
 20
125.7491897482
 30
0.0
 11
344.2853096268
 21
125.7491897482
 31
0.0
  0
LINE
  5
93
330
1F
100
AcDbEntity
  8
DIM
100
AcDbLine
 10
238.0853096268
 20
245.7491897482
 30
0.0
 11
238.0853096268
 21
239.7491897482
 31
0.0
  0
LINE
  5
94
330
1F
100
AcDbEntity
  8
DIM
100
AcDbLine
 10
298.0853096268
 20
239.7491897482
 30
0.0
 11
298.0853096268
 21
245.7491897482
 31
0.0
  0
LINE
  5
95
330
1F
100
AcDbEntity
  8
DIM
100
AcDbLine
 10
344.2853096268
 20
185.7491897482
 30
0.0
 11
350.2853096268
 21
185.7491897482
 31
0.0
  0
MTEXT
  5
97
330
1F
100
AcDbEntity
  8
DIM
100
AcDbMText
 10
20.9054276248
 20
231.1843220794
 30
0.0
 40
5.08
 41
0.0
 71
     1
 72
     1
  1
DC 1 - 13 J6
  7
SLDTEXTSTYLE0
 73
     1
 44
1.0
  0
MTEXT
  5
99
330
1F
100
AcDbEntity
  8
DIM
 62
     7
100
AcDbMText
 10
237.279334376
 20
9.3623418316
 30
0.0
 40
1.79832
 41
0.0
 71
     1
 72
     1
  1
WEIGHT:
  7
SLDTEXTSTYLE1
 73
     1
 44
1.0
  0
MTEXT
  5
9A
330
1F
100
AcDbEntity
  8
DIM
 62
     7
100
AcDbMText
 10
346.3164921058
 20
98.3287362099
 30
0.0
 40
2.2225
 41
0.0
 71
     1
 72
     1
  1
C
  7
SLDTEXTSTYLE1
 73
     1
 44
1.0
  0
MTEXT
  5
9B
330
1F
100
AcDbEntity
  8
DIM
 62
     7
100
AcDbMText
 10
339.6522967434
 20
17.8247783803
 30
0.0
 40
3.4925
 41
0.0
 71
     1
 72
     1
  1
A4
  7
SLDTEXTSTYLE1
 73
     1
 44
1.0
  0
MTEXT
  5
9C
330
1F
100
AcDbEntity
  8
DIM
 62
     7
100
AcDbMText
 10
327.0853144268
 20
244.1508094325
 30
0.0
 40
2.2225
 41
0.0
 71
     1
 72
     1
  1
6
  7
SLDTEXTSTYLE1
 73
     1
 44
1.0
  0
MTEXT
  5
9D
330
1F
100
AcDbEntity
  8
DIM
 62
     7
100
AcDbMText
 10
267.0853144268
 20
244.1508094325
 30
0.0
 40
2.2225
 41
0.0
 71
     1
 72
     1
  1
5
  7
SLDTEXTSTYLE1
 73
     1
 44
1.0
  0
MTEXT
  5
9E
330
1F
100
AcDbEntity
  8
DIM
 62
     7
100
AcDbMText
 10
346.2853192268
 20
217.1508094325
 30
0.0
 40
2.2225
 41
0.0
 71
     1
 72
     1
  1
A
  7
SLDTEXTSTYLE1
 73
     1
 44
1.0
  0
MTEXT
  5
9F
330
1F
100
AcDbEntity
  8
DIM
 62
     7
100
AcDbMText
 10
346.2853192268
 20
157.1508094325
 30
0.0
 40
2.2225
 41
0.0
 71
     1
 72
     1
  1
B
  7
SLDTEXTSTYLE1
 73
     1
 44
1.0
  0
MTEXT
  5
A0
330
1F
100
AcDbEntity
  8
DIM
 62
     7
100
AcDbMText
 10
207.0853144268
 20
244.1508094325
 30
0.0
 40
2.2225
 41
0.0
 71
     1
 72
     1
  1
4
  7
SLDTEXTSTYLE1
 73
     1
 44
1.0
  0
MTEXT
  5
A1
330
1F
100
AcDbEntity
  8
DIM
 62
     7
100
AcDbMText
 10
27.5853144268
 20
244.1508094325
 30
0.0
 40
2.2225
 41
0.0
 71
     1
 72
     1
  1
1
  7
SLDTEXTSTYLE1
 73
     1
 44
1.0
  0
MTEXT
  5
A2
330
1F
100
AcDbEntity
  8
DIM
 62
     7
100
AcDbMText
 10
87.0853144268
 20
244.1508094325
 30
0.0
 40
2.2225
 41
0.0
 71
     1
 72
     1
  1
2
  7
SLDTEXTSTYLE1
 73
     1
 44
1.0
  0
MTEXT
  5
A3
330
1F
100
AcDbEntity
  8
DIM
 62
     7
100
AcDbMText
 10
147.0853144268
 20
244.1508094325
 30
0.0
 40
2.2225
 41
0.0
 71
     1
 72
     1
  1
3
  7
SLDTEXTSTYLE1
 73
     1
 44
1.0
  0
MTEXT
  5
A4
330
1F
100
AcDbEntity
  8
DIM
 62
     7
100
AcDbMText
 10
7.8853096268
 20
217.1508094325
 30
0.0
 40
2.2225
 41
0.0
 71
     1
 72
     1
  1
A
  7
SLDTEXTSTYLE1
 73
     1
 44
1.0
  0
MTEXT
  5
A5
330
1F
100
AcDbEntity
  8
DIM
 62
     7
100
AcDbMText
 10
87.0853144268
 20
10.1508094325
 30
0.0
 40
2.2225
 41
0.0
 71
     1
 72
     1
  1
2
  7
SLDTEXTSTYLE1
 73
     1
 44
1.0
  0
MTEXT
  5
A6
330
1F
100
AcDbEntity
  8
DIM
 62
     7
100
AcDbMText
 10
27.5853144268
 20
10.1508094325
 30
0.0
 40
2.2225
 41
0.0
 71
     1
 72
     1
  1
1
  7
SLDTEXTSTYLE1
 73
     1
 44
1.0
  0
MTEXT
  5
A7
330
1F
100
AcDbEntity
  8
DIM
 62
     7
100
AcDbMText
 10
7.8853096268
 20
37.1508094325
 30
0.0
 40
2.2225
 41
0.0
 71
     1
 72
     1
  1
D
  7
SLDTEXTSTYLE1
 73
     1
 44
1.0
  0
MTEXT
  5
A8
330
1F
100
AcDbEntity
  8
DIM
 62
     7
100
AcDbMText
 10
7.8853096268
 20
97.1508094325
 30
0.0
 40
2.2225
 41
0.0
 71
     1
 72
     1
  1
C
  7
SLDTEXTSTYLE1
 73
     1
 44
1.0
  0
MTEXT
  5
A9
330
1F
100
AcDbEntity
  8
DIM
 62
     7
100
AcDbMText
 10
7.8853096268
 20
157.1508094325
 30
0.0
 40
2.2225
 41
0.0
 71
     1
 72
     1
  1
B
  7
SLDTEXTSTYLE1
 73
     1
 44
1.0
  0
MTEXT
  5
AA
330
1F
100
AcDbEntity
  8
DIM
 62
     7
100
AcDbMText
 10
346.3164921058
 20
98.3287362099
 30
0.0
 40
2.2225
 41
0.0
 71
     1
 72
     1
  1
C
  7
SLDTEXTSTYLE1
 73
     1
 44
1.0
  0
MTEXT
  5
AC
330
1F
100
AcDbEntity
  8
DIM
 62
     7
100
AcDbMText
 10
307.830438975
 20
9.2292944777
 30
0.0
 40
1.8
 41
0.0
 71
     1
 72
     1
  1
SHEET 1 OF 1
  7
SLDTEXTSTYLE2
 73
     1
 44
1.0
  0
MTEXT
  5
AD
330
1F
100
AcDbEntity
  8
DIM
 62
     7
100
AcDbMText
 10
180.4461364601
 20
9.4240409804
 30
0.0
 40
1.8
 41
0.0
 71
     1
 72
     1
  1
MATERIAL:
  7
SLDTEXTSTYLE1
 73
     1
 44
1.0
  0
MTEXT
  5
AE
330
1F
100
AcDbEntity
  8
DIM
 62
     7
100
AcDbMText
 10
327.0853144268
 20
244.1508094325
 30
0.0
 40
2.2225
 41
0.0
 71
     1
 72
     1
  1
6
  7
SLDTEXTSTYLE1
 73
     1
 44
1.0
  0
MTEXT
  5
AF
330
1F
100
AcDbEntity
  8
DIM
 62
     7
100
AcDbMText
 10
267.0853144268
 20
244.1508094325
 30
0.0
 40
2.2225
 41
0.0
 71
     1
 72
     1
  1
5
  7
SLDTEXTSTYLE1
 73
     1
 44
1.0
  0
MTEXT
  5
B0
330
1F
100
AcDbEntity
  8
DIM
 62
     7
100
AcDbMText
 10
346.2853192268
 20
217.1508094325
 30
0.0
 40
2.2225
 41
0.0
 71
     1
 72
     1
  1
A
  7
SLDTEXTSTYLE1
 73
     1
 44
1.0
  0
MTEXT
  5
B1
330
1F
100
AcDbEntity
  8
DIM
 62
     7
100
AcDbMText
 10
346.2853192268
 20
157.1508094325
 30
0.0
 40
2.2225
 41
0.0
 71
     1
 72
     1
  1
B
  7
SLDTEXTSTYLE1
 73
     1
 44
1.0
  0
MTEXT
  5
B2
330
1F
100
AcDbEntity
  8
DIM
 62
     7
100
AcDbMText
 10
207.0853144268
 20
244.1508094325
 30
0.0
 40
2.2225
 41
0.0
 71
     1
 72
     1
  1
4
  7
SLDTEXTSTYLE1
 73
     1
 44
1.0
  0
MTEXT
  5
B3
330
1F
100
AcDbEntity
  8
DIM
 62
     7
100
AcDbMText
 10
27.5853144268
 20
244.1508094325
 30
0.0
 40
2.2225
 41
0.0
 71
     1
 72
     1
  1
1
  7
SLDTEXTSTYLE1
 73
     1
 44
1.0
  0
MTEXT
  5
B4
330
1F
100
AcDbEntity
  8
DIM
 62
     7
100
AcDbMText
 10
87.0853144268
 20
244.1508094325
 30
0.0
 40
2.2225
 41
0.0
 71
     1
 72
     1
  1
2
  7
SLDTEXTSTYLE1
 73
     1
 44
1.0
  0
MTEXT
  5
B5
330
1F
100
AcDbEntity
  8
DIM
 62
     7
100
AcDbMText
 10
147.0853144268
 20
244.1508094325
 30
0.0
 40
2.2225
 41
0.0
 71
     1
 72
     1
  1
3
  7
SLDTEXTSTYLE1
 73
     1
 44
1.0
  0
MTEXT
  5
B6
330
1F
100
AcDbEntity
  8
DIM
 62
     7
100
AcDbMText
 10
7.8853096268
 20
217.1508094325
 30
0.0
 40
2.2225
 41
0.0
 71
     1
 72
     1
  1
A
  7
SLDTEXTSTYLE1
 73
     1
 44
1.0
  0
MTEXT
  5
B7
330
1F
100
AcDbEntity
  8
DIM
 62
     7
100
AcDbMText
 10
87.0853144268
 20
10.1508094325
 30
0.0
 40
2.2225
 41
0.0
 71
     1
 72
     1
  1
2
  7
SLDTEXTSTYLE1
 73
     1
 44
1.0
  0
MTEXT
  5
B8
330
1F
100
AcDbEntity
  8
DIM
 62
     7
100
AcDbMText
 10
27.5853144268
 20
10.1508094325
 30
0.0
 40
2.2225
 41
0.0
 71
     1
 72
     1
  1
1
  7
SLDTEXTSTYLE1
 73
     1
 44
1.0
  0
MTEXT
  5
B9
330
1F
100
AcDbEntity
  8
DIM
 62
     7
100
AcDbMText
 10
7.8853096268
 20
37.1508094325
 30
0.0
 40
2.2225
 41
0.0
 71
     1
 72
     1
  1
D
  7
SLDTEXTSTYLE1
 73
     1
 44
1.0
  0
MTEXT
  5
BA
330
1F
100
AcDbEntity
  8
DIM
 62
     7
100
AcDbMText
 10
7.8853096268
 20
97.1508094325
 30
0.0
 40
2.2225
 41
0.0
 71
     1
 72
     1
  1
C
  7
SLDTEXTSTYLE1
 73
     1
 44
1.0
  0
MTEXT
  5
BB
330
1F
100
AcDbEntity
  8
DIM
 62
     7
100
AcDbMText
 10
7.8853096268
 20
157.1508094325
 30
0.0
 40
2.2225
 41
0.0
 71
     1
 72
     1
  1
B
  7
SLDTEXTSTYLE1
 73
     1
 44
1.0
  0
CIRCLE
  5
BC
330
1F
100
AcDbEntity
  8
0
  6
Continuous
 62
     7
370
    15
100
AcDbCircle
 10
81.0185696203
 20
129.8520784152
 30
0.0
 40
13.30330067199996
  0
CIRCLE
  5
BD
330
1F
100
AcDbEntity
  8
0
  6
Continuous
 62
     7
370
    15
100
AcDbCircle
 10
81.0185696203
 20
129.8520784152
 30
0.0
 40
8.0
  0
CIRCLE
  5
BE
330
1F
100
AcDbEntity
  8
0
  6
Continuous
 62
     7
370
    15
100
AcDbCircle
 10
81.0185696203
 20
129.8520784152
 30
0.0
 40
17.82484682699999
  0
CIRCLE
  5
BF
330
1F
100
AcDbEntity
  8
0
  6
Continuous
 62
     7
370
    15
100
AcDbCircle
 10
81.0185696203
 20
129.8520784152
 30
0.0
 40
25.0
  0
INSERT
  5
CB
330
1F
100
AcDbEntity
  8
DIM
100
AcDbBlockReference
  2
SW_CENTERMARKSYMBOL_0
 10
81.0185696203
 20
129.8520784152
 30
0.0
  0
LINE
  5
CC
330
1F
100
AcDbEntity
  8
0
  6
Continuous
 62
     7
370
    15
100
AcDbLine
 10
196.2234118724
 20
154.8520787877
 30
0.0
 11
195.1734089995
 21
153.8020777774
 31
0.0
  0
LINE
  5
CD
330
1F
100
AcDbEntity
  8
0
  6
Continuous
 62
     7
370
    15
100
AcDbLine
 10
195.1734089995
 20
105.902079053
 30
0.0
 11
196.2234118724
 21
104.8520780427
 31
0.0
  0
LINE
  5
CE
330
1F
100
AcDbEntity
  8
0
  6
Continuous
 62
     7
370
    15
100
AcDbLine
 10
196.2234118724
 20
104.8520780427
 30
0.0
 11
224.1790110016
 21
104.8520780427
 31
0.0
  0
LINE
  5
CF
330
1F
100
AcDbEntity
  8
0
  6
Continuous
 62
     7
370
    15
100
AcDbLine
 10
224.1790110016
 20
154.8520787877
 30
0.0
 11
196.2234118724
 21
154.8520787877
 31
0.0
  0
LINE
  5
D0
330
1F
100
AcDbEntity
  8
0
  6
Continuous
 62
     7
370
    15
100
AcDbLine
 10
224.1790110016
 20
104.8520780427
 30
0.0
 11
244.4734100023
 21
112.027231164
 31
0.0
  0
LINE
  5
D1
330
1F
100
AcDbEntity
  8
0
  6
Continuous
 62
     7
370
    15
100
AcDbLine
 10
244.4734100023
 20
147.6769256664
 30
0.0
 11
224.1790110016
 21
154.8520787877
 31
0.0
  0
LINE
  5
D2
330
1F
100
AcDbEntity
  8
0
  6
Continuous
 62
     7
370
    15
100
AcDbLine
 10
182.5734117771
 20
153.8520786238
 30
0.0
 11
177.6163020873
 21
148.8949707968
 31
0.0
  0
LINE
  5
D3
330
1F
100
AcDbEntity
  8
0
  6
Continuous
 62
     7
370
    15
100
AcDbLine
 10
177.6163020873
 20
110.8091860337
 30
0.0
 11
182.5734117771
 21
105.8520782066
 31
0.0
  0
LINE
  5
D4
330
1F
100
AcDbEntity
  8
0
  6
Continuous
 62
     7
370
    15
100
AcDbLine
 10
182.5734117771
 20
105.8520782066
 30
0.0
 11
195.1734089995
 21
105.8520782066
 31
0.0
  0
LINE
  5
D5
330
1F
100
AcDbEntity
  8
0
  6
Continuous
 62
     7
370
    15
100
AcDbLine
 10
195.1734089995
 20
153.8520786238
 30
0.0
 11
182.5734117771
 21
153.8520786238
 31
0.0
  0
LINE
  5
D6
330
1F
100
AcDbEntity
  8
0
  6
Continuous
 62
     7
370
    15
100
AcDbLine
 10
155.1734098936
 20
153.6020781172
 30
0.0
 11
154.6734088803
 21
153.1020789666
 31
0.0
  0
LINE
  5
D7
330
1F
100
AcDbEntity
  8
0
  6
Continuous
 62
     7
370
    15
100
AcDbLine
 10
154.6734088803
 20
106.6020778639
 30
0.0
 11
155.1734098936
 21
106.1020787132
 31
0.0
  0
LINE
  5
D8
330
1F
100
AcDbEntity
  8
0
  6
Continuous
 62
     7
370
    15
100
AcDbLine
 10
155.1734098936
 20
106.1020787132
 30
0.0
 11
162.6734101916
 21
106.1020787132
 31
0.0
  0
LINE
  5
D9
330
1F
100
AcDbEntity
  8
0
  6
Continuous
 62
     7
370
    15
100
AcDbLine
 10
162.6734101916
 20
153.6020781172
 30
0.0
 11
155.1734098936
 21
153.6020781172
 31
0.0
  0
LINE
  5
DA
330
1F
100
AcDbEntity
  8
0
  6
Continuous
 62
     7
370
    15
100
AcDbLine
 10
162.6734101916
 20
106.1020787132
 30
0.0
 11
163.1734112049
 21
106.6020778639
 31
0.0
  0
LINE
  5
DB
330
1F
100
AcDbEntity
  8
0
  6
Continuous
 62
     7
370
    15
100
AcDbLine
 10
163.1734112049
 20
153.1020789666
 30
0.0
 11
162.6734101916
 21
153.6020781172
 31
0.0
  0
LINE
  5
DC
330
1F
100
AcDbEntity
  8
0
  6
Continuous
 62
     7
370
    15
100
AcDbLine
 10
164.6734067941
 20
111.1020776702
 30
0.0
 11
176.9134068633
 21
111.1020776702
 31
0.0
  0
LINE
  5
DD
330
1F
100
AcDbEntity
  8
0
  6
Continuous
 62
     7
370
    15
100
AcDbLine
 10
176.9134068633
 20
148.6020791603
 30
0.0
 11
164.6734067941
 21
148.6020791603
 31
0.0
  0
LINE
  5
DE
330
1F
100
AcDbEntity
  8
0
  6
Continuous
 62
     7
370
    15
100
AcDbLine
 10
163.1734112049
 20
115.6170782891
 30
0.0
 11
163.6734122181
 21
115.6170782891
 31
0.0
  0
LINE
  5
DF
330
1F
100
AcDbEntity
  8
0
  6
Continuous
 62
     7
370
    15
100
AcDbLine
 10
163.6734122181
 20
144.0870785413
 30
0.0
 11
163.1734112049
 21
144.0870785413
 31
0.0
  0
LINE
  5
E0
330
1F
100
AcDbEntity
  8
0
  6
Continuous
 62
     7
370
    15
100
AcDbLine
 10
244.4734100023
 20
116.5487780494
 30
0.0
 11
259.4734096671
 21
121.8520780352
 31
0.0
  0
LINE
  5
E1
330
1F
100
AcDbEntity
  8
0
  6
Continuous
 62
     7
370
    15
100
AcDbLine
 10
259.4734096671
 20
137.8520787952
 30
0.0
 11
244.4734100023
 21
143.155378781
 31
0.0
  0
LINE
  5
E2
330
1F
100
AcDbEntity
  8
0
  6
Continuous
 62
     7
370
    15
100
AcDbLine
 10
196.2234118724
 20
154.8520787877
 30
0.0
 11
196.2234118724
 21
104.8520780427
 31
0.0
  0
LINE
  5
E3
330
1F
100
AcDbEntity
  8
0
  6
Continuous
 62
     7
370
    15
100
AcDbLine
 10
224.1790110016
 20
154.8520787877
 30
0.0
 11
224.1790110016
 21
104.8520780427
 31
0.0
  0
LINE
  5
E4
330
1F
100
AcDbEntity
  8
0
  6
Continuous
 62
     7
370
    15
100
AcDbLine
 10
244.4734100023
 20
129.8520784152
 30
0.0
 11
244.4734100023
 21
112.027231164
 31
0.0
  0
LINE
  5
E5
330
1F
100
AcDbEntity
  8
0
  6
Continuous
 62
     7
370
    15
100
AcDbLine
 10
244.4734100023
 20
147.6769256664
 30
0.0
 11
244.4734100023
 21
129.8520784152
 31
0.0
  0
LINE
  5
E6
330
1F
100
AcDbEntity
  8
0
  6
Continuous
 62
     7
370
    15
100
AcDbLine
 10
182.5734117771
 20
153.8520786238
 30
0.0
 11
182.5734117771
 21
105.8520782066
 31
0.0
  0
LINE
  5
E7
330
1F
100
AcDbEntity
  8
0
  6
Continuous
 62
     7
370
    15
100
AcDbLine
 10
177.6163020873
 20
148.8949707968
 30
0.0
 11
177.6163020873
 21
110.8091860337
 31
0.0
  0
LINE
  5
E8
330
1F
100
AcDbEntity
  8
0
  6
Continuous
 62
     7
370
    15
100
AcDbLine
 10
195.1734089995
 20
129.8520784152
 30
0.0
 11
195.1734089995
 21
105.8520782066
 31
0.0
  0
LINE
  5
E9
330
1F
100
AcDbEntity
  8
0
  6
Continuous
 62
     7
370
    15
100
AcDbLine
 10
195.1734089995
 20
153.8520786238
 30
0.0
 11
195.1734089995
 21
129.8520784152
 31
0.0
  0
LINE
  5
EA
330
1F
100
AcDbEntity
  8
0
  6
Continuous
 62
     7
370
    15
100
AcDbLine
 10
155.1734098936
 20
106.1020787132
 30
0.0
 11
155.1734098936
 21
153.6020781172
 31
0.0
  0
LINE
  5
EB
330
1F
100
AcDbEntity
  8
0
  6
Continuous
 62
     7
370
    15
100
AcDbLine
 10
154.6734088803
 20
106.6020778639
 30
0.0
 11
154.6734088803
 21
153.1020789666
 31
0.0
  0
LINE
  5
EC
330
1F
100
AcDbEntity
  8
0
  6
Continuous
 62
     7
370
    15
100
AcDbLine
 10
162.6734101916
 20
106.1020787132
 30
0.0
 11
162.6734101916
 21
153.6020781172
 31
0.0
  0
LINE
  5
ED
330
1F
100
AcDbEntity
  8
0
  6
Continuous
 62
     7
370
    15
100
AcDbLine
 10
163.1734112049
 20
129.8520784152
 30
0.0
 11
163.1734112049
 21
106.6020778639
 31
0.0
  0
LINE
  5
EE
330
1F
100
AcDbEntity
  8
0
  6
Continuous
 62
     7
370
    15
100
AcDbLine
 10
163.1734112049
 20
153.1020789666
 30
0.0
 11
163.1734112049
 21
129.8520784152
 31
0.0
  0
LINE
  5
EF
330
1F
100
AcDbEntity
  8
0
  6
Continuous
 62
     7
370
    15
100
AcDbLine
 10
176.9134068633
 20
148.6020791603
 30
0.0
 11
176.9134068633
 21
111.1020776702
 31
0.0
  0
SPLINE
  5
F0
330
1F
100
AcDbEntity
  8
0
  6
Continuous
 62
     7
370
    15
100
AcDbSpline
210
0.0
220
0.0
230
1.0
 70
     8
 71
     3
 72
    10
 73
     6
 74
     0
 42
0.000000001
 43
0.00000001
 40
0.0
 40
0.0
 40
0.0
 40
0.0
 40
0.5
 40
0.5
 40
1.0
 40
1.0
 40
1.0
 40
1.0
 10
177.6163028858234
 20
148.894971633972
 30
0.0
 10
177.5265632395225
 20
148.805229725167
 30
0.0
 10
177.4155592795763
 20
148.7297281829932
 30
0.0
 10
177.1720929652292
 20
148.6282765961342
 30
0.0
 10
177.0403211602703
 20
148.6026143010585
 30
0.0
 10
176.9134096670624
 20
148.6020784153969
 30
0.0
  0
SPLINE
  5
F1
330
1F
100
AcDbEntity
  8
0
  6
Continuous
 62
     7
370
    15
100
AcDbSpline
210
0.0
220
0.0
230
1.0
 70
     8
 71
     3
 72
    10
 73
     6
 74
     0
 42
0.000000001
 43
0.00000001
 40
0.0
 40
0.0
 40
0.0
 40
0.0
 40
0.5
 40
0.5
 40
1.0
 40
1.0
 40
1.0
 40
1.0
 10
177.6163028858234
 20
110.8091851964464
 30
0.0
 10
177.5265632396282
 20
110.8989271051458
 30
0.0
 10
177.4155592798394
 20
110.9744286472491
 30
0.0
 10
177.1720929658263
 20
111.0758802341021
 30
0.0
 10
177.0403211610397
 20
111.1015425292429
 30
0.0
 10
176.9134096679591
 20
111.1020784150178
 30
0.0
  0
LINE
  5
F2
330
1F
100
AcDbEntity
  8
0
  6
Continuous
 62
     7
370
    15
100
AcDbLine
 10
164.6734067941
 20
111.1020776702
 30
0.0
 11
164.6734067941
 21
148.6020791603
 31
0.0
  0
SPLINE
  5
F3
330
1F
100
AcDbEntity
  8
0
  6
Continuous
 62
     7
370
    15
100
AcDbSpline
210
0.0
220
0.0
230
1.0
 70
     8
 71
     3
 72
    14
 73
    10
 74
     0
 42
0.000000001
 43
0.00000001
 40
0.0
 40
0.0
 40
0.0
 40
0.0
 40
0.25
 40
0.25
 40
0.5
 40
0.5
 40
0.75
 40
0.75
 40
1.0
 40
1.0
 40
1.0
 40
1.0
 10
163.6734096672606
 20
112.102078415076
 30
0.0
 10
163.6734096672382
 20
111.984227284902
 30
0.0
 10
163.6948884060399
 20
111.8570806559555
 30
0.0
 10
163.7923543262535
 20
111.6108867552652
 30
0.0
 10
163.8686718130433
 20
111.4926027070048
 30
0.0
 10
164.0639339588511
 20
111.297340561197
 30
0.0
 10
164.1822180071115
 20
111.2210230744072
 30
0.0
 10
164.4284119078017
 20
111.1235571541936
 30
0.0
 10
164.5555585367483
 20
111.102078415392
 30
0.0
 10
164.6734096669223
 20
111.1020784154143
 30
0.0
  0
SPLINE
  5
F4
330
1F
100
AcDbEntity
  8
0
  6
Continuous
 62
     7
370
    15
100
AcDbSpline
210
0.0
220
0.0
230
1.0
 70
    24
 71
     3
 72
    42
 73
    38
 74
     0
 42
0.000000001
 43
0.00000001
 40
0.0
 40
0.0
 40
0.0
 40
0.0
 40
0.007071560837151
 40
0.0141366650463266
 40
0.0211987934020014
 40
0.0282614310785407
 40
0.0353280624967378
 40
0.0424021661759159
 40
0.0663836769266921
 40
0.0903743736308315
 40
0.1174024043286938
 40
0.1444395690212456
 40
0.2048316413022894
 40
0.2374547254103128
 40
0.2716061307118516
 40
0.3071860811637832
 40
0.344050917711986
 40
0.3820123452461884
 40
0.4208399243955834
 40
0.4602671927641383
 40
0.5000012927514377
 40
0.539735392738737
 40
0.579162661107292
 40
0.617990240256687
 40
0.6559516677908894
 40
0.6928165043390923
 40
0.7283964547910238
 40
0.7625478600925625
 40
0.7951709442005859
 40
0.8555630164816298
 40
0.8825910466932436
 40
0.9096282113097712
 40
0.9336097219124552
 40
0.9576004188807075
 40
0.9717362275165183
 40
0.9858601221075272
 40
1.0
 40
1.0
 40
1.0
 40
1.0
 10
163.6734096670555
 20
112.1020784152901
 30
0.0
 10
163.6734096670555
 20
112.1029171776597
 30
0.0
 10
163.6734096670555
 20
112.104593936574
 30
0.0
 10
163.6734096670555
 20
112.1181772017209
 30
0.0
 10
163.6734096670555
 20
112.1398665613415
 30
0.0
 10
163.6734096670555
 20
112.170453629753
 30
0.0
 10
163.6734096670555
 20
112.2097291104455
 30
0.0
 10
163.6734096670555
 20
112.2959559924755
 30
0.0
 10
163.6734096670555
 20
112.4697947209079
 30
0.0
 10
163.6734096670555
 20
112.8097638541148
 30
0.0
 10
163.6734096670555
 20
113.2748605083357
 30
0.0
 10
163.6734096670555
 20
114.1254750738347
 30
0.0
 10
163.6734096670555
 20
115.296675840808
 30
0.0
 10
163.6734096670555
 20
116.8113117994238
 30
0.0
 10
163.6734096670555
 20
118.1775099492968
 30
0.0
 10
163.6734096670555
 20
119.7431055893959
 30
0.0
 10
163.6734096670555
 20
121.4978626367158
 30
0.0
 10
163.6734096670555
 20
123.4212764659843
 30
0.0
 10
163.6734096670555
 20
125.4826276723574
 30
0.0
 10
163.6734096670555
 20
127.6419136769675
 30
0.0
 10
163.6734096670555
 20
129.8520784151918
 30
0.0
 10
163.6734096670555
 20
132.0622431535203
 30
0.0
 10
163.6734096670555
 20
134.2215291578217
 30
0.0
 10
163.6734096670556
 20
136.2828803653
 30
0.0
 10
163.6734096670555
 20
138.2062941905893
 30
0.0
 10
163.6734096670555
 20
139.9610512521116
 30
0.0
 10
163.6734096670555
 20
141.5266468419721
 30
0.0
 10
163.6734096670555
 20
142.892845168126
 30
0.0
 10
163.6734096670555
 20
144.4074803281954
 30
0.0
 10
163.6734096670555
 20
145.5785963374264
 30
0.0
 10
163.6734096670555
 20
146.4292293863163
 30
0.0
 10
163.6734096670555
 20
146.8943143570901
 30
0.0
 10
163.6734096670555
 20
147.2342699134246
 30
0.0
 10
163.6734096670555
 20
147.4306590509603
 30
0.0
 10
163.6734096670555
 20
147.5376529383026
 30
0.0
 10
163.6734096670555
 20
147.5920222777579
 30
0.0
 10
163.6734096670555
 20
147.5987251058442
 30
0.0
 10
163.6734096670555
 20
147.6020784151283
 30
0.0
  0
SPLINE
  5
F5
330
1F
100
AcDbEntity
  8
0
  6
Continuous
 62
     7
370
    15
100
AcDbSpline
210
0.0
220
0.0
230
1.0
 70
     8
 71
     3
 72
    14
 73
    10
 74
     0
 42
0.000000001
 43
0.00000001
 40
0.0
 40
0.0
 40
0.0
 40
0.0
 40
0.25
 40
0.25
 40
0.5
 40
0.5
 40
0.75
 40
0.75
 40
1.0
 40
1.0
 40
1.0
 40
1.0
 10
163.6734096672606
 20
147.6020784153424
 30
0.0
 10
163.6734096672382
 20
147.7199295455164
 30
0.0
 10
163.6948884060399
 20
147.847076174463
 30
0.0
 10
163.7923543262535
 20
148.0932700751532
 30
0.0
 10
163.8686718130433
 20
148.2115541234137
 30
0.0
 10
164.0639339588511
 20
148.4068162692214
 30
0.0
 10
164.1822180071115
 20
148.4831337560113
 30
0.0
 10
164.4284119078018
 20
148.5805996762248
 30
0.0
 10
164.5555585367483
 20
148.6020784150265
 30
0.0
 10
164.6734096669223
 20
148.6020784150042
 30
0.0
  0
SPLINE
  5
F6
330
1F
100
AcDbEntity
  8
0
  6
Continuous
 62
     7
370
    15
100
AcDbSpline
210
0.0
220
0.0
230
1.0
 70
     8
 71
     3
 72
    10
 73
     6
 74
     0
 42
0.000000001
 43
0.00000001
 40
0.0
 40
0.0
 40
0.0
 40
0.0
 40
0.3357804492741805
 40
0.6808266897516624
 40
1.0
 40
1.0
 40
1.0
 40
1.0
 10
154.6734088802742
 20
115.7734026459398
 30
0.0
 10
154.5753832191251
 20
115.8363076781437
 30
0.0
 10
154.3766268992289
 20
115.9638535937462
 30
0.0
 10
154.2074862831932
 20
116.2807797583918
 30
0.0
 10
154.1844684729215
 20
116.5079282122251
 30
0.0
 10
154.1734078669952
 20
116.6170784530582
 30
0.0
  0
SPLINE
  5
F7
330
1F
100
AcDbEntity
  8
0
  6
Continuous
 62
     7
370
    15
100
AcDbSpline
210
0.0
220
0.0
230
1.0
 70
    24
 71
     3
 72
    38
 73
    34
 74
     0
 42
0.000000001
 43
0.00000001
 40
0.0
 40
0.0
 40
0.0
 40
0.0
 40
0.0625
 40
0.0625
 40
0.125
 40
0.125
 40
0.1875
 40
0.1875
 40
0.25
 40
0.25
 40
0.3125
 40
0.3125
 40
0.375
 40
0.375
 40
0.4375
 40
0.4375
 40
0.5
 40
0.5
 40
0.5625
 40
0.5625
 40
0.625
 40
0.625
 40
0.6875
 40
0.6875
 40
0.75
 40
0.75
 40
0.8125
 40
0.8125
 40
0.875
 40
0.875
 40
0.9375
 40
0.9375
 40
1.0
 40
1.0
 40
1.0
 40
1.0
 10
154.1734096672605
 20
143.0870784151282
 30
0.0
 10
154.1734096672605
 20
143.0870784151282
 30
0.0
 10
154.1734096672605
 20
143.0528740921588
 30
0.0
 10
154.1734096672605
 20
142.8870349504886
 30
0.0
 10
154.1734096672605
 20
142.755321081797
 30
0.0
 10
154.1734096672605
 20
142.360035748466
 30
0.0
 10
154.1734096672605
 20
142.0962496056405
 30
0.0
 10
154.1734096672605
 20
141.4011656515986
 30
0.0
 10
154.1734096672605
 20
140.9694784151412
 30
0.0
 10
154.1734096672605
 20
139.9106784151477
 30
0.0
 10
154.1734096672606
 20
139.2830610885737
 30
0.0
 10
154.1734096672606
 20
137.8260272485876
 30
0.0
 10
154.1734096672605
 20
136.9962306643005
 30
0.0
 10
154.1734096672605
 20
135.1643967542771
 30
0.0
 10
154.1734096672605
 20
134.1624594802716
 30
0.0
 10
154.1734096672605
 20
132.0573896577993
 30
0.0
 10
154.1734096672605
 20
130.9549950818692
 30
0.0
 10
154.1734096672605
 20
128.7491617485493
 30
0.0
 10
154.1734096672605
 20
127.6467671726192
 30
0.0
 10
154.1734096672605
 20
125.5416973501468
 30
0.0
 10
154.1734096672606
 20
124.5397600761414
 30
0.0
 10
154.1734096672605
 20
122.707926166118
 30
0.0
 10
154.1734096672606
 20
121.8781295818308
 30
0.0
 10
154.1734096672606
 20
120.4210957418448
 30
0.0
 10
154.1734096672605
 20
119.7934784152708
 30
0.0
 10
154.1734096672605
 20
118.7346784152772
 30
0.0
 10
154.1734096672605
 20
118.3029911788198
 30
0.0
 10
154.1734096672605
 20
117.6079072247779
 30
0.0
 10
154.1734096672605
 20
117.3441210819524
 30
0.0
 10
154.1734096672605
 20
116.9488357486215
 30
0.0
 10
154.1734096672605
 20
116.8171218799299
 30
0.0
 10
154.1734096672605
 20
116.6512827382597
 30
0.0
 10
154.1734096672605
 20
116.6170784152902
 30
0.0
 10
154.1734096672605
 20
116.6170784152902
 30
0.0
  0
SPLINE
  5
F8
330
1F
100
AcDbEntity
  8
0
  6
Continuous
 62
     7
370
    15
100
AcDbSpline
210
0.0
220
0.0
230
1.0
 70
     8
 71
     3
 72
    10
 73
     6
 74
     0
 42
0.000000001
 43
0.00000001
 40
0.0
 40
0.0
 40
0.0
 40
0.0
 40
0.4092689027905053
 40
0.851711746056994
 40
1.0
 40
1.0
 40
1.0
 40
1.0
 10
154.1734078669952
 20
143.0870783773603
 30
0.0
 10
154.1918568468296
 20
143.2270687740931
 30
0.0
 10
154.2302502178398
 20
143.5183967113478
 30
0.0
 10
154.4459408767764
 20
143.8208397959951
 30
0.0
 10
154.6277661876789
 20
143.9121817903909
 30
0.0
 10
154.6734088802742
 20
143.9351109114828
 30
0.0
  0
LINE
  5
F9
330
1F
100
AcDbEntity
  8
0
  6
Continuous
 62
     7
370
    15
100
AcDbLine
 10
259.4734096671
 20
129.8520784152
 30
0.0
 11
259.4734096671
 21
121.8520780352
 31
0.0
  0
LINE
  5
FA
330
1F
100
AcDbEntity
  8
0
  6
Continuous
 62
     7
370
    15
100
AcDbLine
 10
259.4734096671
 20
137.8520787952
 30
0.0
 11
259.4734096671
 21
129.8520784152
 31
0.0
  0
DIMENSION
  5
FB
330
1F
100
AcDbEntity
  8
DIM
100
AcDbDimension
  2
_D
 10
154.1734096672
 20
96.5433714875
 30
0.0
 11
206.8234096671
 21
96.5433714875
 31
0.0
 70
   160
  1
<>
 71
     2
 42
-1.0
  3
SLDDIMSTYLE0
100
AcDbAlignedDimension
 13
259.4734096671
 23
121.8520784152
 33
0.0
 14
154.1734096672
 24
116.6170784178
 34
0.0
100
AcDbRotatedDimension
  0
DIMENSION
  5
107
330
1F
100
AcDbEntity
  8
DIM
100
AcDbDimension
  2
_D_1
 10
267.1762997513
 20
104.8520784152
 30
0.0
 11
267.1762997513
 21
129.8520784152
 31
0.0
 70
   160
  1
%%c<>
 71
     2
 42
-1.0
  3
SLDDIMSTYLE1
100
AcDbAlignedDimension
 13
224.1790110931
 23
154.8520784152
 33
0.0
 14
224.1790110931
 24
104.8520784152
 34
0.0
 50
90.0
100
AcDbRotatedDimension
  0
DIMENSION
  5
113
330
1F
100
AcDbEntity
  8
DIM
100
AcDbDimension
  2
_D_2
 10
147.5874303681
 20
106.1020784152
 30
0.0
 11
147.5874303681
 21
129.8520784152
 31
0.0
 70
   160
  1
%%c<>
 71
     2
 42
-1.0
  3
SLDDIMSTYLE2
100
AcDbAlignedDimension
 13
155.1734096671
 23
153.6020784152
 33
0.0
 14
155.1734096671
 24
106.1020784152
 34
0.0
 50
90.0
100
AcDbRotatedDimension
  0
LINE
  5
11F
330
1F
100
AcDbEntity
  8
DIM
  6
CENTERX2
 48
0.8333333333
370
     0
100
AcDbLine
 10
261.8734096671
 20
129.8520784152
 30
0.0
 11
152.2734096671
 21
129.8520784152
 31
0.0
  0
ENDSEC
  0
SECTION
  2
OBJECTS
  0
DICTIONARY
  5
C
330
0
100
AcDbDictionary
281
     1
  3
ACAD_GROUP
350
D
  3
ACAD_LAYOUT
350
1A
  3
ACAD_MLINESTYLE
350
17
  3
ACAD_PLOTSETTINGS
350
19
  3
ACAD_PLOTSTYLENAME
350
E
  3
ACAD_SCALELIST
350
47
  0
DICTIONARY
  5
D
102
{ACAD_REACTORS
330
C
102
}
330
C
100
AcDbDictionary
281
     1
  0
DICTIONARY
  5
1A
102
{ACAD_REACTORS
330
C
102
}
330
C
100
AcDbDictionary
281
     1
  3
Layout1
350
1E
  3
Layout2
350
26
  3
Model
350
22
  0
DICTIONARY
  5
17
102
{ACAD_REACTORS
330
C
102
}
330
C
100
AcDbDictionary
281
     1
  3
Standard
350
18
  0
DICTIONARY
  5
19
102
{ACAD_REACTORS
330
C
102
}
330
C
100
AcDbDictionary
281
     1
  0
ACDBDICTIONARYWDFLT
  5
E
102
{ACAD_REACTORS
330
C
102
}
330
C
100
AcDbDictionary
281
     1
  3
Normal
350
F
100
AcDbDictionaryWithDefault
340
F
  0
DICTIONARY
  5
47
102
{ACAD_REACTORS
330
C
102
}
330
C
100
AcDbDictionary
281
     1
  3
A0
350
48
  3
A1
350
49
  3
A2
350
4A
  3
A3
350
4B
  3
A4
350
4C
  3
A5
350
4D
  3
A6
350
4E
  3
A7
350
4F
  3
A8
350
50
  3
A9
350
51
  3
B0
350
52
  3
B1
350
53
  3
B2
350
54
  3
B3
350
55
  3
B4
350
56
  3
B5
350
57
  3
B6
350
58
  3
B7
350
59
  3
B8
350
5A
  3
B9
350
5B
  3
C0
350
5C
  3
C1
350
5D
  3
C2
350
5E
  3
C3
350
5F
  3
C4
350
60
  3
C5
350
61
  3
C6
350
62
  3
C7
350
63
  3
C8
350
64
  3
C9
350
65
  3
D0
350
66
  3
D1
350
67
  3
D2
350
68
  0
LAYOUT
  5
1E
102
{ACAD_REACTORS
330
1A
102
}
330
1A
100
AcDbPlotSettings
  1

  2
none_device
  4

  6

 40
0.0
 41
0.0
 42
0.0
 43
0.0
 44
0.0
 45
0.0
 46
0.0
 47
0.0
 48
0.0
 49
0.0
140
0.0
141
0.0
142
1.0
143
1.0
 70
   688
 72
     1
 73
     0
 74
     5
  7

 75
    16
147
1.0
148
0.0
149
0.0
100
AcDbLayout
  1
Layout1
 70
     1
 71
     1
 10
0.0
 20
0.0
 11
420.0
 21
297.0
 12
0.0
 22
0.0
 32
0.0
 14
1.0000000000E+20
 24
1.0000000000E+20
 34
1.0000000000E+20
 15
-1.0000000000E+20
 25
-1.0000000000E+20
 35
-1.0000000000E+20
146
0.0
 13
0.0
 23
0.0
 33
0.0
 16
1.0
 26
0.0
 36
0.0
 17
0.0
 27
1.0
 37
0.0
 76
     0
330
1B
  0
LAYOUT
  5
26
102
{ACAD_REACTORS
330
1A
102
}
330
1A
100
AcDbPlotSettings
  1

  2
none_device
  4

  6

 40
0.0
 41
0.0
 42
0.0
 43
0.0
 44
0.0
 45
0.0
 46
0.0
 47
0.0
 48
0.0
 49
0.0
140
0.0
141
0.0
142
1.0
143
1.0
 70
   688
 72
     1
 73
     0
 74
     5
  7

 75
    16
147
1.0
148
0.0
149
0.0
100
AcDbLayout
  1
Layout2
 70
     1
 71
     2
 10
0.0
 20
0.0
 11
0.0
 21
0.0
 12
0.0
 22
0.0
 32
0.0
 14
0.0
 24
0.0
 34
0.0
 15
0.0
 25
0.0
 35
0.0
146
0.0
 13
0.0
 23
0.0
 33
0.0
 16
1.0
 26
0.0
 36
0.0
 17
0.0
 27
1.0
 37
0.0
 76
     0
330
23
  0
LAYOUT
  5
22
102
{ACAD_REACTORS
330
1A
102
}
330
1A
100
AcDbPlotSettings
  1

  2
none_device
  4
Letter_(8.50_x_11.00_Inches)
  6

 40
6.35
 41
6.35
 42
6.35000508
 43
6.35000508
 44
215.9
 45
279.4
 46
0.0
 47
0.0
 48
0.0
 49
0.0
140
0.0
141
0.0
142
1.0
143
1.0
 70
  1712
 72
     1
 73
     0
 74
     0
  7

 75
     0
147
1.0
148
0.0
149
0.0
100
AcDbLayout
  1
Model
 70
     1
 71
     0
 10
0.0
 20
0.0
 11
356.4
 21
252.0
 12
0.0
 22
0.0
 32
0.0
 14
0.0
 24
0.0
 34
0.0
 15
356.4
 25
252.0
 35
0.0
146
0.0
 13
0.0
 23
0.0
 33
0.0
 16
1.0
 26
0.0
 36
0.0
 17
0.0
 27
1.0
 37
0.0
 76
     0
330
1F
331
29
  0
MLINESTYLE
  5
18
102
{ACAD_REACTORS
330
17
102
}
330
17
100
AcDbMlineStyle
  2
Standard
 70
     0
  3

 62
   256
 51
90.0
 52
90.0
 71
     2
 49
0.5
 62
   256
  6
BYLAYER
 49
-0.5
 62
   256
  6
BYLAYER
  0
ACDBPLACEHOLDER
  5
F
102
{ACAD_REACTORS
330
E
102
}
330
E
  0
SCALE
  5
48
102
{ACAD_REACTORS
330
47
102
}
330
47
100
AcDbScale
 70
     0
300
1:1
140
1.0
141
1.0
290
     1
  0
SCALE
  5
49
102
{ACAD_REACTORS
330
47
102
}
330
47
100
AcDbScale
 70
     0
300
1:2
140
1.0
141
2.0
290
     0
  0
SCALE
  5
4A
102
{ACAD_REACTORS
330
47
102
}
330
47
100
AcDbScale
 70
     0
300
1:4
140
1.0
141
4.0
290
     0
  0
SCALE
  5
4B
102
{ACAD_REACTORS
330
47
102
}
330
47
100
AcDbScale
 70
     0
300
1:5
140
1.0
141
5.0
290
     0
  0
SCALE
  5
4C
102
{ACAD_REACTORS
330
47
102
}
330
47
100
AcDbScale
 70
     0
300
1:8
140
1.0
141
8.0
290
     0
  0
SCALE
  5
4D
102
{ACAD_REACTORS
330
47
102
}
330
47
100
AcDbScale
 70
     0
300
1:10
140
1.0
141
10.0
290
     0
  0
SCALE
  5
4E
102
{ACAD_REACTORS
330
47
102
}
330
47
100
AcDbScale
 70
     0
300
1:16
140
1.0
141
16.0
290
     0
  0
SCALE
  5
4F
102
{ACAD_REACTORS
330
47
102
}
330
47
100
AcDbScale
 70
     0
300
1:20
140
1.0
141
20.0
290
     0
  0
SCALE
  5
50
102
{ACAD_REACTORS
330
47
102
}
330
47
100
AcDbScale
 70
     0
300
1:30
140
1.0
141
30.0
290
     0
  0
SCALE
  5
51
102
{ACAD_REACTORS
330
47
102
}
330
47
100
AcDbScale
 70
     0
300
1:40
140
1.0
141
40.0
290
     0
  0
SCALE
  5
52
102
{ACAD_REACTORS
330
47
102
}
330
47
100
AcDbScale
 70
     0
300
1:50
140
1.0
141
50.0
290
     0
  0
SCALE
  5
53
102
{ACAD_REACTORS
330
47
102
}
330
47
100
AcDbScale
 70
     0
300
1:100
140
1.0
141
100.0
290
     0
  0
SCALE
  5
54
102
{ACAD_REACTORS
330
47
102
}
330
47
100
AcDbScale
 70
     0
300
2:1
140
2.0
141
1.0
290
     0
  0
SCALE
  5
55
102
{ACAD_REACTORS
330
47
102
}
330
47
100
AcDbScale
 70
     0
300
4:1
140
4.0
141
1.0
290
     0
  0
SCALE
  5
56
102
{ACAD_REACTORS
330
47
102
}
330
47
100
AcDbScale
 70
     0
300
8:1
140
8.0
141
1.0
290
     0
  0
SCALE
  5
57
102
{ACAD_REACTORS
330
47
102
}
330
47
100
AcDbScale
 70
     0
300
10:1
140
10.0
141
1.0
290
     0
  0
SCALE
  5
58
102
{ACAD_REACTORS
330
47
102
}
330
47
100
AcDbScale
 70
     0
300
100:1
140
100.0
141
1.0
290
     0
  0
SCALE
  5
59
102
{ACAD_REACTORS
330
47
102
}
330
47
100
AcDbScale
 70
     0
300
1/128" = 1'-0"
140
0.0078125
141
12.0
290
     0
  0
SCALE
  5
5A
102
{ACAD_REACTORS
330
47
102
}
330
47
100
AcDbScale
 70
     0
300
1/64" = 1'-0"
140
0.015625
141
12.0
290
     0
  0
SCALE
  5
5B
102
{ACAD_REACTORS
330
47
102
}
330
47
100
AcDbScale
 70
     0
300
1/32" = 1'-0"
140
0.03125
141
12.0
290
     0
  0
SCALE
  5
5C
102
{ACAD_REACTORS
330
47
102
}
330
47
100
AcDbScale
 70
     0
300
1/16" = 1'-0"
140
0.0625
141
12.0
290
     0
  0
SCALE
  5
5D
102
{ACAD_REACTORS
330
47
102
}
330
47
100
AcDbScale
 70
     0
300
3/32" = 1'-0"
140
0.09375
141
12.0
290
     0
  0
SCALE
  5
5E
102
{ACAD_REACTORS
330
47
102
}
330
47
100
AcDbScale
 70
     0
300
1/8" = 1'-0"
140
0.125
141
12.0
290
     0
  0
SCALE
  5
5F
102
{ACAD_REACTORS
330
47
102
}
330
47
100
AcDbScale
 70
     0
300
3/16" = 1'-0"
140
0.1875
141
12.0
290
     0
  0
SCALE
  5
60
102
{ACAD_REACTORS
330
47
102
}
330
47
100
AcDbScale
 70
     0
300
1/4" = 1'-0"
140
0.25
141
12.0
290
     0
  0
SCALE
  5
61
102
{ACAD_REACTORS
330
47
102
}
330
47
100
AcDbScale
 70
     0
300
3/8" = 1'-0"
140
0.375
141
12.0
290
     0
  0
SCALE
  5
62
102
{ACAD_REACTORS
330
47
102
}
330
47
100
AcDbScale
 70
     0
300
1/2" = 1'-0"
140
0.5
141
12.0
290
     0
  0
SCALE
  5
63
102
{ACAD_REACTORS
330
47
102
}
330
47
100
AcDbScale
 70
     0
300
3/4" = 1'-0"
140
0.75
141
12.0
290
     0
  0
SCALE
  5
64
102
{ACAD_REACTORS
330
47
102
}
330
47
100
AcDbScale
 70
     0
300
1" = 1'-0"
140
1.0
141
12.0
290
     0
  0
SCALE
  5
65
102
{ACAD_REACTORS
330
47
102
}
330
47
100
AcDbScale
 70
     0
300
1-1/2" = 1'-0"
140
1.5
141
12.0
290
     0
  0
SCALE
  5
66
102
{ACAD_REACTORS
330
47
102
}
330
47
100
AcDbScale
 70
     0
300
3" = 1'-0"
140
3.0
141
12.0
290
     0
  0
SCALE
  5
67
102
{ACAD_REACTORS
330
47
102
}
330
47
100
AcDbScale
 70
     0
300
6" = 1'-0"
140
6.0
141
12.0
290
     0
  0
SCALE
  5
68
102
{ACAD_REACTORS
330
47
102
}
330
47
100
AcDbScale
 70
     0
300
1'-0" = 1'-0"
140
12.0
141
12.0
290
     0
  0
ENDSEC
  0
EOF
