  0
SECTION
  2
HEADER
  9
$ACADVER
  1
AC1015
  9
$ACADMAINTVER
 70
     6
  9
$DWGCODEPAGE
  3
ANSI_1252
  9
$INSBASE
 10
0.0
 20
0.0
 30
0.0
  9
$EXTMIN
 10
0.0
 20
0.0
 30
0.0
  9
$EXTMAX
 10
534.6
 20
378.0
 30
0.0
  9
$LIMMIN
 10
0.0
 20
0.0
  9
$LIMMAX
 10
534.6
 20
378.0
  9
$ORTHOMODE
 70
     0
  9
$REGENMODE
 70
     1
  9
$FILLMODE
 70
     1
  9
$QTEXTMODE
 70
     0
  9
$MIRRTEXT
 70
     1
  9
$LTSCALE
 40
1.8
  9
$ATTMODE
 70
     1
  9
$TEXTSIZE
 40
6.985
  9
$TRACEWID
 40
1.0
  9
$TEXTSTYLE
  7
Standard
  9
$CLAYER
  8
0
  9
$CELTYPE
  6
ByLayer
  9
$CECOLOR
 62
   256
  9
$CELTSCALE
 40
1.0
  9
$DISPSILH
 70
     0
  9
$DIMSCALE
 40
1.0
  9
$DIMASZ
 40
5.9436
  9
$DIMEXO
 40
1.8
  9
$DIMDLI
 40
3.75
  9
$DIMRND
 40
0.0
  9
$DIMDLE
 40
0.0
  9
$DIMEXE
 40
1.8
  9
$DIMTP
 40
0.0
  9
$DIMTM
 40
0.0
  9
$DIMTXT
 40
6.985
  9
$DIMCEN
 40
2.5
  9
$DIMTSZ
 40
0.0
  9
$DIMTOL
 70
     0
  9
$DIMLIM
 70
     0
  9
$DIMTIH
 70
     1
  9
$DIMTOH
 70
     1
  9
$DIMSE1
 70
     0
  9
$DIMSE2
 70
     0
  9
$DIMTAD
 70
     1
  9
$DIMZIN
 70
     0
  9
$DIMBLK
  1

  9
$DIMASO
 70
     1
  9
$DIMSHO
 70
     1
  9
$DIMPOST
  1

  9
$DIMAPOST
  1

  9
$DIMALT
 70
     0
  9
$DIMALTD
 70
     3
  9
$DIMALTF
 40
0.0393700787
  9
$DIMLFAC
 40
1.0
  9
$DIMTOFL
 70
     1
  9
$DIMTVP
 40
0.0
  9
$DIMTIX
 70
     0
  9
$DIMSOXD
 70
     0
  9
$DIMSAH
 70
     0
  9
$DIMBLK1
  1

  9
$DIMBLK2
  1

  9
$DIMSTYLE
  2
ISO-25
  9
$DIMCLRD
 70
     0
  9
$DIMCLRE
 70
     0
  9
$DIMCLRT
 70
     0
  9
$DIMTFAC
 40
1.0
  9
$DIMGAP
 40
2.7432
  9
$DIMJUST
 70
     0
  9
$DIMSD1
 70
     0
  9
$DIMSD2
 70
     0
  9
$DIMTOLJ
 70
     0
  9
$DIMTZIN
 70
     0
  9
$DIMALTZ
 70
     0
  9
$DIMALTTZ
 70
     0
  9
$DIMUPT
 70
     0
  9
$DIMDEC
 70
     2
  9
$DIMTDEC
 70
     2
  9
$DIMALTU
 70
     2
  9
$DIMALTTD
 70
     3
  9
$DIMTXSTY
  7
Standard
  9
$DIMAUNIT
 70
     0
  9
$DIMADEC
 70
     2
  9
$DIMALTRND
 40
0.0
  9
$DIMAZIN
 70
     0
  9
$DIMDSEP
 70
    44
  9
$DIMATFIT
 70
     3
  9
$DIMFRAC
 70
     0
  9
$DIMLDRBLK
  1

  9
$DIMLUNIT
 70
     2
  9
$DIMLWD
 70
    -2
  9
$DIMLWE
 70
    -2
  9
$DIMTMOVE
 70
     0
  9
$LUNITS
 70
     2
  9
$LUPREC
 70
     2
  9
$SKETCHINC
 40
1.0
  9
$FILLETRAD
 40
10.0
  9
$AUNITS
 70
     1
  9
$AUPREC
 70
     2
  9
$MENU
  1
.
  9
$ELEVATION
 40
0.0
  9
$PELEVATION
 40
0.0
  9
$THICKNESS
 40
0.0
  9
$LIMCHECK
 70
     0
  9
$CHAMFERA
 40
0.0
  9
$CHAMFERB
 40
0.0
  9
$CHAMFERC
 40
0.0
  9
$CHAMFERD
 40
0.0
  9
$SKPOLY
 70
     0
  9
$TDCREATE
 40
2458600.581330891
  9
$TDUCREATE
 40
2458600.352164225
  9
$TDUPDATE
 40
2458600.581332048
  9
$TDUUPDATE
 40
2458600.352165382
  9
$TDINDWG
 40
0.0000000116
  9
$TDUSRTIMER
 40
0.0000000116
  9
$USRTIMER
 70
     1
  9
$ANGBASE
 50
0.0
  9
$ANGDIR
 70
     0
  9
$PDMODE
 70
     0
  9
$PDSIZE
 40
-1.0
  9
$PLINEWID
 40
0.0
  9
$SPLFRAME
 70
     0
  9
$SPLINETYPE
 70
     6
  9
$SPLINESEGS
 70
     8
  9
$HANDSEED
  5
19C
  9
$SURFTAB1
 70
     6
  9
$SURFTAB2
 70
     6
  9
$SURFTYPE
 70
     6
  9
$SURFU
 70
     6
  9
$SURFV
 70
     6
  9
$UCSBASE
  2

  9
$UCSNAME
  2

  9
$UCSORG
 10
0.0
 20
0.0
 30
0.0
  9
$UCSXDIR
 10
1.0
 20
0.0
 30
0.0
  9
$UCSYDIR
 10
0.0
 20
1.0
 30
0.0
  9
$UCSORTHOREF
  2

  9
$UCSORTHOVIEW
 70
     0
  9
$UCSORGTOP
 10
0.0
 20
0.0
 30
0.0
  9
$UCSORGBOTTOM
 10
0.0
 20
0.0
 30
0.0
  9
$UCSORGLEFT
 10
0.0
 20
0.0
 30
0.0
  9
$UCSORGRIGHT
 10
0.0
 20
0.0
 30
0.0
  9
$UCSORGFRONT
 10
0.0
 20
0.0
 30
0.0
  9
$UCSORGBACK
 10
0.0
 20
0.0
 30
0.0
  9
$PUCSBASE
  2

  9
$PUCSNAME
  2

  9
$PUCSORG
 10
0.0
 20
0.0
 30
0.0
  9
$PUCSXDIR
 10
1.0
 20
0.0
 30
0.0
  9
$PUCSYDIR
 10
0.0
 20
1.0
 30
0.0
  9
$PUCSORTHOREF
  2

  9
$PUCSORTHOVIEW
 70
     0
  9
$PUCSORGTOP
 10
0.0
 20
0.0
 30
0.0
  9
$PUCSORGBOTTOM
 10
0.0
 20
0.0
 30
0.0
  9
$PUCSORGLEFT
 10
0.0
 20
0.0
 30
0.0
  9
$PUCSORGRIGHT
 10
0.0
 20
0.0
 30
0.0
  9
$PUCSORGFRONT
 10
0.0
 20
0.0
 30
0.0
  9
$PUCSORGBACK
 10
0.0
 20
0.0
 30
0.0
  9
$USERI1
 70
     0
  9
$USERI2
 70
     0
  9
$USERI3
 70
     0
  9
$USERI4
 70
     0
  9
$USERI5
 70
     0
  9
$USERR1
 40
0.0
  9
$USERR2
 40
0.0
  9
$USERR3
 40
0.0
  9
$USERR4
 40
0.0
  9
$USERR5
 40
0.0
  9
$WORLDVIEW
 70
     1
  9
$SHADEDGE
 70
     3
  9
$SHADEDIF
 70
    70
  9
$TILEMODE
 70
     1
  9
$MAXACTVP
 70
    64
  9
$PINSBASE
 10
0.0
 20
0.0
 30
0.0
  9
$PLIMCHECK
 70
     0
  9
$PEXTMIN
 10
1.0000000000E+20
 20
1.0000000000E+20
 30
1.0000000000E+20
  9
$PEXTMAX
 10
-1.0000000000E+20
 20
-1.0000000000E+20
 30
-1.0000000000E+20
  9
$PLIMMIN
 10
0.0
 20
0.0
  9
$PLIMMAX
 10
420.0
 20
297.0
  9
$UNITMODE
 70
     0
  9
$VISRETAIN
 70
     1
  9
$PLINEGEN
 70
     0
  9
$PSLTSCALE
 70
     1
  9
$TREEDEPTH
 70
  3020
  9
$CMLSTYLE
  2
Standard
  9
$CMLJUST
 70
     0
  9
$CMLSCALE
 40
20.0
  9
$PROXYGRAPHICS
 70
     1
  9
$MEASUREMENT
 70
     1
  9
$CELWEIGHT
370
    -1
  9
$ENDCAPS
280
     0
  9
$JOINSTYLE
280
     0
  9
$LWDISPLAY
290
     1
  9
$INSUNITS
 70
     4
  9
$HYPERLINKBASE
  1

  9
$STYLESHEET
  1

  9
$XEDIT
290
     1
  9
$CEPSNTYPE
380
     0
  9
$PSTYLEMODE
290
     1
  9
$FINGERPRINTGUID
  2
{3CFB1899-6728-4E79-B19E-BE9E39ED2020}
  9
$VERSIONGUID
  2
{FAEB1C32-E019-11D5-929B-00C0DF256EC4}
  9
$EXTNAMES
290
     1
  9
$PSVPSCALE
 40
0.0
  9
$OLESTARTUP
290
     0
  0
ENDSEC
  0
SECTION
  2
CLASSES
  0
CLASS
  1
ACDBDICTIONARYWDFLT
  2
AcDbDictionaryWithDefault
  3
ObjectDBX Classes
 90
        0
280
     0
281
     0
  0
CLASS
  1
VISUALSTYLE
  2
AcDbVisualStyle
  3
ObjectDBX Classes
 90
     4095
280
     0
281
     0
  0
CLASS
  1
MATERIAL
  2
AcDbMaterial
  3
ObjectDBX Classes
 90
     1153
280
     0
281
     0
  0
CLASS
  1
SCALE
  2
AcDbScale
  3
ObjectDBX Classes
 90
     1153
280
     0
281
     0
  0
CLASS
  1
SUN
  2
AcDbSun
  3
SCENEOE
 90
     1153
280
     0
281
     0
  0
CLASS
  1
ACDBPLACEHOLDER
  2
AcDbPlaceHolder
  3
ObjectDBX Classes
 90
        0
280
     0
281
     0
  0
CLASS
  1
LAYOUT
  2
AcDbLayout
  3
ObjectDBX Classes
 90
        0
280
     0
281
     0
  0
ENDSEC
  0
SECTION
  2
TABLES
  0
TABLE
  2
VPORT
  5
8
330
0
100
AcDbSymbolTable
 70
     1
  0
VPORT
  5
29
330
8
100
AcDbSymbolTableRecord
100
AcDbViewportTableRecord
  2
*Active
 70
     0
 10
0.0
 20
0.0
 11
1.0
 21
1.0
 12
267.3
 22
189.0
 13
0.0
 23
0.0
 14
10.0
 24
10.0
 15
10.0
 25
10.0
 16
0.0
 26
0.0
 36
1.0
 17
0.0
 27
0.0
 37
0.0
 40
378.0
 41
1.4142857143
 42
50.0
 43
0.0
 44
0.0
 50
0.0
 51
0.0
 71
     0
 72
  2000
 73
     1
 74
     3
 75
     0
 76
     0
 77
     0
 78
     0
281
     0
 65
     1
110
0.0
120
0.0
130
0.0
111
1.0
121
0.0
131
0.0
112
0.0
122
1.0
132
0.0
 79
     0
146
0.0
  0
ENDTAB
  0
TABLE
  2
LTYPE
  5
5
330
0
100
AcDbSymbolTable
 70
     6
  0
LTYPE
  5
14
330
5
100
AcDbSymbolTableRecord
100
AcDbLinetypeTableRecord
  2
ByBlock
 70
     0
  3

 72
    65
 73
     0
 40
0.0
  0
LTYPE
  5
15
330
5
100
AcDbSymbolTableRecord
100
AcDbLinetypeTableRecord
  2
ByLayer
 70
     0
  3

 72
    65
 73
     0
 40
0.0
  0
LTYPE
  5
16
330
5
100
AcDbSymbolTableRecord
100
AcDbLinetypeTableRecord
  2
Continuous
 70
     0
  3
Solid line
 72
    65
 73
     0
 40
0.0
  0
LTYPE
  5
6A
330
5
100
AcDbSymbolTableRecord
100
AcDbLinetypeTableRecord
  2
HIDDEN
 70
     0
  3
Hidden __ __ __ __ __ __ __ __ __ __ __ __ __ __
 72
    65
 73
     2
 40
1.905
 49
1.27
 74
     0
 49
-0.635
 74
     0
  0
LTYPE
  5
6B
330
5
100
AcDbSymbolTableRecord
100
AcDbLinetypeTableRecord
  2
PHANTOM
 70
     0
  3
Phantom ______  __  __  ______  __  __  ______
 72
    65
 73
     6
 40
12.7
 49
6.35
 74
     0
 49
-1.27
 74
     0
 49
1.27
 74
     0
 49
-1.27
 74
     0
 49
1.27
 74
     0
 49
-1.27
 74
     0
  0
LTYPE
  5
6C
330
5
100
AcDbSymbolTableRecord
100
AcDbLinetypeTableRecord
  2
CENTER
 70
     0
  3
Center ____ _ ____ _ ____ _ ____ _ ____ _ ____
 72
    65
 73
     4
 40
10.16
 49
6.35
 74
     0
 49
-1.27
 74
     0
 49
1.27
 74
     0
 49
-1.27
 74
     0
  0
LTYPE
  5
6D
330
5
100
AcDbSymbolTableRecord
100
AcDbLinetypeTableRecord
  2
CENTERX2
 70
     0
  3
Center (2x) ________  __  ________  __  _____
 72
    65
 73
     4
 40
20.32
 49
12.7
 74
     0
 49
-2.54
 74
     0
 49
2.54
 74
     0
 49
-2.54
 74
     0
  0
LTYPE
  5
6E
330
5
100
AcDbSymbolTableRecord
100
AcDbLinetypeTableRecord
  2
DOT2
 70
     0
  3
Dot (.5x) ........................................
 72
    65
 73
     2
 40
0.635
 49
0.0
 74
     0
 49
-0.635
 74
     0
  0
ENDTAB
  0
TABLE
  2
LAYER
  5
2
330
0
100
AcDbSymbolTable
 70
     8
  0
LAYER
  5
10
330
2
100
AcDbSymbolTableRecord
100
AcDbLayerTableRecord
  2
0
 70
     0
 62
     7
  6
Continuous
370
    -3
390
F
  0
LAYER
  5
6F
330
2
100
AcDbSymbolTableRecord
100
AcDbLayerTableRecord
  2
FORMAT
 70
     0
 62
     7
  6
Continuous
370
    -3
390
F
  0
LAYER
  5
70
330
2
100
AcDbSymbolTableRecord
100
AcDbLayerTableRecord
  2
SLD-0
 70
     0
 62
     2
  6
Continuous
370
    -3
390
F
  0
LAYER
  5
71
330
2
100
AcDbSymbolTableRecord
100
AcDbLayerTableRecord
  2
DIM
 70
     0
 62
   179
  6
Continuous
370
    -3
390
F
  0
LAYER
  5
72
330
2
100
AcDbSymbolTableRecord
100
AcDbLayerTableRecord
  2
SLD-DEFPOINTS
 70
     0
 62
   179
  6
Continuous
370
    -3
390
F
  0
LAYER
  5
73
330
2
100
AcDbSymbolTableRecord
100
AcDbLayerTableRecord
  2
HAT
 70
     0
 62
   135
  6
Continuous
370
    -3
390
F
  0
LAYER
  5
74
330
2
100
AcDbSymbolTableRecord
100
AcDbLayerTableRecord
  2
JOB
 70
     0
 62
   201
  6
Continuous
370
    -3
390
F
  0
LAYER
  5
75
330
2
100
AcDbSymbolTableRecord
100
AcDbLayerTableRecord
  2
INSPECTION_REPORT
 70
     0
 62
   255
  6
Continuous
370
    -3
390
F
  0
ENDTAB
  0
TABLE
  2
STYLE
  5
3
330
0
100
AcDbSymbolTable
 70
     4
  0
STYLE
  5
11
330
3
100
AcDbSymbolTableRecord
100
AcDbTextStyleTableRecord
  2
Standard
 70
     0
 40
0.0
 41
1.0
 50
0.0
 71
     0
 42
6.985
  3
txt
  4

  0
STYLE
  5
96
330
3
100
AcDbSymbolTableRecord
100
AcDbTextStyleTableRecord
  2
SLDTEXTSTYLE0
 70
     0
 40
0.0
 41
0.7
 50
0.0
 71
     0
 42
6.985
  3
TXT
  4

  0
STYLE
  5
98
330
3
100
AcDbSymbolTableRecord
100
AcDbTextStyleTableRecord
  2
SLDTEXTSTYLE1
 70
     0
 40
0.0
 41
0.75
 50
0.0
 71
     0
 42
6.985
  3
TXT
  4

  0
STYLE
  5
AB
330
3
100
AcDbSymbolTableRecord
100
AcDbTextStyleTableRecord
  2
SLDTEXTSTYLE2
 70
     0
 40
0.0
 41
0.6875
 50
0.0
 71
     0
 42
6.985
  3
TXT
  4

  0
ENDTAB
  0
TABLE
  2
VIEW
  5
6
330
0
100
AcDbSymbolTable
 70
     0
  0
ENDTAB
  0
TABLE
  2
UCS
  5
7
330
0
100
AcDbSymbolTable
 70
     0
  0
ENDTAB
  0
TABLE
  2
APPID
  5
9
330
0
100
AcDbSymbolTable
 70
     1
  0
APPID
  5
12
330
9
100
AcDbSymbolTableRecord
100
AcDbRegAppTableRecord
  2
ACAD
 70
     0
  0
ENDTAB
  0
TABLE
  2
DIMSTYLE
  5
A
330
0
100
AcDbSymbolTable
 70
     3
100
AcDbDimStyleTable
  0
DIMSTYLE
105
27
330
A
100
AcDbSymbolTableRecord
100
AcDbDimStyleTableRecord
  2
ISO-25
 70
     0
 41
2.5
 42
0.625
 43
3.75
 44
1.25
 73
     0
 74
     0
 77
     1
 78
     8
140
2.5
141
2.5
143
0.0393700787
147
0.625
171
     3
172
     1
178
     0
271
     2
272
     2
274
     3
278
    44
283
     0
284
     8
340
11
  0
DIMSTYLE
105
165
102
{ACAD_REACTORS
330
164
330
17C
330
187
330
191
102
}
330
A
100
AcDbSymbolTableRecord
100
AcDbDimStyleTableRecord
  2
SLDDIMSTYLE0
 70
     0
 41
5.9436
 44
0.0
 45
0.000000001
 73
     0
 74
     0
 77
     1
 78
    12
 79
     3
140
5.23875
144
1.0
147
1.3096875
173
     1
178
     0
271
     2
272
     2
276
     2
284
    12
340
96
  0
DIMSTYLE
105
171
102
{ACAD_REACTORS
330
170
102
}
330
A
100
AcDbSymbolTableRecord
100
AcDbDimStyleTableRecord
  2
SLDDIMSTYLE1
 70
     0
 41
5.9436
 44
0.0
 45
0.000000001
 73
     0
 74
     0
 77
     1
 78
     4
 79
     1
140
5.23875
144
1.0
147
1.3096875
173
     1
178
     0
271
     2
272
     2
276
     2
284
    12
340
96
  0
ENDTAB
  0
TABLE
  2
BLOCK_RECORD
  5
1
330
0
100
AcDbSymbolTable
 70
     7
  0
BLOCK_RECORD
  5
1F
330
1
100
AcDbSymbolTableRecord
100
AcDbBlockTableRecord
  2
*Model_Space
340
22
  0
BLOCK_RECORD
  5
1B
330
1
100
AcDbSymbolTableRecord
100
AcDbBlockTableRecord
  2
*Paper_Space
340
1E
  0
BLOCK_RECORD
  5
23
330
1
100
AcDbSymbolTableRecord
100
AcDbBlockTableRecord
  2
*Paper_Space0
340
26
  0
BLOCK_RECORD
  5
E7
330
1
100
AcDbSymbolTableRecord
100
AcDbBlockTableRecord
  2
SW_CENTERMARKSYMBOL_0
340
0
102
{BLKREFS
331
F2
102
}
  0
BLOCK_RECORD
  5
166
330
1
100
AcDbSymbolTableRecord
100
AcDbBlockTableRecord
  2
_D
340
0
  0
BLOCK_RECORD
  5
172
330
1
100
AcDbSymbolTableRecord
100
AcDbBlockTableRecord
  2
_D_1
340
0
  0
BLOCK_RECORD
  5
17D
330
1
100
AcDbSymbolTableRecord
100
AcDbBlockTableRecord
  2
_D_2
340
0
  0
BLOCK_RECORD
  5
188
330
1
100
AcDbSymbolTableRecord
100
AcDbBlockTableRecord
  2
_D_3
340
0
  0
BLOCK_RECORD
  5
192
330
1
100
AcDbSymbolTableRecord
100
AcDbBlockTableRecord
  2
_D_4
340
0
  0
ENDTAB
  0
ENDSEC
  0
SECTION
  2
BLOCKS
  0
BLOCK
  5
20
330
1F
100
AcDbEntity
  8
0
100
AcDbBlockBegin
  2
*Model_Space
 70
     0
 10
0.0
 20
0.0
 30
0.0
  3
*Model_Space
  1
*Model_Space
  0
ENDBLK
  5
21
330
1F
100
AcDbEntity
  8
0
100
AcDbBlockEnd
  0
BLOCK
  5
1C
330
1B
100
AcDbEntity
 67
     1
  8
0
100
AcDbBlockBegin
  2
*Paper_Space
 70
     0
 10
0.0
 20
0.0
 30
0.0
  3
*Paper_Space
  1
*Paper_Space
  0
ENDBLK
  5
1D
330
1B
100
AcDbEntity
 67
     1
  8
0
100
AcDbBlockEnd
  0
BLOCK
  5
24
330
23
100
AcDbEntity
  8
0
100
AcDbBlockBegin
  2
*Paper_Space0
 70
     0
 10
0.0
 20
0.0
 30
0.0
  3
*Paper_Space0
  1
*Paper_Space0
  0
ENDBLK
  5
25
330
23
100
AcDbEntity
  8
0
100
AcDbBlockEnd
  0
BLOCK
  5
E8
330
E7
100
AcDbEntity
  8
0
100
AcDbBlockBegin
  2
SW_CENTERMARKSYMBOL_0
 70
     0
 10
0.0
 20
0.0
 30
0.0
  3
SW_CENTERMARKSYMBOL_0
  1
SW_CENTERMARKSYMBOL_0
  0
LINE
  5
EA
330
E7
100
AcDbEntity
  8
DIM
 62
     0
100
AcDbLine
 10
0.0
 20
0.0
 30
0.0
 11
0.0
 21
2.5
 31
0.0
  0
LINE
  5
EB
330
E7
100
AcDbEntity
  8
DIM
 62
     0
100
AcDbLine
 10
0.0
 20
0.0
 30
0.0
 11
-2.5
 21
0.0
 31
0.0
  0
LINE
  5
EC
330
E7
100
AcDbEntity
  8
DIM
 62
     0
100
AcDbLine
 10
0.0
 20
0.0
 30
0.0
 11
0.0
 21
-2.5
 31
0.0
  0
LINE
  5
ED
330
E7
100
AcDbEntity
  8
DIM
 62
     0
100
AcDbLine
 10
0.0
 20
0.0
 30
0.0
 11
2.5
 21
0.0
 31
0.0
  0
LINE
  5
EE
330
E7
100
AcDbEntity
  8
DIM
 62
     0
100
AcDbLine
 10
0.0
 20
5.0
 30
0.0
 11
0.0
 21
50.3671572875
 31
0.0
  0
LINE
  5
EF
330
E7
100
AcDbEntity
  8
DIM
 62
     0
100
AcDbLine
 10
-5.0
 20
0.0
 30
0.0
 11
-50.3671572875
 21
0.0
 31
0.0
  0
LINE
  5
F0
330
E7
100
AcDbEntity
  8
DIM
 62
     0
100
AcDbLine
 10
0.0
 20
-5.0
 30
0.0
 11
0.0
 21
-50.3671572875
 31
0.0
  0
LINE
  5
F1
330
E7
100
AcDbEntity
  8
DIM
 62
     0
100
AcDbLine
 10
5.0
 20
0.0
 30
0.0
 11
50.3671572875
 21
0.0
 31
0.0
  0
ENDBLK
  5
E9
330
E7
100
AcDbEntity
  8
0
100
AcDbBlockEnd
  0
BLOCK
  5
167
330
166
100
AcDbEntity
  8
0
100
AcDbBlockBegin
  2
_D
 70
     0
 10
0.0
 20
0.0
 30
0.0
  3
_D
  1
_D
  0
SOLID
  5
169
330
166
100
AcDbEntity
  8
DIM
100
AcDbTrace
 10
460.9135126803
 20
225.696145941
 30
0.0
 11
459.9991126803
 21
219.752545941
 31
0.0
 12
461.8279126803
 22
219.752545941
 32
0.0
 13
461.8279126803
 23
219.752545941
 33
0.0
  0
SOLID
  5
16A
330
166
100
AcDbEntity
  8
DIM
100
AcDbTrace
 10
460.9135126803
 20
162.696145941
 30
0.0
 11
461.8279126803
 21
168.639745941
 31
0.0
 12
459.9991126803
 22
168.639745941
 32
0.0
 13
459.9991126803
 23
168.639745941
 33
0.0
  0
LINE
  5
16B
330
166
100
AcDbEntity
  8
DIM
100
AcDbLine
 10
433.8821208536
 20
225.696145941
 30
0.0
 11
462.7135126803
 21
225.696145941
 31
0.0
  0
LINE
  5
16C
330
166
100
AcDbEntity
  8
DIM
100
AcDbLine
 10
433.8821208536
 20
162.696145941
 30
0.0
 11
462.7135126803
 21
162.696145941
 31
0.0
  0
LINE
  5
16D
330
166
100
AcDbEntity
  8
DIM
100
AcDbLine
 10
460.9135126803
 20
225.696145941
 30
0.0
 11
460.9135126803
 21
162.696145941
 31
0.0
  0
MTEXT
  5
16E
330
166
100
AcDbEntity
  8
DIM
100
AcDbMText
 10
454.1604086394
 20
186.6045665522
 30
0.0
 40
5.23875
 41
0.0
 71
     1
 72
     1
  1
%%c
  7
SLDTEXTSTYLE0
 11
-7.044195017643634E-15
 21
1.0
 31
0.0
 73
     1
 44
1.0
  0
MTEXT
  5
16F
330
166
100
AcDbEntity
  8
DIM
100
AcDbMText
 10
454.1604086394
 20
194.7057111715
 30
0.0
 40
5.23875
 41
0.0
 71
     1
 72
     1
  1
63
  7
SLDTEXTSTYLE0
 11
-7.044195017643634E-15
 21
1.0
 31
0.0
 73
     1
 44
1.0
  0
ENDBLK
  5
168
330
166
100
AcDbEntity
  8
0
100
AcDbBlockEnd
  0
BLOCK
  5
173
330
172
100
AcDbEntity
  8
0
100
AcDbBlockBegin
  2
_D_1
 70
     0
 10
0.0
 20
0.0
 30
0.0
  3
_D_1
  1
_D_1
  0
SOLID
  5
175
330
172
100
AcDbEntity
  8
DIM
100
AcDbTrace
 10
216.9495582846
 20
242.946145941
 30
0.0
 11
216.0351582846
 21
237.002545941
 31
0.0
 12
217.8639582846
 22
237.002545941
 32
0.0
 13
217.8639582846
 23
237.002545941
 33
0.0
  0
SOLID
  5
176
330
172
100
AcDbEntity
  8
DIM
100
AcDbTrace
 10
216.9495582846
 20
145.446145941
 30
0.0
 11
217.8639582846
 21
151.389745941
 31
0.0
 12
216.0351582846
 22
151.389745941
 32
0.0
 13
216.0351582846
 23
151.389745941
 33
0.0
  0
LINE
  5
177
330
172
100
AcDbEntity
  8
DIM
100
AcDbLine
 10
339.2666084321
 20
242.946145941
 30
0.0
 11
215.1495582846
 21
242.946145941
 31
0.0
  0
LINE
  5
178
330
172
100
AcDbEntity
  8
DIM
100
AcDbLine
 10
339.2666084321
 20
145.446145941
 30
0.0
 11
215.1495582846
 21
145.446145941
 31
0.0
  0
LINE
  5
179
330
172
100
AcDbEntity
  8
DIM
100
AcDbLine
 10
216.9495582846
 20
242.946145941
 30
0.0
 11
216.9495582846
 21
145.446145941
 31
0.0
  0
MTEXT
  5
17A
330
172
100
AcDbEntity
  8
DIM
100
AcDbMText
 10
210.1964542438
 20
182.132226095
 30
0.0
 40
5.23875
 41
0.0
 71
     1
 72
     1
  1
%%c
  7
SLDTEXTSTYLE0
 11
-7.044195017643634E-15
 21
1.0
 31
0.0
 73
     1
 44
1.0
  0
MTEXT
  5
17B
330
172
100
AcDbEntity
  8
DIM
100
AcDbMText
 10
210.1964542438
 20
190.2333707143
 30
0.0
 40
5.23875
 41
0.0
 71
     1
 72
     1
  1
97.50
  7
SLDTEXTSTYLE0
 11
-7.044195017643634E-15
 21
1.0
 31
0.0
 73
     1
 44
1.0
  0
ENDBLK
  5
174
330
172
100
AcDbEntity
  8
0
100
AcDbBlockEnd
  0
BLOCK
  5
17E
330
17D
100
AcDbEntity
  8
0
100
AcDbBlockBegin
  2
_D_2
 70
     0
 10
0.0
 20
0.0
 30
0.0
  3
_D_2
  1
_D_2
  0
SOLID
  5
180
330
17D
100
AcDbEntity
  8
DIM
100
AcDbTrace
 10
450.1057947593
 20
224.196145941
 30
0.0
 11
449.1913947593
 21
218.252545941
 31
0.0
 12
451.0201947593
 22
218.252545941
 32
0.0
 13
451.0201947593
 23
218.252545941
 33
0.0
  0
SOLID
  5
181
330
17D
100
AcDbEntity
  8
DIM
100
AcDbTrace
 10
450.1057947593
 20
164.196145941
 30
0.0
 11
451.0201947593
 21
170.139745941
 31
0.0
 12
449.1913947593
 22
170.139745941
 32
0.0
 13
449.1913947593
 23
170.139745941
 33
0.0
  0
LINE
  5
182
330
17D
100
AcDbEntity
  8
DIM
100
AcDbLine
 10
384.9787548833
 20
224.196145941
 30
0.0
 11
451.9057947593
 21
224.196145941
 31
0.0
  0
LINE
  5
183
330
17D
100
AcDbEntity
  8
DIM
100
AcDbLine
 10
384.9787548833
 20
164.196145941
 30
0.0
 11
451.9057947593
 21
164.196145941
 31
0.0
  0
LINE
  5
184
330
17D
100
AcDbEntity
  8
DIM
100
AcDbLine
 10
450.1057947593
 20
224.196145941
 30
0.0
 11
450.1057947593
 21
164.196145941
 31
0.0
  0
MTEXT
  5
185
330
17D
100
AcDbEntity
  8
DIM
100
AcDbMText
 10
443.3526907185
 20
186.6045665522
 30
0.0
 40
5.23875
 41
0.0
 71
     1
 72
     1
  1
%%c
  7
SLDTEXTSTYLE0
 11
-7.044195017643634E-15
 21
1.0
 31
0.0
 73
     1
 44
1.0
  0
MTEXT
  5
186
330
17D
100
AcDbEntity
  8
DIM
100
AcDbMText
 10
443.3526907185
 20
194.7057111714
 30
0.0
 40
5.23875
 41
0.0
 71
     1
 72
     1
  1
60
  7
SLDTEXTSTYLE0
 11
-7.044195017643634E-15
 21
1.0
 31
0.0
 73
     1
 44
1.0
  0
ENDBLK
  5
17F
330
17D
100
AcDbEntity
  8
0
100
AcDbBlockEnd
  0
BLOCK
  5
189
330
188
100
AcDbEntity
  8
0
100
AcDbBlockBegin
  2
_D_3
 70
     0
 10
0.0
 20
0.0
 30
0.0
  3
_D_3
  1
_D_3
  0
SOLID
  5
18B
330
188
100
AcDbEntity
  8
DIM
100
AcDbTrace
 10
234.9509230072
 20
116.646145941
 30
0.0
 11
240.8945230072
 21
115.731745941
 31
0.0
 12
240.8945230072
 22
117.560545941
 32
0.0
 13
240.8945230072
 23
117.560545941
 33
0.0
  0
SOLID
  5
18C
330
188
100
AcDbEntity
  8
DIM
100
AcDbTrace
 10
436.7009230072
 20
116.646145941
 30
0.0
 11
430.7573230072
 21
117.560545941
 31
0.0
 12
430.7573230072
 22
115.731745941
 32
0.0
 13
430.7573230072
 23
115.731745941
 33
0.0
  0
LINE
  5
18D
330
188
100
AcDbEntity
  8
DIM
100
AcDbLine
 10
234.9509230072
 20
192.396145941
 30
0.0
 11
234.9509230072
 21
114.846145941
 31
0.0
  0
LINE
  5
18E
330
188
100
AcDbEntity
  8
DIM
100
AcDbLine
 10
436.7009230072
 20
168.896145941
 30
0.0
 11
436.7009230072
 21
114.846145941
 31
0.0
  0
LINE
  5
18F
330
188
100
AcDbEntity
  8
DIM
100
AcDbLine
 10
234.9509230072
 20
116.646145941
 30
0.0
 11
436.7009230072
 21
116.646145941
 31
0.0
  0
MTEXT
  5
190
330
188
100
AcDbEntity
  8
DIM
100
AcDbMText
 10
326.0420719312
 20
123.3992499818
 30
0.0
 40
5.23875
 41
0.0
 71
     1
 72
     1
  1
201.75
  7
SLDTEXTSTYLE0
 73
     1
 44
1.0
  0
ENDBLK
  5
18A
330
188
100
AcDbEntity
  8
0
100
AcDbBlockEnd
  0
BLOCK
  5
193
330
192
100
AcDbEntity
  8
0
100
AcDbBlockBegin
  2
_D_4
 70
     0
 10
0.0
 20
0.0
 30
0.0
  3
_D_4
  1
_D_4
  0
SOLID
  5
195
330
192
100
AcDbEntity
  8
DIM
100
AcDbTrace
 10
336.7009230072
 20
128.4687070056
 30
0.0
 11
342.6445230072
 21
127.5543070056
 31
0.0
 12
342.6445230072
 22
129.3831070056
 32
0.0
 13
342.6445230072
 23
129.3831070056
 33
0.0
  0
SOLID
  5
196
330
192
100
AcDbEntity
  8
DIM
100
AcDbTrace
 10
436.7009230072
 20
128.4687070056
 30
0.0
 11
430.7573230072
 21
129.3831070056
 31
0.0
 12
430.7573230072
 22
127.5543070056
 32
0.0
 13
430.7573230072
 23
127.5543070056
 33
0.0
  0
LINE
  5
197
330
192
100
AcDbEntity
  8
DIM
100
AcDbLine
 10
336.7009230072
 20
157.471145941
 30
0.0
 11
336.7009230072
 21
126.6687070056
 31
0.0
  0
LINE
  5
198
330
192
100
AcDbEntity
  8
DIM
100
AcDbLine
 10
436.7009230072
 20
168.896145941
 30
0.0
 11
436.7009230072
 21
126.6687070056
 31
0.0
  0
LINE
  5
199
330
192
100
AcDbEntity
  8
DIM
100
AcDbLine
 10
336.7009230072
 20
128.4687070056
 30
0.0
 11
436.7009230072
 21
128.4687070056
 31
0.0
  0
MTEXT
  5
19A
330
192
100
AcDbEntity
  8
DIM
100
AcDbMText
 10
381.3894123884
 20
135.2218110464
 30
0.0
 40
5.23875
 41
0.0
 71
     1
 72
     1
  1
100
  7
SLDTEXTSTYLE0
 73
     1
 44
1.0
  0
ENDBLK
  5
194
330
192
100
AcDbEntity
  8
0
100
AcDbBlockEnd
  0
ENDSEC
  0
SECTION
  2
ENTITIES
  0
LINE
  5
76
330
1F
100
AcDbEntity
  8
DIM
100
AcDbLine
 10
188.4679644402
 20
17.6237846223
 30
0.0
 11
188.4679644402
 21
8.6237846223
 31
0.0
  0
LINE
  5
77
330
1F
100
AcDbEntity
  8
DIM
100
AcDbLine
 10
458.0452830515
 20
17.6237846223
 30
0.0
 11
458.0452830515
 21
8.6237846223
 31
0.0
  0
LINE
  5
78
330
1F
100
AcDbEntity
  8
DIM
100
AcDbLine
 10
427.4130778768
 20
17.6237846223
 30
0.0
 11
427.4130778768
 21
8.6237846223
 31
0.0
  0
LINE
  5
79
330
1F
100
AcDbEntity
  8
DIM
100
AcDbLine
 10
502.0279644402
 20
8.6237846223
 30
0.0
 11
502.0279644402
 21
17.6237846223
 31
0.0
  0
LINE
  5
7A
330
1F
100
AcDbEntity
  8
DIM
100
AcDbLine
 10
202.5079644402
 20
17.6237846223
 30
0.0
 11
202.5079644402
 21
8.6237846223
 31
0.0
  0
LINE
  5
7B
330
1F
100
AcDbEntity
  8
DIM
100
AcDbLine
 10
237.051678821
 20
17.6237846223
 30
0.0
 11
237.051678821
 21
8.6237846223
 31
0.0
  0
LINE
  5
7C
330
1F
100
AcDbEntity
  8
DIM
100
AcDbLine
 10
525.4279644402
 20
8.6237846223
 30
0.0
 11
525.4279644402
 21
138.6737846223
 31
0.0
  0
LINE
  5
7D
330
1F
100
AcDbEntity
  8
DIM
100
AcDbLine
 10
514.4742084504
 20
108.0737846223
 30
0.0
 11
525.4279644402
 21
108.0737846223
 31
0.0
  0
LINE
  5
7E
330
1F
100
AcDbEntity
  8
DIM
100
AcDbLine
 10
268.3860315346
 20
16.2737846223
 30
0.0
 11
268.3860315346
 21
8.6237846223
 31
0.0
  0
LINE
  5
7F
330
1F
100
AcDbEntity
  8
DIM
100
AcDbLine
 10
354.1751084888
 20
17.6237846223
 30
0.0
 11
354.1751084888
 21
8.6237846223
 31
0.0
  0
LINE
  5
80
330
1F
100
AcDbEntity
  8
DIM
100
AcDbLine
 10
268.3860315346
 20
17.6237846223
 30
0.0
 11
268.3860315346
 21
16.2737846223
 31
0.0
  0
LINE
  5
81
330
1F
100
AcDbEntity
  8
DIM
100
AcDbLine
 10
516.4279644402
 20
31.5736550223
 30
0.0
 11
525.4279644402
 21
31.5736550223
 31
0.0
  0
LINE
  5
82
330
1F
100
AcDbEntity
  8
DIM
100
AcDbLine
 10
516.4279644402
 20
359.6237846223
 30
0.0
 11
17.8279644402
 21
359.6237846223
 31
0.0
  0
LINE
  5
83
330
1F
100
AcDbEntity
  8
DIM
100
AcDbLine
 10
525.4279644402
 20
368.6237846223
 30
0.0
 11
8.8279644402
 21
368.6237846223
 31
0.0
  0
LINE
  5
84
330
1F
100
AcDbEntity
  8
DIM
100
AcDbLine
 10
17.8279644402
 20
359.6237846223
 30
0.0
 11
17.8279644402
 21
17.6237846223
 31
0.0
  0
LINE
  5
85
330
1F
100
AcDbEntity
  8
DIM
100
AcDbLine
 10
8.8279644402
 20
368.6237846223
 30
0.0
 11
8.8279644402
 21
8.6237846223
 31
0.0
  0
LINE
  5
86
330
1F
100
AcDbEntity
  8
DIM
100
AcDbLine
 10
17.8279644402
 20
98.6237846223
 30
0.0
 11
8.8279644402
 21
98.6237846223
 31
0.0
  0
LINE
  5
87
330
1F
100
AcDbEntity
  8
DIM
100
AcDbLine
 10
8.8279644402
 20
188.6237846223
 30
0.0
 11
17.8279644402
 21
188.6237846223
 31
0.0
  0
LINE
  5
88
330
1F
100
AcDbEntity
  8
DIM
100
AcDbLine
 10
8.8279644402
 20
8.6237846223
 30
0.0
 11
525.4279644402
 21
8.6237846223
 31
0.0
  0
LINE
  5
89
330
1F
100
AcDbEntity
  8
DIM
100
AcDbLine
 10
17.8279644402
 20
17.6237846223
 30
0.0
 11
525.4279644402
 21
17.6237846223
 31
0.0
  0
LINE
  5
8A
330
1F
100
AcDbEntity
  8
DIM
100
AcDbLine
 10
87.1279644402
 20
8.6237846223
 30
0.0
 11
87.1279644402
 21
17.6237846223
 31
0.0
  0
LINE
  5
8B
330
1F
100
AcDbEntity
  8
DIM
100
AcDbLine
 10
177.1279644402
 20
17.6237846223
 30
0.0
 11
177.1279644402
 21
8.6237846223
 31
0.0
  0
LINE
  5
8C
330
1F
100
AcDbEntity
  8
DIM
100
AcDbLine
 10
17.8279644402
 20
278.6237846223
 30
0.0
 11
8.8279644402
 21
278.6237846223
 31
0.0
  0
LINE
  5
8D
330
1F
100
AcDbEntity
  8
DIM
100
AcDbLine
 10
87.1279644402
 20
359.6237846223
 30
0.0
 11
87.1279644402
 21
368.6237846223
 31
0.0
  0
LINE
  5
8E
330
1F
100
AcDbEntity
  8
DIM
100
AcDbLine
 10
177.1279644402
 20
368.6237846223
 30
0.0
 11
177.1279644402
 21
359.6237846223
 31
0.0
  0
LINE
  5
8F
330
1F
100
AcDbEntity
  8
DIM
100
AcDbLine
 10
267.1279644402
 20
368.6237846223
 30
0.0
 11
267.1279644402
 21
359.6237846223
 31
0.0
  0
LINE
  5
90
330
1F
100
AcDbEntity
  8
DIM
100
AcDbLine
 10
516.4279644402
 20
17.6237846223
 30
0.0
 11
516.4279644402
 21
359.6237846223
 31
0.0
  0
LINE
  5
91
330
1F
100
AcDbEntity
  8
DIM
100
AcDbLine
 10
525.4279644402
 20
138.6737846223
 30
0.0
 11
525.4279644402
 21
368.6237846223
 31
0.0
  0
LINE
  5
92
330
1F
100
AcDbEntity
  8
DIM
100
AcDbLine
 10
525.4279644402
 20
188.6237846223
 30
0.0
 11
516.4279644402
 21
188.6237846223
 31
0.0
  0
LINE
  5
93
330
1F
100
AcDbEntity
  8
DIM
100
AcDbLine
 10
357.1279644402
 20
368.6237846223
 30
0.0
 11
357.1279644402
 21
359.6237846223
 31
0.0
  0
LINE
  5
94
330
1F
100
AcDbEntity
  8
DIM
100
AcDbLine
 10
447.1279644402
 20
359.6237846223
 30
0.0
 11
447.1279644402
 21
368.6237846223
 31
0.0
  0
LINE
  5
95
330
1F
100
AcDbEntity
  8
DIM
100
AcDbLine
 10
516.4279644402
 20
278.6237846223
 30
0.0
 11
525.4279644402
 21
278.6237846223
 31
0.0
  0
MTEXT
  5
97
330
1F
100
AcDbEntity
  8
DIM
100
AcDbMText
 10
23.8693578155
 20
344.0089497786
 30
0.0
 40
7.62
 41
0.0
 71
     1
 72
     1
  1
SK 50 ER 40 100 AD/6.315000 SL
  7
SLDTEXTSTYLE0
 73
     1
 44
1.0
  0
MTEXT
  5
99
330
1F
100
AcDbEntity
  8
DIM
 62
     7
100
AcDbMText
 10
355.9190015639
 20
14.0435127473
 30
0.0
 40
2.69748
 41
0.0
 71
     1
 72
     1
  1
WEIGHT:
  7
SLDTEXTSTYLE1
 73
     1
 44
1.0
  0
MTEXT
  5
9A
330
1F
100
AcDbEntity
  8
DIM
 62
     7
100
AcDbMText
 10
519.4747381586
 20
147.4931043148
 30
0.0
 40
3.33375
 41
0.0
 71
     1
 72
     1
  1
C
  7
SLDTEXTSTYLE1
 73
     1
 44
1.0
  0
MTEXT
  5
9B
330
1F
100
AcDbEntity
  8
DIM
 62
     7
100
AcDbMText
 10
509.478445115
 20
26.7371675705
 30
0.0
 40
5.23875
 41
0.0
 71
     1
 72
     1
  1
A4
  7
SLDTEXTSTYLE1
 73
     1
 44
1.0
  0
MTEXT
  5
9C
330
1F
100
AcDbEntity
  8
DIM
 62
     7
100
AcDbMText
 10
490.6279716402
 20
366.2262141487
 30
0.0
 40
3.33375
 41
0.0
 71
     1
 72
     1
  1
6
  7
SLDTEXTSTYLE1
 73
     1
 44
1.0
  0
MTEXT
  5
9D
330
1F
100
AcDbEntity
  8
DIM
 62
     7
100
AcDbMText
 10
400.6279716402
 20
366.2262141487
 30
0.0
 40
3.33375
 41
0.0
 71
     1
 72
     1
  1
5
  7
SLDTEXTSTYLE1
 73
     1
 44
1.0
  0
MTEXT
  5
9E
330
1F
100
AcDbEntity
  8
DIM
 62
     7
100
AcDbMText
 10
519.4279788402
 20
325.7262141487
 30
0.0
 40
3.33375
 41
0.0
 71
     1
 72
     1
  1
A
  7
SLDTEXTSTYLE1
 73
     1
 44
1.0
  0
MTEXT
  5
9F
330
1F
100
AcDbEntity
  8
DIM
 62
     7
100
AcDbMText
 10
519.4279788402
 20
235.7262141487
 30
0.0
 40
3.33375
 41
0.0
 71
     1
 72
     1
  1
B
  7
SLDTEXTSTYLE1
 73
     1
 44
1.0
  0
MTEXT
  5
A0
330
1F
100
AcDbEntity
  8
DIM
 62
     7
100
AcDbMText
 10
310.6279716402
 20
366.2262141487
 30
0.0
 40
3.33375
 41
0.0
 71
     1
 72
     1
  1
4
  7
SLDTEXTSTYLE1
 73
     1
 44
1.0
  0
MTEXT
  5
A1
330
1F
100
AcDbEntity
  8
DIM
 62
     7
100
AcDbMText
 10
41.3779716402
 20
366.2262141487
 30
0.0
 40
3.33375
 41
0.0
 71
     1
 72
     1
  1
1
  7
SLDTEXTSTYLE1
 73
     1
 44
1.0
  0
MTEXT
  5
A2
330
1F
100
AcDbEntity
  8
DIM
 62
     7
100
AcDbMText
 10
130.6279716402
 20
366.2262141487
 30
0.0
 40
3.33375
 41
0.0
 71
     1
 72
     1
  1
2
  7
SLDTEXTSTYLE1
 73
     1
 44
1.0
  0
MTEXT
  5
A3
330
1F
100
AcDbEntity
  8
DIM
 62
     7
100
AcDbMText
 10
220.6279716402
 20
366.2262141487
 30
0.0
 40
3.33375
 41
0.0
 71
     1
 72
     1
  1
3
  7
SLDTEXTSTYLE1
 73
     1
 44
1.0
  0
MTEXT
  5
A4
330
1F
100
AcDbEntity
  8
DIM
 62
     7
100
AcDbMText
 10
11.8279644402
 20
325.7262141487
 30
0.0
 40
3.33375
 41
0.0
 71
     1
 72
     1
  1
A
  7
SLDTEXTSTYLE1
 73
     1
 44
1.0
  0
MTEXT
  5
A5
330
1F
100
AcDbEntity
  8
DIM
 62
     7
100
AcDbMText
 10
130.6279716402
 20
15.2262141487
 30
0.0
 40
3.33375
 41
0.0
 71
     1
 72
     1
  1
2
  7
SLDTEXTSTYLE1
 73
     1
 44
1.0
  0
MTEXT
  5
A6
330
1F
100
AcDbEntity
  8
DIM
 62
     7
100
AcDbMText
 10
41.3779716402
 20
15.2262141487
 30
0.0
 40
3.33375
 41
0.0
 71
     1
 72
     1
  1
1
  7
SLDTEXTSTYLE1
 73
     1
 44
1.0
  0
MTEXT
  5
A7
330
1F
100
AcDbEntity
  8
DIM
 62
     7
100
AcDbMText
 10
11.8279644402
 20
55.7262141487
 30
0.0
 40
3.33375
 41
0.0
 71
     1
 72
     1
  1
D
  7
SLDTEXTSTYLE1
 73
     1
 44
1.0
  0
MTEXT
  5
A8
330
1F
100
AcDbEntity
  8
DIM
 62
     7
100
AcDbMText
 10
11.8279644402
 20
145.7262141487
 30
0.0
 40
3.33375
 41
0.0
 71
     1
 72
     1
  1
C
  7
SLDTEXTSTYLE1
 73
     1
 44
1.0
  0
MTEXT
  5
A9
330
1F
100
AcDbEntity
  8
DIM
 62
     7
100
AcDbMText
 10
11.8279644402
 20
235.7262141487
 30
0.0
 40
3.33375
 41
0.0
 71
     1
 72
     1
  1
B
  7
SLDTEXTSTYLE1
 73
     1
 44
1.0
  0
MTEXT
  5
AA
330
1F
100
AcDbEntity
  8
DIM
 62
     7
100
AcDbMText
 10
519.4747381586
 20
147.4931043148
 30
0.0
 40
3.33375
 41
0.0
 71
     1
 72
     1
  1
C
  7
SLDTEXTSTYLE1
 73
     1
 44
1.0
  0
MTEXT
  5
AC
330
1F
100
AcDbEntity
  8
DIM
 62
     7
100
AcDbMText
 10
461.7456584625
 20
13.8439417165
 30
0.0
 40
2.7
 41
0.0
 71
     1
 72
     1
  1
SHEET 1 OF 1
  7
SLDTEXTSTYLE2
 73
     1
 44
1.0
  0
MTEXT
  5
AD
330
1F
100
AcDbEntity
  8
DIM
 62
     7
100
AcDbMText
 10
270.6692046902
 20
14.1360614706
 30
0.0
 40
2.7
 41
0.0
 71
     1
 72
     1
  1
MATERIAL:
  7
SLDTEXTSTYLE1
 73
     1
 44
1.0
  0
MTEXT
  5
AE
330
1F
100
AcDbEntity
  8
DIM
 62
     7
100
AcDbMText
 10
490.6279716402
 20
366.2262141487
 30
0.0
 40
3.33375
 41
0.0
 71
     1
 72
     1
  1
6
  7
SLDTEXTSTYLE1
 73
     1
 44
1.0
  0
MTEXT
  5
AF
330
1F
100
AcDbEntity
  8
DIM
 62
     7
100
AcDbMText
 10
400.6279716402
 20
366.2262141487
 30
0.0
 40
3.33375
 41
0.0
 71
     1
 72
     1
  1
5
  7
SLDTEXTSTYLE1
 73
     1
 44
1.0
  0
MTEXT
  5
B0
330
1F
100
AcDbEntity
  8
DIM
 62
     7
100
AcDbMText
 10
519.4279788402
 20
325.7262141487
 30
0.0
 40
3.33375
 41
0.0
 71
     1
 72
     1
  1
A
  7
SLDTEXTSTYLE1
 73
     1
 44
1.0
  0
MTEXT
  5
B1
330
1F
100
AcDbEntity
  8
DIM
 62
     7
100
AcDbMText
 10
519.4279788402
 20
235.7262141487
 30
0.0
 40
3.33375
 41
0.0
 71
     1
 72
     1
  1
B
  7
SLDTEXTSTYLE1
 73
     1
 44
1.0
  0
MTEXT
  5
B2
330
1F
100
AcDbEntity
  8
DIM
 62
     7
100
AcDbMText
 10
310.6279716402
 20
366.2262141487
 30
0.0
 40
3.33375
 41
0.0
 71
     1
 72
     1
  1
4
  7
SLDTEXTSTYLE1
 73
     1
 44
1.0
  0
MTEXT
  5
B3
330
1F
100
AcDbEntity
  8
DIM
 62
     7
100
AcDbMText
 10
41.3779716402
 20
366.2262141487
 30
0.0
 40
3.33375
 41
0.0
 71
     1
 72
     1
  1
1
  7
SLDTEXTSTYLE1
 73
     1
 44
1.0
  0
MTEXT
  5
B4
330
1F
100
AcDbEntity
  8
DIM
 62
     7
100
AcDbMText
 10
130.6279716402
 20
366.2262141487
 30
0.0
 40
3.33375
 41
0.0
 71
     1
 72
     1
  1
2
  7
SLDTEXTSTYLE1
 73
     1
 44
1.0
  0
MTEXT
  5
B5
330
1F
100
AcDbEntity
  8
DIM
 62
     7
100
AcDbMText
 10
220.6279716402
 20
366.2262141487
 30
0.0
 40
3.33375
 41
0.0
 71
     1
 72
     1
  1
3
  7
SLDTEXTSTYLE1
 73
     1
 44
1.0
  0
MTEXT
  5
B6
330
1F
100
AcDbEntity
  8
DIM
 62
     7
100
AcDbMText
 10
11.8279644402
 20
325.7262141487
 30
0.0
 40
3.33375
 41
0.0
 71
     1
 72
     1
  1
A
  7
SLDTEXTSTYLE1
 73
     1
 44
1.0
  0
MTEXT
  5
B7
330
1F
100
AcDbEntity
  8
DIM
 62
     7
100
AcDbMText
 10
130.6279716402
 20
15.2262141487
 30
0.0
 40
3.33375
 41
0.0
 71
     1
 72
     1
  1
2
  7
SLDTEXTSTYLE1
 73
     1
 44
1.0
  0
MTEXT
  5
B8
330
1F
100
AcDbEntity
  8
DIM
 62
     7
100
AcDbMText
 10
41.3779716402
 20
15.2262141487
 30
0.0
 40
3.33375
 41
0.0
 71
     1
 72
     1
  1
1
  7
SLDTEXTSTYLE1
 73
     1
 44
1.0
  0
MTEXT
  5
B9
330
1F
100
AcDbEntity
  8
DIM
 62
     7
100
AcDbMText
 10
11.8279644402
 20
55.7262141487
 30
0.0
 40
3.33375
 41
0.0
 71
     1
 72
     1
  1
D
  7
SLDTEXTSTYLE1
 73
     1
 44
1.0
  0
MTEXT
  5
BA
330
1F
100
AcDbEntity
  8
DIM
 62
     7
100
AcDbMText
 10
11.8279644402
 20
145.7262141487
 30
0.0
 40
3.33375
 41
0.0
 71
     1
 72
     1
  1
C
  7
SLDTEXTSTYLE1
 73
     1
 44
1.0
  0
MTEXT
  5
BB
330
1F
100
AcDbEntity
  8
DIM
 62
     7
100
AcDbMText
 10
11.8279644402
 20
235.7262141487
 30
0.0
 40
3.33375
 41
0.0
 71
     1
 72
     1
  1
B
  7
SLDTEXTSTYLE1
 73
     1
 44
1.0
  0
SPLINE
  5
BC
330
1F
100
AcDbEntity
  8
0
  6
Continuous
 62
     7
370
    15
100
AcDbSpline
210
0.0
220
0.0
230
1.0
 70
     8
 71
     3
 72
    14
 73
    10
 74
     0
 42
0.000000001
 43
0.00000001
 40
0.0
 40
0.0
 40
0.0
 40
0.0
 40
0.25
 40
0.25
 40
0.5
 40
0.5
 40
0.75
 40
0.75
 40
1.0
 40
1.0
 40
1.0
 40
1.0
 10
124.38921921987
 20
194.1961459409912
 30
0.0
 10
124.38921921987
 20
189.0984115642167
 30
0.0
 10
122.363992793801
 20
184.2090824595247
 30
0.0
 10
115.154707700791
 20
176.9997973665147
 30
0.0
 10
110.265378596099
 20
174.9745709404458
 30
0.0
 10
100.0699098425501
 20
174.9745709404458
 30
0.0
 10
95.1805807378581
 20
176.9997973665147
 30
0.0
 10
87.97129564484811
 20
184.2090824595247
 30
0.0
 10
85.94606921877919
 20
189.0984115642167
 30
0.0
 10
85.94606921877917
 20
194.1961459409912
 30
0.0
  0
SPLINE
  5
BD
330
1F
100
AcDbEntity
  8
0
  6
Continuous
 62
     7
370
    15
100
AcDbSpline
210
0.0
220
0.0
230
1.0
 70
     8
 71
     3
 72
    14
 73
    10
 74
     0
 42
0.000000001
 43
0.00000001
 40
0.0
 40
0.0
 40
0.0
 40
0.0
 40
0.25
 40
0.25
 40
0.5
 40
0.5
 40
0.75
 40
0.75
 40
1.0
 40
1.0
 40
1.0
 40
1.0
 10
85.94606921877917
 20
194.1961459409912
 30
0.0
 10
85.94606921877917
 20
199.2938803177656
 30
0.0
 10
87.9712956448481
 20
204.1832094224577
 30
0.0
 10
95.18058073785808
 20
211.3924945154676
 30
0.0
 10
100.0699098425501
 20
213.4177209415366
 30
0.0
 10
110.265378596099
 20
213.4177209415366
 30
0.0
 10
115.154707700791
 20
211.3924945154676
 30
0.0
 10
122.363992793801
 20
204.1832094224577
 30
0.0
 10
124.38921921987
 20
199.2938803177656
 30
0.0
 10
124.38921921987
 20
194.1961459409912
 30
0.0
  0
CIRCLE
  5
BE
330
1F
100
AcDbEntity
  8
0
  6
Continuous
 62
     7
370
    15
100
AcDbCircle
 10
105.1676442193
 20
194.196145941
 30
0.0
 40
20.21110778703758
  0
CIRCLE
  5
BF
330
1F
100
AcDbEntity
  8
0
  6
Continuous
 62
     7
370
    15
100
AcDbCircle
 10
105.1676442193
 20
194.196145941
 30
0.0
 40
34.925
  0
SPLINE
  5
C0
330
1F
100
AcDbEntity
  8
0
  6
Continuous
 62
     7
370
    15
100
AcDbSpline
210
0.0
220
0.0
230
1.0
 70
     8
 71
     3
 72
    52
 73
    48
 74
     0
 42
0.000000001
 43
0.00000001
 40
0.0
 40
0.0
 40
0.0
 40
0.0
 40
0.0053074994726554
 40
0.0106084744807156
 40
0.0159043870752884
 40
0.0211967035030982
 40
0.0264868930010475
 40
0.031776426578386
 40
0.0370667757915106
 40
0.0423594115164833
 40
0.0476558027243854
 40
0.0529574152645906
 40
0.0582657106609693
 40
0.0891348494758177
 40
0.1200087595578935
 40
0.1521645941108524
 40
0.1843252192282218
 40
0.2171652710885947
 40
0.2500102154523581
 40
0.2828502674523063
 40
0.3156952119562962
 40
0.3478510468948057
 40
0.380011672397905
 40
0.4108808109142898
 40
0.4417547207534483
 40
0.470875333637603
 40
0.5000007798720159
 40
0.5291213927975412
 40
0.5582468390472084
 40
0.5891159778617261
 40
0.6199898879441322
 40
0.652145722497098
 40
0.6843063476144644
 40
0.7171463994755694
 40
0.7499913438386044
 40
0.7828313958395676
 40
0.8156763403425417
 40
0.8478321752819549
 40
0.8799928007841501
 40
0.9108619393016738
 40
0.941735849139696
 40
0.9514609652020397
 40
0.9611682412334405
 40
0.9708667191333772
 40
0.9805654654081966
 40
0.9902735458123287
 40
1.0
 40
1.0
 40
1.0
 40
1.0
 10
70.16764421932456
 20
194.1961459409912
 30
0.0
 10
70.168572250235
 20
194.3906080990441
 30
0.0
 10
70.17042717123533
 20
194.7792933644498
 30
0.0
 10
70.18545620558695
 20
195.3618563344713
 30
0.0
 10
70.20945483462133
 20
195.9435422218407
 30
0.0
 10
70.24329913870444
 20
196.5243509166578
 30
0.0
 10
70.28675468043804
 20
197.104282265077
 30
0.0
 10
70.3398842415041
 20
197.6833361855017
 30
0.0
 10
70.40267091122628
 20
198.2615123496383
 30
0.0
 10
70.47511950374286
 20
198.8388113470067
 30
0.0
 10
70.55722754123587
 20
199.4152303471542
 30
0.0
 10
70.64899994322953
 20
199.9907793087324
 30
0.0
 10
70.91313944486294
 20
201.4873919122461
 30
0.0
 10
71.47690719776834
 20
203.8830987734142
 30
0.0
 10
72.58952437810706
 20
207.1439698794666
 30
0.0
 10
74.03669059364765
 20
210.3238587617604
 30
0.0
 10
75.83586622305437
 20
213.4023576935161
 30
0.0
 10
77.95228679861472
 20
216.3038176015529
 30
0.0
 10
80.37517199212984
 20
218.9883645775468
 30
0.0
 10
83.0598324707483
 20
221.4113897524933
 30
0.0
 10
85.9611326103086
 20
223.5277289885704
 30
0.0
 10
89.03978570833559
 20
225.3270211806894
 30
0.0
 10
92.2194491423439
 20
226.7741293138968
 30
0.0
 10
95.48068544035024
 20
227.8868591309017
 30
0.0
 10
98.72642973908425
 20
228.6507466162978
 30
0.0
 10
101.9652958572402
 20
229.0990246163083
 30
0.0
 10
105.16746724717
 20
229.2447024811485
 30
0.0
 10
108.3698147178163
 20
229.0990411037
 30
0.0
 10
111.6085129775302
 20
228.6508109112389
 30
0.0
 10
114.8544335871033
 20
227.8869088521161
 30
0.0
 10
118.1155139876627
 20
226.7742585227574
 30
0.0
 10
121.2953445561178
 20
225.3271015477021
 30
0.0
 10
124.3738593963278
 20
223.5279233804729
 30
0.0
 10
127.2753149524544
 20
221.4115035636254
 30
0.0
 10
129.9598631104639
 20
218.9886179225151
 30
0.0
 10
132.3828879400467
 20
216.3039584700296
 30
0.0
 10
134.4992273742117
 20
213.4026546986767
 30
0.0
 10
136.2985191268497
 20
210.3240148360946
 30
0.0
 10
137.7456287962094
 20
207.1443028906708
 30
0.0
 10
138.8583531198726
 20
203.8832406809955
 30
0.0
 10
139.4591990519154
 20
201.3298265956414
 30
0.0
 10
139.7671391314346
 20
199.5124068900397
 30
0.0
 10
139.9132782423571
 20
198.4549601518111
 30
0.0
 10
140.0270842696182
 20
197.3945228984363
 30
0.0
 10
140.1077795904248
 20
196.3310689242842
 30
0.0
 10
140.1583011258404
 20
195.2646085555498
 30
0.0
 10
140.1645278925281
 20
194.5525245518241
 30
0.0
 10
140.1676442193246
 20
194.1961459409912
 30
0.0
  0
SPLINE
  5
C1
330
1F
100
AcDbEntity
  8
0
  6
Continuous
 62
     7
370
    15
100
AcDbSpline
210
0.0
220
0.0
230
1.0
 70
     8
 71
     3
 72
    52
 73
    48
 74
     0
 42
0.000000001
 43
0.00000001
 40
0.0
 40
0.0
 40
0.0
 40
0.0
 40
0.0053074994726554
 40
0.0106084744807156
 40
0.0159043870752884
 40
0.0211967035030983
 40
0.0264868930010475
 40
0.0317764265783861
 40
0.0370667757915106
 40
0.0423594115164834
 40
0.0476558027243854
 40
0.0529574152645907
 40
0.0582657106609694
 40
0.0891348494759667
 40
0.1200087595578951
 40
0.1521645941111445
 40
0.1843252192282232
 40
0.2171652710889209
 40
0.25001021545236
 40
0.2828502674525652
 40
0.315695211956297
 40
0.3478510468951538
 40
0.3800116723979077
 40
0.41088081091547
 40
0.4417547207534571
 40
0.4708753336379863
 40
0.5000007798720127
 40
0.5291213927971703
 40
0.5582468390472111
 40
0.5891159778626601
 40
0.6199898879441411
 40
0.6521457224976949
 40
0.6843063476144631
 40
0.7171463994753853
 40
0.7499913438386053
 40
0.7828313958393156
 40
0.8156763403425399
 40
0.8478321752809374
 40
0.8799928007841432
 40
0.9108619393011222
 40
0.9417358491396983
 40
0.9514609652021586
 40
0.9611682412336295
 40
0.9708667191335897
 40
0.9805654654083855
 40
0.9902735458124469
 40
1.0
 40
1.0
 40
1.0
 40
1.0
 10
140.1676442193246
 20
194.1961459409912
 30
0.0
 10
140.1667161884141
 20
194.0016837829382
 30
0.0
 10
140.1648612674138
 20
193.6129985175326
 30
0.0
 10
140.1498322330622
 20
193.030435547511
 30
0.0
 10
140.1258336040278
 20
192.4487496601417
 30
0.0
 10
140.0919892999447
 20
191.8679409653246
 30
0.0
 10
140.0485337582111
 20
191.2880096169053
 30
0.0
 10
139.995404197145
 20
190.7089556964807
 30
0.0
 10
139.9326175274228
 20
190.130779532344
 30
0.0
 10
139.8601689349063
 20
189.5534805349756
 30
0.0
 10
139.7780608974133
 20
188.9770615348281
 30
0.0
 10
139.6862884954196
 20
188.40151257325
 30
0.0
 10
139.4221489937852
 20
186.9048999697309
 30
0.0
 10
138.858381240882
 20
184.5091931085621
 30
0.0
 10
137.7457640605356
 20
181.248322002501
 30
0.0
 10
136.2985978449966
 20
178.0684331202124
 30
0.0
 10
134.4994222155823
 20
174.9899341884475
 30
0.0
 10
132.3830016400273
 20
172.0884742804197
 30
0.0
 10
129.9601164465043
 20
169.4039273044204
 30
0.0
 10
127.2754559678923
 20
166.9809021294843
 30
0.0
 10
124.3741558283218
 20
164.8645628934004
 30
0.0
 10
121.2955027303041
 20
163.0652707012831
 30
0.0
 10
118.1158392962526
 20
161.618162568067
 30
0.0
 10
114.8546029982603
 20
160.5054327510591
 30
0.0
 10
111.6088586995091
 20
159.7415452656716
 30
0.0
 10
108.3699925813928
 20
159.2932672656959
 30
0.0
 10
105.167821191479
 20
159.147589400832
 30
0.0
 10
101.9654737208451
 20
159.2932507782705
 30
0.0
 10
98.72677546109942
 20
159.7414809707504
 30
0.0
 10
95.48085485151006
 20
160.5053830298649
 30
0.0
 10
92.21977445093412
 20
161.618033359245
 30
0.0
 10
89.03994388251996
 20
163.0651903343058
 30
0.0
 10
85.96142904230749
 20
164.8643685015154
 30
0.0
 10
83.05997348619867
 20
166.9807883183512
 30
0.0
 10
80.37542532819596
 20
169.4036739594555
 30
0.0
 10
77.95240049861262
 20
172.0883334119489
 30
0.0
 10
75.83606106446102
 20
174.9896371832657
 30
0.0
 10
74.03676931182434
 20
178.0682770458587
 30
0.0
 10
72.58965964246238
 20
181.2479889912587
 30
0.0
 10
71.47693531876567
 20
184.5090512009626
 30
0.0
 10
70.87608938673516
 20
187.0624652863251
 30
0.0
 10
70.56814930721492
 20
188.879884991954
 30
0.0
 10
70.42201019629233
 20
189.9373317301903
 30
0.0
 10
70.30820416903116
 20
190.9977689835677
 30
0.0
 10
70.22750884822452
 20
192.0612229577172
 30
0.0
 10
70.17698731280872
 20
193.1276833264438
 30
0.0
 10
70.17076054612102
 20
193.8397673301626
 30
0.0
 10
70.16764421932456
 20
194.1961459409912
 30
0.0
  0
ARC
  5
C2
330
1F
100
AcDbEntity
  8
0
  6
Continuous
 62
     7
370
    15
100
AcDbCircle
 10
105.1676442193
 20
194.196145941
 30
0.0
 40
47.58431457505075
100
AcDbArc
 50
73.4556342686
 51
106.5443657314
  0
SPLINE
  5
C3
330
1F
100
AcDbEntity
  8
0
  6
Continuous
 62
     7
370
    15
100
AcDbSpline
210
0.0
220
0.0
230
1.0
 70
     8
 71
     3
 72
    10
 73
     6
 74
     0
 42
0.000000001
 43
0.00000001
 40
0.0
 40
0.0
 40
0.0
 40
0.0
 40
0.5
 40
0.5
 40
1.0
 40
1.0
 40
1.0
 40
1.0
 10
91.61764421932457
 20
239.8104473559793
 30
0.0
 10
91.61764421932457
 20
239.8743990448225
 30
0.0
 10
91.63149009534942
 20
239.9359633832736
 30
0.0
 10
91.67365587153678
 20
240.0465887341226
 30
0.0
 10
91.70214657179984
 20
240.096275425792
 30
0.0
 10
91.73480150684992
 20
240.1398450024578
 30
0.0
  0
ARC
  5
C4
330
1F
100
AcDbEntity
  8
0
  6
Continuous
 62
     7
370
    15
100
AcDbCircle
 10
105.1676442193
 20
194.196145941
 30
0.0
 40
47.86715728752535
100
AcDbArc
 50
73.7023380383
 51
106.2976619617
  0
SPLINE
  5
C5
330
1F
100
AcDbEntity
  8
0
  6
Continuous
 62
     7
370
    15
100
AcDbSpline
210
0.0
220
0.0
230
1.0
 70
     8
 71
     3
 72
    10
 73
     6
 74
     0
 42
0.000000001
 43
0.00000001
 40
0.0
 40
0.0
 40
0.0
 40
0.0
 40
0.5
 40
0.5
 40
1.0
 40
1.0
 40
1.0
 40
1.0
 10
118.6004869317992
 20
240.1398450024578
 30
0.0
 10
118.6331199928165
 20
240.0963046110391
 30
0.0
 10
118.6611008790827
 20
240.0477500069213
 30
0.0
 10
118.7037577294577
 20
239.9363004711595
 30
0.0
 10
118.7176442193246
 20
239.8743422185703
 30
0.0
 10
118.7176442193246
 20
239.8104473559793
 30
0.0
  0
ARC
  5
C6
330
1F
100
AcDbEntity
  8
0
  6
Continuous
 62
     7
370
    15
100
AcDbCircle
 10
105.1676442193
 20
194.196145941
 30
0.0
 40
47.58431457505078
100
AcDbArc
 50
253.4556342686
 51
286.5443657314
  0
SPLINE
  5
C7
330
1F
100
AcDbEntity
  8
0
  6
Continuous
 62
     7
370
    15
100
AcDbSpline
210
0.0
220
0.0
230
1.0
 70
     8
 71
     3
 72
    10
 73
     6
 74
     0
 42
0.000000001
 43
0.00000001
 40
0.0
 40
0.0
 40
0.0
 40
0.0
 40
0.5
 40
0.5
 40
1.0
 40
1.0
 40
1.0
 40
1.0
 10
118.7176442193246
 20
148.581844526003
 30
0.0
 10
118.7176442193245
 20
148.5178928371599
 30
0.0
 10
118.7037983432997
 20
148.4563284987088
 30
0.0
 10
118.6616325671124
 20
148.3457031478598
 30
0.0
 10
118.6331418668493
 20
148.2960164561904
 30
0.0
 10
118.6004869317992
 20
148.2524468795245
 30
0.0
  0
ARC
  5
C8
330
1F
100
AcDbEntity
  8
0
  6
Continuous
 62
     7
370
    15
100
AcDbCircle
 10
105.1676442193
 20
194.196145941
 30
0.0
 40
47.8671572875254
100
AcDbArc
 50
253.7023380383
 51
286.2976619617
  0
SPLINE
  5
C9
330
1F
100
AcDbEntity
  8
0
  6
Continuous
 62
     7
370
    15
100
AcDbSpline
210
0.0
220
0.0
230
1.0
 70
     8
 71
     3
 72
    10
 73
     6
 74
     0
 42
0.000000001
 43
0.00000001
 40
0.0
 40
0.0
 40
0.0
 40
0.0
 40
0.5
 40
0.5
 40
1.0
 40
1.0
 40
1.0
 40
1.0
 10
91.73480150684995
 20
148.2524468795245
 30
0.0
 10
91.70216844583264
 20
148.2959872709433
 30
0.0
 10
91.67418755956643
 20
148.344541875061
 30
0.0
 10
91.63153070919142
 20
148.4559914108229
 30
0.0
 10
91.61764421932459
 20
148.517949663412
 30
0.0
 10
91.61764421932459
 20
148.581844526003
 30
0.0
  0
ARC
  5
CA
330
1F
100
AcDbEntity
  8
0
  6
Continuous
 62
     7
370
    15
100
AcDbCircle
 10
105.1676442193
 20
194.196145941
 30
0.0
 40
47.86715728752539
100
AcDbArc
 50
218.8096103904
 51
231.1903896096
  0
SPLINE
  5
CB
330
1F
100
AcDbEntity
  8
0
  6
Continuous
 62
     7
370
    15
100
AcDbSpline
210
0.0
220
0.0
230
1.0
 70
    24
 71
     3
 72
     8
 73
     4
 74
     0
 42
0.000000001
 43
0.00000001
 40
0.0
 40
0.0
 40
0.0
 40
0.0
 40
1.0
 40
1.0
 40
1.0
 40
1.0
 10
68.23165914274391
 20
164.1961459409912
 30
0.0
 10
68.10095499313704
 20
164.1961459409912
 30
0.0
 10
67.97141802612087
 20
164.1961459409912
 30
0.0
 10
67.86798273575754
 20
164.1961459409912
 30
0.0
  0
ARC
  5
CC
330
1F
100
AcDbEntity
  8
0
  6
Continuous
 62
     7
370
    15
100
AcDbCircle
 10
105.1676442193
 20
194.196145941
 30
0.0
 40
47.58431457505077
100
AcDbArc
 50
219.0840578538
 51
230.9159421462
  0
SPLINE
  5
CD
330
1F
100
AcDbEntity
  8
0
  6
Continuous
 62
     7
370
    15
100
AcDbSpline
210
0.0
220
0.0
230
1.0
 70
    24
 71
     3
 72
     8
 73
     4
 74
     0
 42
0.000000001
 43
0.00000001
 40
0.0
 40
0.0
 40
0.0
 40
0.0
 40
1.0
 40
1.0
 40
1.0
 40
1.0
 10
75.16764421932456
 20
157.2601608644105
 30
0.0
 10
75.16764421932456
 20
157.1294567148036
 30
0.0
 10
75.16764421932456
 20
156.9999197477875
 30
0.0
 10
75.16764421932456
 20
156.8964844574242
 30
0.0
  0
SPLINE
  5
CE
330
1F
100
AcDbEntity
  8
0
  6
Continuous
 62
     7
370
    15
100
AcDbSpline
210
0.0
220
0.0
230
1.0
 70
     8
 71
     3
 72
    40
 73
    36
 74
     0
 42
0.000000001
 43
0.00000001
 40
0.0
 40
0.0
 40
0.0
 40
0.0
 40
0.0076138096088312
 40
0.0152227036962087
 40
0.0228283796616984
 40
0.0304325370599136
 40
0.0380368764636579
 40
0.045643098323658
 40
0.0532529018287069
 40
0.0608679837700301
 40
0.0919930035856531
 40
0.1231236538966447
 40
0.1547321881285769
 40
0.1863461940165405
 40
0.2182020912720865
 40
0.2500635030030742
 40
0.3137495787501955
 40
0.3769416086590397
 40
0.4391681485651269
 40
0.5000004350472884
 40
0.56083272152945
 40
0.6230592614355372
 40
0.6862512913443813
 40
0.7499373670915028
 40
0.7817932643705642
 40
0.8136546761204153
 40
0.8452632104152359
 40
0.8768772163635344
 40
0.9080022357777107
 40
0.9391328857746196
 40
0.9513123423169161
 40
0.9634818178562744
 40
0.9756482751527067
 40
0.9878186821464896
 40
0.9999999999999999
 40
0.9999999999999999
 40
0.9999999999999999
 40
0.9999999999999999
 10
91.61764421932457
 20
239.8104473559793
 30
0.0
 10
91.39063146160908
 20
239.7419479451492
 30
0.0
 10
90.93675250698507
 20
239.604993347122
 30
0.0
 10
90.26008528583012
 20
239.3867632579895
 30
0.0
 10
89.58681458527242
 20
239.1592676365967
 30
0.0
 10
88.91721505448528
 20
238.9215826724294
 30
0.0
 10
88.2512129141319
 20
238.6739555263866
 30
0.0
 10
87.58882937910386
 20
238.4163210963325
 30
0.0
 10
86.93005394407581
 20
238.14869291598
 30
0.0
 10
85.60095020889655
 20
237.5855002660238
 30
0.0
 10
83.62964943748551
 20
236.6604815938433
 30
0.0
 10
81.06280435806248
 20
235.2580688814061
 30
0.0
 10
78.57385453156097
 20
233.6925292732913
 30
0.0
 10
76.1688251194656
 20
231.962017817987
 30
0.0
 10
73.86971476174861
 20
230.0803633808005
 30
0.0
 10
70.96112088776748
 20
227.3785336137357
 30
0.0
 10
67.66054204134342
 20
223.6791698762204
 30
0.0
 10
64.30849272376422
 20
218.8188929710872
 30
0.0
 10
61.62018193478887
 20
213.6626052702312
 30
0.0
 10
59.59955326751573
 20
208.2894414547205
 30
0.0
 10
58.23390686621983
 20
202.7137047814537
 30
0.0
 10
57.54180013566911
 20
196.9400312343189
 30
0.0
 10
57.5646540683903
 20
191.0359645796447
 30
0.0
 10
58.20040508045427
 20
186.1193368542176
 30
0.0
 10
59.07578010667088
 20
182.2471910622647
 30
0.0
 10
59.91108589200761
 20
179.3962636107747
 30
0.0
 10
60.91925188270973
 20
176.6099657926964
 30
0.0
 10
62.08969227718801
 20
173.9127803627709
 30
0.0
 10
63.41667758994976
 20
171.3059376312686
 30
0.0
 10
64.59369761751445
 20
169.3069657055608
 30
0.0
 10
65.53277130319272
 20
167.8565014716435
 30
0.0
 10
66.17341310655095
 20
166.9167692136193
 30
0.0
 10
66.83659484784559
 20
165.9932071371227
 30
0.0
 10
67.52041003573157
 20
165.0842506530413
 30
0.0
 10
67.9945053004949
 20
164.4922692579917
 30
0.0
 10
68.23165914274391
 20
164.1961459409912
 30
0.0
  0
SPLINE
  5
CF
330
1F
100
AcDbEntity
  8
0
  6
Continuous
 62
     7
370
    15
100
AcDbSpline
210
0.0
220
0.0
230
1.0
 70
     8
 71
     3
 72
    36
 73
    32
 74
     0
 42
0.000000001
 43
0.00000001
 40
0.0
 40
0.0
 40
0.0
 40
0.0
 40
0.0108670927967935
 40
0.0217248651280189
 40
0.03257541301373
 40
0.0434208366626373
 40
0.0542632392611956
 40
0.0651047257540595
 40
0.0759474016194288
 40
0.0867933716428408
 40
0.097644738692979
 40
0.1085036025030503
 40
0.1193720584612493
 40
0.1813968118483067
 40
0.2434299656516007
 40
0.3071319153772298
 40
0.3708424926864625
 40
0.4354174331853494
 40
0.5000011195034906
 40
0.5645760601035564
 40
0.6291597465272372
 40
0.6928616965454851
 40
0.7565722741492636
 40
0.8185970279779449
 40
0.8806301822189021
 40
0.9005456108411908
 40
0.9204355762676254
 40
0.9403130274612492
 40
0.9601909378413641
 40
0.9800822799288077
 40
1.0
 40
1.0
 40
1.0
 40
1.0
 10
152.7519587943753
 20
194.1961459409912
 30
0.0
 10
152.7510754670786
 20
194.4170837412201
 30
0.0
 10
152.7493095700953
 20
194.8587698482046
 30
0.0
 10
152.7350091920564
 20
195.520929976059
 30
0.0
 10
152.7121763682897
 20
196.1823942106955
 30
0.0
 10
152.6799766774273
 20
196.8431624918445
 30
0.0
 10
152.6386335000103
 20
197.5032347310876
 30
0.0
 10
152.5880870037684
 20
198.1626108946392
 30
0.0
 10
152.5283532796388
 20
198.8212907577076
 30
0.0
 10
152.459427812389
 20
199.4792748062384
 30
0.0
 10
152.3813126336874
 20
200.1365608755925
 30
0.0
 10
152.2940042150111
 20
200.7931567056078
 30
0.0
 10
152.0461715916251
 20
202.477771394671
 30
0.0
 10
151.5205255714592
 20
205.1735000597624
 30
0.0
 10
150.4921349258716
 20
208.85364772825
 30
0.0
 10
149.1601850133713
 20
212.4722203500995
 30
0.0
 10
147.5142591254927
 20
216.0162236112558
 30
0.0
 10
145.5752380658991
 20
219.4295940010239
 30
0.0
 10
143.3492630853698
 20
222.6844724254518
 30
0.0
 10
140.8629078087121
 20
225.7452937723866
 30
0.0
 10
138.1431400148373
 20
228.5759108621357
 30
0.0
 10
135.2144316768155
 20
231.163012677884
 30
0.0
 10
132.1251056776146
 20
233.4701427439712
 30
0.0
 10
128.8900046294477
 20
235.5040470586486
 30
0.0
 10
126.2923927597159
 20
236.8607511672308
 30
0.0
 10
124.4095053297411
 20
237.7221851626402
 30
0.0
 10
123.2934503553463
 20
238.1987319562201
 30
0.0
 10
122.1663562203414
 20
238.6464784856121
 30
0.0
 10
121.027991296668
 20
239.0647176263554
 30
0.0
 10
119.8791598153441
 20
239.4561308306834
 30
0.0
 10
119.1049870768524
 20
239.6922896869409
 30
0.0
 10
118.7176442193246
 20
239.8104473559793
 30
0.0
  0
SPLINE
  5
D0
330
1F
100
AcDbEntity
  8
0
  6
Continuous
 62
     7
370
    15
100
AcDbSpline
210
0.0
220
0.0
230
1.0
 70
     8
 71
     3
 72
    36
 73
    32
 74
     0
 42
0.000000001
 43
0.00000001
 40
0.0
 40
0.0
 40
0.0
 40
0.0
 40
0.0108670927976138
 40
0.0217248651294953
 40
0.0325754130156982
 40
0.0434208366649332
 40
0.0542632392636552
 40
0.065104725756519
 40
0.0759474016217247
 40
0.0867933716448104
 40
0.0976447386944597
 40
0.1085036025038803
 40
0.1193720584612676
 40
0.1813968118522707
 40
0.2434299656516123
 40
0.3071319153785467
 40
0.3708424926864622
 40
0.4354174331848614
 40
0.5000011195034882
 40
0.5645760601040033
 40
0.6291597465272422
 40
0.6928616965456248
 40
0.7565722741492584
 40
0.8185970279756692
 40
0.8806301822188896
 40
0.9005456108402741
 40
0.9204355762661642
 40
0.9403130274596062
 40
0.9601909378399034
 40
0.9800822799278944
 40
1.0
 40
1.0
 40
1.0
 40
1.0
 10
118.7176442193246
 20
148.581844526003
 30
0.0
 10
118.9291835557507
 20
148.6456050230909
 30
0.0
 10
119.3520807959812
 20
148.773071331295
 30
0.0
 10
119.9827550382045
 20
148.9753348623164
 30
0.0
 10
120.6103325178838
 20
149.1855794308159
 30
0.0
 10
121.2345755693345
 20
149.4046048955595
 30
0.0
 10
121.8555477171282
 20
149.6321970988884
 30
0.0
 10
122.4732318911782
 20
149.8684133863678
 30
0.0
 10
123.0876324580176
 20
150.1132382692218
 30
0.0
 10
123.6987485977264
 20
150.3666762141269
 30
0.0
 10
124.3065788138156
 20
150.6287246571292
 30
0.0
 10
124.9111295209166
 20
150.899389184647
 30
0.0
 10
126.4554281160767
 20
151.6166684252364
 30
0.0
 10
128.8898705856822
 20
152.8881819471454
 30
0.0
 10
132.1248162422519
 20
154.9219471206728
 30
0.0
 10
135.2142952493543
 20
157.2291700949557
 30
0.0
 10
138.1428850259211
 20
159.816136090863
 30
0.0
 10
140.8627890866851
 20
162.6468642634939
 30
0.0
 10
143.3490504858808
 20
165.7075345212457
 30
0.0
 10
145.5751435681163
 20
168.9625459603838
 30
0.0
 10
147.5140969467433
 20
172.3757540930525
 30
0.0
 10
149.1601192701354
 20
175.9199096829025
 30
0.0
 10
150.4920236910536
 20
179.5383091749933
 30
0.0
 10
151.5205034683296
 20
183.2186454233307
 30
0.0
 10
152.0813494013493
 20
186.0950468736361
 30
0.0
 10
152.3709529264509
 20
188.1452818359567
 30
0.0
 10
152.5099652088947
 20
189.3508319749356
 30
0.0
 10
152.6182260857379
 20
190.5587631510641
 30
0.0
 10
152.6949917499331
 20
191.7690960437542
 30
0.0
 10
152.7430616512965
 20
192.9818232817047
 30
0.0
 10
152.7489917702253
 20
193.7911929550618
 30
0.0
 10
152.7519587943753
 20
194.1961459409912
 30
0.0
  0
SPLINE
  5
D1
330
1F
100
AcDbEntity
  8
0
  6
Continuous
 62
     7
370
    15
100
AcDbSpline
210
0.0
220
0.0
230
1.0
 70
     8
 71
     3
 72
    27
 73
    23
 74
     0
 42
0.000000001
 43
0.00000001
 40
0.0
 40
0.0
 40
0.0
 40
0.0
 40
0.0385569892849983
 40
0.0770658329197954
 40
0.1155353026404072
 40
0.1539741971381832
 40
0.1923913361124397
 40
0.230795554251255
 40
0.2691956951607654
 40
0.307600605263732
 40
0.346019127688388
 40
0.3844600961686545
 40
0.4229323289767203
 40
0.4614446229087283
 40
0.500005747343875
 40
0.571571333449417
 40
0.6429967682529732
 40
0.7143384572511785
 40
0.7856530046545552
 40
0.8569970792758757
 40
0.9284272796521091
 40
1.0
 40
1.0
 40
1.0
 40
1.0
 10
75.16764421932454
 20
157.2601608644105
 30
0.0
 10
75.35504940349729
 20
157.1092915285799
 30
0.0
 10
75.72962576123638
 20
156.8077412456493
 30
0.0
 10
76.29973645465613
 20
156.3664555661418
 30
0.0
 10
76.87537829002915
 20
155.9336684448548
 30
0.0
 10
77.4571721255712
 20
155.5101444286915
 30
0.0
 10
78.04495173625105
 20
155.0956790504312
 30
0.0
 10
78.63876150533221
 20
154.6903271326118
 30
0.0
 10
79.23858943176991
 20
154.2940740852223
 30
0.0
 10
79.84443861896871
 20
153.9069238956248
 30
0.0
 10
80.45630807653978
 20
153.5288755758724
 30
0.0
 10
81.07419806824798
 20
153.15992943219
 30
0.0
 10
81.69810791565256
 20
152.8000855324341
 30
0.0
 10
82.32803944194883
 20
152.4493435643883
 30
0.0
 10
83.14509059093155
 20
152.0104128064574
 30
0.0
 10
84.15444618369071
 20
151.4957715813317
 30
0.0
 10
85.3626095847061
 20
150.9218803630771
 30
0.0
 10
86.58503426358578
 20
150.3829030797875
 30
0.0
 10
87.82164369160904
 20
149.8786115087698
 30
0.0
 10
89.07269513327759
 20
149.4098751997655
 30
0.0
 10
90.33722067547731
 20
148.9734453072107
 30
0.0
 10
91.19055288792838
 20
148.7124648194407
 30
0.0
 10
91.61764421932456
 20
148.581844526003
 30
0.0
  0
ARC
  5
D2
330
1F
100
AcDbEntity
  8
0
  6
Continuous
 62
     7
370
    15
100
AcDbCircle
 10
105.1676442193
 20
194.196145941
 30
0.0
 40
47.86715728752539
100
AcDbArc
 50
106.2976619617
 51
218.8096103904
  0
ARC
  5
D3
330
1F
100
AcDbEntity
  8
0
  6
Continuous
 62
     7
370
    15
100
AcDbCircle
 10
105.1676442193
 20
194.196145941
 30
0.0
 40
47.86715728752538
100
AcDbArc
 50
286.2976619617
 51
73.7023380383
  0
ARC
  5
D4
330
1F
100
AcDbEntity
  8
0
  6
Continuous
 62
     7
370
    15
100
AcDbCircle
 10
105.1676442193
 20
194.196145941
 30
0.0
 40
47.8671572875254
100
AcDbArc
 50
231.1903896096
 51
253.7023380383
  0
ARC
  5
D5
330
1F
100
AcDbEntity
  8
0
  6
Continuous
 62
     7
370
    15
100
AcDbCircle
 10
105.1676442193
 20
194.196145941
 30
0.0
 40
48.63284271247465
100
AcDbArc
 50
231.9122882504
 51
254.1258902834
  0
ARC
  5
D6
330
1F
100
AcDbEntity
  8
0
  6
Continuous
 62
     7
370
    15
100
AcDbCircle
 10
105.1676442193
 20
194.196145941
 30
0.0
 40
48.63284271247463
100
AcDbArc
 50
218.0877117496
 51
231.9122882504
  0
ARC
  5
D7
330
1F
100
AcDbEntity
  8
0
  6
Continuous
 62
     7
370
    15
100
AcDbCircle
 10
105.1676442193
 20
194.196145941
 30
0.0
 40
48.63284271247462
100
AcDbArc
 50
105.9657859825
 51
218.0877117496
  0
ARC
  5
D8
330
1F
100
AcDbEntity
  8
0
  6
Continuous
 62
     7
370
    15
100
AcDbCircle
 10
105.1676442193
 20
194.196145941
 30
0.0
 40
48.63284271247462
100
AcDbArc
 50
74.1258902834
 51
105.9657859825
  0
ARC
  5
D9
330
1F
100
AcDbEntity
  8
0
  6
Continuous
 62
     7
370
    15
100
AcDbCircle
 10
105.1676442193
 20
194.196145941
 30
0.0
 40
48.63284271247462
100
AcDbArc
 50
285.9657859825
 51
74.1258902834
  0
ARC
  5
DA
330
1F
100
AcDbEntity
  8
0
  6
Continuous
 62
     7
370
    15
100
AcDbCircle
 10
105.1676442193
 20
194.196145941
 30
0.0
 40
48.63284271247465
100
AcDbArc
 50
254.1258902834
 51
285.9657859825
  0
SPLINE
  5
DB
330
1F
100
AcDbEntity
  8
0
  6
Continuous
 62
     7
370
    15
100
AcDbSpline
210
0.0
220
0.0
230
1.0
 70
    24
 71
     3
 72
    10
 73
     6
 74
     0
 42
0.000000001
 43
0.00000001
 40
0.0
 40
0.0
 40
0.0
 40
0.0
 40
0.5
 40
0.5
 40
1.0
 40
1.0
 40
1.0
 40
1.0
 10
91.79053440721653
 20
240.9530312454156
 30
0.0
 10
91.75034107495325
 20
240.9759727656527
 30
0.0
 10
91.71508911011666
 20
240.9960938558723
 30
0.0
 10
91.66380961141299
 20
241.0253631299288
 30
0.0
 10
91.64848565308729
 20
241.0341097274426
 30
0.0
 10
91.64848565308729
 20
241.0341097274426
 30
0.0
  0
ARC
  5
DC
330
1F
100
AcDbEntity
  8
0
  6
Continuous
 62
     7
370
    15
100
AcDbCircle
 10
105.1676442193
 20
194.196145941
 30
0.0
 40
48.75000000000001
100
AcDbArc
 50
74.0491974398
 51
106.1000846724
  0
SPLINE
  5
DD
330
1F
100
AcDbEntity
  8
0
  6
Continuous
 62
     7
370
    15
100
AcDbSpline
210
0.0
220
0.0
230
1.0
 70
    24
 71
     3
 72
     8
 73
     4
 74
     0
 42
0.000000001
 43
0.00000001
 40
0.0
 40
0.0
 40
0.0
 40
0.0
 40
1.0
 40
1.0
 40
1.0
 40
1.0
 10
118.5647223907373
 20
241.0691743951999
 30
0.0
 10
118.5647223907373
 20
241.0691743951999
 30
0.0
 10
118.5276257976711
 20
241.0320778021336
 30
0.0
 10
118.4699234595741
 20
240.9743754640367
 30
0.0
  0
SPLINE
  5
DE
330
1F
100
AcDbEntity
  8
0
  6
Continuous
 62
     7
370
    15
100
AcDbSpline
210
0.0
220
0.0
230
1.0
 70
    24
 71
     3
 72
    10
 73
     6
 74
     0
 42
0.000000001
 43
0.00000001
 40
0.0
 40
0.0
 40
0.0
 40
0.0
 40
0.5
 40
0.5
 40
1.0
 40
1.0
 40
1.0
 40
1.0
 10
118.5447540314327
 20
147.4392606365668
 30
0.0
 10
118.584947363696
 20
147.4163191163297
 30
0.0
 10
118.6201993285326
 20
147.3961980261101
 30
0.0
 10
118.6714788272362
 20
147.3669287520536
 30
0.0
 10
118.6868027855619
 20
147.3581821545398
 30
0.0
 10
118.6868027855619
 20
147.3581821545398
 30
0.0
  0
ARC
  5
DF
330
1F
100
AcDbEntity
  8
0
  6
Continuous
 62
     7
370
    15
100
AcDbCircle
 10
105.1676442193
 20
194.196145941
 30
0.0
 40
48.75000000000001
100
AcDbArc
 50
254.0491974398
 51
286.1000846724
  0
SPLINE
  5
E0
330
1F
100
AcDbEntity
  8
0
  6
Continuous
 62
     7
370
    15
100
AcDbSpline
210
0.0
220
0.0
230
1.0
 70
    24
 71
     3
 72
     8
 73
     4
 74
     0
 42
0.000000001
 43
0.00000001
 40
0.0
 40
0.0
 40
0.0
 40
0.0
 40
1.0
 40
1.0
 40
1.0
 40
1.0
 10
91.7705660479119
 20
147.3231174867825
 30
0.0
 10
91.7705660479119
 20
147.3231174867825
 30
0.0
 10
91.80766264097817
 20
147.3602140798487
 30
0.0
 10
91.86536497907514
 20
147.4179164179457
 30
0.0
  0
ARC
  5
E1
330
1F
100
AcDbEntity
  8
0
  6
Continuous
 62
     7
370
    15
100
AcDbCircle
 10
105.1676442193
 20
194.196145941
 30
0.0
 40
48.75000000000003
100
AcDbArc
 50
217.9798724449
 51
232.0201275551
  0
SPLINE
  5
E2
330
1F
100
AcDbEntity
  8
0
  6
Continuous
 62
     7
370
    15
100
AcDbSpline
210
0.0
220
0.0
230
1.0
 70
    24
 71
     3
 72
     8
 73
     4
 74
     0
 42
0.000000001
 43
0.00000001
 40
0.0
 40
0.0
 40
0.0
 40
0.0
 40
1.0
 40
1.0
 40
1.0
 40
1.0
 10
66.74157884697604
 20
164.1961459409912
 30
0.0
 10
66.74157884697604
 20
164.1961459409912
 30
0.0
 10
66.80309439540748
 20
164.1961459409912
 30
0.0
 10
66.89032207818862
 20
164.1961459409912
 30
0.0
  0
SPLINE
  5
E3
330
1F
100
AcDbEntity
  8
0
  6
Continuous
 62
     7
370
    15
100
AcDbSpline
210
0.0
220
0.0
230
1.0
 70
    24
 71
     3
 72
     8
 73
     4
 74
     0
 42
0.000000001
 43
0.00000001
 40
0.0
 40
0.0
 40
0.0
 40
0.0
 40
1.0
 40
1.0
 40
1.0
 40
1.0
 10
75.16764421932459
 20
155.9188237998552
 30
0.0
 10
75.16764421932459
 20
155.8315493836409
 30
0.0
 10
75.16764421932457
 20
155.7700805686424
 30
0.0
 10
75.16764421932457
 20
155.7700805686426
 30
0.0
  0
ARC
  5
E4
330
1F
100
AcDbEntity
  8
0
  6
Continuous
 62
     7
370
    15
100
AcDbCircle
 10
105.1676442193
 20
194.196145941
 30
0.0
 40
48.75000000000003
100
AcDbArc
 50
232.0201275551
 51
254.0491974398
  0
ARC
  5
E5
330
1F
100
AcDbEntity
  8
0
  6
Continuous
 62
     7
370
    15
100
AcDbCircle
 10
105.1676442193
 20
194.196145941
 30
0.0
 40
48.75000000000001
100
AcDbArc
 50
106.1000846724
 51
217.9798724449
  0
ARC
  5
E6
330
1F
100
AcDbEntity
  8
0
  6
Continuous
 62
     7
370
    15
100
AcDbCircle
 10
105.1676442193
 20
194.196145941
 30
0.0
 40
48.75
100
AcDbArc
 50
286.1000846724
 51
74.0491974398
  0
INSERT
  5
F2
330
1F
100
AcDbEntity
  8
DIM
100
AcDbBlockReference
  2
SW_CENTERMARKSYMBOL_0
 10
105.1676442193
 20
194.196145941
 30
0.0
  0
LINE
  5
F3
330
1F
100
AcDbEntity
  8
0
  6
Continuous
 62
     7
370
    15
100
AcDbLine
 10
351.0485182714
 20
145.446145941
 30
0.0
 11
354.6352375822
 21
145.446145941
 31
0.0
  0
LINE
  5
F4
330
1F
100
AcDbEntity
  8
0
  6
Continuous
 62
     7
370
    15
100
AcDbLine
 10
354.6352375822
 20
242.946145941
 30
0.0
 11
351.0485182714
 21
242.946145941
 31
0.0
  0
LINE
  5
F5
330
1F
100
AcDbEntity
  8
0
  6
Continuous
 62
     7
370
    15
100
AcDbLine
 10
351.0485182714
 20
242.946145941
 30
0.0
 11
349.7009230072
 21
240.6120424754
 31
0.0
  0
LINE
  5
F6
330
1F
100
AcDbEntity
  8
0
  6
Continuous
 62
     7
370
    15
100
AcDbLine
 10
349.7009230072
 20
147.7802494066
 30
0.0
 11
351.0485182714
 21
145.446145941
 31
0.0
  0
LINE
  5
F7
330
1F
100
AcDbEntity
  8
0
  6
Continuous
 62
     7
370
    15
100
AcDbLine
 10
344.553327743
 20
145.446145941
 30
0.0
 11
345.9009230072
 21
147.7802494066
 31
0.0
  0
LINE
  5
F8
330
1F
100
AcDbEntity
  8
0
  6
Continuous
 62
     7
370
    15
100
AcDbLine
 10
345.9009230072
 20
240.6120424754
 30
0.0
 11
344.553327743
 21
242.946145941
 31
0.0
  0
LINE
  5
F9
330
1F
100
AcDbEntity
  8
0
  6
Continuous
 62
     7
370
    15
100
AcDbLine
 10
341.0666084321
 20
145.446145941
 30
0.0
 11
344.553327743
 21
145.446145941
 31
0.0
  0
LINE
  5
FA
330
1F
100
AcDbEntity
  8
0
  6
Continuous
 62
     7
370
    15
100
AcDbLine
 10
344.553327743
 20
242.946145941
 30
0.0
 11
341.0666084321
 21
242.946145941
 31
0.0
  0
LINE
  5
FB
330
1F
100
AcDbEntity
  8
0
  6
Continuous
 62
     7
370
    15
100
AcDbLine
 10
354.9180802947
 20
145.5633032285
 30
0.0
 11
355.6837657196
 21
146.3289886535
 31
0.0
  0
LINE
  5
FC
330
1F
100
AcDbEntity
  8
0
  6
Continuous
 62
     7
370
    15
100
AcDbLine
 10
355.6837657196
 20
242.0633032285
 30
0.0
 11
354.9180802947
 21
242.8289886535
 31
0.0
  0
LINE
  5
FD
330
1F
100
AcDbEntity
  8
0
  6
Continuous
 62
     7
370
    15
100
AcDbLine
 10
340.7837657196
 20
242.8289886535
 30
0.0
 11
340.0180802947
 21
242.0633032285
 31
0.0
  0
LINE
  5
FE
330
1F
100
AcDbEntity
  8
0
  6
Continuous
 62
     7
370
    15
100
AcDbLine
 10
340.0180802947
 20
146.3289886535
 30
0.0
 11
340.7837657196
 21
145.5633032285
 31
0.0
  0
LINE
  5
FF
330
1F
100
AcDbEntity
  8
0
  6
Continuous
 62
     7
370
    15
100
AcDbLine
 10
345.9009230072
 20
148.696145941
 30
0.0
 11
349.7009230072
 21
148.696145941
 31
0.0
  0
LINE
  5
100
330
1F
100
AcDbEntity
  8
0
  6
Continuous
 62
     7
370
    15
100
AcDbLine
 10
349.7009230072
 20
239.696145941
 30
0.0
 11
345.9009230072
 21
239.696145941
 31
0.0
  0
ARC
  5
101
330
1F
100
AcDbEntity
  8
0
  6
Continuous
 62
     7
370
    15
100
AcDbCircle
 10
339.4009230072
 20
159.196145941
 30
0.0
 40
0.5000000000000568
100
AcDbArc
 50
0.0
 51
90.0
  0
ARC
  5
102
330
1F
100
AcDbEntity
  8
0
  6
Continuous
 62
     7
370
    15
100
AcDbCircle
 10
339.4009230072
 20
229.196145941
 30
0.0
 40
0.5000000000000568
100
AcDbArc
 50
270.0
 51
0.0
  0
LINE
  5
103
330
1F
100
AcDbEntity
  8
0
  6
Continuous
 62
     7
370
    15
100
AcDbLine
 10
336.7009230072
 20
229.121145941
 30
0.0
 11
235.8066147799
 21
214.407253728
 31
0.0
  0
LINE
  5
104
330
1F
100
AcDbEntity
  8
0
  6
Continuous
 62
     7
370
    15
100
AcDbLine
 10
235.8066147799
 20
173.985038154
 30
0.0
 11
336.7009230072
 21
159.271145941
 31
0.0
  0
LINE
  5
105
330
1F
100
AcDbEntity
  8
0
  6
Continuous
 62
     7
370
    15
100
AcDbLine
 10
336.7009230072
 20
159.271145941
 30
0.0
 11
337.6123384484
 21
159.696145941
 31
0.0
  0
LINE
  5
106
330
1F
100
AcDbEntity
  8
0
  6
Continuous
 62
     7
370
    15
100
AcDbLine
 10
337.6123384484
 20
228.696145941
 30
0.0
 11
336.7009230072
 21
229.121145941
 31
0.0
  0
LINE
  5
107
330
1F
100
AcDbEntity
  8
0
  6
Continuous
 62
     7
370
    15
100
AcDbLine
 10
337.6123384484
 20
159.696145941
 30
0.0
 11
339.4009230072
 21
159.696145941
 31
0.0
  0
LINE
  5
108
330
1F
100
AcDbEntity
  8
0
  6
Continuous
 62
     7
370
    15
100
AcDbLine
 10
339.4009230072
 20
228.696145941
 30
0.0
 11
337.6123384484
 21
228.696145941
 31
0.0
  0
ARC
  5
109
330
1F
100
AcDbEntity
  8
0
  6
Continuous
 62
     7
370
    15
100
AcDbCircle
 10
357.8009230072
 20
226.196145941
 30
0.0
 40
2.000000000000028
100
AcDbArc
 50
180.0
 51
270.0
  0
ARC
  5
10A
330
1F
100
AcDbEntity
  8
0
  6
Continuous
 62
     7
370
    15
100
AcDbCircle
 10
357.8009230072
 20
162.196145941
 30
0.0
 40
2.000000000000028
100
AcDbArc
 50
90.0
 51
180.0
  0
LINE
  5
10B
330
1F
100
AcDbEntity
  8
0
  6
Continuous
 62
     7
370
    15
100
AcDbLine
 10
432.0821208536
 20
162.696145941
 30
0.0
 11
436.7009230072
 21
170.696145941
 31
0.0
  0
LINE
  5
10C
330
1F
100
AcDbEntity
  8
0
  6
Continuous
 62
     7
370
    15
100
AcDbLine
 10
436.7009230072
 20
217.696145941
 30
0.0
 11
432.0821208536
 21
225.696145941
 31
0.0
  0
LINE
  5
10D
330
1F
100
AcDbEntity
  8
0
  6
Continuous
 62
     7
370
    15
100
AcDbLine
 10
413.7009230072
 20
162.696145941
 30
0.0
 11
432.0821208536
 21
162.696145941
 31
0.0
  0
LINE
  5
10E
330
1F
100
AcDbEntity
  8
0
  6
Continuous
 62
     7
370
    15
100
AcDbLine
 10
432.0821208536
 20
225.696145941
 30
0.0
 11
413.7009230072
 21
225.696145941
 31
0.0
  0
LINE
  5
10F
330
1F
100
AcDbEntity
  8
0
  6
Continuous
 62
     7
370
    15
100
AcDbLine
 10
413.7009230072
 20
225.696145941
 30
0.0
 11
411.7009230072
 21
223.696145941
 31
0.0
  0
LINE
  5
110
330
1F
100
AcDbEntity
  8
0
  6
Continuous
 62
     7
370
    15
100
AcDbLine
 10
411.7009230072
 20
164.696145941
 30
0.0
 11
413.7009230072
 21
162.696145941
 31
0.0
  0
LINE
  5
111
330
1F
100
AcDbEntity
  8
0
  6
Continuous
 62
     7
370
    15
100
AcDbLine
 10
383.1787548833
 20
164.196145941
 30
0.0
 11
392.2720216231
 21
169.446145941
 31
0.0
  0
LINE
  5
112
330
1F
100
AcDbEntity
  8
0
  6
Continuous
 62
     7
370
    15
100
AcDbLine
 10
392.2720216231
 20
218.946145941
 30
0.0
 11
383.1787548833
 21
224.196145941
 31
0.0
  0
LINE
  5
113
330
1F
100
AcDbEntity
  8
0
  6
Continuous
 62
     7
370
    15
100
AcDbLine
 10
357.8009230072
 20
164.196145941
 30
0.0
 11
383.1787548833
 21
164.196145941
 31
0.0
  0
LINE
  5
114
330
1F
100
AcDbEntity
  8
0
  6
Continuous
 62
     7
370
    15
100
AcDbLine
 10
383.1787548833
 20
224.196145941
 30
0.0
 11
357.8009230072
 21
224.196145941
 31
0.0
  0
LINE
  5
115
330
1F
100
AcDbEntity
  8
0
  6
Continuous
 62
     7
370
    15
100
AcDbLine
 10
396.7009230072
 20
169.246145941
 30
0.0
 11
411.7009230072
 21
169.246145941
 31
0.0
  0
LINE
  5
116
330
1F
100
AcDbEntity
  8
0
  6
Continuous
 62
     7
370
    15
100
AcDbLine
 10
411.7009230072
 20
219.146145941
 30
0.0
 11
396.7009230072
 21
219.146145941
 31
0.0
  0
LINE
  5
117
330
1F
100
AcDbEntity
  8
0
  6
Continuous
 62
     7
370
    15
100
AcDbLine
 10
396.7009230072
 20
219.146145941
 30
0.0
 11
396.2720216231
 21
218.946145941
 31
0.0
  0
LINE
  5
118
330
1F
100
AcDbEntity
  8
0
  6
Continuous
 62
     7
370
    15
100
AcDbLine
 10
396.2720216231
 20
169.446145941
 30
0.0
 11
396.7009230072
 21
169.246145941
 31
0.0
  0
LINE
  5
119
330
1F
100
AcDbEntity
  8
0
  6
Continuous
 62
     7
370
    15
100
AcDbLine
 10
392.2720216231
 20
169.446145941
 30
0.0
 11
396.2720216231
 21
169.446145941
 31
0.0
  0
LINE
  5
11A
330
1F
100
AcDbEntity
  8
0
  6
Continuous
 62
     7
370
    15
100
AcDbLine
 10
396.2720216231
 20
218.946145941
 30
0.0
 11
392.2720216231
 21
218.946145941
 31
0.0
  0
ARC
  5
11B
330
1F
100
AcDbEntity
  8
0
  6
Continuous
 62
     7
370
    15
100
AcDbCircle
 10
235.9509230072
 20
174.9745709404
 30
0.0
 40
1.0
100
AcDbArc
 50
180.0
 51
261.7027777778
  0
ARC
  5
11C
330
1F
100
AcDbEntity
  8
0
  6
Continuous
 62
     7
370
    15
100
AcDbCircle
 10
235.9509230072
 20
213.4177209415
 30
0.0
 40
1.0
100
AcDbArc
 50
98.2972222222
 51
180.0
  0
ARC
  5
11D
330
1F
100
AcDbEntity
  8
0
  6
Continuous
 62
     7
370
    15
100
AcDbCircle
 10
340.3009230072
 20
241.780460516
 30
0.0
 40
0.4000000000000193
100
AcDbArc
 50
135.0
 51
180.0
  0
ARC
  5
11E
330
1F
100
AcDbEntity
  8
0
  6
Continuous
 62
     7
370
    15
100
AcDbCircle
 10
355.4009230072
 20
241.780460516
 30
0.0
 40
0.4000000000000595
100
AcDbArc
 50
0.0
 51
45.0
  0
ARC
  5
11F
330
1F
100
AcDbEntity
  8
0
  6
Continuous
 62
     7
370
    15
100
AcDbCircle
 10
355.4009230072
 20
146.6118313659
 30
0.0
 40
0.4000000000000595
100
AcDbArc
 50
315.0
 51
0.0
  0
ARC
  5
120
330
1F
100
AcDbEntity
  8
0
  6
Continuous
 62
     7
370
    15
100
AcDbCircle
 10
340.3009230072
 20
146.6118313659
 30
0.0
 40
0.4000000000000193
100
AcDbArc
 50
180.0
 51
225.0
  0
ARC
  5
121
330
1F
100
AcDbEntity
  8
0
  6
Continuous
 62
     7
370
    15
100
AcDbCircle
 10
341.0666084321
 20
145.846145941
 30
0.0
 40
0.3999999999999992
100
AcDbArc
 50
225.0
 51
270.0
  0
ARC
  5
122
330
1F
100
AcDbEntity
  8
0
  6
Continuous
 62
     7
370
    15
100
AcDbCircle
 10
354.6352375822
 20
145.846145941
 30
0.0
 40
0.3999999999999773
100
AcDbArc
 50
270.0
 51
315.0
  0
ARC
  5
123
330
1F
100
AcDbEntity
  8
0
  6
Continuous
 62
     7
370
    15
100
AcDbCircle
 10
354.6352375822
 20
242.546145941
 30
0.0
 40
0.4000000000000341
100
AcDbArc
 50
45.0
 51
90.0
  0
ARC
  5
124
330
1F
100
AcDbEntity
  8
0
  6
Continuous
 62
     7
370
    15
100
AcDbCircle
 10
341.0666084321
 20
242.546145941
 30
0.0
 40
0.4000000000000341
100
AcDbArc
 50
90.0
 51
135.0
  0
SPLINE
  5
125
330
1F
100
AcDbEntity
  8
0
  6
Continuous
 62
     7
370
    15
100
AcDbSpline
210
0.0
220
0.0
230
1.0
 70
     8
 71
     3
 72
     8
 73
     4
 74
     0
 42
0.000000001
 43
0.00000001
 40
0.0
 40
0.0
 40
0.0
 40
0.0
 40
1.0
 40
1.0
 40
1.0
 40
1.0
 10
354.9180802946897
 20
240.9743754640367
 30
0.0
 10
354.8467644825078
 20
241.0321028493093
 30
0.0
 10
354.743863324871
 20
241.0691743951999
 30
0.0
 10
354.6352375822151
 20
241.0691743951999
 30
0.0
  0
LINE
  5
126
330
1F
100
AcDbEntity
  8
0
  6
Continuous
 62
     7
370
    15
100
AcDbLine
 10
354.9180802947
 20
240.974375464
 30
0.0
 11
354.9180802947
 21
147.4392606366
 31
0.0
  0
SPLINE
  5
127
330
1F
100
AcDbEntity
  8
0
  6
Continuous
 62
     7
370
    15
100
AcDbSpline
210
0.0
220
0.0
230
1.0
 70
     8
 71
     3
 72
    10
 73
     6
 74
     0
 42
0.000000001
 43
0.00000001
 40
0.0
 40
0.0
 40
0.0
 40
0.0
 40
0.5
 40
0.5
 40
1.0
 40
1.0
 40
1.0
 40
1.0
 10
354.6352375822151
 20
147.3581821545398
 30
0.0
 10
354.6924276919657
 20
147.3581821545398
 30
0.0
 10
354.7478930176562
 20
147.3668979691572
 30
0.0
 10
354.8441245315743
 20
147.3961160464036
 30
0.0
 10
354.8849535566563
 20
147.4163091041358
 30
0.0
 10
354.9180802946897
 20
147.4392606365668
 30
0.0
  0
LINE
  5
128
330
1F
100
AcDbEntity
  8
0
  6
Continuous
 62
     7
370
    15
100
AcDbLine
 10
354.6352375822
 20
147.3581821545
 30
0.0
 11
354.6352375822
 21
241.0691743952
 31
0.0
  0
LINE
  5
129
330
1F
100
AcDbEntity
  8
0
  6
Continuous
 62
     7
370
    15
100
AcDbLine
 10
341.0666084321
 20
147.3581821545
 30
0.0
 11
341.0666084321
 21
241.0691743952
 31
0.0
  0
SPLINE
  5
12A
330
1F
100
AcDbEntity
  8
0
  6
Continuous
 62
     7
370
    15
100
AcDbSpline
210
0.0
220
0.0
230
1.0
 70
     8
 71
     3
 72
    10
 73
     6
 74
     0
 42
0.000000001
 43
0.00000001
 40
0.0
 40
0.0
 40
0.0
 40
0.0
 40
0.5
 40
0.5
 40
1.0
 40
1.0
 40
1.0
 40
1.0
 10
340.7837657196389
 20
147.4392606365668
 30
0.0
 10
340.8168780067277
 20
147.4163191163297
 30
0.0
 10
340.8575179658413
 20
147.3961980261101
 30
0.0
 10
340.9537853789038
 20
147.3669287520536
 30
0.0
 10
341.0094200733671
 20
147.3581821545398
 30
0.0
 10
341.0666084321136
 20
147.3581821545398
 30
0.0
  0
LINE
  5
12B
330
1F
100
AcDbEntity
  8
0
  6
Continuous
 62
     7
370
    15
100
AcDbLine
 10
340.7837657196
 20
147.4392606366
 30
0.0
 11
340.7837657196
 21
240.974375464
 31
0.0
  0
SPLINE
  5
12C
330
1F
100
AcDbEntity
  8
0
  6
Continuous
 62
     7
370
    15
100
AcDbSpline
210
0.0
220
0.0
230
1.0
 70
     8
 71
     3
 72
     8
 73
     4
 74
     0
 42
0.000000001
 43
0.00000001
 40
0.0
 40
0.0
 40
0.0
 40
0.0
 40
1.0
 40
1.0
 40
1.0
 40
1.0
 10
341.0666084321136
 20
241.0691743951999
 30
0.0
 10
340.9580914406625
 20
241.0691743951999
 30
0.0
 10
340.8550505888002
 20
241.0320778021336
 30
0.0
 10
340.783765719639
 20
240.9743754640367
 30
0.0
  0
LINE
  5
12D
330
1F
100
AcDbEntity
  8
0
  6
Continuous
 62
     7
370
    15
100
AcDbLine
 10
351.0485182714
 20
147.3581821545
 30
0.0
 11
351.0485182714
 21
145.446145941
 31
0.0
  0
LINE
  5
12E
330
1F
100
AcDbEntity
  8
0
  6
Continuous
 62
     7
370
    15
100
AcDbLine
 10
351.0485182714
 20
242.946145941
 30
0.0
 11
351.0485182714
 21
147.3581821545
 31
0.0
  0
LINE
  5
12F
330
1F
100
AcDbEntity
  8
0
  6
Continuous
 62
     7
370
    15
100
AcDbLine
 10
349.7009230072
 20
240.6120424754
 30
0.0
 11
349.7009230072
 21
147.7802494066
 31
0.0
  0
LINE
  5
130
330
1F
100
AcDbEntity
  8
0
  6
Continuous
 62
     7
370
    15
100
AcDbLine
 10
345.9009230072
 20
194.196145941
 30
0.0
 11
345.9009230072
 21
240.6120424754
 31
0.0
  0
LINE
  5
131
330
1F
100
AcDbEntity
  8
0
  6
Continuous
 62
     7
370
    15
100
AcDbLine
 10
345.9009230072
 20
147.7802494066
 30
0.0
 11
345.9009230072
 21
194.196145941
 31
0.0
  0
LINE
  5
132
330
1F
100
AcDbEntity
  8
0
  6
Continuous
 62
     7
370
    15
100
AcDbLine
 10
344.553327743
 20
241.0691743952
 30
0.0
 11
344.553327743
 21
145.446145941
 31
0.0
  0
LINE
  5
133
330
1F
100
AcDbEntity
  8
0
  6
Continuous
 62
     7
370
    15
100
AcDbLine
 10
344.553327743
 20
242.946145941
 30
0.0
 11
344.553327743
 21
241.0691743952
 31
0.0
  0
LINE
  5
134
330
1F
100
AcDbEntity
  8
0
  6
Continuous
 62
     7
370
    15
100
AcDbLine
 10
355.6837657196
 20
240.1398450025
 30
0.0
 11
355.6837657196
 21
148.2524468795
 31
0.0
  0
LINE
  5
135
330
1F
100
AcDbEntity
  8
0
  6
Continuous
 62
     7
370
    15
100
AcDbLine
 10
340.0180802947
 20
148.2524468795
 30
0.0
 11
340.0180802947
 21
240.1398450025
 31
0.0
  0
SPLINE
  5
136
330
1F
100
AcDbEntity
  8
0
  6
Continuous
 62
     7
370
    15
100
AcDbSpline
210
0.0
220
0.0
230
1.0
 70
     8
 71
     3
 72
    10
 73
     6
 74
     0
 42
0.000000001
 43
0.00000001
 40
0.0
 40
0.0
 40
0.0
 40
0.0
 40
0.5
 40
0.5
 40
1.0
 40
1.0
 40
1.0
 40
1.0
 10
339.9009230071644
 20
148.581844526003
 30
0.0
 10
339.9009230071644
 20
148.5178928371599
 30
0.0
 10
339.9147688831891
 20
148.4563284987088
 30
0.0
 10
339.9569346593765
 20
148.3457031478598
 30
0.0
 10
339.9854253596396
 20
148.2960164561904
 30
0.0
 10
340.0180802946897
 20
148.2524468795245
 30
0.0
  0
SPLINE
  5
137
330
1F
100
AcDbEntity
  8
0
  6
Continuous
 62
     7
370
    15
100
AcDbSpline
210
0.0
220
0.0
230
1.0
 70
    24
 71
     3
 72
    36
 73
    32
 74
     0
 42
0.000000001
 43
0.00000001
 40
0.0
 40
0.0
 40
0.0
 40
0.0
 40
0.0108670927976138
 40
0.0217248651294953
 40
0.0325754130156982
 40
0.0434208366649332
 40
0.0542632392636552
 40
0.065104725756519
 40
0.0759474016217247
 40
0.0867933716448104
 40
0.0976447386944597
 40
0.1085036025038803
 40
0.1193720584612676
 40
0.1813968118522707
 40
0.2434299656516123
 40
0.3071319153785467
 40
0.3708424926864622
 40
0.4354174331848614
 40
0.5000011195034882
 40
0.5645760601040033
 40
0.6291597465272422
 40
0.6928616965456248
 40
0.7565722741492584
 40
0.8185970279756692
 40
0.8806301822188896
 40
0.9005456108402741
 40
0.9204355762661642
 40
0.9403130274596062
 40
0.9601909378399034
 40
0.9800822799278944
 40
1.0
 40
1.0
 40
1.0
 40
1.0
 10
339.9009230071644
 20
148.581844526003
 30
0.0
 10
339.9009230071644
 20
148.6456050230909
 30
0.0
 10
339.9009230071644
 20
148.773071331295
 30
0.0
 10
339.9009230071644
 20
148.9753348623164
 30
0.0
 10
339.9009230071644
 20
149.1855794308159
 30
0.0
 10
339.9009230071644
 20
149.4046048955595
 30
0.0
 10
339.9009230071644
 20
149.6321970988884
 30
0.0
 10
339.9009230071644
 20
149.8684133863678
 30
0.0
 10
339.9009230071644
 20
150.1132382692218
 30
0.0
 10
339.9009230071644
 20
150.3666762141269
 30
0.0
 10
339.9009230071644
 20
150.6287246571292
 30
0.0
 10
339.9009230071644
 20
150.899389184647
 30
0.0
 10
339.9009230071644
 20
151.6166684252364
 30
0.0
 10
339.9009230071644
 20
152.8881819471454
 30
0.0
 10
339.9009230071644
 20
154.9219471206728
 30
0.0
 10
339.9009230071644
 20
157.2291700949557
 30
0.0
 10
339.9009230071644
 20
159.816136090863
 30
0.0
 10
339.9009230071644
 20
162.6468642634939
 30
0.0
 10
339.9009230071644
 20
165.7075345212457
 30
0.0
 10
339.9009230071644
 20
168.9625459603838
 30
0.0
 10
339.9009230071644
 20
172.3757540930525
 30
0.0
 10
339.9009230071644
 20
175.9199096829025
 30
0.0
 10
339.9009230071644
 20
179.5383091749933
 30
0.0
 10
339.9009230071644
 20
183.2186454233307
 30
0.0
 10
339.9009230071644
 20
186.0950468736361
 30
0.0
 10
339.9009230071644
 20
188.1452818359567
 30
0.0
 10
339.9009230071644
 20
189.3508319749356
 30
0.0
 10
339.9009230071644
 20
190.5587631510641
 30
0.0
 10
339.9009230071644
 20
191.7690960437542
 30
0.0
 10
339.9009230071644
 20
192.9818232817047
 30
0.0
 10
339.9009230071644
 20
193.7911929550618
 30
0.0
 10
339.9009230071644
 20
194.1961459409912
 30
0.0
  0
SPLINE
  5
138
330
1F
100
AcDbEntity
  8
0
  6
Continuous
 62
     7
370
    15
100
AcDbSpline
210
0.0
220
0.0
230
1.0
 70
    24
 71
     3
 72
    36
 73
    32
 74
     0
 42
0.000000001
 43
0.00000001
 40
0.0
 40
0.0
 40
0.0
 40
0.0
 40
0.0108670927967935
 40
0.0217248651280189
 40
0.03257541301373
 40
0.0434208366626373
 40
0.0542632392611956
 40
0.0651047257540595
 40
0.0759474016194288
 40
0.0867933716428408
 40
0.097644738692979
 40
0.1085036025030503
 40
0.1193720584612493
 40
0.1813968118483067
 40
0.2434299656516007
 40
0.3071319153772298
 40
0.3708424926864625
 40
0.4354174331853494
 40
0.5000011195034906
 40
0.5645760601035564
 40
0.6291597465272372
 40
0.6928616965454851
 40
0.7565722741492636
 40
0.8185970279779449
 40
0.8806301822189021
 40
0.9005456108411908
 40
0.9204355762676254
 40
0.9403130274612492
 40
0.9601909378413641
 40
0.9800822799288077
 40
1.0
 40
1.0
 40
1.0
 40
1.0
 10
339.9009230071644
 20
194.1961459409912
 30
0.0
 10
339.9009230071644
 20
194.4170837412201
 30
0.0
 10
339.9009230071644
 20
194.8587698482046
 30
0.0
 10
339.9009230071644
 20
195.520929976059
 30
0.0
 10
339.9009230071644
 20
196.1823942106955
 30
0.0
 10
339.9009230071644
 20
196.8431624918445
 30
0.0
 10
339.9009230071644
 20
197.5032347310876
 30
0.0
 10
339.9009230071644
 20
198.1626108946392
 30
0.0
 10
339.9009230071644
 20
198.8212907577076
 30
0.0
 10
339.9009230071644
 20
199.4792748062384
 30
0.0
 10
339.9009230071644
 20
200.1365608755925
 30
0.0
 10
339.9009230071644
 20
200.7931567056078
 30
0.0
 10
339.9009230071644
 20
202.477771394671
 30
0.0
 10
339.9009230071644
 20
205.1735000597624
 30
0.0
 10
339.9009230071644
 20
208.85364772825
 30
0.0
 10
339.9009230071644
 20
212.4722203500995
 30
0.0
 10
339.9009230071644
 20
216.0162236112558
 30
0.0
 10
339.9009230071644
 20
219.4295940010239
 30
0.0
 10
339.9009230071644
 20
222.6844724254518
 30
0.0
 10
339.9009230071644
 20
225.7452937723866
 30
0.0
 10
339.9009230071644
 20
228.5759108621357
 30
0.0
 10
339.9009230071644
 20
231.163012677884
 30
0.0
 10
339.9009230071644
 20
233.4701427439712
 30
0.0
 10
339.9009230071644
 20
235.5040470586486
 30
0.0
 10
339.9009230071644
 20
236.8607511672308
 30
0.0
 10
339.9009230071644
 20
237.7221851626402
 30
0.0
 10
339.9009230071644
 20
238.1987319562201
 30
0.0
 10
339.9009230071644
 20
238.6464784856121
 30
0.0
 10
339.9009230071644
 20
239.0647176263554
 30
0.0
 10
339.9009230071644
 20
239.4561308306834
 30
0.0
 10
339.9009230071644
 20
239.6922896869409
 30
0.0
 10
339.9009230071644
 20
239.8104473559793
 30
0.0
  0
SPLINE
  5
139
330
1F
100
AcDbEntity
  8
0
  6
Continuous
 62
     7
370
    15
100
AcDbSpline
210
0.0
220
0.0
230
1.0
 70
     8
 71
     3
 72
    10
 73
     6
 74
     0
 42
0.000000001
 43
0.00000001
 40
0.0
 40
0.0
 40
0.0
 40
0.0
 40
0.5
 40
0.5
 40
1.0
 40
1.0
 40
1.0
 40
1.0
 10
340.0180802946897
 20
240.1398450024578
 30
0.0
 10
339.9854472336724
 20
240.0963046110391
 30
0.0
 10
339.9574663474062
 20
240.0477500069213
 30
0.0
 10
339.9148094970312
 20
239.9363004711595
 30
0.0
 10
339.9009230071644
 20
239.8743422185703
 30
0.0
 10
339.9009230071644
 20
239.8104473559793
 30
0.0
  0
SPLINE
  5
13A
330
1F
100
AcDbEntity
  8
0
  6
Continuous
 62
     7
370
    15
100
AcDbSpline
210
0.0
220
0.0
230
1.0
 70
     8
 71
     3
 72
    10
 73
     6
 74
     0
 42
0.000000001
 43
0.00000001
 40
0.0
 40
0.0
 40
0.0
 40
0.0
 40
0.5
 40
0.5
 40
1.0
 40
1.0
 40
1.0
 40
1.0
 10
355.8009230071643
 20
239.8104473559793
 30
0.0
 10
355.8009230071643
 20
239.8743990448225
 30
0.0
 10
355.7870771311395
 20
239.9359633832736
 30
0.0
 10
355.7449113549521
 20
240.0465887341226
 30
0.0
 10
355.716420654689
 20
240.096275425792
 30
0.0
 10
355.6837657196389
 20
240.1398450024578
 30
0.0
  0
SPLINE
  5
13B
330
1F
100
AcDbEntity
  8
0
  6
Continuous
 62
     7
370
    15
100
AcDbSpline
210
0.0
220
0.0
230
1.0
 70
    24
 71
     3
 72
    36
 73
    32
 74
     0
 42
0.000000001
 43
0.00000001
 40
0.0
 40
0.0
 40
0.0
 40
0.0
 40
0.0108670927973429
 40
0.0217248651290077
 40
0.0325754130150483
 40
0.0434208366641751
 40
0.054263239262843
 40
0.065104725755707
 40
0.0759474016209668
 40
0.0867933716441603
 40
0.097644738693971
 40
0.1085036025036066
 40
0.119372058461262
 40
0.1813968118501206
 40
0.2434299656516037
 40
0.3071319153742448
 40
0.3708424926864433
 40
0.4354174331826834
 40
0.5000011195034959
 40
0.5645760601049244
 40
0.6291597465272452
 40
0.6928616965474209
 40
0.7565722741492725
 40
0.8185970279804482
 40
0.8806301822189133
 40
0.9005456108420076
 40
0.9204355762689271
 40
0.9403130274627131
 40
0.9601909378426655
 40
0.9800822799296213
 40
1.0
 40
1.0
 40
1.0
 40
1.0
 10
355.8009230071643
 20
239.8104473559793
 30
0.0
 10
355.8009230071643
 20
239.746686858893
 30
0.0
 10
355.8009230071643
 20
239.6192205506917
 30
0.0
 10
355.8009230071643
 20
239.4169570196741
 30
0.0
 10
355.8009230071643
 20
239.2067124511774
 30
0.0
 10
355.8009230071643
 20
238.9876869864356
 30
0.0
 10
355.8009230071643
 20
238.7600947831077
 30
0.0
 10
355.8009230071643
 20
238.5238784956282
 30
0.0
 10
355.8009230071643
 20
238.2790536127733
 30
0.0
 10
355.8009230071643
 20
238.0256156678662
 30
0.0
 10
355.8009230071643
 20
237.7635672248611
 30
0.0
 10
355.8009230071643
 20
237.4929026973394
 30
0.0
 10
355.8009230071643
 20
236.7756234567712
 30
0.0
 10
355.8009230071643
 20
235.5041099348525
 30
0.0
 10
355.8009230071643
 20
233.4703447613862
 30
0.0
 10
355.8009230071643
 20
231.1631217870721
 30
0.0
 10
355.8009230071643
 20
228.5761557912084
 30
0.0
 10
355.8009230071643
 20
225.7454276185425
 30
0.0
 10
355.8009230071643
 20
222.6847573607542
 30
0.0
 10
355.8009230071643
 20
219.4297459215814
 30
0.0
 10
355.8009230071643
 20
216.0165377888801
 30
0.0
 10
355.8009230071643
 20
212.4723821990513
 30
0.0
 10
355.8009230071643
 20
208.8539827068614
 30
0.0
 10
355.8009230071643
 20
205.1736464585592
 30
0.0
 10
355.8009230071643
 20
202.2972450082183
 30
0.0
 10
355.8009230071643
 20
200.2470100459337
 30
0.0
 10
355.8009230071643
 20
199.0414599068921
 30
0.0
 10
355.8009230071643
 20
197.8335287307426
 30
0.0
 10
355.8009230071643
 20
196.6231958380737
 30
0.0
 10
355.8009230071643
 20
195.4104686001864
 30
0.0
 10
355.8009230071643
 20
194.6010989268854
 30
0.0
 10
355.8009230071643
 20
194.1961459409912
 30
0.0
  0
SPLINE
  5
13C
330
1F
100
AcDbEntity
  8
0
  6
Continuous
 62
     7
370
    15
100
AcDbSpline
210
0.0
220
0.0
230
1.0
 70
    24
 71
     3
 72
    36
 73
    32
 74
     0
 42
0.000000001
 43
0.00000001
 40
0.0
 40
0.0
 40
0.0
 40
0.0
 40
0.0108670927969108
 40
0.02172486512823
 40
0.0325754130140115
 40
0.0434208366629656
 40
0.0542632392615474
 40
0.0651047257544114
 40
0.0759474016197574
 40
0.0867933716431228
 40
0.0976447386931911
 40
0.1085036025031695
 40
0.1193720584612525
 40
0.1813968118502307
 40
0.2434299656516114
 40
0.3071319153754981
 40
0.3708424926864406
 40
0.4354174331818233
 40
0.5000011195034904
 40
0.564576060104914
 40
0.629159746527249
 40
0.6928616965461416
 40
0.7565722741492587
 40
0.8185970279777103
 40
0.8806301822189075
 40
0.9005456108415781
 40
0.9204355762682426
 40
0.9403130274619433
 40
0.9601909378419812
 40
0.9800822799291934
 40
0.9999999999999999
 40
0.9999999999999999
 40
0.9999999999999999
 40
0.9999999999999999
 10
355.8009230071643
 20
194.1961459409912
 30
0.0
 10
355.8009230071643
 20
193.9752081407599
 30
0.0
 10
355.8009230071643
 20
193.5335220337711
 30
0.0
 10
355.8009230071643
 20
192.871361905911
 30
0.0
 10
355.8009230071643
 20
192.2098976712702
 30
0.0
 10
355.8009230071643
 20
191.5491293901183
 30
0.0
 10
355.8009230071643
 20
190.8890571508738
 30
0.0
 10
355.8009230071643
 20
190.2296809873221
 30
0.0
 10
355.8009230071643
 20
189.5710011242552
 30
0.0
 10
355.8009230071643
 20
188.9130170757273
 30
0.0
 10
355.8009230071643
 20
188.2557310063774
 30
0.0
 10
355.8009230071643
 20
187.5991351763678
 30
0.0
 10
355.8009230071643
 20
185.9145204872707
 30
0.0
 10
355.8009230071643
 20
183.2187918221802
 30
0.0
 10
355.8009230071643
 20
179.538644153727
 30
0.0
 10
355.8009230071643
 20
175.9200715319304
 30
0.0
 10
355.8009230071643
 20
172.3760682708206
 30
0.0
 10
355.8009230071643
 20
168.9626978810058
 30
0.0
 10
355.8009230071643
 20
165.7078194565694
 30
0.0
 10
355.8009230071643
 20
162.6469981095647
 30
0.0
 10
355.8009230071643
 20
159.816381019818
 30
0.0
 10
355.8009230071643
 20
157.2292792041052
 30
0.0
 10
355.8009230071643
 20
154.9221491380055
 30
0.0
 10
355.8009230071643
 20
152.8882448233262
 30
0.0
 10
355.8009230071643
 20
151.5315407147478
 30
0.0
 10
355.8009230071643
 20
150.670106719337
 30
0.0
 10
355.8009230071643
 20
150.1935599257529
 30
0.0
 10
355.8009230071643
 20
149.7458133963594
 30
0.0
 10
355.8009230071643
 20
149.3275742556173
 30
0.0
 10
355.8009230071643
 20
148.9361610512933
 30
0.0
 10
355.8009230071643
 20
148.7000021950392
 30
0.0
 10
355.8009230071643
 20
148.581844526003
 30
0.0
  0
SPLINE
  5
13D
330
1F
100
AcDbEntity
  8
0
  6
Continuous
 62
     7
370
    15
100
AcDbSpline
210
0.0
220
0.0
230
1.0
 70
     8
 71
     3
 72
    10
 73
     6
 74
     0
 42
0.000000001
 43
0.00000001
 40
0.0
 40
0.0
 40
0.0
 40
0.0
 40
0.5
 40
0.5
 40
1.0
 40
1.0
 40
1.0
 40
1.0
 10
355.8009230071643
 20
148.581844526003
 30
0.0
 10
355.8009230071643
 20
148.5178928371599
 30
0.0
 10
355.7870771311395
 20
148.4563284987088
 30
0.0
 10
355.7449113549521
 20
148.3457031478598
 30
0.0
 10
355.716420654689
 20
148.2960164561903
 30
0.0
 10
355.6837657196389
 20
148.2524468795245
 30
0.0
  0
LINE
  5
13E
330
1F
100
AcDbEntity
  8
0
  6
Continuous
 62
     7
370
    15
100
AcDbLine
 10
336.7009230072
 20
159.271145941
 30
0.0
 11
336.7009230072
 21
229.121145941
 31
0.0
  0
LINE
  5
13F
330
1F
100
AcDbEntity
  8
0
  6
Continuous
 62
     7
370
    15
100
AcDbLine
 10
337.6123384484
 20
194.196145941
 30
0.0
 11
337.6123384484
 21
228.696145941
 31
0.0
  0
LINE
  5
140
330
1F
100
AcDbEntity
  8
0
  6
Continuous
 62
     7
370
    15
100
AcDbLine
 10
337.6123384484
 20
159.696145941
 30
0.0
 11
337.6123384484
 21
194.196145941
 31
0.0
  0
LINE
  5
141
330
1F
100
AcDbEntity
  8
0
  6
Continuous
 62
     7
370
    15
100
AcDbLine
 10
432.0821208536
 20
194.196145941
 30
0.0
 11
432.0821208536
 21
225.696145941
 31
0.0
  0
LINE
  5
142
330
1F
100
AcDbEntity
  8
0
  6
Continuous
 62
     7
370
    15
100
AcDbLine
 10
432.0821208536
 20
162.696145941
 30
0.0
 11
432.0821208536
 21
194.196145941
 31
0.0
  0
LINE
  5
143
330
1F
100
AcDbEntity
  8
0
  6
Continuous
 62
     7
370
    15
100
AcDbLine
 10
436.7009230072
 20
194.196145941
 30
0.0
 11
436.7009230072
 21
217.696145941
 31
0.0
  0
LINE
  5
144
330
1F
100
AcDbEntity
  8
0
  6
Continuous
 62
     7
370
    15
100
AcDbLine
 10
436.7009230072
 20
170.696145941
 30
0.0
 11
436.7009230072
 21
194.196145941
 31
0.0
  0
LINE
  5
145
330
1F
100
AcDbEntity
  8
0
  6
Continuous
 62
     7
370
    15
100
AcDbLine
 10
413.7009230072
 20
162.696145941
 30
0.0
 11
413.7009230072
 21
225.696145941
 31
0.0
  0
LINE
  5
146
330
1F
100
AcDbEntity
  8
0
  6
Continuous
 62
     7
370
    15
100
AcDbLine
 10
411.7009230072
 20
223.696145941
 30
0.0
 11
411.7009230072
 21
164.696145941
 31
0.0
  0
LINE
  5
147
330
1F
100
AcDbEntity
  8
0
  6
Continuous
 62
     7
370
    15
100
AcDbLine
 10
392.2720216231
 20
194.196145941
 30
0.0
 11
392.2720216231
 21
218.946145941
 31
0.0
  0
LINE
  5
148
330
1F
100
AcDbEntity
  8
0
  6
Continuous
 62
     7
370
    15
100
AcDbLine
 10
392.2720216231
 20
169.446145941
 30
0.0
 11
392.2720216231
 21
194.196145941
 31
0.0
  0
LINE
  5
149
330
1F
100
AcDbEntity
  8
0
  6
Continuous
 62
     7
370
    15
100
AcDbLine
 10
383.1787548833
 20
194.196145941
 30
0.0
 11
383.1787548833
 21
224.196145941
 31
0.0
  0
LINE
  5
14A
330
1F
100
AcDbEntity
  8
0
  6
Continuous
 62
     7
370
    15
100
AcDbLine
 10
383.1787548833
 20
164.196145941
 30
0.0
 11
383.1787548833
 21
194.196145941
 31
0.0
  0
LINE
  5
14B
330
1F
100
AcDbEntity
  8
0
  6
Continuous
 62
     7
370
    15
100
AcDbLine
 10
396.7009230072
 20
169.246145941
 30
0.0
 11
396.7009230072
 21
219.146145941
 31
0.0
  0
LINE
  5
14C
330
1F
100
AcDbEntity
  8
0
  6
Continuous
 62
     7
370
    15
100
AcDbLine
 10
396.2720216231
 20
194.196145941
 30
0.0
 11
396.2720216231
 21
218.946145941
 31
0.0
  0
LINE
  5
14D
330
1F
100
AcDbEntity
  8
0
  6
Continuous
 62
     7
370
    15
100
AcDbLine
 10
396.2720216231
 20
169.446145941
 30
0.0
 11
396.2720216231
 21
194.196145941
 31
0.0
  0
SPLINE
  5
14E
330
1F
100
AcDbEntity
  8
0
  6
Continuous
 62
     7
370
    15
100
AcDbSpline
210
0.0
220
0.0
230
1.0
 70
    24
 71
     3
 72
    10
 73
     6
 74
     0
 42
0.000000001
 43
0.00000001
 40
0.0
 40
0.0
 40
0.0
 40
0.0
 40
0.4999999999999997
 40
0.4999999999999997
 40
0.9999999999999999
 40
0.9999999999999999
 40
0.9999999999999999
 40
0.9999999999999999
 10
234.9509230071643
 20
213.4177209415366
 30
0.0
 10
234.9509230071643
 20
213.4177209415365
 30
0.0
 10
234.9509230071643
 20
211.3924945154675
 30
0.0
 10
234.9509230071643
 20
204.1832094224575
 30
0.0
 10
234.9509230071643
 20
199.2938803177656
 30
0.0
 10
234.9509230071643
 20
194.1961459409912
 30
0.0
  0
SPLINE
  5
14F
330
1F
100
AcDbEntity
  8
0
  6
Continuous
 62
     7
370
    15
100
AcDbSpline
210
0.0
220
0.0
230
1.0
 70
    24
 71
     3
 72
    10
 73
     6
 74
     0
 42
0.000000001
 43
0.00000001
 40
0.0
 40
0.0
 40
0.0
 40
0.0
 40
0.4999999999999999
 40
0.4999999999999999
 40
0.9999999999999999
 40
0.9999999999999999
 40
0.9999999999999999
 40
0.9999999999999999
 10
234.9509230071643
 20
194.1961459409912
 30
0.0
 10
234.9509230071643
 20
189.0984115642167
 30
0.0
 10
234.9509230071643
 20
184.2090824595245
 30
0.0
 10
234.9509230071643
 20
176.9997973665146
 30
0.0
 10
234.9509230071643
 20
174.9745709404457
 30
0.0
 10
234.9509230071643
 20
174.9745709404458
 30
0.0
  0
LINE
  5
150
330
1F
100
AcDbEntity
  8
0
  6
Continuous
 62
     7
370
    15
100
AcDbLine
 10
339.9009230072
 20
239.810447356
 30
0.0
 11
339.9009230072
 21
241.780460516
 31
0.0
  0
LINE
  5
151
330
1F
100
AcDbEntity
  8
0
  6
Continuous
 62
     7
370
    15
100
AcDbLine
 10
355.8009230072
 20
239.810447356
 30
0.0
 11
355.8009230072
 21
241.780460516
 31
0.0
  0
LINE
  5
152
330
1F
100
AcDbEntity
  8
0
  6
Continuous
 62
     7
370
    15
100
AcDbLine
 10
355.8009230072
 20
146.6118313659
 30
0.0
 11
355.8009230072
 21
148.581844526
 31
0.0
  0
LINE
  5
153
330
1F
100
AcDbEntity
  8
0
  6
Continuous
 62
     7
370
    15
100
AcDbLine
 10
339.9009230072
 20
146.6118313659
 30
0.0
 11
339.9009230072
 21
148.581844526
 31
0.0
  0
LINE
  5
154
330
1F
100
AcDbEntity
  8
0
  6
Continuous
 62
     8
370
    15
100
AcDbLine
 10
354.6352375822
 20
241.0691743952
 30
0.0
 11
354.6352375822
 21
242.946145941
 31
0.0
  0
LINE
  5
155
330
1F
100
AcDbEntity
  8
0
  6
Continuous
 62
     8
370
    15
100
AcDbLine
 10
354.6352375822
 20
145.446145941
 30
0.0
 11
354.6352375822
 21
147.3581821545
 31
0.0
  0
LINE
  5
156
330
1F
100
AcDbEntity
  8
0
  6
Continuous
 62
     8
370
    15
100
AcDbLine
 10
341.0666084321
 20
241.0691743952
 30
0.0
 11
341.0666084321
 21
242.946145941
 31
0.0
  0
LINE
  5
157
330
1F
100
AcDbEntity
  8
0
  6
Continuous
 62
     8
370
    15
100
AcDbLine
 10
341.0666084321
 20
145.446145941
 30
0.0
 11
341.0666084321
 21
147.3581821545
 31
0.0
  0
LINE
  5
158
330
1F
100
AcDbEntity
  8
0
  6
Continuous
 62
     8
370
    15
100
AcDbLine
 10
355.6837657196
 20
146.3289886535
 30
0.0
 11
355.6837657196
 21
148.2524468795
 31
0.0
  0
LINE
  5
159
330
1F
100
AcDbEntity
  8
0
  6
Continuous
 62
     8
370
    15
100
AcDbLine
 10
355.6837657196
 20
240.1398450025
 30
0.0
 11
355.6837657196
 21
242.0633032285
 31
0.0
  0
LINE
  5
15A
330
1F
100
AcDbEntity
  8
0
  6
Continuous
 62
     8
370
    15
100
AcDbLine
 10
354.9180802947
 20
240.974375464
 30
0.0
 11
354.9180802947
 21
242.8289886535
 31
0.0
  0
LINE
  5
15B
330
1F
100
AcDbEntity
  8
0
  6
Continuous
 62
     8
370
    15
100
AcDbLine
 10
354.9180802947
 20
145.5633032285
 30
0.0
 11
354.9180802947
 21
147.4392606366
 31
0.0
  0
LINE
  5
15C
330
1F
100
AcDbEntity
  8
0
  6
Continuous
 62
     8
370
    15
100
AcDbLine
 10
340.0180802947
 20
146.3289886535
 30
0.0
 11
340.0180802947
 21
148.2524468795
 31
0.0
  0
LINE
  5
15D
330
1F
100
AcDbEntity
  8
0
  6
Continuous
 62
     8
370
    15
100
AcDbLine
 10
340.0180802947
 20
240.1398450025
 30
0.0
 11
340.0180802947
 21
242.0633032285
 31
0.0
  0
LINE
  5
15E
330
1F
100
AcDbEntity
  8
0
  6
Continuous
 62
     8
370
    15
100
AcDbLine
 10
340.7837657196
 20
240.974375464
 30
0.0
 11
340.7837657196
 21
242.8289886535
 31
0.0
  0
LINE
  5
15F
330
1F
100
AcDbEntity
  8
0
  6
Continuous
 62
     8
370
    15
100
AcDbLine
 10
340.7837657196
 20
145.5633032285
 30
0.0
 11
340.7837657196
 21
147.4392606366
 31
0.0
  0
LINE
  5
160
330
1F
100
AcDbEntity
  8
0
  6
Continuous
 62
     8
370
    15
100
AcDbLine
 10
339.4009230072
 20
194.196145941
 30
0.0
 11
339.4009230072
 21
228.696145941
 31
0.0
  0
LINE
  5
161
330
1F
100
AcDbEntity
  8
0
  6
Continuous
 62
     8
370
    15
100
AcDbLine
 10
339.4009230072
 20
159.696145941
 30
0.0
 11
339.4009230072
 21
194.196145941
 31
0.0
  0
LINE
  5
162
330
1F
100
AcDbEntity
  8
0
  6
Continuous
 62
     8
370
    15
100
AcDbLine
 10
235.8066147799
 20
214.407253728
 30
0.0
 11
235.8066147799
 21
173.985038154
 31
0.0
  0
LINE
  5
163
330
1F
100
AcDbEntity
  8
0
  6
Continuous
 62
     8
370
    15
100
AcDbLine
 10
357.8009230072
 20
224.196145941
 30
0.0
 11
357.8009230072
 21
164.196145941
 31
0.0
  0
DIMENSION
  5
164
330
1F
100
AcDbEntity
  8
DIM
100
AcDbDimension
  2
_D
 10
460.9135126803
 20
162.696145941
 30
0.0
 11
460.9135126803
 21
194.196145941
 31
0.0
 70
   160
  1
%%c<>
 71
     2
 42
-1.0
  3
SLDDIMSTYLE0
100
AcDbAlignedDimension
 13
432.0821208536
 23
225.696145941
 33
0.0
 14
432.0821208536
 24
162.696145941
 34
0.0
 50
90.0
100
AcDbRotatedDimension
  0
DIMENSION
  5
170
330
1F
100
AcDbEntity
  8
DIM
100
AcDbDimension
  2
_D_1
 10
216.9495582846
 20
145.446145941
 30
0.0
 11
216.9495582846
 21
194.196145941
 31
0.0
 70
   160
  1
%%c<>
 71
     2
 42
-1.0
  3
SLDDIMSTYLE1
100
AcDbAlignedDimension
 13
341.0666084321
 23
242.946145941
 33
0.0
 14
341.0666084321
 24
145.446145941
 34
0.0
 50
90.0
100
AcDbRotatedDimension
  0
DIMENSION
  5
17C
330
1F
100
AcDbEntity
  8
DIM
100
AcDbDimension
  2
_D_2
 10
450.1057947593
 20
164.196145941
 30
0.0
 11
450.1057947593
 21
194.196145941
 31
0.0
 70
   160
  1
%%c<>
 71
     2
 42
-1.0
  3
SLDDIMSTYLE0
100
AcDbAlignedDimension
 13
383.1787548833
 23
224.196145941
 33
0.0
 14
383.1787548833
 24
164.196145941
 34
0.0
 50
90.0
100
AcDbRotatedDimension
  0
DIMENSION
  5
187
330
1F
100
AcDbEntity
  8
DIM
100
AcDbDimension
  2
_D_3
 10
436.7009230072
 20
116.646145941
 30
0.0
 11
335.8259230072
 21
116.646145941
 31
0.0
 70
   160
  1
<>
 71
     2
 42
-1.0
  3
SLDDIMSTYLE0
100
AcDbAlignedDimension
 13
234.9509230072
 23
194.196145941
 33
0.0
 14
436.7009230072
 24
170.696145941
 34
0.0
 50
0.0
100
AcDbRotatedDimension
  0
DIMENSION
  5
191
330
1F
100
AcDbEntity
  8
DIM
100
AcDbDimension
  2
_D_4
 10
436.7009230072
 20
128.4687070056
 30
0.0
 11
386.7009230072
 21
128.4687070056
 31
0.0
 70
   160
  1
<>
 71
     2
 42
-1.0
  3
SLDDIMSTYLE0
100
AcDbAlignedDimension
 13
336.7009230072
 23
159.271145941
 33
0.0
 14
436.7009230072
 24
170.696145941
 34
0.0
100
AcDbRotatedDimension
  0
LINE
  5
19B
330
1F
100
AcDbEntity
  8
DIM
  6
CENTERX2
 48
1.1111111111
370
     0
100
AcDbLine
 10
231.4323045056
 20
194.196145941
 30
0.0
 11
436.0139206225
 21
194.196145941
 31
0.0
  0
ENDSEC
  0
SECTION
  2
OBJECTS
  0
DICTIONARY
  5
C
330
0
100
AcDbDictionary
281
     1
  3
ACAD_GROUP
350
D
  3
ACAD_LAYOUT
350
1A
  3
ACAD_MLINESTYLE
350
17
  3
ACAD_PLOTSETTINGS
350
19
  3
ACAD_PLOTSTYLENAME
350
E
  3
ACAD_SCALELIST
350
47
  0
DICTIONARY
  5
D
102
{ACAD_REACTORS
330
C
102
}
330
C
100
AcDbDictionary
281
     1
  0
DICTIONARY
  5
1A
102
{ACAD_REACTORS
330
C
102
}
330
C
100
AcDbDictionary
281
     1
  3
Layout1
350
1E
  3
Layout2
350
26
  3
Model
350
22
  0
DICTIONARY
  5
17
102
{ACAD_REACTORS
330
C
102
}
330
C
100
AcDbDictionary
281
     1
  3
Standard
350
18
  0
DICTIONARY
  5
19
102
{ACAD_REACTORS
330
C
102
}
330
C
100
AcDbDictionary
281
     1
  0
ACDBDICTIONARYWDFLT
  5
E
102
{ACAD_REACTORS
330
C
102
}
330
C
100
AcDbDictionary
281
     1
  3
Normal
350
F
100
AcDbDictionaryWithDefault
340
F
  0
DICTIONARY
  5
47
102
{ACAD_REACTORS
330
C
102
}
330
C
100
AcDbDictionary
281
     1
  3
A0
350
48
  3
A1
350
49
  3
A2
350
4A
  3
A3
350
4B
  3
A4
350
4C
  3
A5
350
4D
  3
A6
350
4E
  3
A7
350
4F
  3
A8
350
50
  3
A9
350
51
  3
B0
350
52
  3
B1
350
53
  3
B2
350
54
  3
B3
350
55
  3
B4
350
56
  3
B5
350
57
  3
B6
350
58
  3
B7
350
59
  3
B8
350
5A
  3
B9
350
5B
  3
C0
350
5C
  3
C1
350
5D
  3
C2
350
5E
  3
C3
350
5F
  3
C4
350
60
  3
C5
350
61
  3
C6
350
62
  3
C7
350
63
  3
C8
350
64
  3
C9
350
65
  3
D0
350
66
  3
D1
350
67
  3
D2
350
68
  0
LAYOUT
  5
1E
102
{ACAD_REACTORS
330
1A
102
}
330
1A
100
AcDbPlotSettings
  1

  2
none_device
  4

  6

 40
0.0
 41
0.0
 42
0.0
 43
0.0
 44
0.0
 45
0.0
 46
0.0
 47
0.0
 48
0.0
 49
0.0
140
0.0
141
0.0
142
1.0
143
1.0
 70
   688
 72
     1
 73
     0
 74
     5
  7

 75
    16
147
1.0
148
0.0
149
0.0
100
AcDbLayout
  1
Layout1
 70
     1
 71
     1
 10
0.0
 20
0.0
 11
420.0
 21
297.0
 12
0.0
 22
0.0
 32
0.0
 14
1.0000000000E+20
 24
1.0000000000E+20
 34
1.0000000000E+20
 15
-1.0000000000E+20
 25
-1.0000000000E+20
 35
-1.0000000000E+20
146
0.0
 13
0.0
 23
0.0
 33
0.0
 16
1.0
 26
0.0
 36
0.0
 17
0.0
 27
1.0
 37
0.0
 76
     0
330
1B
  0
LAYOUT
  5
26
102
{ACAD_REACTORS
330
1A
102
}
330
1A
100
AcDbPlotSettings
  1

  2
none_device
  4

  6

 40
0.0
 41
0.0
 42
0.0
 43
0.0
 44
0.0
 45
0.0
 46
0.0
 47
0.0
 48
0.0
 49
0.0
140
0.0
141
0.0
142
1.0
143
1.0
 70
   688
 72
     1
 73
     0
 74
     5
  7

 75
    16
147
1.0
148
0.0
149
0.0
100
AcDbLayout
  1
Layout2
 70
     1
 71
     2
 10
0.0
 20
0.0
 11
0.0
 21
0.0
 12
0.0
 22
0.0
 32
0.0
 14
0.0
 24
0.0
 34
0.0
 15
0.0
 25
0.0
 35
0.0
146
0.0
 13
0.0
 23
0.0
 33
0.0
 16
1.0
 26
0.0
 36
0.0
 17
0.0
 27
1.0
 37
0.0
 76
     0
330
23
  0
LAYOUT
  5
22
102
{ACAD_REACTORS
330
1A
102
}
330
1A
100
AcDbPlotSettings
  1

  2
none_device
  4
Letter_(8.50_x_11.00_Inches)
  6

 40
6.35
 41
6.35
 42
6.35000508
 43
6.35000508
 44
215.9
 45
279.4
 46
0.0
 47
0.0
 48
0.0
 49
0.0
140
0.0
141
0.0
142
1.0
143
1.0
 70
  1712
 72
     1
 73
     0
 74
     0
  7

 75
     0
147
1.0
148
0.0
149
0.0
100
AcDbLayout
  1
Model
 70
     1
 71
     0
 10
0.0
 20
0.0
 11
534.6
 21
378.0
 12
0.0
 22
0.0
 32
0.0
 14
0.0
 24
0.0
 34
0.0
 15
534.6
 25
378.0
 35
0.0
146
0.0
 13
0.0
 23
0.0
 33
0.0
 16
1.0
 26
0.0
 36
0.0
 17
0.0
 27
1.0
 37
0.0
 76
     0
330
1F
331
29
  0
MLINESTYLE
  5
18
102
{ACAD_REACTORS
330
17
102
}
330
17
100
AcDbMlineStyle
  2
Standard
 70
     0
  3

 62
   256
 51
90.0
 52
90.0
 71
     2
 49
0.5
 62
   256
  6
BYLAYER
 49
-0.5
 62
   256
  6
BYLAYER
  0
ACDBPLACEHOLDER
  5
F
102
{ACAD_REACTORS
330
E
102
}
330
E
  0
SCALE
  5
48
102
{ACAD_REACTORS
330
47
102
}
330
47
100
AcDbScale
 70
     0
300
1:1
140
1.0
141
1.0
290
     1
  0
SCALE
  5
49
102
{ACAD_REACTORS
330
47
102
}
330
47
100
AcDbScale
 70
     0
300
1:2
140
1.0
141
2.0
290
     0
  0
SCALE
  5
4A
102
{ACAD_REACTORS
330
47
102
}
330
47
100
AcDbScale
 70
     0
300
1:4
140
1.0
141
4.0
290
     0
  0
SCALE
  5
4B
102
{ACAD_REACTORS
330
47
102
}
330
47
100
AcDbScale
 70
     0
300
1:5
140
1.0
141
5.0
290
     0
  0
SCALE
  5
4C
102
{ACAD_REACTORS
330
47
102
}
330
47
100
AcDbScale
 70
     0
300
1:8
140
1.0
141
8.0
290
     0
  0
SCALE
  5
4D
102
{ACAD_REACTORS
330
47
102
}
330
47
100
AcDbScale
 70
     0
300
1:10
140
1.0
141
10.0
290
     0
  0
SCALE
  5
4E
102
{ACAD_REACTORS
330
47
102
}
330
47
100
AcDbScale
 70
     0
300
1:16
140
1.0
141
16.0
290
     0
  0
SCALE
  5
4F
102
{ACAD_REACTORS
330
47
102
}
330
47
100
AcDbScale
 70
     0
300
1:20
140
1.0
141
20.0
290
     0
  0
SCALE
  5
50
102
{ACAD_REACTORS
330
47
102
}
330
47
100
AcDbScale
 70
     0
300
1:30
140
1.0
141
30.0
290
     0
  0
SCALE
  5
51
102
{ACAD_REACTORS
330
47
102
}
330
47
100
AcDbScale
 70
     0
300
1:40
140
1.0
141
40.0
290
     0
  0
SCALE
  5
52
102
{ACAD_REACTORS
330
47
102
}
330
47
100
AcDbScale
 70
     0
300
1:50
140
1.0
141
50.0
290
     0
  0
SCALE
  5
53
102
{ACAD_REACTORS
330
47
102
}
330
47
100
AcDbScale
 70
     0
300
1:100
140
1.0
141
100.0
290
     0
  0
SCALE
  5
54
102
{ACAD_REACTORS
330
47
102
}
330
47
100
AcDbScale
 70
     0
300
2:1
140
2.0
141
1.0
290
     0
  0
SCALE
  5
55
102
{ACAD_REACTORS
330
47
102
}
330
47
100
AcDbScale
 70
     0
300
4:1
140
4.0
141
1.0
290
     0
  0
SCALE
  5
56
102
{ACAD_REACTORS
330
47
102
}
330
47
100
AcDbScale
 70
     0
300
8:1
140
8.0
141
1.0
290
     0
  0
SCALE
  5
57
102
{ACAD_REACTORS
330
47
102
}
330
47
100
AcDbScale
 70
     0
300
10:1
140
10.0
141
1.0
290
     0
  0
SCALE
  5
58
102
{ACAD_REACTORS
330
47
102
}
330
47
100
AcDbScale
 70
     0
300
100:1
140
100.0
141
1.0
290
     0
  0
SCALE
  5
59
102
{ACAD_REACTORS
330
47
102
}
330
47
100
AcDbScale
 70
     0
300
1/128" = 1'-0"
140
0.0078125
141
12.0
290
     0
  0
SCALE
  5
5A
102
{ACAD_REACTORS
330
47
102
}
330
47
100
AcDbScale
 70
     0
300
1/64" = 1'-0"
140
0.015625
141
12.0
290
     0
  0
SCALE
  5
5B
102
{ACAD_REACTORS
330
47
102
}
330
47
100
AcDbScale
 70
     0
300
1/32" = 1'-0"
140
0.03125
141
12.0
290
     0
  0
SCALE
  5
5C
102
{ACAD_REACTORS
330
47
102
}
330
47
100
AcDbScale
 70
     0
300
1/16" = 1'-0"
140
0.0625
141
12.0
290
     0
  0
SCALE
  5
5D
102
{ACAD_REACTORS
330
47
102
}
330
47
100
AcDbScale
 70
     0
300
3/32" = 1'-0"
140
0.09375
141
12.0
290
     0
  0
SCALE
  5
5E
102
{ACAD_REACTORS
330
47
102
}
330
47
100
AcDbScale
 70
     0
300
1/8" = 1'-0"
140
0.125
141
12.0
290
     0
  0
SCALE
  5
5F
102
{ACAD_REACTORS
330
47
102
}
330
47
100
AcDbScale
 70
     0
300
3/16" = 1'-0"
140
0.1875
141
12.0
290
     0
  0
SCALE
  5
60
102
{ACAD_REACTORS
330
47
102
}
330
47
100
AcDbScale
 70
     0
300
1/4" = 1'-0"
140
0.25
141
12.0
290
     0
  0
SCALE
  5
61
102
{ACAD_REACTORS
330
47
102
}
330
47
100
AcDbScale
 70
     0
300
3/8" = 1'-0"
140
0.375
141
12.0
290
     0
  0
SCALE
  5
62
102
{ACAD_REACTORS
330
47
102
}
330
47
100
AcDbScale
 70
     0
300
1/2" = 1'-0"
140
0.5
141
12.0
290
     0
  0
SCALE
  5
63
102
{ACAD_REACTORS
330
47
102
}
330
47
100
AcDbScale
 70
     0
300
3/4" = 1'-0"
140
0.75
141
12.0
290
     0
  0
SCALE
  5
64
102
{ACAD_REACTORS
330
47
102
}
330
47
100
AcDbScale
 70
     0
300
1" = 1'-0"
140
1.0
141
12.0
290
     0
  0
SCALE
  5
65
102
{ACAD_REACTORS
330
47
102
}
330
47
100
AcDbScale
 70
     0
300
1-1/2" = 1'-0"
140
1.5
141
12.0
290
     0
  0
SCALE
  5
66
102
{ACAD_REACTORS
330
47
102
}
330
47
100
AcDbScale
 70
     0
300
3" = 1'-0"
140
3.0
141
12.0
290
     0
  0
SCALE
  5
67
102
{ACAD_REACTORS
330
47
102
}
330
47
100
AcDbScale
 70
     0
300
6" = 1'-0"
140
6.0
141
12.0
290
     0
  0
SCALE
  5
68
102
{ACAD_REACTORS
330
47
102
}
330
47
100
AcDbScale
 70
     0
300
1'-0" = 1'-0"
140
12.0
141
12.0
290
     0
  0
ENDSEC
  0
EOF
