  0
SECTION
  2
HEADER
  9
$ACADVER
  1
AC1015
  9
$ACADMAINTVER
 70
     6
  9
$DWGCODEPAGE
  3
ANSI_1252
  9
$INSBASE
 10
0.0
 20
0.0
 30
0.0
  9
$EXTMIN
 10
0.0
 20
0.0
 30
0.0
  9
$EXTMAX
 10
386.1
 20
273.0
 30
0.0
  9
$LIMMIN
 10
0.0
 20
0.0
  9
$LIMMAX
 10
386.1
 20
273.0
  9
$ORTHOMODE
 70
     0
  9
$REGENMODE
 70
     1
  9
$FILLMODE
 70
     1
  9
$QTEXTMODE
 70
     0
  9
$MIRRTEXT
 70
     1
  9
$LTSCALE
 40
1.3
  9
$ATTMODE
 70
     1
  9
$TEXTSIZE
 40
5.0447222222
  9
$TRACEWID
 40
1.0
  9
$TEXTSTYLE
  7
Standard
  9
$CLAYER
  8
0
  9
$CELTYPE
  6
ByLayer
  9
$CECOLOR
 62
   256
  9
$CELTSCALE
 40
1.0
  9
$DISPSILH
 70
     0
  9
$DIMSCALE
 40
1.0
  9
$DIMASZ
 40
4.2926
  9
$DIMEXO
 40
1.3
  9
$DIMDLI
 40
3.75
  9
$DIMRND
 40
0.0
  9
$DIMDLE
 40
0.0
  9
$DIMEXE
 40
1.3
  9
$DIMTP
 40
0.0
  9
$DIMTM
 40
0.0
  9
$DIMTXT
 40
5.0447222222
  9
$DIMCEN
 40
2.5
  9
$DIMTSZ
 40
0.0
  9
$DIMTOL
 70
     0
  9
$DIMLIM
 70
     0
  9
$DIMTIH
 70
     1
  9
$DIMTOH
 70
     1
  9
$DIMSE1
 70
     0
  9
$DIMSE2
 70
     0
  9
$DIMTAD
 70
     1
  9
$DIMZIN
 70
     0
  9
$DIMBLK
  1

  9
$DIMASO
 70
     1
  9
$DIMSHO
 70
     1
  9
$DIMPOST
  1

  9
$DIMAPOST
  1

  9
$DIMALT
 70
     0
  9
$DIMALTD
 70
     3
  9
$DIMALTF
 40
0.0393700787
  9
$DIMLFAC
 40
1.0
  9
$DIMTOFL
 70
     1
  9
$DIMTVP
 40
0.0
  9
$DIMTIX
 70
     0
  9
$DIMSOXD
 70
     0
  9
$DIMSAH
 70
     0
  9
$DIMBLK1
  1

  9
$DIMBLK2
  1

  9
$DIMSTYLE
  2
ISO-25
  9
$DIMCLRD
 70
     0
  9
$DIMCLRE
 70
     0
  9
$DIMCLRT
 70
     0
  9
$DIMTFAC
 40
1.0
  9
$DIMGAP
 40
1.9812
  9
$DIMJUST
 70
     0
  9
$DIMSD1
 70
     0
  9
$DIMSD2
 70
     0
  9
$DIMTOLJ
 70
     0
  9
$DIMTZIN
 70
     0
  9
$DIMALTZ
 70
     0
  9
$DIMALTTZ
 70
     0
  9
$DIMUPT
 70
     0
  9
$DIMDEC
 70
     2
  9
$DIMTDEC
 70
     2
  9
$DIMALTU
 70
     2
  9
$DIMALTTD
 70
     3
  9
$DIMTXSTY
  7
Standard
  9
$DIMAUNIT
 70
     0
  9
$DIMADEC
 70
     2
  9
$DIMALTRND
 40
0.0
  9
$DIMAZIN
 70
     0
  9
$DIMDSEP
 70
    44
  9
$DIMATFIT
 70
     3
  9
$DIMFRAC
 70
     0
  9
$DIMLDRBLK
  1

  9
$DIMLUNIT
 70
     2
  9
$DIMLWD
 70
    -2
  9
$DIMLWE
 70
    -2
  9
$DIMTMOVE
 70
     0
  9
$LUNITS
 70
     2
  9
$LUPREC
 70
     2
  9
$SKETCHINC
 40
1.0
  9
$FILLETRAD
 40
10.0
  9
$AUNITS
 70
     1
  9
$AUPREC
 70
     2
  9
$MENU
  1
.
  9
$ELEVATION
 40
0.0
  9
$PELEVATION
 40
0.0
  9
$THICKNESS
 40
0.0
  9
$LIMCHECK
 70
     0
  9
$CHAMFERA
 40
0.0
  9
$CHAMFERB
 40
0.0
  9
$CHAMFERC
 40
0.0
  9
$CHAMFERD
 40
0.0
  9
$SKPOLY
 70
     0
  9
$TDCREATE
 40
2458606.512571412
  9
$TDUCREATE
 40
2458606.283404745
  9
$TDUPDATE
 40
2458606.512572569
  9
$TDUUPDATE
 40
2458606.283405903
  9
$TDINDWG
 40
0.0000000116
  9
$TDUSRTIMER
 40
0.0000000116
  9
$USRTIMER
 70
     1
  9
$ANGBASE
 50
0.0
  9
$ANGDIR
 70
     0
  9
$PDMODE
 70
     0
  9
$PDSIZE
 40
-1.0
  9
$PLINEWID
 40
0.0
  9
$SPLFRAME
 70
     0
  9
$SPLINETYPE
 70
     6
  9
$SPLINESEGS
 70
     8
  9
$HANDSEED
  5
1BB
  9
$SURFTAB1
 70
     6
  9
$SURFTAB2
 70
     6
  9
$SURFTYPE
 70
     6
  9
$SURFU
 70
     6
  9
$SURFV
 70
     6
  9
$UCSBASE
  2

  9
$UCSNAME
  2

  9
$UCSORG
 10
0.0
 20
0.0
 30
0.0
  9
$UCSXDIR
 10
1.0
 20
0.0
 30
0.0
  9
$UCSYDIR
 10
0.0
 20
1.0
 30
0.0
  9
$UCSORTHOREF
  2

  9
$UCSORTHOVIEW
 70
     0
  9
$UCSORGTOP
 10
0.0
 20
0.0
 30
0.0
  9
$UCSORGBOTTOM
 10
0.0
 20
0.0
 30
0.0
  9
$UCSORGLEFT
 10
0.0
 20
0.0
 30
0.0
  9
$UCSORGRIGHT
 10
0.0
 20
0.0
 30
0.0
  9
$UCSORGFRONT
 10
0.0
 20
0.0
 30
0.0
  9
$UCSORGBACK
 10
0.0
 20
0.0
 30
0.0
  9
$PUCSBASE
  2

  9
$PUCSNAME
  2

  9
$PUCSORG
 10
0.0
 20
0.0
 30
0.0
  9
$PUCSXDIR
 10
1.0
 20
0.0
 30
0.0
  9
$PUCSYDIR
 10
0.0
 20
1.0
 30
0.0
  9
$PUCSORTHOREF
  2

  9
$PUCSORTHOVIEW
 70
     0
  9
$PUCSORGTOP
 10
0.0
 20
0.0
 30
0.0
  9
$PUCSORGBOTTOM
 10
0.0
 20
0.0
 30
0.0
  9
$PUCSORGLEFT
 10
0.0
 20
0.0
 30
0.0
  9
$PUCSORGRIGHT
 10
0.0
 20
0.0
 30
0.0
  9
$PUCSORGFRONT
 10
0.0
 20
0.0
 30
0.0
  9
$PUCSORGBACK
 10
0.0
 20
0.0
 30
0.0
  9
$USERI1
 70
     0
  9
$USERI2
 70
     0
  9
$USERI3
 70
     0
  9
$USERI4
 70
     0
  9
$USERI5
 70
     0
  9
$USERR1
 40
0.0
  9
$USERR2
 40
0.0
  9
$USERR3
 40
0.0
  9
$USERR4
 40
0.0
  9
$USERR5
 40
0.0
  9
$WORLDVIEW
 70
     1
  9
$SHADEDGE
 70
     3
  9
$SHADEDIF
 70
    70
  9
$TILEMODE
 70
     1
  9
$MAXACTVP
 70
    64
  9
$PINSBASE
 10
0.0
 20
0.0
 30
0.0
  9
$PLIMCHECK
 70
     0
  9
$PEXTMIN
 10
1.0000000000E+20
 20
1.0000000000E+20
 30
1.0000000000E+20
  9
$PEXTMAX
 10
-1.0000000000E+20
 20
-1.0000000000E+20
 30
-1.0000000000E+20
  9
$PLIMMIN
 10
0.0
 20
0.0
  9
$PLIMMAX
 10
420.0
 20
297.0
  9
$UNITMODE
 70
     0
  9
$VISRETAIN
 70
     1
  9
$PLINEGEN
 70
     0
  9
$PSLTSCALE
 70
     1
  9
$TREEDEPTH
 70
  3020
  9
$CMLSTYLE
  2
Standard
  9
$CMLJUST
 70
     0
  9
$CMLSCALE
 40
20.0
  9
$PROXYGRAPHICS
 70
     1
  9
$MEASUREMENT
 70
     1
  9
$CELWEIGHT
370
    -1
  9
$ENDCAPS
280
     0
  9
$JOINSTYLE
280
     0
  9
$LWDISPLAY
290
     1
  9
$INSUNITS
 70
     4
  9
$HYPERLINKBASE
  1

  9
$STYLESHEET
  1

  9
$XEDIT
290
     1
  9
$CEPSNTYPE
380
     0
  9
$PSTYLEMODE
290
     1
  9
$FINGERPRINTGUID
  2
{39A478CF-2CD6-4951-AFCE-3823FCAF7A80}
  9
$VERSIONGUID
  2
{FAEB1C32-E019-11D5-929B-00C0DF256EC4}
  9
$EXTNAMES
290
     1
  9
$PSVPSCALE
 40
0.0
  9
$OLESTARTUP
290
     0
  0
ENDSEC
  0
SECTION
  2
CLASSES
  0
CLASS
  1
ACDBDICTIONARYWDFLT
  2
AcDbDictionaryWithDefault
  3
ObjectDBX Classes
 90
        0
280
     0
281
     0
  0
CLASS
  1
VISUALSTYLE
  2
AcDbVisualStyle
  3
ObjectDBX Classes
 90
     4095
280
     0
281
     0
  0
CLASS
  1
MATERIAL
  2
AcDbMaterial
  3
ObjectDBX Classes
 90
     1153
280
     0
281
     0
  0
CLASS
  1
SCALE
  2
AcDbScale
  3
ObjectDBX Classes
 90
     1153
280
     0
281
     0
  0
CLASS
  1
SUN
  2
AcDbSun
  3
SCENEOE
 90
     1153
280
     0
281
     0
  0
CLASS
  1
ACDBPLACEHOLDER
  2
AcDbPlaceHolder
  3
ObjectDBX Classes
 90
        0
280
     0
281
     0
  0
CLASS
  1
LAYOUT
  2
AcDbLayout
  3
ObjectDBX Classes
 90
        0
280
     0
281
     0
  0
ENDSEC
  0
SECTION
  2
TABLES
  0
TABLE
  2
VPORT
  5
8
330
0
100
AcDbSymbolTable
 70
     1
  0
VPORT
  5
29
330
8
100
AcDbSymbolTableRecord
100
AcDbViewportTableRecord
  2
*Active
 70
     0
 10
0.0
 20
0.0
 11
1.0
 21
1.0
 12
193.05
 22
136.5
 13
0.0
 23
0.0
 14
10.0
 24
10.0
 15
10.0
 25
10.0
 16
0.0
 26
0.0
 36
1.0
 17
0.0
 27
0.0
 37
0.0
 40
273.0
 41
1.4142857143
 42
50.0
 43
0.0
 44
0.0
 50
0.0
 51
0.0
 71
     0
 72
  2000
 73
     1
 74
     3
 75
     0
 76
     0
 77
     0
 78
     0
281
     0
 65
     1
110
0.0
120
0.0
130
0.0
111
1.0
121
0.0
131
0.0
112
0.0
122
1.0
132
0.0
 79
     0
146
0.0
  0
ENDTAB
  0
TABLE
  2
LTYPE
  5
5
330
0
100
AcDbSymbolTable
 70
     6
  0
LTYPE
  5
14
330
5
100
AcDbSymbolTableRecord
100
AcDbLinetypeTableRecord
  2
ByBlock
 70
     0
  3

 72
    65
 73
     0
 40
0.0
  0
LTYPE
  5
15
330
5
100
AcDbSymbolTableRecord
100
AcDbLinetypeTableRecord
  2
ByLayer
 70
     0
  3

 72
    65
 73
     0
 40
0.0
  0
LTYPE
  5
16
330
5
100
AcDbSymbolTableRecord
100
AcDbLinetypeTableRecord
  2
Continuous
 70
     0
  3
Solid line
 72
    65
 73
     0
 40
0.0
  0
LTYPE
  5
6A
330
5
100
AcDbSymbolTableRecord
100
AcDbLinetypeTableRecord
  2
HIDDEN
 70
     0
  3
Hidden __ __ __ __ __ __ __ __ __ __ __ __ __ __
 72
    65
 73
     2
 40
1.905
 49
1.27
 74
     0
 49
-0.635
 74
     0
  0
LTYPE
  5
6B
330
5
100
AcDbSymbolTableRecord
100
AcDbLinetypeTableRecord
  2
PHANTOM
 70
     0
  3
Phantom ______  __  __  ______  __  __  ______
 72
    65
 73
     6
 40
12.7
 49
6.35
 74
     0
 49
-1.27
 74
     0
 49
1.27
 74
     0
 49
-1.27
 74
     0
 49
1.27
 74
     0
 49
-1.27
 74
     0
  0
LTYPE
  5
6C
330
5
100
AcDbSymbolTableRecord
100
AcDbLinetypeTableRecord
  2
CENTER
 70
     0
  3
Center ____ _ ____ _ ____ _ ____ _ ____ _ ____
 72
    65
 73
     4
 40
10.16
 49
6.35
 74
     0
 49
-1.27
 74
     0
 49
1.27
 74
     0
 49
-1.27
 74
     0
  0
LTYPE
  5
6D
330
5
100
AcDbSymbolTableRecord
100
AcDbLinetypeTableRecord
  2
CENTERX2
 70
     0
  3
Center (2x) ________  __  ________  __  _____
 72
    65
 73
     4
 40
20.32
 49
12.7
 74
     0
 49
-2.54
 74
     0
 49
2.54
 74
     0
 49
-2.54
 74
     0
  0
LTYPE
  5
6E
330
5
100
AcDbSymbolTableRecord
100
AcDbLinetypeTableRecord
  2
DOT2
 70
     0
  3
Dot (.5x) ........................................
 72
    65
 73
     2
 40
0.635
 49
0.0
 74
     0
 49
-0.635
 74
     0
  0
ENDTAB
  0
TABLE
  2
LAYER
  5
2
330
0
100
AcDbSymbolTable
 70
     8
  0
LAYER
  5
10
330
2
100
AcDbSymbolTableRecord
100
AcDbLayerTableRecord
  2
0
 70
     0
 62
     7
  6
Continuous
370
    -3
390
F
  0
LAYER
  5
6F
330
2
100
AcDbSymbolTableRecord
100
AcDbLayerTableRecord
  2
FORMAT
 70
     0
 62
     7
  6
Continuous
370
    -3
390
F
  0
LAYER
  5
70
330
2
100
AcDbSymbolTableRecord
100
AcDbLayerTableRecord
  2
SLD-0
 70
     0
 62
     2
  6
Continuous
370
    -3
390
F
  0
LAYER
  5
71
330
2
100
AcDbSymbolTableRecord
100
AcDbLayerTableRecord
  2
DIM
 70
     0
 62
   179
  6
Continuous
370
    -3
390
F
  0
LAYER
  5
72
330
2
100
AcDbSymbolTableRecord
100
AcDbLayerTableRecord
  2
SLD-DEFPOINTS
 70
     0
 62
   179
  6
Continuous
370
    -3
390
F
  0
LAYER
  5
73
330
2
100
AcDbSymbolTableRecord
100
AcDbLayerTableRecord
  2
HAT
 70
     0
 62
   135
  6
Continuous
370
    -3
390
F
  0
LAYER
  5
74
330
2
100
AcDbSymbolTableRecord
100
AcDbLayerTableRecord
  2
JOB
 70
     0
 62
   201
  6
Continuous
370
    -3
390
F
  0
LAYER
  5
75
330
2
100
AcDbSymbolTableRecord
100
AcDbLayerTableRecord
  2
INSPECTION_REPORT
 70
     0
 62
   255
  6
Continuous
370
    -3
390
F
  0
ENDTAB
  0
TABLE
  2
STYLE
  5
3
330
0
100
AcDbSymbolTable
 70
     4
  0
STYLE
  5
11
330
3
100
AcDbSymbolTableRecord
100
AcDbTextStyleTableRecord
  2
Standard
 70
     0
 40
0.0
 41
1.0
 50
0.0
 71
     0
 42
5.0447222222
  3
txt
  4

  0
STYLE
  5
96
330
3
100
AcDbSymbolTableRecord
100
AcDbTextStyleTableRecord
  2
SLDTEXTSTYLE0
 70
     0
 40
0.0
 41
0.7
 50
0.0
 71
     0
 42
5.0447222222
  3
TXT
  4

  0
STYLE
  5
98
330
3
100
AcDbSymbolTableRecord
100
AcDbTextStyleTableRecord
  2
SLDTEXTSTYLE1
 70
     0
 40
0.0
 41
0.75
 50
0.0
 71
     0
 42
5.0447222222
  3
TXT
  4

  0
STYLE
  5
AB
330
3
100
AcDbSymbolTableRecord
100
AcDbTextStyleTableRecord
  2
SLDTEXTSTYLE2
 70
     0
 40
0.0
 41
0.6875
 50
0.0
 71
     0
 42
5.0447222222
  3
TXT
  4

  0
ENDTAB
  0
TABLE
  2
VIEW
  5
6
330
0
100
AcDbSymbolTable
 70
     0
  0
ENDTAB
  0
TABLE
  2
UCS
  5
7
330
0
100
AcDbSymbolTable
 70
     0
  0
ENDTAB
  0
TABLE
  2
APPID
  5
9
330
0
100
AcDbSymbolTable
 70
     1
  0
APPID
  5
12
330
9
100
AcDbSymbolTableRecord
100
AcDbRegAppTableRecord
  2
ACAD
 70
     0
  0
ENDTAB
  0
TABLE
  2
DIMSTYLE
  5
A
330
0
100
AcDbSymbolTable
 70
     4
100
AcDbDimStyleTable
  0
DIMSTYLE
105
27
330
A
100
AcDbSymbolTableRecord
100
AcDbDimStyleTableRecord
  2
ISO-25
 70
     0
 41
2.5
 42
0.625
 43
3.75
 44
1.25
 73
     0
 74
     0
 77
     1
 78
     8
140
2.5
141
2.5
143
0.0393700787
147
0.625
171
     3
172
     1
178
     0
271
     2
272
     2
274
     3
278
    44
283
     0
284
     8
340
11
  0
DIMSTYLE
105
175
102
{ACAD_REACTORS
330
174
330
19A
102
}
330
A
100
AcDbSymbolTableRecord
100
AcDbDimStyleTableRecord
  2
SLDDIMSTYLE0
 70
     0
 41
4.2926
 44
0.0
 45
0.000000001
 73
     0
 74
     0
 77
     1
 78
    12
 79
     3
140
3.7835416667
147
0.9458854167
172
     1
173
     1
178
     0
271
     2
272
     2
276
     2
284
    12
289
     0
340
96
  0
DIMSTYLE
105
183
102
{ACAD_REACTORS
330
182
330
1A6
330
1B0
102
}
330
A
100
AcDbSymbolTableRecord
100
AcDbDimStyleTableRecord
  2
SLDDIMSTYLE1
 70
     0
 41
4.2926
 44
0.0
 45
0.000000001
 73
     0
 74
     0
 77
     1
 78
    12
 79
     3
140
3.7835416667
147
0.9458854167
173
     1
178
     0
271
     2
272
     2
276
     2
284
    12
340
96
  0
DIMSTYLE
105
18F
102
{ACAD_REACTORS
330
18E
102
}
330
A
100
AcDbSymbolTableRecord
100
AcDbDimStyleTableRecord
  2
SLDDIMSTYLE2
 70
     0
 41
4.2926
 44
0.0
 45
0.000000001
 73
     0
 74
     0
 77
     1
 78
     4
 79
     1
140
3.7835416667
147
0.9458854167
173
     1
178
     0
271
     2
272
     2
276
     2
284
    12
340
96
  0
ENDTAB
  0
TABLE
  2
BLOCK_RECORD
  5
1
330
0
100
AcDbSymbolTable
 70
     8
  0
BLOCK_RECORD
  5
1F
330
1
100
AcDbSymbolTableRecord
100
AcDbBlockTableRecord
  2
*Model_Space
340
22
  0
BLOCK_RECORD
  5
1B
330
1
100
AcDbSymbolTableRecord
100
AcDbBlockTableRecord
  2
*Paper_Space
340
1E
  0
BLOCK_RECORD
  5
23
330
1
100
AcDbSymbolTableRecord
100
AcDbBlockTableRecord
  2
*Paper_Space0
340
26
  0
BLOCK_RECORD
  5
E8
330
1
100
AcDbSymbolTableRecord
100
AcDbBlockTableRecord
  2
SW_CENTERMARKSYMBOL_0
340
0
102
{BLKREFS
331
F3
102
}
  0
BLOCK_RECORD
  5
176
330
1
100
AcDbSymbolTableRecord
100
AcDbBlockTableRecord
  2
_D
340
0
  0
BLOCK_RECORD
  5
184
330
1
100
AcDbSymbolTableRecord
100
AcDbBlockTableRecord
  2
_D_1
340
0
  0
BLOCK_RECORD
  5
190
330
1
100
AcDbSymbolTableRecord
100
AcDbBlockTableRecord
  2
_D_2
340
0
  0
BLOCK_RECORD
  5
19B
330
1
100
AcDbSymbolTableRecord
100
AcDbBlockTableRecord
  2
_D_3
340
0
  0
BLOCK_RECORD
  5
1A7
330
1
100
AcDbSymbolTableRecord
100
AcDbBlockTableRecord
  2
_D_4
340
0
  0
BLOCK_RECORD
  5
1B1
330
1
100
AcDbSymbolTableRecord
100
AcDbBlockTableRecord
  2
_D_5
340
0
  0
ENDTAB
  0
ENDSEC
  0
SECTION
  2
BLOCKS
  0
BLOCK
  5
20
330
1F
100
AcDbEntity
  8
0
100
AcDbBlockBegin
  2
*Model_Space
 70
     0
 10
0.0
 20
0.0
 30
0.0
  3
*Model_Space
  1
*Model_Space
  0
ENDBLK
  5
21
330
1F
100
AcDbEntity
  8
0
100
AcDbBlockEnd
  0
BLOCK
  5
1C
330
1B
100
AcDbEntity
 67
     1
  8
0
100
AcDbBlockBegin
  2
*Paper_Space
 70
     0
 10
0.0
 20
0.0
 30
0.0
  3
*Paper_Space
  1
*Paper_Space
  0
ENDBLK
  5
1D
330
1B
100
AcDbEntity
 67
     1
  8
0
100
AcDbBlockEnd
  0
BLOCK
  5
24
330
23
100
AcDbEntity
  8
0
100
AcDbBlockBegin
  2
*Paper_Space0
 70
     0
 10
0.0
 20
0.0
 30
0.0
  3
*Paper_Space0
  1
*Paper_Space0
  0
ENDBLK
  5
25
330
23
100
AcDbEntity
  8
0
100
AcDbBlockEnd
  0
BLOCK
  5
E9
330
E8
100
AcDbEntity
  8
0
100
AcDbBlockBegin
  2
SW_CENTERMARKSYMBOL_0
 70
     0
 10
0.0
 20
0.0
 30
0.0
  3
SW_CENTERMARKSYMBOL_0
  1
SW_CENTERMARKSYMBOL_0
  0
LINE
  5
EB
330
E8
100
AcDbEntity
  8
DIM
 62
     0
100
AcDbLine
 10
0.0
 20
0.0
 30
0.0
 11
0.0
 21
2.5
 31
0.0
  0
LINE
  5
EC
330
E8
100
AcDbEntity
  8
DIM
 62
     0
100
AcDbLine
 10
0.0
 20
0.0
 30
0.0
 11
-2.5
 21
0.0
 31
0.0
  0
LINE
  5
ED
330
E8
100
AcDbEntity
  8
DIM
 62
     0
100
AcDbLine
 10
0.0
 20
0.0
 30
0.0
 11
0.0
 21
-2.5
 31
0.0
  0
LINE
  5
EE
330
E8
100
AcDbEntity
  8
DIM
 62
     0
100
AcDbLine
 10
0.0
 20
0.0
 30
0.0
 11
2.5
 21
0.0
 31
0.0
  0
LINE
  5
EF
330
E8
100
AcDbEntity
  8
DIM
 62
     0
100
AcDbLine
 10
0.0
 20
5.0
 30
0.0
 11
0.0
 21
50.3671572875
 31
0.0
  0
LINE
  5
F0
330
E8
100
AcDbEntity
  8
DIM
 62
     0
100
AcDbLine
 10
-5.0
 20
0.0
 30
0.0
 11
-50.3671572875
 21
0.0
 31
0.0
  0
LINE
  5
F1
330
E8
100
AcDbEntity
  8
DIM
 62
     0
100
AcDbLine
 10
0.0
 20
-5.0
 30
0.0
 11
0.0
 21
-50.3671572875
 31
0.0
  0
LINE
  5
F2
330
E8
100
AcDbEntity
  8
DIM
 62
     0
100
AcDbLine
 10
5.0
 20
0.0
 30
0.0
 11
50.3671572875
 21
0.0
 31
0.0
  0
ENDBLK
  5
EA
330
E8
100
AcDbEntity
  8
0
100
AcDbBlockEnd
  0
BLOCK
  5
177
330
176
100
AcDbEntity
  8
0
100
AcDbBlockBegin
  2
_D
 70
     0
 10
0.0
 20
0.0
 30
0.0
  3
_D
  1
_D
  0
SOLID
  5
179
330
176
100
AcDbEntity
  8
DIM
100
AcDbTrace
 10
342.058017454
 20
160.9728445273
 30
0.0
 11
342.718417454
 21
165.2654445273
 31
0.0
 12
341.397617454
 22
165.2654445273
 32
0.0
 13
341.397617454
 23
165.2654445273
 33
0.0
  0
SOLID
  5
17A
330
176
100
AcDbEntity
  8
DIM
100
AcDbTrace
 10
342.058017454
 20
133.9728445273
 30
0.0
 11
341.397617454
 21
129.6802445273
 31
0.0
 12
342.718417454
 22
129.6802445273
 32
0.0
 13
342.718417454
 23
129.6802445273
 33
0.0
  0
LINE
  5
17B
330
176
100
AcDbEntity
  8
DIM
100
AcDbLine
 10
320.0715436205
 20
160.9728445273
 30
0.0
 11
343.358017454
 21
160.9728445273
 31
0.0
  0
LINE
  5
17C
330
176
100
AcDbEntity
  8
DIM
100
AcDbLine
 10
320.0715436205
 20
133.9728445273
 30
0.0
 11
343.358017454
 21
133.9728445273
 31
0.0
  0
LINE
  5
17D
330
176
100
AcDbEntity
  8
DIM
100
AcDbLine
 10
342.058017454
 20
160.9728445273
 30
0.0
 11
342.058017454
 21
169.2278445273
 31
0.0
  0
LINE
  5
17E
330
176
100
AcDbEntity
  8
DIM
100
AcDbLine
 10
342.058017454
 20
160.9728445273
 30
0.0
 11
342.058017454
 21
133.9728445273
 31
0.0
  0
LINE
  5
17F
330
176
100
AcDbEntity
  8
DIM
100
AcDbLine
 10
342.058017454
 20
133.9728445273
 30
0.0
 11
342.058017454
 21
125.7178445273
 31
0.0
  0
MTEXT
  5
180
330
176
100
AcDbEntity
  8
DIM
100
AcDbMText
 10
337.1807756467
 20
141.9900371909
 30
0.0
 40
3.7835416667
 41
0.0
 71
     1
 72
     1
  1
%%c
  7
SLDTEXTSTYLE0
 11
-7.044195017643634E-15
 21
1.0
 31
0.0
 73
     1
 44
1.0
  0
MTEXT
  5
181
330
176
100
AcDbEntity
  8
DIM
100
AcDbMText
 10
337.1807756467
 20
147.8408638604
 30
0.0
 40
3.7835416667
 41
0.0
 71
     1
 72
     1
  1
27
  7
SLDTEXTSTYLE0
 11
-7.044195017643634E-15
 21
1.0
 31
0.0
 73
     1
 44
1.0
  0
ENDBLK
  5
178
330
176
100
AcDbEntity
  8
0
100
AcDbBlockEnd
  0
BLOCK
  5
185
330
184
100
AcDbEntity
  8
0
100
AcDbBlockBegin
  2
_D_1
 70
     0
 10
0.0
 20
0.0
 30
0.0
  3
_D_1
  1
_D_1
  0
SOLID
  5
187
330
184
100
AcDbEntity
  8
DIM
100
AcDbTrace
 10
349.2039930994
 20
176.4728445273
 30
0.0
 11
348.5435930994
 21
172.1802445273
 31
0.0
 12
349.8643930994
 22
172.1802445273
 32
0.0
 13
349.8643930994
 23
172.1802445273
 33
0.0
  0
SOLID
  5
188
330
184
100
AcDbEntity
  8
DIM
100
AcDbTrace
 10
349.2039930994
 20
118.4728445273
 30
0.0
 11
349.8643930994
 21
122.7654445273
 31
0.0
 12
348.5435930994
 22
122.7654445273
 32
0.0
 13
348.5435930994
 23
122.7654445273
 33
0.0
  0
LINE
  5
189
330
184
100
AcDbEntity
  8
DIM
100
AcDbLine
 10
298.5622913493
 20
176.4728445273
 30
0.0
 11
350.5039930994
 21
176.4728445273
 31
0.0
  0
LINE
  5
18A
330
184
100
AcDbEntity
  8
DIM
100
AcDbLine
 10
298.5622913493
 20
118.4728445273
 30
0.0
 11
350.5039930994
 21
118.4728445273
 31
0.0
  0
LINE
  5
18B
330
184
100
AcDbEntity
  8
DIM
100
AcDbLine
 10
349.2039930994
 20
176.4728445273
 30
0.0
 11
349.2039930994
 21
118.4728445273
 31
0.0
  0
MTEXT
  5
18C
330
184
100
AcDbEntity
  8
DIM
100
AcDbMText
 10
344.3267512921
 20
141.9900371909
 30
0.0
 40
3.7835416667
 41
0.0
 71
     1
 72
     1
  1
%%c
  7
SLDTEXTSTYLE0
 11
-7.044195017643634E-15
 21
1.0
 31
0.0
 73
     1
 44
1.0
  0
MTEXT
  5
18D
330
184
100
AcDbEntity
  8
DIM
100
AcDbMText
 10
344.3267512921
 20
147.8408638604
 30
0.0
 40
3.7835416667
 41
0.0
 71
     1
 72
     1
  1
58
  7
SLDTEXTSTYLE0
 11
-7.044195017643634E-15
 21
1.0
 31
0.0
 73
     1
 44
1.0
  0
ENDBLK
  5
186
330
184
100
AcDbEntity
  8
0
100
AcDbBlockEnd
  0
BLOCK
  5
191
330
190
100
AcDbEntity
  8
0
100
AcDbBlockBegin
  2
_D_2
 70
     0
 10
0.0
 20
0.0
 30
0.0
  3
_D_2
  1
_D_2
  0
SOLID
  5
193
330
190
100
AcDbEntity
  8
DIM
100
AcDbTrace
 10
143.0300113191
 20
196.2228445273
 30
0.0
 11
142.3696113191
 21
191.9302445273
 31
0.0
 12
143.6904113191
 22
191.9302445273
 32
0.0
 13
143.6904113191
 23
191.9302445273
 33
0.0
  0
SOLID
  5
194
330
190
100
AcDbEntity
  8
DIM
100
AcDbTrace
 10
143.0300113191
 20
98.7228445273
 30
0.0
 11
143.6904113191
 21
103.0154445273
 31
0.0
 12
142.3696113191
 22
103.0154445273
 32
0.0
 13
142.3696113191
 23
103.0154445273
 33
0.0
  0
LINE
  5
195
330
190
100
AcDbEntity
  8
DIM
100
AcDbLine
 10
256.3279767743
 20
196.2228445273
 30
0.0
 11
141.7300113191
 21
196.2228445273
 31
0.0
  0
LINE
  5
196
330
190
100
AcDbEntity
  8
DIM
100
AcDbLine
 10
256.3279767743
 20
98.7228445273
 30
0.0
 11
141.7300113191
 21
98.7228445273
 31
0.0
  0
LINE
  5
197
330
190
100
AcDbEntity
  8
DIM
100
AcDbLine
 10
143.0300113191
 20
196.2228445273
 30
0.0
 11
143.0300113191
 21
98.7228445273
 31
0.0
  0
MTEXT
  5
198
330
190
100
AcDbEntity
  8
DIM
100
AcDbMText
 10
138.1527695119
 20
138.7600135274
 30
0.0
 40
3.7835416667
 41
0.0
 71
     1
 72
     1
  1
%%c
  7
SLDTEXTSTYLE0
 11
-7.044195017643634E-15
 21
1.0
 31
0.0
 73
     1
 44
1.0
  0
MTEXT
  5
199
330
190
100
AcDbEntity
  8
DIM
100
AcDbMText
 10
138.1527695119
 20
144.6108401969
 30
0.0
 40
3.7835416667
 41
0.0
 71
     1
 72
     1
  1
97.50
  7
SLDTEXTSTYLE0
 11
-7.044195017643634E-15
 21
1.0
 31
0.0
 73
     1
 44
1.0
  0
ENDBLK
  5
192
330
190
100
AcDbEntity
  8
0
100
AcDbBlockEnd
  0
BLOCK
  5
19C
330
19B
100
AcDbEntity
  8
0
100
AcDbBlockBegin
  2
_D_3
 70
     0
 10
0.0
 20
0.0
 30
0.0
  3
_D_3
  1
_D_3
  0
SOLID
  5
19E
330
19B
100
AcDbEntity
  8
DIM
100
AcDbTrace
 10
319.2622913493
 20
92.3209004638
 30
0.0
 11
323.5548913493
 21
91.6605004638
 31
0.0
 12
323.5548913493
 22
92.9813004638
 32
0.0
 13
323.5548913493
 23
92.9813004638
 33
0.0
  0
SOLID
  5
19F
330
19B
100
AcDbEntity
  8
DIM
100
AcDbTrace
 10
298.2622913493
 20
92.3209004638
 30
0.0
 11
293.9696913493
 21
92.9813004638
 31
0.0
 12
293.9696913493
 22
91.6605004638
 32
0.0
 13
293.9696913493
 23
91.6605004638
 33
0.0
  0
LINE
  5
1A0
330
19B
100
AcDbEntity
  8
DIM
100
AcDbLine
 10
319.2622913493
 20
133.5228445273
 30
0.0
 11
319.2622913493
 21
91.0209004638
 31
0.0
  0
LINE
  5
1A1
330
19B
100
AcDbEntity
  8
DIM
100
AcDbLine
 10
298.2622913493
 20
118.1728445273
 30
0.0
 11
298.2622913493
 21
91.0209004638
 31
0.0
  0
LINE
  5
1A2
330
19B
100
AcDbEntity
  8
DIM
100
AcDbLine
 10
319.2622913493
 20
92.3209004638
 30
0.0
 11
327.5172913493
 21
92.3209004638
 31
0.0
  0
LINE
  5
1A3
330
19B
100
AcDbEntity
  8
DIM
100
AcDbLine
 10
319.2622913493
 20
92.3209004638
 30
0.0
 11
298.2622913493
 21
92.3209004638
 31
0.0
  0
LINE
  5
1A4
330
19B
100
AcDbEntity
  8
DIM
100
AcDbLine
 10
298.2622913493
 20
92.3209004638
 30
0.0
 11
290.0072913493
 21
92.3209004638
 31
0.0
  0
MTEXT
  5
1A5
330
19B
100
AcDbEntity
  8
DIM
100
AcDbMText
 10
306.2048973477
 20
97.198142271
 30
0.0
 40
3.7835416667
 41
0.0
 71
     1
 72
     1
  1
21
  7
SLDTEXTSTYLE0
 73
     1
 44
1.0
  0
ENDBLK
  5
19D
330
19B
100
AcDbEntity
  8
0
100
AcDbBlockEnd
  0
BLOCK
  5
1A8
330
1A7
100
AcDbEntity
  8
0
100
AcDbBlockBegin
  2
_D_4
 70
     0
 10
0.0
 20
0.0
 30
0.0
  3
_D_4
  1
_D_4
  0
SOLID
  5
1AA
330
1A7
100
AcDbEntity
  8
DIM
100
AcDbTrace
 10
319.2622913493
 20
92.3209004638
 30
0.0
 11
314.9696913493
 21
92.9813004638
 31
0.0
 12
314.9696913493
 22
91.6605004638
 32
0.0
 13
314.9696913493
 23
91.6605004638
 33
0.0
  0
SOLID
  5
1AB
330
1A7
100
AcDbEntity
  8
DIM
100
AcDbTrace
 10
253.2622913493
 20
92.3209004638
 30
0.0
 11
257.5548913493
 21
91.6605004638
 31
0.0
 12
257.5548913493
 22
92.9813004638
 32
0.0
 13
257.5548913493
 23
92.9813004638
 33
0.0
  0
LINE
  5
1AC
330
1A7
100
AcDbEntity
  8
DIM
100
AcDbLine
 10
319.2622913493
 20
133.5228445273
 30
0.0
 11
319.2622913493
 21
91.0209004638
 31
0.0
  0
LINE
  5
1AD
330
1A7
100
AcDbEntity
  8
DIM
100
AcDbLine
 10
253.2622913493
 20
111.2478445273
 30
0.0
 11
253.2622913493
 21
91.0209004638
 31
0.0
  0
LINE
  5
1AE
330
1A7
100
AcDbEntity
  8
DIM
100
AcDbLine
 10
319.2622913493
 20
92.3209004638
 30
0.0
 11
253.2622913493
 21
92.3209004638
 31
0.0
  0
MTEXT
  5
1AF
330
1A7
100
AcDbEntity
  8
DIM
100
AcDbMText
 10
283.7048973477
 20
97.198142271
 30
0.0
 40
3.7835416667
 41
0.0
 71
     1
 72
     1
  1
66
  7
SLDTEXTSTYLE0
 73
     1
 44
1.0
  0
ENDBLK
  5
1A9
330
1A7
100
AcDbEntity
  8
0
100
AcDbBlockEnd
  0
BLOCK
  5
1B2
330
1B1
100
AcDbEntity
  8
0
100
AcDbBlockBegin
  2
_D_5
 70
     0
 10
0.0
 20
0.0
 30
0.0
  3
_D_5
  1
_D_5
  0
SOLID
  5
1B4
330
1B1
100
AcDbEntity
  8
DIM
100
AcDbTrace
 10
331.2622913493
 20
85.7227445273
 30
0.0
 11
326.9696913493
 21
86.3831445273
 31
0.0
 12
326.9696913493
 22
85.0623445273
 32
0.0
 13
326.9696913493
 23
85.0623445273
 33
0.0
  0
SOLID
  5
1B5
330
1B1
100
AcDbEntity
  8
DIM
100
AcDbTrace
 10
151.5122913493
 20
85.7227445273
 30
0.0
 11
155.8048913493
 21
85.0623445273
 31
0.0
 12
155.8048913493
 22
86.3831445273
 32
0.0
 13
155.8048913493
 23
86.3831445273
 33
0.0
  0
LINE
  5
1B6
330
1B1
100
AcDbEntity
  8
DIM
100
AcDbLine
 10
331.2622913493
 20
129.6728445273
 30
0.0
 11
331.2622913493
 21
84.4227445273
 31
0.0
  0
LINE
  5
1B7
330
1B1
100
AcDbEntity
  8
DIM
100
AcDbLine
 10
151.5122913493
 20
146.1728445273
 30
0.0
 11
151.5122913493
 21
84.4227445273
 31
0.0
  0
LINE
  5
1B8
330
1B1
100
AcDbEntity
  8
DIM
100
AcDbLine
 10
331.2622913493
 20
85.7227445273
 30
0.0
 11
151.5122913493
 21
85.7227445273
 31
0.0
  0
MTEXT
  5
1B9
330
1B1
100
AcDbEntity
  8
DIM
100
AcDbMText
 10
234.3211766834
 20
90.5999863346
 30
0.0
 40
3.7835416667
 41
0.0
 71
     1
 72
     1
  1
179.75
  7
SLDTEXTSTYLE0
 73
     1
 44
1.0
  0
ENDBLK
  5
1B3
330
1B1
100
AcDbEntity
  8
0
100
AcDbBlockEnd
  0
ENDSEC
  0
SECTION
  2
ENTITIES
  0
LINE
  5
76
330
1F
100
AcDbEntity
  8
DIM
100
AcDbLine
 10
136.1157520957
 20
12.7282888939
 30
0.0
 11
136.1157520957
 21
6.2282888939
 31
0.0
  0
LINE
  5
77
330
1F
100
AcDbEntity
  8
DIM
100
AcDbLine
 10
330.8104822039
 20
12.7282888939
 30
0.0
 11
330.8104822039
 21
6.2282888939
 31
0.0
  0
LINE
  5
78
330
1F
100
AcDbEntity
  8
DIM
100
AcDbLine
 10
308.6872229111
 20
12.7282888939
 30
0.0
 11
308.6872229111
 21
6.2282888939
 31
0.0
  0
LINE
  5
79
330
1F
100
AcDbEntity
  8
DIM
100
AcDbLine
 10
362.5757520957
 20
6.2282888939
 30
0.0
 11
362.5757520957
 21
12.7282888939
 31
0.0
  0
LINE
  5
7A
330
1F
100
AcDbEntity
  8
DIM
100
AcDbLine
 10
146.2557520957
 20
12.7282888939
 30
0.0
 11
146.2557520957
 21
6.2282888939
 31
0.0
  0
LINE
  5
7B
330
1F
100
AcDbEntity
  8
DIM
100
AcDbLine
 10
171.2039902596
 20
12.7282888939
 30
0.0
 11
171.2039902596
 21
6.2282888939
 31
0.0
  0
LINE
  5
7C
330
1F
100
AcDbEntity
  8
DIM
100
AcDbLine
 10
379.4757520957
 20
6.2282888939
 30
0.0
 11
379.4757520957
 21
100.1532888939
 31
0.0
  0
LINE
  5
7D
330
1F
100
AcDbEntity
  8
DIM
100
AcDbLine
 10
371.5647061031
 20
78.0532888939
 30
0.0
 11
379.4757520957
 21
78.0532888939
 31
0.0
  0
LINE
  5
7E
330
1F
100
AcDbEntity
  8
DIM
100
AcDbLine
 10
193.8343561083
 20
11.7532888939
 30
0.0
 11
193.8343561083
 21
6.2282888939
 31
0.0
  0
LINE
  5
7F
330
1F
100
AcDbEntity
  8
DIM
100
AcDbLine
 10
255.7931339086
 20
12.7282888939
 30
0.0
 11
255.7931339086
 21
6.2282888939
 31
0.0
  0
LINE
  5
80
330
1F
100
AcDbEntity
  8
DIM
100
AcDbLine
 10
193.8343561083
 20
12.7282888939
 30
0.0
 11
193.8343561083
 21
11.7532888939
 31
0.0
  0
LINE
  5
81
330
1F
100
AcDbEntity
  8
DIM
100
AcDbLine
 10
372.9757520957
 20
22.8031952939
 30
0.0
 11
379.4757520957
 21
22.8031952939
 31
0.0
  0
LINE
  5
82
330
1F
100
AcDbEntity
  8
DIM
100
AcDbLine
 10
372.9757520957
 20
259.7282888939
 30
0.0
 11
12.8757520957
 21
259.7282888939
 31
0.0
  0
LINE
  5
83
330
1F
100
AcDbEntity
  8
DIM
100
AcDbLine
 10
379.4757520957
 20
266.2282888939
 30
0.0
 11
6.3757520957
 21
266.2282888939
 31
0.0
  0
LINE
  5
84
330
1F
100
AcDbEntity
  8
DIM
100
AcDbLine
 10
12.8757520957
 20
259.7282888939
 30
0.0
 11
12.8757520957
 21
12.7282888939
 31
0.0
  0
LINE
  5
85
330
1F
100
AcDbEntity
  8
DIM
100
AcDbLine
 10
6.3757520957
 20
266.2282888939
 30
0.0
 11
6.3757520957
 21
6.2282888939
 31
0.0
  0
LINE
  5
86
330
1F
100
AcDbEntity
  8
DIM
100
AcDbLine
 10
12.8757520957
 20
71.2282888939
 30
0.0
 11
6.3757520957
 21
71.2282888939
 31
0.0
  0
LINE
  5
87
330
1F
100
AcDbEntity
  8
DIM
100
AcDbLine
 10
6.3757520957
 20
136.2282888939
 30
0.0
 11
12.8757520957
 21
136.2282888939
 31
0.0
  0
LINE
  5
88
330
1F
100
AcDbEntity
  8
DIM
100
AcDbLine
 10
6.3757520957
 20
6.2282888939
 30
0.0
 11
379.4757520957
 21
6.2282888939
 31
0.0
  0
LINE
  5
89
330
1F
100
AcDbEntity
  8
DIM
100
AcDbLine
 10
12.8757520957
 20
12.7282888939
 30
0.0
 11
379.4757520957
 21
12.7282888939
 31
0.0
  0
LINE
  5
8A
330
1F
100
AcDbEntity
  8
DIM
100
AcDbLine
 10
62.9257520957
 20
6.2282888939
 30
0.0
 11
62.9257520957
 21
12.7282888939
 31
0.0
  0
LINE
  5
8B
330
1F
100
AcDbEntity
  8
DIM
100
AcDbLine
 10
127.9257520957
 20
12.7282888939
 30
0.0
 11
127.9257520957
 21
6.2282888939
 31
0.0
  0
LINE
  5
8C
330
1F
100
AcDbEntity
  8
DIM
100
AcDbLine
 10
12.8757520957
 20
201.2282888939
 30
0.0
 11
6.3757520957
 21
201.2282888939
 31
0.0
  0
LINE
  5
8D
330
1F
100
AcDbEntity
  8
DIM
100
AcDbLine
 10
62.9257520957
 20
259.7282888939
 30
0.0
 11
62.9257520957
 21
266.2282888939
 31
0.0
  0
LINE
  5
8E
330
1F
100
AcDbEntity
  8
DIM
100
AcDbLine
 10
127.9257520957
 20
266.2282888939
 30
0.0
 11
127.9257520957
 21
259.7282888939
 31
0.0
  0
LINE
  5
8F
330
1F
100
AcDbEntity
  8
DIM
100
AcDbLine
 10
192.9257520957
 20
266.2282888939
 30
0.0
 11
192.9257520957
 21
259.7282888939
 31
0.0
  0
LINE
  5
90
330
1F
100
AcDbEntity
  8
DIM
100
AcDbLine
 10
372.9757520957
 20
12.7282888939
 30
0.0
 11
372.9757520957
 21
259.7282888939
 31
0.0
  0
LINE
  5
91
330
1F
100
AcDbEntity
  8
DIM
100
AcDbLine
 10
379.4757520957
 20
100.1532888939
 30
0.0
 11
379.4757520957
 21
266.2282888939
 31
0.0
  0
LINE
  5
92
330
1F
100
AcDbEntity
  8
DIM
100
AcDbLine
 10
379.4757520957
 20
136.2282888939
 30
0.0
 11
372.9757520957
 21
136.2282888939
 31
0.0
  0
LINE
  5
93
330
1F
100
AcDbEntity
  8
DIM
100
AcDbLine
 10
257.9257520957
 20
266.2282888939
 30
0.0
 11
257.9257520957
 21
259.7282888939
 31
0.0
  0
LINE
  5
94
330
1F
100
AcDbEntity
  8
DIM
100
AcDbLine
 10
322.9257520957
 20
259.7282888939
 30
0.0
 11
322.9257520957
 21
266.2282888939
 31
0.0
  0
LINE
  5
95
330
1F
100
AcDbEntity
  8
DIM
100
AcDbLine
 10
372.9757520957
 20
201.2282888939
 30
0.0
 11
379.4757520957
 21
201.2282888939
 31
0.0
  0
MTEXT
  5
97
330
1F
100
AcDbEntity
  8
DIM
100
AcDbMText
 10
20.9685714825
 20
252.0284640891
 30
0.0
 40
5.5033333333
 41
0.0
 71
     1
 72
     1
  1
SK 50 FMH27 045 AD/6.3G15000 SL SP.S
  7
SLDTEXTSTYLE0
 73
     1
 44
1.0
  0
MTEXT
  5
99
330
1F
100
AcDbEntity
  8
DIM
 62
     7
100
AcDbMText
 10
257.0526122406
 20
10.1425369842
 30
0.0
 40
1.94818
 41
0.0
 71
     1
 72
     1
  1
WEIGHT:
  7
SLDTEXTSTYLE1
 73
     1
 44
1.0
  0
MTEXT
  5
9A
330
1F
100
AcDbEntity
  8
DIM
 62
     7
100
AcDbMText
 10
375.1761997812
 20
106.5227975607
 30
0.0
 40
2.4077083333
 41
0.0
 71
     1
 72
     1
  1
C
  7
SLDTEXTSTYLE1
 73
     1
 44
1.0
  0
MTEXT
  5
9B
330
1F
100
AcDbEntity
  8
DIM
 62
     7
100
AcDbMText
 10
367.9566548053
 20
19.3101765787
 30
0.0
 40
3.7835416667
 41
0.0
 71
     1
 72
     1
  1
A4
  7
SLDTEXTSTYLE1
 73
     1
 44
1.0
  0
MTEXT
  5
9C
330
1F
100
AcDbEntity
  8
DIM
 62
     7
100
AcDbMText
 10
354.3424239624
 20
264.4967102185
 30
0.0
 40
2.4077083333
 41
0.0
 71
     1
 72
     1
  1
6
  7
SLDTEXTSTYLE1
 73
     1
 44
1.0
  0
MTEXT
  5
9D
330
1F
100
AcDbEntity
  8
DIM
 62
     7
100
AcDbMText
 10
289.3424239624
 20
264.4967102185
 30
0.0
 40
2.4077083333
 41
0.0
 71
     1
 72
     1
  1
5
  7
SLDTEXTSTYLE1
 73
     1
 44
1.0
  0
MTEXT
  5
9E
330
1F
100
AcDbEntity
  8
DIM
 62
     7
100
AcDbMText
 10
375.1424291624
 20
235.2467102185
 30
0.0
 40
2.4077083333
 41
0.0
 71
     1
 72
     1
  1
A
  7
SLDTEXTSTYLE1
 73
     1
 44
1.0
  0
MTEXT
  5
9F
330
1F
100
AcDbEntity
  8
DIM
 62
     7
100
AcDbMText
 10
375.1424291624
 20
170.2467102185
 30
0.0
 40
2.4077083333
 41
0.0
 71
     1
 72
     1
  1
B
  7
SLDTEXTSTYLE1
 73
     1
 44
1.0
  0
MTEXT
  5
A0
330
1F
100
AcDbEntity
  8
DIM
 62
     7
100
AcDbMText
 10
224.3424239624
 20
264.4967102185
 30
0.0
 40
2.4077083333
 41
0.0
 71
     1
 72
     1
  1
4
  7
SLDTEXTSTYLE1
 73
     1
 44
1.0
  0
MTEXT
  5
A1
330
1F
100
AcDbEntity
  8
DIM
 62
     7
100
AcDbMText
 10
29.884090629
 20
264.4967102185
 30
0.0
 40
2.4077083333
 41
0.0
 71
     1
 72
     1
  1
1
  7
SLDTEXTSTYLE1
 73
     1
 44
1.0
  0
MTEXT
  5
A2
330
1F
100
AcDbEntity
  8
DIM
 62
     7
100
AcDbMText
 10
94.3424239624
 20
264.4967102185
 30
0.0
 40
2.4077083333
 41
0.0
 71
     1
 72
     1
  1
2
  7
SLDTEXTSTYLE1
 73
     1
 44
1.0
  0
MTEXT
  5
A3
330
1F
100
AcDbEntity
  8
DIM
 62
     7
100
AcDbMText
 10
159.3424239624
 20
264.4967102185
 30
0.0
 40
2.4077083333
 41
0.0
 71
     1
 72
     1
  1
3
  7
SLDTEXTSTYLE1
 73
     1
 44
1.0
  0
MTEXT
  5
A4
330
1F
100
AcDbEntity
  8
DIM
 62
     7
100
AcDbMText
 10
8.5424187624
 20
235.2467102185
 30
0.0
 40
2.4077083333
 41
0.0
 71
     1
 72
     1
  1
A
  7
SLDTEXTSTYLE1
 73
     1
 44
1.0
  0
MTEXT
  5
A5
330
1F
100
AcDbEntity
  8
DIM
 62
     7
100
AcDbMText
 10
94.3424239624
 20
10.9967102185
 30
0.0
 40
2.4077083333
 41
0.0
 71
     1
 72
     1
  1
2
  7
SLDTEXTSTYLE1
 73
     1
 44
1.0
  0
MTEXT
  5
A6
330
1F
100
AcDbEntity
  8
DIM
 62
     7
100
AcDbMText
 10
29.884090629
 20
10.9967102185
 30
0.0
 40
2.4077083333
 41
0.0
 71
     1
 72
     1
  1
1
  7
SLDTEXTSTYLE1
 73
     1
 44
1.0
  0
MTEXT
  5
A7
330
1F
100
AcDbEntity
  8
DIM
 62
     7
100
AcDbMText
 10
8.5424187624
 20
40.2467102185
 30
0.0
 40
2.4077083333
 41
0.0
 71
     1
 72
     1
  1
D
  7
SLDTEXTSTYLE1
 73
     1
 44
1.0
  0
MTEXT
  5
A8
330
1F
100
AcDbEntity
  8
DIM
 62
     7
100
AcDbMText
 10
8.5424187624
 20
105.2467102185
 30
0.0
 40
2.4077083333
 41
0.0
 71
     1
 72
     1
  1
C
  7
SLDTEXTSTYLE1
 73
     1
 44
1.0
  0
MTEXT
  5
A9
330
1F
100
AcDbEntity
  8
DIM
 62
     7
100
AcDbMText
 10
8.5424187624
 20
170.2467102185
 30
0.0
 40
2.4077083333
 41
0.0
 71
     1
 72
     1
  1
B
  7
SLDTEXTSTYLE1
 73
     1
 44
1.0
  0
MTEXT
  5
AA
330
1F
100
AcDbEntity
  8
DIM
 62
     7
100
AcDbMText
 10
375.1761997812
 20
106.5227975607
 30
0.0
 40
2.4077083333
 41
0.0
 71
     1
 72
     1
  1
C
  7
SLDTEXTSTYLE1
 73
     1
 44
1.0
  0
MTEXT
  5
AC
330
1F
100
AcDbEntity
  8
DIM
 62
     7
100
AcDbMText
 10
333.4829755563
 20
9.9984023508
 30
0.0
 40
1.95
 41
0.0
 71
     1
 72
     1
  1
SHEET 1 OF 1
  7
SLDTEXTSTYLE2
 73
     1
 44
1.0
  0
MTEXT
  5
AD
330
1F
100
AcDbEntity
  8
DIM
 62
     7
100
AcDbMText
 10
195.4833144985
 20
10.2093777287
 30
0.0
 40
1.95
 41
0.0
 71
     1
 72
     1
  1
MATERIAL:
  7
SLDTEXTSTYLE1
 73
     1
 44
1.0
  0
MTEXT
  5
AE
330
1F
100
AcDbEntity
  8
DIM
 62
     7
100
AcDbMText
 10
354.3424239624
 20
264.4967102185
 30
0.0
 40
2.4077083333
 41
0.0
 71
     1
 72
     1
  1
6
  7
SLDTEXTSTYLE1
 73
     1
 44
1.0
  0
MTEXT
  5
AF
330
1F
100
AcDbEntity
  8
DIM
 62
     7
100
AcDbMText
 10
289.3424239624
 20
264.4967102185
 30
0.0
 40
2.4077083333
 41
0.0
 71
     1
 72
     1
  1
5
  7
SLDTEXTSTYLE1
 73
     1
 44
1.0
  0
MTEXT
  5
B0
330
1F
100
AcDbEntity
  8
DIM
 62
     7
100
AcDbMText
 10
375.1424291624
 20
235.2467102185
 30
0.0
 40
2.4077083333
 41
0.0
 71
     1
 72
     1
  1
A
  7
SLDTEXTSTYLE1
 73
     1
 44
1.0
  0
MTEXT
  5
B1
330
1F
100
AcDbEntity
  8
DIM
 62
     7
100
AcDbMText
 10
375.1424291624
 20
170.2467102185
 30
0.0
 40
2.4077083333
 41
0.0
 71
     1
 72
     1
  1
B
  7
SLDTEXTSTYLE1
 73
     1
 44
1.0
  0
MTEXT
  5
B2
330
1F
100
AcDbEntity
  8
DIM
 62
     7
100
AcDbMText
 10
224.3424239624
 20
264.4967102185
 30
0.0
 40
2.4077083333
 41
0.0
 71
     1
 72
     1
  1
4
  7
SLDTEXTSTYLE1
 73
     1
 44
1.0
  0
MTEXT
  5
B3
330
1F
100
AcDbEntity
  8
DIM
 62
     7
100
AcDbMText
 10
29.884090629
 20
264.4967102185
 30
0.0
 40
2.4077083333
 41
0.0
 71
     1
 72
     1
  1
1
  7
SLDTEXTSTYLE1
 73
     1
 44
1.0
  0
MTEXT
  5
B4
330
1F
100
AcDbEntity
  8
DIM
 62
     7
100
AcDbMText
 10
94.3424239624
 20
264.4967102185
 30
0.0
 40
2.4077083333
 41
0.0
 71
     1
 72
     1
  1
2
  7
SLDTEXTSTYLE1
 73
     1
 44
1.0
  0
MTEXT
  5
B5
330
1F
100
AcDbEntity
  8
DIM
 62
     7
100
AcDbMText
 10
159.3424239624
 20
264.4967102185
 30
0.0
 40
2.4077083333
 41
0.0
 71
     1
 72
     1
  1
3
  7
SLDTEXTSTYLE1
 73
     1
 44
1.0
  0
MTEXT
  5
B6
330
1F
100
AcDbEntity
  8
DIM
 62
     7
100
AcDbMText
 10
8.5424187624
 20
235.2467102185
 30
0.0
 40
2.4077083333
 41
0.0
 71
     1
 72
     1
  1
A
  7
SLDTEXTSTYLE1
 73
     1
 44
1.0
  0
MTEXT
  5
B7
330
1F
100
AcDbEntity
  8
DIM
 62
     7
100
AcDbMText
 10
94.3424239624
 20
10.9967102185
 30
0.0
 40
2.4077083333
 41
0.0
 71
     1
 72
     1
  1
2
  7
SLDTEXTSTYLE1
 73
     1
 44
1.0
  0
MTEXT
  5
B8
330
1F
100
AcDbEntity
  8
DIM
 62
     7
100
AcDbMText
 10
29.884090629
 20
10.9967102185
 30
0.0
 40
2.4077083333
 41
0.0
 71
     1
 72
     1
  1
1
  7
SLDTEXTSTYLE1
 73
     1
 44
1.0
  0
MTEXT
  5
B9
330
1F
100
AcDbEntity
  8
DIM
 62
     7
100
AcDbMText
 10
8.5424187624
 20
40.2467102185
 30
0.0
 40
2.4077083333
 41
0.0
 71
     1
 72
     1
  1
D
  7
SLDTEXTSTYLE1
 73
     1
 44
1.0
  0
MTEXT
  5
BA
330
1F
100
AcDbEntity
  8
DIM
 62
     7
100
AcDbMText
 10
8.5424187624
 20
105.2467102185
 30
0.0
 40
2.4077083333
 41
0.0
 71
     1
 72
     1
  1
C
  7
SLDTEXTSTYLE1
 73
     1
 44
1.0
  0
MTEXT
  5
BB
330
1F
100
AcDbEntity
  8
DIM
 62
     7
100
AcDbMText
 10
8.5424187624
 20
170.2467102185
 30
0.0
 40
2.4077083333
 41
0.0
 71
     1
 72
     1
  1
B
  7
SLDTEXTSTYLE1
 73
     1
 44
1.0
  0
SPLINE
  5
BC
330
1F
100
AcDbEntity
  8
0
  6
Continuous
 62
     7
370
    15
100
AcDbSpline
210
0.0
220
0.0
230
1.0
 70
     8
 71
     3
 72
    14
 73
    10
 74
     0
 42
0.000000001
 43
0.00000001
 40
0.0
 40
0.0
 40
0.0
 40
0.0
 40
0.25
 40
0.25
 40
0.5
 40
0.5
 40
0.75
 40
0.75
 40
1.0
 40
1.0
 40
1.0
 40
1.0
 10
98.85375786786557
 20
147.4728445273025
 30
0.0
 10
98.85375786786557
 20
142.3751101505281
 30
0.0
 10
96.82853144179663
 20
137.485781045836
 30
0.0
 10
89.61924634878665
 20
130.2764959528261
 30
0.0
 10
84.72991724409462
 20
128.2512695267571
 30
0.0
 10
74.53444849054573
 20
128.2512695267571
 30
0.0
 10
69.6451193858537
 20
130.2764959528261
 30
0.0
 10
62.43583429284372
 20
137.485781045836
 30
0.0
 10
60.41060786677478
 20
142.3751101505281
 30
0.0
 10
60.41060786677477
 20
147.4728445273025
 30
0.0
  0
SPLINE
  5
BD
330
1F
100
AcDbEntity
  8
0
  6
Continuous
 62
     7
370
    15
100
AcDbSpline
210
0.0
220
0.0
230
1.0
 70
     8
 71
     3
 72
    14
 73
    10
 74
     0
 42
0.000000001
 43
0.00000001
 40
0.0
 40
0.0
 40
0.0
 40
0.0
 40
0.25
 40
0.25
 40
0.5
 40
0.5
 40
0.75
 40
0.75
 40
1.0
 40
1.0
 40
1.0
 40
1.0
 10
60.41060786677478
 20
147.4728445273025
 30
0.0
 10
60.41060786677478
 20
152.570578904077
 30
0.0
 10
62.43583429284372
 20
157.459908008769
 30
0.0
 10
69.6451193858537
 20
164.6691931017789
 30
0.0
 10
74.53444849054573
 20
166.6944195278479
 30
0.0
 10
84.72991724409462
 20
166.6944195278479
 30
0.0
 10
89.61924634878665
 20
164.6691931017789
 30
0.0
 10
96.82853144179663
 20
157.459908008769
 30
0.0
 10
98.85375786786557
 20
152.570578904077
 30
0.0
 10
98.85375786786557
 20
147.4728445273025
 30
0.0
  0
CIRCLE
  5
BE
330
1F
100
AcDbEntity
  8
0
  6
Continuous
 62
     7
370
    15
100
AcDbCircle
 10
79.6321828673
 20
147.4728445273
 30
0.0
 40
20.21110778703758
  0
CIRCLE
  5
BF
330
1F
100
AcDbEntity
  8
0
  6
Continuous
 62
     7
370
    15
100
AcDbCircle
 10
79.6321828673
 20
147.4728445273
 30
0.0
 40
34.92499999999999
  0
SPLINE
  5
C0
330
1F
100
AcDbEntity
  8
0
  6
Continuous
 62
     7
370
    15
100
AcDbSpline
210
0.0
220
0.0
230
1.0
 70
     8
 71
     3
 72
    52
 73
    48
 74
     0
 42
0.000000001
 43
0.00000001
 40
0.0
 40
0.0
 40
0.0
 40
0.0
 40
0.0053074994726554
 40
0.0106084744807156
 40
0.0159043870752884
 40
0.0211967035030982
 40
0.0264868930010475
 40
0.031776426578386
 40
0.0370667757915106
 40
0.0423594115164833
 40
0.0476558027243854
 40
0.0529574152645906
 40
0.0582657106609693
 40
0.0891348494758177
 40
0.1200087595578935
 40
0.1521645941108524
 40
0.1843252192282218
 40
0.2171652710885947
 40
0.2500102154523581
 40
0.2828502674523063
 40
0.3156952119562962
 40
0.3478510468948057
 40
0.380011672397905
 40
0.4108808109142898
 40
0.4417547207534483
 40
0.470875333637603
 40
0.5000007798720159
 40
0.5291213927975412
 40
0.5582468390472084
 40
0.5891159778617261
 40
0.6199898879441322
 40
0.652145722497098
 40
0.6843063476144644
 40
0.7171463994755694
 40
0.7499913438386044
 40
0.7828313958395676
 40
0.8156763403425417
 40
0.8478321752819549
 40
0.8799928007841501
 40
0.9108619393016738
 40
0.941735849139696
 40
0.9514609652020397
 40
0.9611682412334405
 40
0.9708667191333772
 40
0.9805654654081966
 40
0.9902735458123287
 40
1.0
 40
1.0
 40
1.0
 40
1.0
 10
44.63218286732017
 20
147.4728445273025
 30
0.0
 10
44.63311089823063
 20
147.6673066853554
 30
0.0
 10
44.63496581923093
 20
148.0559919507611
 30
0.0
 10
44.64999485358256
 20
148.6385549207826
 30
0.0
 10
44.67399348261694
 20
149.220240808152
 30
0.0
 10
44.70783778670006
 20
149.8010495029691
 30
0.0
 10
44.75129332843365
 20
150.3809808513884
 30
0.0
 10
44.80442288949971
 20
150.960034771813
 30
0.0
 10
44.86720955922191
 20
151.5382109359496
 30
0.0
 10
44.93965815173848
 20
152.115509933318
 30
0.0
 10
45.02176618923149
 20
152.6919289334656
 30
0.0
 10
45.11353859122514
 20
153.2674778950437
 30
0.0
 10
45.37767809285856
 20
154.7640904985574
 30
0.0
 10
45.94144584576395
 20
157.1597973597255
 30
0.0
 10
47.05406302610267
 20
160.4206684657779
 30
0.0
 10
48.50122924164328
 20
163.6005573480717
 30
0.0
 10
50.30040487104998
 20
166.6790562798274
 30
0.0
 10
52.41682544661033
 20
169.5805161878643
 30
0.0
 10
54.83971064012545
 20
172.2650631638582
 30
0.0
 10
57.52437111874392
 20
174.6880883388047
 30
0.0
 10
60.42567125830421
 20
176.8044275748817
 30
0.0
 10
63.5043243563312
 20
178.6037197670007
 30
0.0
 10
66.68398779033953
 20
180.0508279002081
 30
0.0
 10
69.94522408834584
 20
181.163557717213
 30
0.0
 10
73.19096838707986
 20
181.9274452026092
 30
0.0
 10
76.42983450523577
 20
182.3757232026196
 30
0.0
 10
79.63200589516565
 20
182.5214010674598
 30
0.0
 10
82.83435336581192
 20
182.3757396900113
 30
0.0
 10
86.0730516255258
 20
181.9275094975502
 30
0.0
 10
89.31897223509887
 20
181.1636074384275
 30
0.0
 10
92.58005263565832
 20
180.0509571090688
 30
0.0
 10
95.75988320411341
 20
178.6038001340134
 30
0.0
 10
98.83839804432341
 20
176.8046219667843
 30
0.0
 10
101.73985360045
 20
174.6882021499367
 30
0.0
 10
104.4244017584595
 20
172.2653165088264
 30
0.0
 10
106.8474265880423
 20
169.5806570563409
 30
0.0
 10
108.9637660222073
 20
166.679353284988
 30
0.0
 10
110.7630577748454
 20
163.600713422406
 30
0.0
 10
112.210167444205
 20
160.4210014769822
 30
0.0
 10
113.3228917678682
 20
157.1599392673068
 30
0.0
 10
113.923737699911
 20
154.6065251819527
 30
0.0
 10
114.2316777794302
 20
152.789105476351
 30
0.0
 10
114.3778168903527
 20
151.7316587381225
 30
0.0
 10
114.4916229176138
 20
150.6712214847477
 30
0.0
 10
114.5723182384204
 20
149.6077675105955
 30
0.0
 10
114.622839773836
 20
148.5413071418611
 30
0.0
 10
114.6290665405237
 20
147.8292231381354
 30
0.0
 10
114.6321828673202
 20
147.4728445273025
 30
0.0
  0
SPLINE
  5
C1
330
1F
100
AcDbEntity
  8
0
  6
Continuous
 62
     7
370
    15
100
AcDbSpline
210
0.0
220
0.0
230
1.0
 70
     8
 71
     3
 72
    52
 73
    48
 74
     0
 42
0.000000001
 43
0.00000001
 40
0.0
 40
0.0
 40
0.0
 40
0.0
 40
0.0053074994726554
 40
0.0106084744807156
 40
0.0159043870752884
 40
0.0211967035030983
 40
0.0264868930010475
 40
0.0317764265783861
 40
0.0370667757915106
 40
0.0423594115164834
 40
0.0476558027243854
 40
0.0529574152645907
 40
0.0582657106609694
 40
0.0891348494759667
 40
0.1200087595578951
 40
0.1521645941111445
 40
0.1843252192282232
 40
0.2171652710889209
 40
0.25001021545236
 40
0.2828502674525652
 40
0.315695211956297
 40
0.3478510468951538
 40
0.3800116723979077
 40
0.41088081091547
 40
0.4417547207534571
 40
0.4708753336379863
 40
0.5000007798720127
 40
0.5291213927971703
 40
0.5582468390472111
 40
0.5891159778626601
 40
0.6199898879441411
 40
0.6521457224976949
 40
0.6843063476144631
 40
0.7171463994753853
 40
0.7499913438386053
 40
0.7828313958393156
 40
0.8156763403425399
 40
0.8478321752809374
 40
0.8799928007841432
 40
0.9108619393011222
 40
0.9417358491396983
 40
0.9514609652021586
 40
0.9611682412336295
 40
0.9708667191335897
 40
0.9805654654083855
 40
0.9902735458124469
 40
1.0
 40
1.0
 40
1.0
 40
1.0
 10
114.6321828673202
 20
147.4728445273025
 30
0.0
 10
114.6312548364097
 20
147.2783823692496
 30
0.0
 10
114.6293999154094
 20
146.8896971038439
 30
0.0
 10
114.6143708810578
 20
146.3071341338224
 30
0.0
 10
114.5903722520234
 20
145.725448246453
 30
0.0
 10
114.5565279479403
 20
145.1446395516359
 30
0.0
 10
114.5130724062067
 20
144.5647082032167
 30
0.0
 10
114.4599428451406
 20
143.985654282792
 30
0.0
 10
114.3971561754184
 20
143.4074781186553
 30
0.0
 10
114.3247075829019
 20
142.830179121287
 30
0.0
 10
114.2425995454089
 20
142.2537601211394
 30
0.0
 10
114.1508271434152
 20
141.6782111595613
 30
0.0
 10
113.8866876417808
 20
140.1815985560423
 30
0.0
 10
113.3229198888776
 20
137.7858916948735
 30
0.0
 10
112.2103027085312
 20
134.5250205888123
 30
0.0
 10
110.7631364929922
 20
131.3451317065237
 30
0.0
 10
108.9639608635779
 20
128.2666327747589
 30
0.0
 10
106.847540288023
 20
125.365172866731
 30
0.0
 10
104.4246550944999
 20
122.6806258907317
 30
0.0
 10
101.7399946158879
 20
120.2576007157956
 30
0.0
 10
98.83869447631743
 20
118.1412614797117
 30
0.0
 10
95.76004137829966
 20
116.3419692875944
 30
0.0
 10
92.58037794424824
 20
114.8948611543784
 30
0.0
 10
89.31914164625587
 20
113.7821313373704
 30
0.0
 10
86.0733973475047
 20
113.0182438519829
 30
0.0
 10
82.83453122938843
 20
112.5699658520073
 30
0.0
 10
79.63235983947463
 20
112.4242879871434
 30
0.0
 10
76.43001236884074
 20
112.5699493645819
 30
0.0
 10
73.19131410909503
 20
113.0181795570617
 30
0.0
 10
69.94539349950568
 20
113.7820816161762
 30
0.0
 10
66.68431309892974
 20
114.8947319455563
 30
0.0
 10
63.50448253051558
 20
116.3418889206171
 30
0.0
 10
60.42596769030311
 20
118.1410670878268
 30
0.0
 10
57.52451213419429
 20
120.2574869046626
 30
0.0
 10
54.83996397619158
 20
122.6803725457669
 30
0.0
 10
52.41693914660821
 20
125.3650319982602
 30
0.0
 10
50.30059971245664
 20
128.266335769577
 30
0.0
 10
48.50130795981996
 20
131.34497563217
 30
0.0
 10
47.054198290458
 20
134.52468757757
 30
0.0
 10
45.94147396676129
 20
137.7857497872739
 30
0.0
 10
45.34062803473078
 20
140.3391638726364
 30
0.0
 10
45.03268795521055
 20
142.1565835782654
 30
0.0
 10
44.88654884428794
 20
143.2140303165017
 30
0.0
 10
44.77274281702678
 20
144.2744675698791
 30
0.0
 10
44.69204749622013
 20
145.3379215440286
 30
0.0
 10
44.64152596080433
 20
146.4043819127552
 30
0.0
 10
44.63529919411663
 20
147.1164659164739
 30
0.0
 10
44.63218286732017
 20
147.4728445273025
 30
0.0
  0
ARC
  5
C2
330
1F
100
AcDbEntity
  8
0
  6
Continuous
 62
     7
370
    15
100
AcDbCircle
 10
79.6321828673
 20
147.4728445273
 30
0.0
 40
47.86715728752539
100
AcDbArc
 50
128.8096103904
 51
141.1903896096
  0
SPLINE
  5
C3
330
1F
100
AcDbEntity
  8
0
  6
Continuous
 62
     7
370
    15
100
AcDbSpline
210
0.0
220
0.0
230
1.0
 70
    24
 71
     3
 72
     8
 73
     4
 74
     0
 42
0.000000001
 43
0.00000001
 40
0.0
 40
0.0
 40
0.0
 40
0.0
 40
1.0
 40
1.0
 40
1.0
 40
1.0
 10
49.63218286732016
 20
184.7725060108696
 30
0.0
 10
49.63218286732016
 20
184.6689969666351
 30
0.0
 10
49.63218286732017
 20
184.5395734048031
 30
0.0
 10
49.63218286732017
 20
184.4088296038832
 30
0.0
  0
ARC
  5
C4
330
1F
100
AcDbEntity
  8
0
  6
Continuous
 62
     7
370
    15
100
AcDbCircle
 10
79.6321828673
 20
147.4728445273
 30
0.0
 40
47.58431457505077
100
AcDbArc
 50
129.0840578538
 51
140.9159421462
  0
SPLINE
  5
C5
330
1F
100
AcDbEntity
  8
0
  6
Continuous
 62
     7
370
    15
100
AcDbSpline
210
0.0
220
0.0
230
1.0
 70
    24
 71
     3
 72
     8
 73
     4
 74
     0
 42
0.000000001
 43
0.00000001
 40
0.0
 40
0.0
 40
0.0
 40
0.0
 40
1.0
 40
1.0
 40
1.0
 40
1.0
 10
42.69619779073951
 20
177.4728445273025
 30
0.0
 10
42.56549364113263
 20
177.4728445273025
 30
0.0
 10
42.43595667411646
 20
177.4728445273025
 30
0.0
 10
42.33252138375313
 20
177.4728445273025
 30
0.0
  0
ARC
  5
C6
330
1F
100
AcDbEntity
  8
0
  6
Continuous
 62
     7
370
    15
100
AcDbCircle
 10
79.6321828673
 20
147.4728445273
 30
0.0
 40
47.58431457505078
100
AcDbArc
 50
343.4556342686
 51
16.5443657314
  0
SPLINE
  5
C7
330
1F
100
AcDbEntity
  8
0
  6
Continuous
 62
     7
370
    15
100
AcDbSpline
210
0.0
220
0.0
230
1.0
 70
     8
 71
     3
 72
    10
 73
     6
 74
     0
 42
0.000000001
 43
0.00000001
 40
0.0
 40
0.0
 40
0.0
 40
0.0
 40
0.5
 40
0.5
 40
1.0
 40
1.0
 40
1.0
 40
1.0
 10
125.2464842823083
 20
161.0228445273025
 30
0.0
 10
125.3104359711514
 20
161.0228445273025
 30
0.0
 10
125.3720003096026
 20
161.0089986512777
 30
0.0
 10
125.4826256604516
 20
160.9668328750903
 30
0.0
 10
125.532312352121
 20
160.9383421748273
 30
0.0
 10
125.5758819287869
 20
160.9056872397772
 30
0.0
  0
ARC
  5
C8
330
1F
100
AcDbEntity
  8
0
  6
Continuous
 62
     7
370
    15
100
AcDbCircle
 10
79.6321828673
 20
147.4728445273
 30
0.0
 40
47.86715728752539
100
AcDbArc
 50
343.7023380383
 51
16.2976619617
  0
SPLINE
  5
C9
330
1F
100
AcDbEntity
  8
0
  6
Continuous
 62
     7
370
    15
100
AcDbSpline
210
0.0
220
0.0
230
1.0
 70
     8
 71
     3
 72
    10
 73
     6
 74
     0
 42
0.000000001
 43
0.00000001
 40
0.0
 40
0.0
 40
0.0
 40
0.0
 40
0.5
 40
0.5
 40
1.0
 40
1.0
 40
1.0
 40
1.0
 10
125.5758819287869
 20
134.0400018148279
 30
0.0
 10
125.5323415373681
 20
134.0073687538106
 30
0.0
 10
125.4837869332504
 20
133.9793878675444
 30
0.0
 10
125.3723373974885
 20
133.9367310171694
 30
0.0
 10
125.3103791448993
 20
133.9228445273025
 30
0.0
 10
125.2464842823083
 20
133.9228445273025
 30
0.0
  0
SPLINE
  5
CA
330
1F
100
AcDbEntity
  8
0
  6
Continuous
 62
     7
370
    15
100
AcDbSpline
210
0.0
220
0.0
230
1.0
 70
     8
 71
     3
 72
    10
 73
     6
 74
     0
 42
0.000000001
 43
0.00000001
 40
0.0
 40
0.0
 40
0.0
 40
0.0
 40
0.5
 40
0.5
 40
1.0
 40
1.0
 40
1.0
 40
1.0
 10
34.01788145233203
 20
133.9228445273025
 30
0.0
 10
33.9539297634889
 20
133.9228445273025
 30
0.0
 10
33.89236542503778
 20
133.9366904033273
 30
0.0
 10
33.78174007418874
 20
133.9788561795147
 30
0.0
 10
33.73205338251933
 20
134.0073468797778
 30
0.0
 10
33.6884838058535
 20
134.0400018148279
 30
0.0
  0
ARC
  5
CB
330
1F
100
AcDbEntity
  8
0
  6
Continuous
 62
     7
370
    15
100
AcDbCircle
 10
79.6321828673
 20
147.4728445273
 30
0.0
 40
47.86715728752538
100
AcDbArc
 50
163.7023380383
 51
196.2976619617
  0
SPLINE
  5
CC
330
1F
100
AcDbEntity
  8
0
  6
Continuous
 62
     7
370
    15
100
AcDbSpline
210
0.0
220
0.0
230
1.0
 70
     8
 71
     3
 72
    10
 73
     6
 74
     0
 42
0.000000001
 43
0.00000001
 40
0.0
 40
0.0
 40
0.0
 40
0.0
 40
0.5
 40
0.5
 40
1.0
 40
1.0
 40
1.0
 40
1.0
 10
34.01788145233203
 20
161.0228445273025
 30
0.0
 10
33.9539297634889
 20
161.0228445273025
 30
0.0
 10
33.89236542503775
 20
161.0089986512777
 30
0.0
 10
33.78174007418877
 20
160.9668328750903
 30
0.0
 10
33.73205338251933
 20
160.9383421748273
 30
0.0
 10
33.6884838058535
 20
160.9056872397772
 30
0.0
  0
ARC
  5
CD
330
1F
100
AcDbEntity
  8
0
  6
Continuous
 62
     7
370
    15
100
AcDbCircle
 10
79.6321828673
 20
147.4728445273
 30
0.0
 40
47.58431457505077
100
AcDbArc
 50
163.4556342686
 51
196.5443657314
  0
SPLINE
  5
CE
330
1F
100
AcDbEntity
  8
0
  6
Continuous
 62
     7
370
    15
100
AcDbSpline
210
0.0
220
0.0
230
1.0
 70
     8
 71
     3
 72
    40
 73
    36
 74
     0
 42
0.000000001
 43
0.00000001
 40
0.0
 40
0.0
 40
0.0
 40
0.0
 40
0.0076138096090706
 40
0.015222703696619
 40
0.0228283796622113
 40
0.0304325370604607
 40
0.0380368764641707
 40
0.0456430983240686
 40
0.0532529018289472
 40
0.0608679837700325
 40
0.0919930035882894
 40
0.1231236538966525
 40
0.1547321881285151
 40
0.1863461940165317
 40
0.2182020912711853
 40
0.2500635030030784
 40
0.3137495787501998
 40
0.3769416086590435
 40
0.439168148565131
 40
0.5000004350472922
 40
0.5608327215294534
 40
0.6230592614355407
 40
0.6862512913443847
 40
0.7499373670915059
 40
0.7817932643700992
 40
0.813654676120411
 40
0.8452632104154371
 40
0.8768772163635395
 40
0.9080022357785864
 40
0.9391328857746177
 40
0.9513123423166135
 40
0.963481817855821
 40
0.9756482751522532
 40
0.9878186821461872
 40
1.0
 40
1.0
 40
1.0
 40
1.0
 10
125.2464842823083
 20
161.0228445273025
 30
0.0
 10
125.177984871476
 20
161.2498572850252
 30
0.0
 10
125.0410302734453
 20
161.7037362396614
 30
0.0
 10
124.8228001843083
 20
162.3804034608317
 30
0.0
 10
124.5953045629128
 20
163.0536741613986
 30
0.0
 10
124.3576195987446
 20
163.7232736921888
 30
0.0
 10
124.1099924527028
 20
164.3892758325392
 30
0.0
 10
123.8523580226514
 20
165.051659367558
 30
0.0
 10
123.5847298423038
 20
165.7104348025709
 30
0.0
 10
123.0215371923138
 20
167.0395385378112
 30
0.0
 10
122.0965185201481
 20
169.010839309221
 30
0.0
 10
120.6941058076973
 20
171.5776843886355
 30
0.0
 10
119.128566199589
 20
174.0666342150428
 30
0.0
 10
117.3980547443356
 20
176.4716636271383
 30
0.0
 10
115.5164003071709
 20
178.7707739848776
 30
0.0
 10
112.8145705400728
 20
181.6793678588288
 30
0.0
 10
109.1152068025539
 20
184.9799467052877
 30
0.0
 10
104.254929897415
 20
188.3319960228618
 30
0.0
 10
99.09864219656043
 20
191.0203068118385
 30
0.0
 10
93.72547838104937
 20
193.0409354791113
 30
0.0
 10
88.14974170778271
 20
194.4065818804071
 30
0.0
 10
82.37606816064763
 20
195.0986886109587
 30
0.0
 10
76.47200150597435
 20
195.0758346782337
 30
0.0
 10
71.55537378055895
 20
194.4400836661839
 30
0.0
 10
67.68322798861165
 20
193.5647086399439
 30
0.0
 10
64.83230053711196
 20
192.7294028546212
 30
0.0
 10
62.04600271901125
 20
191.7212368639359
 30
0.0
 10
59.34881728906981
 20
190.550796469424
 30
0.0
 10
56.74197455758146
 20
189.2238111566502
 30
0.0
 10
54.74300263187545
 20
188.0467911291018
 30
0.0
 10
53.29253839799044
 20
187.1077174434498
 30
0.0
 10
52.35280613997723
 20
186.4670756401003
 30
0.0
 10
51.42924406348073
 20
185.8038938988055
 30
0.0
 10
50.52028757938845
 20
185.1200787109104
 30
0.0
 10
49.92830618432796
 20
184.6459834461381
 30
0.0
 10
49.63218286732018
 20
184.4088296038832
 30
0.0
  0
SPLINE
  5
CF
330
1F
100
AcDbEntity
  8
0
  6
Continuous
 62
     7
370
    15
100
AcDbSpline
210
0.0
220
0.0
230
1.0
 70
     8
 71
     3
 72
    48
 73
    44
 74
     0
 42
0.000000001
 43
0.00000001
 40
0.0
 40
0.0
 40
0.0
 40
0.0
 40
0.0054347037870314
 40
0.0108647463485207
 40
0.0162911759177293
 40
0.0217150428226928
 40
0.0271373988806366
 40
0.0325592967880729
 40
0.0379817895083434
 40
0.0434059296583851
 40
0.0488327688965038
 40
0.0542633573129332
 40
0.059698742824938
 40
0.0907177254008823
 40
0.1217409090757531
 40
0.1535986684470912
 40
0.1854607425290452
 40
0.2177550902622351
 40
0.2500538118399259
 40
0.2823481596244854
 40
0.3146468812542022
 40
0.346504640772552
 40
0.3783667150011477
 40
0.440359683087698
 40
0.5000005600694972
 40
0.5596414370512967
 40
0.621634405137847
 40
0.6534921645093787
 40
0.6853542385911302
 40
0.7176485863248414
 40
0.749947307902022
 40
0.7822416556872713
 40
0.8145403773162883
 40
0.8463981368333431
 40
0.87826021106323
 40
0.9092791938585987
 40
0.9403023777537969
 40
0.9502622131370424
 40
0.9602093142102202
 40
0.970150156833966
 40
0.98009122909965
 40
0.9900390186493149
 40
0.9999999999999999
 40
0.9999999999999999
 40
0.9999999999999999
 40
0.9999999999999999
 10
34.01788145233203
 20
133.9228445273025
 30
0.0
 10
34.08164194942047
 20
133.7113051908746
 30
0.0
 10
34.20910825762558
 20
133.2884079506407
 30
0.0
 10
34.41137178864823
 20
132.6577337084129
 30
0.0
 10
34.62161635714872
 20
132.0301562287302
 30
0.0
 10
34.84064182189297
 20
131.4059131772773
 30
0.0
 10
35.06823402522217
 20
130.7849410294824
 30
0.0
 10
35.30445031270173
 20
130.1672568554324
 30
0.0
 10
35.54927519555491
 20
129.5528562885942
 30
0.0
 10
35.80271314046099
 20
128.9417401488878
 30
0.0
 10
36.0647615834562
 20
128.3339099328012
 30
0.0
 10
36.33542611099543
 20
127.7293592257072
 30
0.0
 10
37.05270535136634
 20
126.1850606305288
 30
0.0
 10
38.32421887850622
 20
123.7506181614988
 30
0.0
 10
40.35798402884753
 20
120.5156725024136
 30
0.0
 10
42.66520709075899
 20
117.4261935048927
 30
0.0
 10
45.25217275657219
 20
114.4976036922801
 30
0.0
 10
48.08290217687546
 20
111.7776997679019
 30
0.0
 10
51.14356776494712
 20
109.291437858218
 30
0.0
 10
54.39859662830352
 20
107.065346680824
 30
0.0
 10
57.81174002301616
 20
105.1263862247349
 30
0.0
 10
61.35613404980271
 20
103.48038996836
 30
0.0
 10
66.15636885176558
 20
101.7129040410392
 30
0.0
 10
72.25629114630867
 20
100.2675426343918
 30
0.0
 10
79.63218290916356
 20
99.70268816770516
 30
0.0
 10
87.00807441765774
 20
100.2675427040993
 30
0.0
 10
93.10782590305267
 20
101.7128631787183
 30
0.0
 10
97.90806831731662
 20
103.4803229134412
 30
0.0
 10
101.4523119369963
 20
105.1262244038523
 30
0.0
 10
104.8656170743424
 20
107.0652520868262
 30
0.0
 10
108.1205130633864
 20
109.2912252844755
 30
0.0
 10
111.1813297036199
 20
111.7775810389136
 30
0.0
 10
114.011948051059
 20
114.4973487051079
 30
0.0
 10
116.5990495341502
 20
117.4260570769051
 30
0.0
 10
118.9061796885585
 20
120.5153830671566
 30
0.0
 10
120.940083980002
 20
123.7504841176941
 30
0.0
 10
122.2967880939669
 20
126.3480959869065
 30
0.0
 10
123.1582220889294
 20
128.2309834169464
 30
0.0
 10
123.6347688825896
 20
129.3470383913713
 30
0.0
 10
124.0825154119671
 20
130.4741325263903
 30
0.0
 10
124.500754552712
 20
131.6124974500506
 30
0.0
 10
124.8921677570279
 20
132.7613289313371
 30
0.0
 10
125.1283266132759
 20
133.5355016697955
 30
0.0
 10
125.2464842823083
 20
133.9228445273025
 30
0.0
  0
SPLINE
  5
D0
330
1F
100
AcDbEntity
  8
0
  6
Continuous
 62
     7
370
    15
100
AcDbSpline
210
0.0
220
0.0
230
1.0
 70
     8
 71
     3
 72
    27
 73
    23
 74
     0
 42
0.000000001
 43
0.00000001
 40
0.0
 40
0.0
 40
0.0
 40
0.0
 40
0.0385569892848211
 40
0.0770658329194701
 40
0.1155353026399639
 40
0.1539741971376514
 40
0.1923913361118491
 40
0.2307955542506346
 40
0.2691956951601454
 40
0.3076006052631416
 40
0.3460191276878565
 40
0.3844600961682111
 40
0.4229323289763935
 40
0.461444622908547
 40
0.5000057473438686
 40
0.5715713334491092
 40
0.6429967682524639
 40
0.7143384572505677
 40
0.7856530046539444
 40
0.8569970792753662
 40
0.9284272796518032
 40
1.0
 40
1.0
 40
1.0
 40
1.0
 10
42.69619779073951
 20
177.4728445273025
 30
0.0
 10
42.54532845490958
 20
177.2854393431306
 30
0.0
 10
42.24377817198023
 20
176.9108629853931
 30
0.0
 10
41.80249249247447
 20
176.3407522919755
 30
0.0
 10
41.36970537118899
 20
175.7651104566042
 30
0.0
 10
40.94618135502673
 20
175.1833166210634
 30
0.0
 10
40.53171597676713
 20
174.5955370103844
 30
0.0
 10
40.12636405894801
 20
174.0017272413037
 30
0.0
 10
39.73011101155851
 20
173.401899314866
 30
0.0
 10
39.34296082196069
 20
172.7960501276668
 30
0.0
 10
38.96491250220763
 20
172.1841806700948
 30
0.0
 10
38.59596635852412
 20
171.5662906783853
 30
0.0
 10
38.23612245876685
 20
170.942380830979
 30
0.0
 10
37.88538049071929
 20
170.3124493046806
 30
0.0
 10
37.44644973278765
 20
169.4953981556982
 30
0.0
 10
36.93180850766197
 20
168.4860425629413
 30
0.0
 10
36.35791728940849
 20
167.2778791619295
 30
0.0
 10
35.81894000611948
 20
166.0554544830517
 30
0.0
 10
35.31464843510175
 20
164.8188450550284
 30
0.0
 10
34.845912126097
 20
163.567793613358
 30
0.0
 10
34.40948223354117
 20
162.3032680711546
 30
0.0
 10
34.1485017457702
 20
161.4499358587005
 30
0.0
 10
34.01788145233204
 20
161.0228445273025
 30
0.0
  0
ARC
  5
D1
330
1F
100
AcDbEntity
  8
0
  6
Continuous
 62
     7
370
    15
100
AcDbCircle
 10
79.6321828673
 20
147.4728445273
 30
0.0
 40
47.86715728752539
100
AcDbArc
 50
196.2976619617
 51
343.7023380383
  0
ARC
  5
D2
330
1F
100
AcDbEntity
  8
0
  6
Continuous
 62
     7
370
    15
100
AcDbCircle
 10
79.6321828673
 20
147.4728445273
 30
0.0
 40
47.86715728752542
100
AcDbArc
 50
16.2976619617
 51
128.8096103904
  0
ARC
  5
D3
330
1F
100
AcDbEntity
  8
0
  6
Continuous
 62
     7
370
    15
100
AcDbCircle
 10
79.6321828673
 20
147.4728445273
 30
0.0
 40
47.86715728752538
100
AcDbArc
 50
141.1903896096
 51
163.7023380383
  0
ARC
  5
D4
330
1F
100
AcDbEntity
  8
0
  6
Continuous
 62
     7
370
    15
100
AcDbCircle
 10
79.6321828673
 20
147.4728445273
 30
0.0
 40
48.63284271247462
100
AcDbArc
 50
141.9122882504
 51
164.0342140175
  0
ARC
  5
D5
330
1F
100
AcDbEntity
  8
0
  6
Continuous
 62
     7
370
    15
100
AcDbCircle
 10
79.6321828673
 20
147.4728445273
 30
0.0
 40
48.63284271247462
100
AcDbArc
 50
128.0877117496
 51
141.9122882504
  0
ARC
  5
D6
330
1F
100
AcDbEntity
  8
0
  6
Continuous
 62
     7
370
    15
100
AcDbCircle
 10
79.6321828673
 20
147.4728445273
 30
0.0
 40
48.63284271247465
100
AcDbArc
 50
15.8741097166
 51
128.0877117496
  0
ARC
  5
D7
330
1F
100
AcDbEntity
  8
0
  6
Continuous
 62
     7
370
    15
100
AcDbCircle
 10
79.6321828673
 20
147.4728445273
 30
0.0
 40
48.63284271247462
100
AcDbArc
 50
344.1258902834
 51
15.8741097166
  0
ARC
  5
D8
330
1F
100
AcDbEntity
  8
0
  6
Continuous
 62
     7
370
    15
100
AcDbCircle
 10
79.6321828673
 20
147.4728445273
 30
0.0
 40
48.63284271247462
100
AcDbArc
 50
195.9657859825
 51
344.1258902834
  0
ARC
  5
D9
330
1F
100
AcDbEntity
  8
0
  6
Continuous
 62
     7
370
    15
100
AcDbCircle
 10
79.6321828673
 20
147.4728445273
 30
0.0
 40
48.63284271247461
100
AcDbArc
 50
164.0342140175
 51
195.9657859825
  0
ARC
  5
DA
330
1F
100
AcDbEntity
  8
0
  6
Continuous
 62
     7
370
    15
100
AcDbCircle
 10
79.6321828673
 20
147.4728445273
 30
0.0
 40
48.75000000000001
100
AcDbArc
 50
127.9798724449
 51
142.0201275551
  0
SPLINE
  5
DB
330
1F
100
AcDbEntity
  8
0
  6
Continuous
 62
     7
370
    15
100
AcDbSpline
210
0.0
220
0.0
230
1.0
 70
    24
 71
     3
 72
     8
 73
     4
 74
     0
 42
0.000000001
 43
0.00000001
 40
0.0
 40
0.0
 40
0.0
 40
0.0
 40
1.0
 40
1.0
 40
1.0
 40
1.0
 10
49.63218286732018
 20
185.898909899651
 30
0.0
 10
49.63218286732018
 20
185.898909899651
 30
0.0
 10
49.63218286732017
 20
185.8373943512196
 30
0.0
 10
49.63218286732017
 20
185.7501666684385
 30
0.0
  0
SPLINE
  5
DC
330
1F
100
AcDbEntity
  8
0
  6
Continuous
 62
     7
370
    15
100
AcDbSpline
210
0.0
220
0.0
230
1.0
 70
    24
 71
     3
 72
     8
 73
     4
 74
     0
 42
0.000000001
 43
0.00000001
 40
0.0
 40
0.0
 40
0.0
 40
0.0
 40
1.0
 40
1.0
 40
1.0
 40
1.0
 10
41.35486072618423
 20
177.4728445273025
 30
0.0
 10
41.26758630997015
 20
177.4728445273025
 30
0.0
 10
41.20611749497166
 20
177.4728445273024
 30
0.0
 10
41.20611749497165
 20
177.4728445273024
 30
0.0
  0
SPLINE
  5
DD
330
1F
100
AcDbEntity
  8
0
  6
Continuous
 62
     7
370
    15
100
AcDbSpline
210
0.0
220
0.0
230
1.0
 70
    24
 71
     3
 72
     8
 73
     4
 74
     0
 42
0.000000001
 43
0.00000001
 40
0.0
 40
0.0
 40
0.0
 40
0.0
 40
1.0
 40
1.0
 40
1.0
 40
1.0
 10
126.5052113215288
 20
160.8699226987152
 30
0.0
 10
126.5052113215288
 20
160.8699226987152
 30
0.0
 10
126.4681147284626
 20
160.832826105649
 30
0.0
 10
126.4104123903656
 20
160.775123767552
 30
0.0
  0
ARC
  5
DE
330
1F
100
AcDbEntity
  8
0
  6
Continuous
 62
     7
370
    15
100
AcDbCircle
 10
79.6321828673
 20
147.4728445273
 30
0.0
 40
48.75000000000002
100
AcDbArc
 50
344.0491974398
 51
15.9508025602
  0
SPLINE
  5
DF
330
1F
100
AcDbEntity
  8
0
  6
Continuous
 62
     7
370
    15
100
AcDbSpline
210
0.0
220
0.0
230
1.0
 70
    24
 71
     3
 72
     8
 73
     4
 74
     0
 42
0.000000001
 43
0.00000001
 40
0.0
 40
0.0
 40
0.0
 40
0.0
 40
1.0
 40
1.0
 40
1.0
 40
1.0
 10
126.5052113215288
 20
134.0757663558898
 30
0.0
 10
126.5052113215288
 20
134.0757663558898
 30
0.0
 10
126.4681147284626
 20
134.112862948956
 30
0.0
 10
126.4104123903656
 20
134.170565287053
 30
0.0
  0
SPLINE
  5
E0
330
1F
100
AcDbEntity
  8
0
  6
Continuous
 62
     7
370
    15
100
AcDbSpline
210
0.0
220
0.0
230
1.0
 70
    24
 71
     3
 72
    10
 73
     6
 74
     0
 42
0.000000001
 43
0.00000001
 40
0.0
 40
0.0
 40
0.0
 40
0.0
 40
0.5
 40
0.5
 40
1.0
 40
1.0
 40
1.0
 40
1.0
 10
32.87529756289576
 20
134.0957347151944
 30
0.0
 10
32.85235604265866
 20
134.0555413829312
 30
0.0
 10
32.83223495243908
 20
134.0202894180946
 30
0.0
 10
32.80296567838253
 20
133.9690099193909
 30
0.0
 10
32.79421908086876
 20
133.9536859610652
 30
0.0
 10
32.79421908086876
 20
133.9536859610652
 30
0.0
  0
ARC
  5
E1
330
1F
100
AcDbEntity
  8
0
  6
Continuous
 62
     7
370
    15
100
AcDbCircle
 10
79.6321828673
 20
147.4728445273
 30
0.0
 40
48.74999999999999
100
AcDbArc
 50
163.8999153276
 51
196.1000846724
  0
SPLINE
  5
E2
330
1F
100
AcDbEntity
  8
0
  6
Continuous
 62
     7
370
    15
100
AcDbSpline
210
0.0
220
0.0
230
1.0
 70
    24
 71
     3
 72
    10
 73
     6
 74
     0
 42
0.000000001
 43
0.00000001
 40
0.0
 40
0.0
 40
0.0
 40
0.0
 40
0.5
 40
0.5
 40
1.0
 40
1.0
 40
1.0
 40
1.0
 10
32.87529756289578
 20
160.8499543394106
 30
0.0
 10
32.85235604265866
 20
160.8901476716738
 30
0.0
 10
32.83223495243908
 20
160.9253996365105
 30
0.0
 10
32.80296567838253
 20
160.9766791352141
 30
0.0
 10
32.79421908086878
 20
160.9920030935398
 30
0.0
 10
32.79421908086879
 20
160.9920030935398
 30
0.0
  0
ARC
  5
E3
330
1F
100
AcDbEntity
  8
0
  6
Continuous
 62
     7
370
    15
100
AcDbCircle
 10
79.6321828673
 20
147.4728445273
 30
0.0
 40
48.75000000000002
100
AcDbArc
 50
196.1000846724
 51
344.0491974398
  0
ARC
  5
E4
330
1F
100
AcDbEntity
  8
0
  6
Continuous
 62
     7
370
    15
100
AcDbCircle
 10
79.6321828673
 20
147.4728445273
 30
0.0
 40
48.74999999999999
100
AcDbArc
 50
142.0201275551
 51
163.8999153276
  0
ARC
  5
E5
330
1F
100
AcDbEntity
  8
0
  6
Continuous
 62
     7
370
    15
100
AcDbCircle
 10
79.6321828673
 20
147.4728445273
 30
0.0
 40
48.75000000000001
100
AcDbArc
 50
15.9508025602
 51
127.9798724449
  0
ARC
  5
E6
330
1F
100
AcDbEntity
  8
0
  6
Continuous
 62
     7
370
    15
100
AcDbCircle
 10
79.6321828673
 20
147.4728445273
 30
0.0
 40
48.74999999999999
100
AcDbArc
 50
180.0
 51
196.1000846724
  0
ARC
  5
E7
330
1F
100
AcDbEntity
  8
0
  6
Continuous
 62
     7
370
    15
100
AcDbCircle
 10
79.6321828673
 20
147.4728445273
 30
0.0
 40
48.74999999999999
100
AcDbArc
 50
163.8999153276
 51
180.0
  0
INSERT
  5
F3
330
1F
100
AcDbEntity
  8
DIM
100
AcDbBlockReference
  2
SW_CENTERMARKSYMBOL_0
 10
79.6321828673
 20
147.4728445273
 30
0.0
  0
LINE
  5
F4
330
1F
100
AcDbEntity
  8
0
  6
Continuous
 62
     7
370
    15
100
AcDbLine
 10
267.6098866135
 20
98.7228445273
 30
0.0
 11
271.1966059244
 21
98.7228445273
 31
0.0
  0
LINE
  5
F5
330
1F
100
AcDbEntity
  8
0
  6
Continuous
 62
     7
370
    15
100
AcDbLine
 10
271.1966059244
 20
196.2228445273
 30
0.0
 11
267.6098866135
 21
196.2228445273
 31
0.0
  0
LINE
  5
F6
330
1F
100
AcDbEntity
  8
0
  6
Continuous
 62
     7
370
    15
100
AcDbLine
 10
267.6098866135
 20
196.2228445273
 30
0.0
 11
266.2622913493
 21
193.8887410617
 31
0.0
  0
LINE
  5
F7
330
1F
100
AcDbEntity
  8
0
  6
Continuous
 62
     7
370
    15
100
AcDbLine
 10
266.2622913493
 20
101.0569479929
 30
0.0
 11
267.6098866135
 21
98.7228445273
 31
0.0
  0
LINE
  5
F8
330
1F
100
AcDbEntity
  8
0
  6
Continuous
 62
     7
370
    15
100
AcDbLine
 10
261.1146960852
 20
98.7228445273
 30
0.0
 11
262.4622913493
 21
101.0569479929
 31
0.0
  0
LINE
  5
F9
330
1F
100
AcDbEntity
  8
0
  6
Continuous
 62
     7
370
    15
100
AcDbLine
 10
262.4622913493
 20
193.8887410617
 30
0.0
 11
261.1146960852
 21
196.2228445273
 31
0.0
  0
LINE
  5
FA
330
1F
100
AcDbEntity
  8
0
  6
Continuous
 62
     7
370
    15
100
AcDbLine
 10
257.6279767743
 20
98.7228445273
 30
0.0
 11
261.1146960852
 21
98.7228445273
 31
0.0
  0
LINE
  5
FB
330
1F
100
AcDbEntity
  8
0
  6
Continuous
 62
     7
370
    15
100
AcDbLine
 10
261.1146960852
 20
196.2228445273
 30
0.0
 11
257.6279767743
 21
196.2228445273
 31
0.0
  0
LINE
  5
FC
330
1F
100
AcDbEntity
  8
0
  6
Continuous
 62
     7
370
    15
100
AcDbLine
 10
271.4794486369
 20
98.8400018148
 30
0.0
 11
272.2451340618
 21
99.6056872398
 31
0.0
  0
LINE
  5
FD
330
1F
100
AcDbEntity
  8
0
  6
Continuous
 62
     7
370
    15
100
AcDbLine
 10
272.2451340618
 20
195.3400018148
 30
0.0
 11
271.4794486369
 21
196.1056872398
 31
0.0
  0
LINE
  5
FE
330
1F
100
AcDbEntity
  8
0
  6
Continuous
 62
     7
370
    15
100
AcDbLine
 10
257.3451340618
 20
196.1056872398
 30
0.0
 11
256.5794486369
 21
195.3400018148
 31
0.0
  0
LINE
  5
FF
330
1F
100
AcDbEntity
  8
0
  6
Continuous
 62
     7
370
    15
100
AcDbLine
 10
256.5794486369
 20
99.6056872398
 30
0.0
 11
257.3451340618
 21
98.8400018148
 31
0.0
  0
ARC
  5
100
330
1F
100
AcDbEntity
  8
0
  6
Continuous
 62
     7
370
    15
100
AcDbCircle
 10
271.1966059244
 20
99.1228445273
 30
0.0
 40
0.4000000000000093
100
AcDbArc
 50
270.0
 51
315.0
  0
ARC
  5
101
330
1F
100
AcDbEntity
  8
0
  6
Continuous
 62
     7
370
    15
100
AcDbCircle
 10
257.6279767743
 20
99.1228445273
 30
0.0
 40
0.4000000000000093
100
AcDbArc
 50
225.0
 51
270.0
  0
ARC
  5
102
330
1F
100
AcDbEntity
  8
0
  6
Continuous
 62
     7
370
    15
100
AcDbCircle
 10
271.1966059244
 20
195.8228445273
 30
0.0
 40
0.4000000000000193
100
AcDbArc
 50
45.0
 51
90.0
  0
ARC
  5
103
330
1F
100
AcDbEntity
  8
0
  6
Continuous
 62
     7
370
    15
100
AcDbCircle
 10
257.6279767743
 20
195.8228445273
 30
0.0
 40
0.4000000000000193
100
AcDbArc
 50
90.0
 51
135.0
  0
ARC
  5
104
330
1F
100
AcDbEntity
  8
0
  6
Continuous
 62
     7
370
    15
100
AcDbCircle
 10
271.9622913493
 20
99.8885299523
 30
0.0
 40
0.4000000000000341
100
AcDbArc
 50
315.0
 51
0.0
  0
ARC
  5
105
330
1F
100
AcDbEntity
  8
0
  6
Continuous
 62
     7
370
    15
100
AcDbCircle
 10
271.9622913493
 20
195.0571591024
 30
0.0
 40
0.4000000000000341
100
AcDbArc
 50
0.0
 51
45.0
  0
ARC
  5
106
330
1F
100
AcDbEntity
  8
0
  6
Continuous
 62
     7
370
    15
100
AcDbCircle
 10
256.8622913493
 20
99.8885299523
 30
0.0
 40
0.4000000000000341
100
AcDbArc
 50
180.0
 51
225.0
  0
ARC
  5
107
330
1F
100
AcDbEntity
  8
0
  6
Continuous
 62
     7
370
    15
100
AcDbCircle
 10
256.8622913493
 20
195.0571591024
 30
0.0
 40
0.4000000000000341
100
AcDbArc
 50
135.0
 51
180.0
  0
LINE
  5
108
330
1F
100
AcDbEntity
  8
0
  6
Continuous
 62
     7
370
    15
100
AcDbLine
 10
262.4622913493
 20
101.9728445273
 30
0.0
 11
266.2622913493
 21
101.9728445273
 31
0.0
  0
LINE
  5
109
330
1F
100
AcDbEntity
  8
0
  6
Continuous
 62
     7
370
    15
100
AcDbLine
 10
266.2622913493
 20
192.9728445273
 30
0.0
 11
262.4622913493
 21
192.9728445273
 31
0.0
  0
ARC
  5
10A
330
1F
100
AcDbEntity
  8
0
  6
Continuous
 62
     7
370
    15
100
AcDbCircle
 10
255.9622913493
 20
112.4728445273
 30
0.0
 40
0.5000000000000284
100
AcDbArc
 50
0.0
 51
90.0
  0
ARC
  5
10B
330
1F
100
AcDbEntity
  8
0
  6
Continuous
 62
     7
370
    15
100
AcDbCircle
 10
255.9622913493
 20
182.4728445273
 30
0.0
 40
0.5000000000000284
100
AcDbArc
 50
270.0
 51
0.0
  0
LINE
  5
10C
330
1F
100
AcDbEntity
  8
0
  6
Continuous
 62
     7
370
    15
100
AcDbLine
 10
253.2622913493
 20
182.3978445273
 30
0.0
 11
152.3679831221
 21
167.6839523143
 31
0.0
  0
LINE
  5
10D
330
1F
100
AcDbEntity
  8
0
  6
Continuous
 62
     7
370
    15
100
AcDbLine
 10
152.3679831221
 20
127.2617367403
 30
0.0
 11
253.2622913493
 21
112.5478445273
 31
0.0
  0
LINE
  5
10E
330
1F
100
AcDbEntity
  8
0
  6
Continuous
 62
     7
370
    15
100
AcDbLine
 10
253.2622913493
 20
112.5478445273
 30
0.0
 11
254.1737067906
 21
112.9728445273
 31
0.0
  0
LINE
  5
10F
330
1F
100
AcDbEntity
  8
0
  6
Continuous
 62
     7
370
    15
100
AcDbLine
 10
254.1737067906
 20
181.9728445273
 30
0.0
 11
253.2622913493
 21
182.3978445273
 31
0.0
  0
LINE
  5
110
330
1F
100
AcDbEntity
  8
0
  6
Continuous
 62
     7
370
    15
100
AcDbLine
 10
254.1737067906
 20
112.9728445273
 30
0.0
 11
255.9622913493
 21
112.9728445273
 31
0.0
  0
LINE
  5
111
330
1F
100
AcDbEntity
  8
0
  6
Continuous
 62
     7
370
    15
100
AcDbLine
 10
255.9622913493
 20
181.9728445273
 30
0.0
 11
254.1737067906
 21
181.9728445273
 31
0.0
  0
ARC
  5
112
330
1F
100
AcDbEntity
  8
0
  6
Continuous
 62
     7
370
    15
100
AcDbCircle
 10
275.3622913493
 20
179.4728445273
 30
0.0
 40
3.0
100
AcDbArc
 50
180.0
 51
270.0
  0
ARC
  5
113
330
1F
100
AcDbEntity
  8
0
  6
Continuous
 62
     7
370
    15
100
AcDbCircle
 10
275.3622913493
 20
115.4728445273
 30
0.0
 40
3.0
100
AcDbArc
 50
90.0
 51
180.0
  0
LINE
  5
114
330
1F
100
AcDbEntity
  8
0
  6
Continuous
 62
     7
370
    15
100
AcDbLine
 10
297.2622913493
 20
118.4728445273
 30
0.0
 11
298.2622913493
 21
119.4728445273
 31
0.0
  0
LINE
  5
115
330
1F
100
AcDbEntity
  8
0
  6
Continuous
 62
     7
370
    15
100
AcDbLine
 10
298.2622913493
 20
175.4728445273
 30
0.0
 11
297.2622913493
 21
176.4728445273
 31
0.0
  0
LINE
  5
116
330
1F
100
AcDbEntity
  8
0
  6
Continuous
 62
     7
370
    15
100
AcDbLine
 10
275.3622913493
 20
118.4728445273
 30
0.0
 11
297.2622913493
 21
118.4728445273
 31
0.0
  0
LINE
  5
117
330
1F
100
AcDbEntity
  8
0
  6
Continuous
 62
     7
370
    15
100
AcDbLine
 10
297.2622913493
 20
176.4728445273
 30
0.0
 11
275.3622913493
 21
176.4728445273
 31
0.0
  0
ARC
  5
118
330
1F
100
AcDbEntity
  8
0
  6
Continuous
 62
     7
370
    15
100
AcDbCircle
 10
152.5122913493
 20
128.2512695268
 30
0.0
 40
1.000000000000028
100
AcDbArc
 50
180.0
 51
261.7027777778
  0
ARC
  5
119
330
1F
100
AcDbEntity
  8
0
  6
Continuous
 62
     7
370
    15
100
AcDbCircle
 10
152.5122913493
 20
166.6944195278
 30
0.0
 40
1.000000000000028
100
AcDbArc
 50
98.2972222222
 51
180.0
  0
LINE
  5
11A
330
1F
100
AcDbEntity
  8
0
  6
Continuous
 62
     7
370
    15
100
AcDbLine
 10
330.2622913493
 20
129.9728445273
 30
0.0
 11
331.2622913493
 21
130.9728445273
 31
0.0
  0
LINE
  5
11B
330
1F
100
AcDbEntity
  8
0
  6
Continuous
 62
     7
370
    15
100
AcDbLine
 10
331.2622913493
 20
163.9728445273
 30
0.0
 11
330.2622913493
 21
164.9728445273
 31
0.0
  0
LINE
  5
11C
330
1F
100
AcDbEntity
  8
0
  6
Continuous
 62
     7
370
    15
100
AcDbLine
 10
323.2622913493
 20
129.9728445273
 30
0.0
 11
330.2622913493
 21
129.9728445273
 31
0.0
  0
LINE
  5
11D
330
1F
100
AcDbEntity
  8
0
  6
Continuous
 62
     7
370
    15
100
AcDbLine
 10
330.2622913493
 20
164.9728445273
 30
0.0
 11
323.2622913493
 21
164.9728445273
 31
0.0
  0
LINE
  5
11E
330
1F
100
AcDbEntity
  8
0
  6
Continuous
 62
     7
370
    15
100
AcDbLine
 10
323.2622913493
 20
164.9728445273
 30
0.0
 11
322.2622913493
 21
163.9728445273
 31
0.0
  0
LINE
  5
11F
330
1F
100
AcDbEntity
  8
0
  6
Continuous
 62
     7
370
    15
100
AcDbLine
 10
322.2622913493
 20
130.9728445273
 30
0.0
 11
323.2622913493
 21
129.9728445273
 31
0.0
  0
LINE
  5
120
330
1F
100
AcDbEntity
  8
0
  6
Continuous
 62
     7
370
    15
100
AcDbLine
 10
318.7715436205
 20
133.9728445273
 30
0.0
 11
319.2622913493
 21
134.8228445273
 31
0.0
  0
LINE
  5
121
330
1F
100
AcDbEntity
  8
0
  6
Continuous
 62
     7
370
    15
100
AcDbLine
 10
319.2622913493
 20
160.1228445273
 30
0.0
 11
318.7715436205
 21
160.9728445273
 31
0.0
  0
LINE
  5
122
330
1F
100
AcDbEntity
  8
0
  6
Continuous
 62
     7
370
    15
100
AcDbLine
 10
298.2622913493
 20
133.9728445273
 30
0.0
 11
318.7715436205
 21
133.9728445273
 31
0.0
  0
LINE
  5
123
330
1F
100
AcDbEntity
  8
0
  6
Continuous
 62
     7
370
    15
100
AcDbLine
 10
318.7715436205
 20
160.9728445273
 30
0.0
 11
298.2622913493
 21
160.9728445273
 31
0.0
  0
ARC
  5
124
330
1F
100
AcDbEntity
  8
0
  6
Continuous
 62
     7
370
    15
100
AcDbCircle
 10
321.7622913493
 20
140.9728445273
 30
0.0
 40
0.5
100
AcDbArc
 50
0.0
 51
90.0
  0
ARC
  5
125
330
1F
100
AcDbEntity
  8
0
  6
Continuous
 62
     7
370
    15
100
AcDbCircle
 10
321.7622913493
 20
153.9728445273
 30
0.0
 40
0.5000000000000284
100
AcDbArc
 50
270.0
 51
0.0
  0
LINE
  5
126
330
1F
100
AcDbEntity
  8
0
  6
Continuous
 62
     7
370
    15
100
AcDbLine
 10
319.2622913493
 20
141.4728445273
 30
0.0
 11
321.7622913493
 21
141.4728445273
 31
0.0
  0
LINE
  5
127
330
1F
100
AcDbEntity
  8
0
  6
Continuous
 62
     7
370
    15
100
AcDbLine
 10
321.7622913493
 20
153.4728445273
 30
0.0
 11
319.2622913493
 21
153.4728445273
 31
0.0
  0
LINE
  5
128
330
1F
100
AcDbEntity
  8
0
  6
Continuous
 62
     7
370
    15
100
AcDbLine
 10
271.1966059244
 20
160.8699226987
 30
0.0
 11
271.1966059244
 21
134.0757663559
 31
0.0
  0
LINE
  5
129
330
1F
100
AcDbEntity
  8
0
  6
Continuous
 62
     7
370
    15
100
AcDbLine
 10
267.6098866135
 20
98.7228445273
 30
0.0
 11
267.6098866135
 21
196.2228445273
 31
0.0
  0
SPLINE
  5
12A
330
1F
100
AcDbEntity
  8
0
  6
Continuous
 62
     7
370
    15
100
AcDbSpline
210
0.0
220
0.0
230
1.0
 70
     8
 71
     3
 72
     8
 73
     4
 74
     0
 42
0.000000001
 43
0.00000001
 40
0.0
 40
0.0
 40
0.0
 40
0.0
 40
1.0
 40
1.0
 40
1.0
 40
1.0
 10
271.1966059243967
 20
160.8699226987152
 30
0.0
 10
271.3051229158478
 20
160.8699226987152
 30
0.0
 10
271.4081637677102
 20
160.832826105649
 30
0.0
 10
271.4794486368714
 20
160.775123767552
 30
0.0
  0
LINE
  5
12B
330
1F
100
AcDbEntity
  8
0
  6
Continuous
 62
     7
370
    15
100
AcDbLine
 10
271.4794486369
 20
160.7751237676
 30
0.0
 11
271.4794486369
 21
134.1705652871
 31
0.0
  0
SPLINE
  5
12C
330
1F
100
AcDbEntity
  8
0
  6
Continuous
 62
     7
370
    15
100
AcDbSpline
210
0.0
220
0.0
230
1.0
 70
     8
 71
     3
 72
     8
 73
     4
 74
     0
 42
0.000000001
 43
0.00000001
 40
0.0
 40
0.0
 40
0.0
 40
0.0
 40
1.0
 40
1.0
 40
1.0
 40
1.0
 10
271.4794486368714
 20
134.170565287053
 30
0.0
 10
271.4081328246894
 20
134.1128379017803
 30
0.0
 10
271.3052316670527
 20
134.0757663558898
 30
0.0
 10
271.1966059243968
 20
134.0757663558898
 30
0.0
  0
LINE
  5
12D
330
1F
100
AcDbEntity
  8
0
  6
Continuous
 62
     7
370
    15
100
AcDbLine
 10
266.2622913493
 20
193.8887410617
 30
0.0
 11
266.2622913493
 21
101.0569479929
 31
0.0
  0
LINE
  5
12E
330
1F
100
AcDbEntity
  8
0
  6
Continuous
 62
     7
370
    15
100
AcDbLine
 10
262.4622913493
 20
147.4728445273
 30
0.0
 11
262.4622913493
 21
193.8887410617
 31
0.0
  0
LINE
  5
12F
330
1F
100
AcDbEntity
  8
0
  6
Continuous
 62
     7
370
    15
100
AcDbLine
 10
262.4622913493
 20
101.0569479929
 30
0.0
 11
262.4622913493
 21
147.4728445273
 31
0.0
  0
LINE
  5
130
330
1F
100
AcDbEntity
  8
0
  6
Continuous
 62
     7
370
    15
100
AcDbLine
 10
261.1146960852
 20
147.4728445273
 30
0.0
 11
261.1146960852
 21
196.2228445273
 31
0.0
  0
LINE
  5
131
330
1F
100
AcDbEntity
  8
0
  6
Continuous
 62
     7
370
    15
100
AcDbLine
 10
261.1146960852
 20
98.7228445273
 30
0.0
 11
261.1146960852
 21
147.4728445273
 31
0.0
  0
LINE
  5
132
330
1F
100
AcDbEntity
  8
0
  6
Continuous
 62
     7
370
    15
100
AcDbLine
 10
257.6279767743
 20
160.8699226987
 30
0.0
 11
257.6279767743
 21
134.0757663559
 31
0.0
  0
LINE
  5
133
330
1F
100
AcDbEntity
  8
0
  6
Continuous
 62
     7
370
    15
100
AcDbLine
 10
257.3451340618
 20
160.7751237676
 30
0.0
 11
257.3451340618
 21
134.1705652871
 31
0.0
  0
SPLINE
  5
134
330
1F
100
AcDbEntity
  8
0
  6
Continuous
 62
     7
370
    15
100
AcDbSpline
210
0.0
220
0.0
230
1.0
 70
     8
 71
     3
 72
     8
 73
     4
 74
     0
 42
0.000000001
 43
0.00000001
 40
0.0
 40
0.0
 40
0.0
 40
0.0
 40
1.0
 40
1.0
 40
1.0
 40
1.0
 10
257.6279767742952
 20
160.8699226987152
 30
0.0
 10
257.5194597828442
 20
160.8699226987152
 30
0.0
 10
257.4164189309819
 20
160.832826105649
 30
0.0
 10
257.3451340618206
 20
160.775123767552
 30
0.0
  0
SPLINE
  5
135
330
1F
100
AcDbEntity
  8
0
  6
Continuous
 62
     7
370
    15
100
AcDbSpline
210
0.0
220
0.0
230
1.0
 70
     8
 71
     3
 72
     8
 73
     4
 74
     0
 42
0.000000001
 43
0.00000001
 40
0.0
 40
0.0
 40
0.0
 40
0.0
 40
1.0
 40
1.0
 40
1.0
 40
1.0
 10
257.6279767742952
 20
134.0757663558898
 30
0.0
 10
257.5194597828442
 20
134.0757663558898
 30
0.0
 10
257.4164189309819
 20
134.112862948956
 30
0.0
 10
257.3451340618206
 20
134.170565287053
 30
0.0
  0
LINE
  5
136
330
1F
100
AcDbEntity
  8
0
  6
Continuous
 62
     7
370
    15
100
AcDbLine
 10
272.2451340618
 20
160.3228445273
 30
0.0
 11
272.2451340618
 21
134.6228445273
 31
0.0
  0
LINE
  5
137
330
1F
100
AcDbEntity
  8
0
  6
Continuous
 62
     7
370
    15
100
AcDbLine
 10
256.5794486369
 20
160.9056872398
 30
0.0
 11
256.5794486369
 21
134.0400018148
 31
0.0
  0
SPLINE
  5
138
330
1F
100
AcDbEntity
  8
0
  6
Continuous
 62
     7
370
    15
100
AcDbSpline
210
0.0
220
0.0
230
1.0
 70
    24
 71
     3
 72
     8
 73
     4
 74
     0
 42
0.000000001
 43
0.00000001
 40
0.0
 40
0.0
 40
0.0
 40
0.0
 40
1.0
 40
1.0
 40
1.0
 40
1.0
 10
272.362291349346
 20
160.3228445273025
 30
0.0
 10
272.362291349346
 20
160.3228445273025
 30
0.0
 10
272.3207476153935
 20
160.3228445273025
 30
0.0
 10
272.2451340618206
 20
160.3228445273025
 30
0.0
  0
LINE
  5
139
330
1F
100
AcDbEntity
  8
0
  6
Continuous
 62
     7
370
    15
100
AcDbLine
 10
272.3622913493
 20
160.3228445273
 30
0.0
 11
272.3622913493
 21
134.6228445273
 31
0.0
  0
SPLINE
  5
13A
330
1F
100
AcDbEntity
  8
0
  6
Continuous
 62
     7
370
    15
100
AcDbSpline
210
0.0
220
0.0
230
1.0
 70
    24
 71
     3
 72
     8
 73
     4
 74
     0
 42
0.000000001
 43
0.00000001
 40
0.0
 40
0.0
 40
0.0
 40
0.0
 40
1.0
 40
1.0
 40
1.0
 40
1.0
 10
272.2451340618206
 20
134.6228445273025
 30
0.0
 10
272.3207220925752
 20
134.6228445273025
 30
0.0
 10
272.3622913493459
 20
134.6228445273025
 30
0.0
 10
272.362291349346
 20
134.6228445273025
 30
0.0
  0
LINE
  5
13B
330
1F
100
AcDbEntity
  8
0
  6
Continuous
 62
     7
370
    15
100
AcDbLine
 10
256.4622913493
 20
161.0228445273
 30
0.0
 11
256.4622913493
 21
133.9228445273
 31
0.0
  0
SPLINE
  5
13C
330
1F
100
AcDbEntity
  8
0
  6
Continuous
 62
     7
370
    15
100
AcDbSpline
210
0.0
220
0.0
230
1.0
 70
    24
 71
     3
 72
    10
 73
     6
 74
     0
 42
0.000000001
 43
0.00000001
 40
0.0
 40
0.0
 40
0.0
 40
0.0
 40
0.5
 40
0.5
 40
1.0
 40
1.0
 40
1.0
 40
1.0
 10
256.462291349346
 20
161.0228445273025
 30
0.0
 10
256.462291349346
 20
161.0228445273025
 30
0.0
 10
256.4761372253708
 20
161.0089986512777
 30
0.0
 10
256.5183030015582
 20
160.9668328750903
 30
0.0
 10
256.5467937018213
 20
160.9383421748273
 30
0.0
 10
256.5794486368715
 20
160.9056872397772
 30
0.0
  0
SPLINE
  5
13D
330
1F
100
AcDbEntity
  8
0
  6
Continuous
 62
     7
370
    15
100
AcDbSpline
210
0.0
220
0.0
230
1.0
 70
    24
 71
     3
 72
    10
 73
     6
 74
     0
 42
0.000000001
 43
0.00000001
 40
0.0
 40
0.0
 40
0.0
 40
0.0
 40
0.5
 40
0.5
 40
1.0
 40
1.0
 40
1.0
 40
1.0
 10
256.5794486368714
 20
134.0400018148279
 30
0.0
 10
256.5468155758541
 20
134.0073687538106
 30
0.0
 10
256.5188346895879
 20
133.9793878675444
 30
0.0
 10
256.4761778392129
 20
133.9367310171694
 30
0.0
 10
256.462291349346
 20
133.9228445273025
 30
0.0
 10
256.462291349346
 20
133.9228445273025
 30
0.0
  0
SPLINE
  5
13E
330
1F
100
AcDbEntity
  8
0
  6
Continuous
 62
     7
370
    15
100
AcDbSpline
210
0.0
220
0.0
230
1.0
 70
    24
 71
     3
 72
    36
 73
    32
 74
     0
 42
0.000000001
 43
0.00000001
 40
0.0
 40
0.0
 40
0.0
 40
0.0
 40
0.010855060115309
 40
0.021700603247601
 40
0.0325387683476148
 40
0.0433716987364442
 40
0.0542015408431699
 40
0.0650304429332853
 40
0.0758605538316704
 40
0.0866940216439018
 40
0.0975329924797007
 40
0.1083796091823073
 40
0.1192360100675244
 40
0.181247834122235
 40
0.2432679244012066
 40
0.3069990489490812
 40
0.370738668921532
 40
0.4353656024873025
 40
0.5000011508910791
 40
0.5646280845655833
 40
0.6292636330748704
 40
0.6929947579300935
 40
0.7567343782029041
 40
0.8187462027125846
 40
0.8807662934441524
 40
0.9006583299602414
 40
0.9205248324912559
 40
0.9403790153804057
 40
0.9602341175685198
 40
0.9801033761588329
 40
1.0
 40
1.0
 40
1.0
 40
1.0
 10
272.362291349346
 20
134.6228445273025
 30
0.0
 10
272.362291349346
 20
134.4080576529402
 30
0.0
 10
272.362291349346
 20
133.9786722148297
 30
0.0
 10
272.362291349346
 20
133.3381757047292
 30
0.0
 10
272.362291349346
 20
132.7007254933004
 30
0.0
 10
272.362291349346
 20
132.0665518388281
 30
0.0
 10
272.362291349346
 20
131.4355932068399
 30
0.0
 10
272.362291349346
 20
130.8078661382556
 30
0.0
 10
272.362291349346
 20
130.1833664191769
 30
0.0
 10
272.362291349346
 20
129.5620948136518
 30
0.0
 10
272.362291349346
 20
128.9440529143469
 30
0.0
 10
272.362291349346
 20
128.3292340022054
 30
0.0
 10
272.362291349346
 20
126.7573763455467
 30
0.0
 10
272.362291349346
 20
124.2777270515145
 30
0.0
 10
272.362291349346
 20
120.9790539930415
 30
0.0
 10
272.362291349346
 20
117.8256770678605
 30
0.0
 10
272.362291349346
 20
114.833604359294
 30
0.0
 10
272.362291349346
 20
112.0528581506785
 30
0.0
 10
272.362291349346
 20
109.5095588436022
 30
0.0
 10
272.362291349346
 20
107.231547358534
 30
0.0
 10
272.362291349346
 20
105.2471148628152
 30
0.0
 10
272.362291349346
 20
103.5623616257452
 30
0.0
 10
272.362291349346
 20
102.1995011321944
 30
0.0
 10
272.362291349346
 20
101.1473228115387
 30
0.0
 10
272.362291349346
 20
100.5738213594841
 30
0.0
 10
272.362291349346
 20
100.2777939588002
 30
0.0
 10
272.362291349346
 20
100.1357788733544
 30
0.0
 10
272.362291349346
 20
100.0251766807927
 30
0.0
 10
272.362291349346
 20
99.94674715157869
 30
0.0
 10
272.362291349346
 20
99.89763103977398
 30
0.0
 10
272.362291349346
 20
99.89156503955009
 30
0.0
 10
272.362291349346
 20
99.88852995225174
 30
0.0
  0
SPLINE
  5
13F
330
1F
100
AcDbEntity
  8
0
  6
Continuous
 62
     7
370
    15
100
AcDbSpline
210
0.0
220
0.0
230
1.0
 70
    24
 71
     3
 72
    23
 73
    19
 74
     0
 42
0.000000001
 43
0.00000001
 40
0.0
 40
0.0
 40
0.0
 40
0.0
 40
0.049344142439785
 40
0.1126391337887782
 40
0.1752432992499413
 40
0.2371050695636289
 40
0.2989591199343767
 40
0.3615634382303971
 40
0.4248659973704123
 40
0.4891594850324235
 40
0.5537405807095876
 40
0.6185525319731143
 40
0.6833570688697037
 40
0.7479382231567704
 40
0.812239066728002
 40
0.8755340580753496
 40
0.9381401318495213
 40
1.0
 40
1.0
 40
1.0
 40
1.0
 10
272.362291349346
 20
195.0276710032693
 30
0.0
 10
272.362291349346
 20
195.0207239220402
 30
0.0
 10
272.362291349346
 20
195.0048656423472
 30
0.0
 10
272.362291349346
 20
194.5981142294326
 30
0.0
 10
272.362291349346
 20
193.8882990155394
 30
0.0
 10
272.362291349346
 20
192.8718920900398
 30
0.0
 10
272.362291349346
 20
191.5650226049196
 30
0.0
 10
272.362291349346
 20
189.9583105959556
 30
0.0
 10
272.362291349346
 20
188.0454654632464
 30
0.0
 10
272.362291349346
 20
185.8338995515891
 30
0.0
 10
272.362291349346
 20
183.3363933123088
 30
0.0
 10
272.362291349346
 20
180.5794701604819
 30
0.0
 10
272.362291349346
 20
177.5891528991418
 30
0.0
 10
272.362291349346
 20
174.3949255967862
 30
0.0
 10
272.362291349346
 20
171.0390459618228
 30
0.0
 10
272.362291349346
 20
167.5559616035507
 30
0.0
 10
272.362291349346
 20
163.9905511046825
 30
0.0
 10
272.362291349346
 20
161.5405171900425
 30
0.0
 10
272.362291349346
 20
160.3228445273025
 30
0.0
  0
SPLINE
  5
140
330
1F
100
AcDbEntity
  8
0
  6
Continuous
 62
     7
370
    15
100
AcDbSpline
210
0.0
220
0.0
230
1.0
 70
    24
 71
     3
 72
    36
 73
    32
 74
     0
 42
0.000000001
 43
0.00000001
 40
0.0
 40
0.0
 40
0.0
 40
0.0
 40
0.0108663901693764
 40
0.0217235992689927
 40
0.0325737239461297
 40
0.0434188649567969
 40
0.0542611259538548
 40
0.0651026122666534
 40
0.0759454296758007
 40
0.0867916831866139
 40
0.0976434758048303
 40
0.1085029073181251
 40
0.1193720730869558
 40
0.1813968254495411
 40
0.2434299782169203
 40
0.3071319268850098
 40
0.3708425031356519
 40
0.4354174425596918
 40
0.5000011278075956
 40
0.5645760673346892
 40
0.6291597526862437
 40
0.6928617016453169
 40
0.7565722781921671
 40
0.8185970309917204
 40
0.88063018420144
 40
0.9005456124940234
 40
0.9204355775907559
 40
0.9403130284544624
 40
0.9601909385042273
 40
0.9800822802606719
 40
1.0
 40
1.0
 40
1.0
 40
1.0
 10
256.462291349346
 20
99.88852995225174
 30
0.0
 10
256.462291349346
 20
99.88941099913363
 30
0.0
 10
256.462291349346
 20
99.89117234849628
 30
0.0
 10
256.462291349346
 20
99.90546759534298
 30
0.0
 10
256.462291349346
 20
99.92829649186835
 30
0.0
 10
256.462291349346
 20
99.96049361080357
 30
0.0
 10
256.462291349346
 20
100.0018355263729
 30
0.0
 10
256.462291349346
 20
100.0523820843386
 30
0.0
 10
256.462291349346
 20
100.1121171877695
 30
0.0
 10
256.462291349346
 20
100.1810453600421
 30
0.0
 10
256.462291349346
 20
100.2591645419
 30
0.0
 10
256.462291349346
 20
100.3464783628925
 30
0.0
 10
256.462291349346
 20
100.5943150773016
 30
0.0
 10
256.462291349346
 20
101.1199628923326
 30
0.0
 10
256.462291349346
 20
102.148353898856
 30
0.0
 10
256.462291349346
 20
103.4803037121501
 30
0.0
 10
256.462291349346
 20
105.1262296268644
 30
0.0
 10
256.462291349346
 20
107.0652506791404
 30
0.0
 10
256.462291349346
 20
109.2912256616393
 30
0.0
 10
256.462291349346
 20
111.7775809377966
 30
0.0
 10
256.462291349346
 20
114.4973487317941
 30
0.0
 10
256.462291349346
 20
117.4260570697875
 30
0.0
 10
256.462291349346
 20
120.5153830690124
 30
0.0
 10
256.462291349346
 20
123.7504841171857
 30
0.0
 10
256.462291349346
 20
126.3480959869454
 30
0.0
 10
256.462291349346
 20
128.2309834169409
 30
0.0
 10
256.462291349346
 20
129.3470383913727
 30
0.0
 10
256.462291349346
 20
130.4741325263899
 30
0.0
 10
256.462291349346
 20
131.6124974500507
 30
0.0
 10
256.462291349346
 20
132.7613289313371
 30
0.0
 10
256.462291349346
 20
133.5355016697955
 30
0.0
 10
256.462291349346
 20
133.9228445273025
 30
0.0
  0
SPLINE
  5
141
330
1F
100
AcDbEntity
  8
0
  6
Continuous
 62
     7
370
    15
100
AcDbSpline
210
0.0
220
0.0
230
1.0
 70
    24
 71
     3
 72
    23
 73
    19
 74
     0
 42
0.000000001
 43
0.00000001
 40
0.0
 40
0.0
 40
0.0
 40
0.0
 40
0.0621371780016823
 40
0.1250125041989178
 40
0.18858029616004
 40
0.253127189537456
 40
0.3179582992717379
 40
0.3830175621109775
 40
0.4480693138239227
 40
0.5129004819881641
 40
0.5774548282112543
 40
0.6410149507156808
 40
0.70389205390056
 40
0.7660351298220105
 40
0.8281703793520515
 40
0.8910476401564842
 40
0.9546154321206017
 40
1.0
 40
1.0
 40
1.0
 40
1.0
 10
256.462291349346
 20
161.0228445273025
 30
0.0
 10
256.462291349346
 20
162.2257996872073
 30
0.0
 10
256.462291349346
 20
164.6460003112947
 30
0.0
 10
256.462291349346
 20
168.1628447801853
 30
0.0
 10
256.462291349346
 20
171.5941861432091
 30
0.0
 10
256.462291349346
 20
174.8959808062838
 30
0.0
 10
256.462291349346
 20
178.0348813022375
 30
0.0
 10
256.462291349346
 20
180.969836949248
 30
0.0
 10
256.462291349346
 20
183.6724127796971
 30
0.0
 10
256.462291349346
 20
186.11757419247
 30
0.0
 10
256.462291349346
 20
188.2796974898362
 30
0.0
 10
256.462291349346
 20
190.1466226738935
 30
0.0
 10
256.462291349346
 20
191.7114772729069
 30
0.0
 10
256.462291349346
 20
192.9801237366983
 30
0.0
 10
256.462291349346
 20
193.9622130220064
 30
0.0
 10
256.462291349346
 20
194.6402591201447
 30
0.0
 10
256.462291349346
 20
195.0163882510454
 30
0.0
 10
256.462291349346
 20
195.0211985336592
 30
0.0
 10
256.462291349346
 20
195.0232022772965
 30
0.0
  0
LINE
  5
142
330
1F
100
AcDbEntity
  8
0
  6
Continuous
 62
     7
370
    15
100
AcDbLine
 10
253.2622913493
 20
112.5478445273
 30
0.0
 11
253.2622913493
 21
182.3978445273
 31
0.0
  0
LINE
  5
143
330
1F
100
AcDbEntity
  8
0
  6
Continuous
 62
     7
370
    15
100
AcDbLine
 10
254.1737067906
 20
147.4728445273
 30
0.0
 11
254.1737067906
 21
181.9728445273
 31
0.0
  0
LINE
  5
144
330
1F
100
AcDbEntity
  8
0
  6
Continuous
 62
     7
370
    15
100
AcDbLine
 10
254.1737067906
 20
112.9728445273
 30
0.0
 11
254.1737067906
 21
147.4728445273
 31
0.0
  0
LINE
  5
145
330
1F
100
AcDbEntity
  8
0
  6
Continuous
 62
     7
370
    15
100
AcDbLine
 10
298.2622913493
 20
147.4728445273
 30
0.0
 11
298.2622913493
 21
175.4728445273
 31
0.0
  0
LINE
  5
146
330
1F
100
AcDbEntity
  8
0
  6
Continuous
 62
     7
370
    15
100
AcDbLine
 10
298.2622913493
 20
119.4728445273
 30
0.0
 11
298.2622913493
 21
147.4728445273
 31
0.0
  0
LINE
  5
147
330
1F
100
AcDbEntity
  8
0
  6
Continuous
 62
     7
370
    15
100
AcDbLine
 10
297.2622913493
 20
147.4728445273
 30
0.0
 11
297.2622913493
 21
176.4728445273
 31
0.0
  0
LINE
  5
148
330
1F
100
AcDbEntity
  8
0
  6
Continuous
 62
     7
370
    15
100
AcDbLine
 10
297.2622913493
 20
118.4728445273
 30
0.0
 11
297.2622913493
 21
147.4728445273
 31
0.0
  0
SPLINE
  5
149
330
1F
100
AcDbEntity
  8
0
  6
Continuous
 62
     7
370
    15
100
AcDbSpline
210
0.0
220
0.0
230
1.0
 70
    24
 71
     3
 72
    10
 73
     6
 74
     0
 42
0.000000001
 43
0.00000001
 40
0.0
 40
0.0
 40
0.0
 40
0.0
 40
0.4999999999999997
 40
0.4999999999999997
 40
0.9999999999999999
 40
0.9999999999999999
 40
0.9999999999999999
 40
0.9999999999999999
 10
151.512291349346
 20
166.6944195278479
 30
0.0
 10
151.512291349346
 20
166.6944195278478
 30
0.0
 10
151.512291349346
 20
164.6691931017788
 30
0.0
 10
151.512291349346
 20
157.4599080087688
 30
0.0
 10
151.512291349346
 20
152.5705789040769
 30
0.0
 10
151.512291349346
 20
147.4728445273025
 30
0.0
  0
SPLINE
  5
14A
330
1F
100
AcDbEntity
  8
0
  6
Continuous
 62
     7
370
    15
100
AcDbSpline
210
0.0
220
0.0
230
1.0
 70
    24
 71
     3
 72
    10
 73
     6
 74
     0
 42
0.000000001
 43
0.00000001
 40
0.0
 40
0.0
 40
0.0
 40
0.0
 40
0.4999999999999999
 40
0.4999999999999999
 40
0.9999999999999999
 40
0.9999999999999999
 40
0.9999999999999999
 40
0.9999999999999999
 10
151.512291349346
 20
147.4728445273025
 30
0.0
 10
151.512291349346
 20
142.3751101505281
 30
0.0
 10
151.512291349346
 20
137.4857810458358
 30
0.0
 10
151.512291349346
 20
130.2764959528259
 30
0.0
 10
151.512291349346
 20
128.251269526757
 30
0.0
 10
151.512291349346
 20
128.2512695267571
 30
0.0
  0
LINE
  5
14B
330
1F
100
AcDbEntity
  8
0
  6
Continuous
 62
     7
370
    15
100
AcDbLine
 10
331.2622913493
 20
130.9728445273
 30
0.0
 11
331.2622913493
 21
163.9728445273
 31
0.0
  0
LINE
  5
14C
330
1F
100
AcDbEntity
  8
0
  6
Continuous
 62
     7
370
    15
100
AcDbLine
 10
330.2622913493
 20
147.4728445273
 30
0.0
 11
330.2622913493
 21
164.9728445273
 31
0.0
  0
LINE
  5
14D
330
1F
100
AcDbEntity
  8
0
  6
Continuous
 62
     7
370
    15
100
AcDbLine
 10
330.2622913493
 20
129.9728445273
 30
0.0
 11
330.2622913493
 21
147.4728445273
 31
0.0
  0
LINE
  5
14E
330
1F
100
AcDbEntity
  8
0
  6
Continuous
 62
     7
370
    15
100
AcDbLine
 10
323.2622913493
 20
129.9728445273
 30
0.0
 11
323.2622913493
 21
164.9728445273
 31
0.0
  0
LINE
  5
14F
330
1F
100
AcDbEntity
  8
0
  6
Continuous
 62
     7
370
    15
100
AcDbLine
 10
322.2622913493
 20
130.9728445273
 30
0.0
 11
322.2622913493
 21
163.9728445273
 31
0.0
  0
LINE
  5
150
330
1F
100
AcDbEntity
  8
0
  6
Continuous
 62
     7
370
    15
100
AcDbLine
 10
318.7715436205
 20
147.4728445273
 30
0.0
 11
318.7715436205
 21
160.9728445273
 31
0.0
  0
LINE
  5
151
330
1F
100
AcDbEntity
  8
0
  6
Continuous
 62
     7
370
    15
100
AcDbLine
 10
318.7715436205
 20
133.9728445273
 30
0.0
 11
318.7715436205
 21
147.4728445273
 31
0.0
  0
LINE
  5
152
330
1F
100
AcDbEntity
  8
0
  6
Continuous
 62
     7
370
    15
100
AcDbLine
 10
319.2622913493
 20
147.4728445273
 30
0.0
 11
319.2622913493
 21
160.1228445273
 31
0.0
  0
LINE
  5
153
330
1F
100
AcDbEntity
  8
0
  6
Continuous
 62
     7
370
    15
100
AcDbLine
 10
319.2622913493
 20
134.8228445273
 30
0.0
 11
319.2622913493
 21
147.4728445273
 31
0.0
  0
LINE
  5
154
330
1F
100
AcDbEntity
  8
0
  6
Continuous
 62
     7
370
    15
100
AcDbLine
 10
298.2622913493
 20
132.4728445273
 30
0.0
 11
304.5122913493
 21
132.4728445273
 31
0.0
  0
LINE
  5
155
330
1F
100
AcDbEntity
  8
0
  6
Continuous
 62
     7
370
    15
100
AcDbLine
 10
304.5122913493
 20
132.9728445273
 30
0.0
 11
298.2622913493
 21
132.9728445273
 31
0.0
  0
LINE
  5
156
330
1F
100
AcDbEntity
  8
0
  6
Continuous
 62
     7
370
    15
100
AcDbLine
 10
304.5122913493
 20
132.9728445273
 30
0.0
 11
304.5122913493
 21
132.4728445273
 31
0.0
  0
LINE
  5
157
330
1F
100
AcDbEntity
  8
0
  6
Continuous
 62
     7
370
    15
100
AcDbLine
 10
304.5122913493
 20
121.4728445273
 30
0.0
 11
298.2622913493
 21
121.4728445273
 31
0.0
  0
LINE
  5
158
330
1F
100
AcDbEntity
  8
0
  6
Continuous
 62
     7
370
    15
100
AcDbLine
 10
304.5122913493
 20
132.4728445273
 30
0.0
 11
304.5122913493
 21
121.4728445273
 31
0.0
  0
LINE
  5
159
330
1F
100
AcDbEntity
  8
0
  6
Continuous
 62
     7
370
    15
100
AcDbLine
 10
298.2622913493
 20
120.9728445273
 30
0.0
 11
304.5122913493
 21
120.9728445273
 31
0.0
  0
LINE
  5
15A
330
1F
100
AcDbEntity
  8
0
  6
Continuous
 62
     7
370
    15
100
AcDbLine
 10
304.5122913493
 20
121.4728445273
 30
0.0
 11
304.5122913493
 21
120.9728445273
 31
0.0
  0
LINE
  5
15B
330
1F
100
AcDbEntity
  8
0
  6
Continuous
 62
     7
370
    15
100
AcDbLine
 10
304.5122913493
 20
173.9728445273
 30
0.0
 11
304.5122913493
 21
173.4728445273
 31
0.0
  0
LINE
  5
15C
330
1F
100
AcDbEntity
  8
0
  6
Continuous
 62
     7
370
    15
100
AcDbLine
 10
298.2622913493
 20
173.4728445273
 30
0.0
 11
304.5122913493
 21
173.4728445273
 31
0.0
  0
LINE
  5
15D
330
1F
100
AcDbEntity
  8
0
  6
Continuous
 62
     7
370
    15
100
AcDbLine
 10
304.5122913493
 20
173.9728445273
 30
0.0
 11
298.2622913493
 21
173.9728445273
 31
0.0
  0
LINE
  5
15E
330
1F
100
AcDbEntity
  8
0
  6
Continuous
 62
     7
370
    15
100
AcDbLine
 10
304.5122913493
 20
173.4728445273
 30
0.0
 11
304.5122913493
 21
162.4728445273
 31
0.0
  0
LINE
  5
15F
330
1F
100
AcDbEntity
  8
0
  6
Continuous
 62
     7
370
    15
100
AcDbLine
 10
304.5122913493
 20
162.4728445273
 30
0.0
 11
298.2622913493
 21
162.4728445273
 31
0.0
  0
LINE
  5
160
330
1F
100
AcDbEntity
  8
0
  6
Continuous
 62
     7
370
    15
100
AcDbLine
 10
298.2622913493
 20
161.9728445273
 30
0.0
 11
304.5122913493
 21
161.9728445273
 31
0.0
  0
LINE
  5
161
330
1F
100
AcDbEntity
  8
0
  6
Continuous
 62
     7
370
    15
100
AcDbLine
 10
304.5122913493
 20
162.4728445273
 30
0.0
 11
304.5122913493
 21
161.9728445273
 31
0.0
  0
LINE
  5
162
330
1F
100
AcDbEntity
  8
0
  6
Continuous
 62
     8
370
    15
100
AcDbLine
 10
271.1966059244
 20
160.8699226987
 30
0.0
 11
271.1966059244
 21
196.2228445273
 31
0.0
  0
LINE
  5
163
330
1F
100
AcDbEntity
  8
0
  6
Continuous
 62
     8
370
    15
100
AcDbLine
 10
271.1966059244
 20
98.7228445273
 30
0.0
 11
271.1966059244
 21
134.0757663559
 31
0.0
  0
LINE
  5
164
330
1F
100
AcDbEntity
  8
0
  6
Continuous
 62
     8
370
    15
100
AcDbLine
 10
257.6279767743
 20
98.7228445273
 30
0.0
 11
257.6279767743
 21
134.0757663559
 31
0.0
  0
LINE
  5
165
330
1F
100
AcDbEntity
  8
0
  6
Continuous
 62
     8
370
    15
100
AcDbLine
 10
257.6279767743
 20
196.2228445273
 30
0.0
 11
257.6279767743
 21
160.8699226987
 31
0.0
  0
LINE
  5
166
330
1F
100
AcDbEntity
  8
0
  6
Continuous
 62
     8
370
    15
100
AcDbLine
 10
272.2451340618
 20
195.3400018148
 30
0.0
 11
272.2451340618
 21
160.3228445273
 31
0.0
  0
LINE
  5
167
330
1F
100
AcDbEntity
  8
0
  6
Continuous
 62
     8
370
    15
100
AcDbLine
 10
272.2451340618
 20
134.6228445273
 30
0.0
 11
272.2451340618
 21
99.6056872398
 31
0.0
  0
LINE
  5
168
330
1F
100
AcDbEntity
  8
0
  6
Continuous
 62
     8
370
    15
100
AcDbLine
 10
271.4794486369
 20
160.7751237676
 30
0.0
 11
271.4794486369
 21
196.1056872398
 31
0.0
  0
LINE
  5
169
330
1F
100
AcDbEntity
  8
0
  6
Continuous
 62
     8
370
    15
100
AcDbLine
 10
271.4794486369
 20
134.1705652871
 30
0.0
 11
271.4794486369
 21
98.8400018148
 31
0.0
  0
LINE
  5
16A
330
1F
100
AcDbEntity
  8
0
  6
Continuous
 62
     8
370
    15
100
AcDbLine
 10
256.5794486369
 20
99.6056872398
 30
0.0
 11
256.5794486369
 21
134.0400018148
 31
0.0
  0
LINE
  5
16B
330
1F
100
AcDbEntity
  8
0
  6
Continuous
 62
     8
370
    15
100
AcDbLine
 10
256.5794486369
 20
160.9056872398
 30
0.0
 11
256.5794486369
 21
195.3400018148
 31
0.0
  0
LINE
  5
16C
330
1F
100
AcDbEntity
  8
0
  6
Continuous
 62
     8
370
    15
100
AcDbLine
 10
257.3451340618
 20
160.7751237676
 30
0.0
 11
257.3451340618
 21
196.1056872398
 31
0.0
  0
LINE
  5
16D
330
1F
100
AcDbEntity
  8
0
  6
Continuous
 62
     8
370
    15
100
AcDbLine
 10
257.3451340618
 20
98.8400018148
 30
0.0
 11
257.3451340618
 21
134.1705652871
 31
0.0
  0
LINE
  5
16E
330
1F
100
AcDbEntity
  8
0
  6
Continuous
 62
     8
370
    15
100
AcDbLine
 10
255.9622913493
 20
147.4728445273
 30
0.0
 11
255.9622913493
 21
181.9728445273
 31
0.0
  0
LINE
  5
16F
330
1F
100
AcDbEntity
  8
0
  6
Continuous
 62
     8
370
    15
100
AcDbLine
 10
255.9622913493
 20
112.9728445273
 30
0.0
 11
255.9622913493
 21
147.4728445273
 31
0.0
  0
LINE
  5
170
330
1F
100
AcDbEntity
  8
0
  6
Continuous
 62
     8
370
    15
100
AcDbLine
 10
152.3679831221
 20
167.6839523143
 30
0.0
 11
152.3679831221
 21
127.2617367403
 31
0.0
  0
LINE
  5
171
330
1F
100
AcDbEntity
  8
0
  6
Continuous
 62
     8
370
    15
100
AcDbLine
 10
275.3622913493
 20
176.4728445273
 30
0.0
 11
275.3622913493
 21
118.4728445273
 31
0.0
  0
LINE
  5
172
330
1F
100
AcDbEntity
  8
0
  6
Continuous
 62
     8
370
    15
100
AcDbLine
 10
321.7622913493
 20
147.4728445273
 30
0.0
 11
321.7622913493
 21
153.4728445273
 31
0.0
  0
LINE
  5
173
330
1F
100
AcDbEntity
  8
0
  6
Continuous
 62
     8
370
    15
100
AcDbLine
 10
321.7622913493
 20
141.4728445273
 30
0.0
 11
321.7622913493
 21
147.4728445273
 31
0.0
  0
DIMENSION
  5
174
330
1F
100
AcDbEntity
  8
DIM
100
AcDbDimension
  2
_D
 10
342.058017454
 20
133.9728445273
 30
0.0
 11
342.058017454
 21
147.4728445273
 31
0.0
 70
   160
  1
%%c<>
 71
     2
 42
-1.0
  3
SLDDIMSTYLE0
100
AcDbAlignedDimension
 13
318.7715436205
 23
160.9728445273
 33
0.0
 14
318.7715436205
 24
133.9728445273
 34
0.0
 50
90.0
100
AcDbRotatedDimension
  0
DIMENSION
  5
182
330
1F
100
AcDbEntity
  8
DIM
100
AcDbDimension
  2
_D_1
 10
349.2039930994
 20
118.4728445273
 30
0.0
 11
349.2039930994
 21
147.4728445273
 31
0.0
 70
   160
  1
%%c<>
 71
     2
 42
-1.0
  3
SLDDIMSTYLE1
100
AcDbAlignedDimension
 13
297.2622913493
 23
176.4728445273
 33
0.0
 14
297.2622913493
 24
118.4728445273
 34
0.0
 50
90.0
100
AcDbRotatedDimension
  0
DIMENSION
  5
18E
330
1F
100
AcDbEntity
  8
DIM
100
AcDbDimension
  2
_D_2
 10
143.0300113191
 20
98.7228445273
 30
0.0
 11
143.0300113191
 21
147.4728445273
 31
0.0
 70
   160
  1
%%c<>
 71
     2
 42
-1.0
  3
SLDDIMSTYLE2
100
AcDbAlignedDimension
 13
257.6279767743
 23
196.2228445273
 33
0.0
 14
257.6279767743
 24
98.7228445273
 34
0.0
 50
90.0
100
AcDbRotatedDimension
  0
DIMENSION
  5
19A
330
1F
100
AcDbEntity
  8
DIM
100
AcDbDimension
  2
_D_3
 10
298.2622913493
 20
92.3209004638
 30
0.0
 11
308.7622913493
 21
92.3209004638
 31
0.0
 70
   160
  1
<>
 71
     2
 42
-1.0
  3
SLDDIMSTYLE0
100
AcDbAlignedDimension
 13
319.2622913493
 23
134.8228445273
 33
0.0
 14
298.2622913493
 24
119.4728445273
 34
0.0
100
AcDbRotatedDimension
  0
DIMENSION
  5
1A6
330
1F
100
AcDbEntity
  8
DIM
100
AcDbDimension
  2
_D_4
 10
253.2622913493
 20
92.3209004638
 30
0.0
 11
286.2622913493
 21
92.3209004638
 31
0.0
 70
   160
  1
<>
 71
     2
 42
-1.0
  3
SLDDIMSTYLE1
100
AcDbAlignedDimension
 13
319.2622913493
 23
134.8228445273
 33
0.0
 14
253.2622913493
 24
112.5478445273
 34
0.0
100
AcDbRotatedDimension
  0
DIMENSION
  5
1B0
330
1F
100
AcDbEntity
  8
DIM
100
AcDbDimension
  2
_D_5
 10
151.5122913493
 20
85.7227445273
 30
0.0
 11
241.3872913493
 21
85.7227445273
 31
0.0
 70
   160
  1
<>
 71
     2
 42
-1.0
  3
SLDDIMSTYLE1
100
AcDbAlignedDimension
 13
331.2622913493
 23
130.9728445273
 33
0.0
 14
151.5122913493
 24
147.4728445273
 34
0.0
 50
0.0
100
AcDbRotatedDimension
  0
LINE
  5
1BA
330
1F
100
AcDbEntity
  8
DIM
  6
CENTERX2
 48
1.5384615385
370
     0
100
AcDbLine
 10
151.7444850547
 20
147.4728445273
 30
0.0
 11
332.046126123
 21
147.4728445273
 31
0.0
  0
ENDSEC
  0
SECTION
  2
OBJECTS
  0
DICTIONARY
  5
C
330
0
100
AcDbDictionary
281
     1
  3
ACAD_GROUP
350
D
  3
ACAD_LAYOUT
350
1A
  3
ACAD_MLINESTYLE
350
17
  3
ACAD_PLOTSETTINGS
350
19
  3
ACAD_PLOTSTYLENAME
350
E
  3
ACAD_SCALELIST
350
47
  0
DICTIONARY
  5
D
102
{ACAD_REACTORS
330
C
102
}
330
C
100
AcDbDictionary
281
     1
  0
DICTIONARY
  5
1A
102
{ACAD_REACTORS
330
C
102
}
330
C
100
AcDbDictionary
281
     1
  3
Layout1
350
1E
  3
Layout2
350
26
  3
Model
350
22
  0
DICTIONARY
  5
17
102
{ACAD_REACTORS
330
C
102
}
330
C
100
AcDbDictionary
281
     1
  3
Standard
350
18
  0
DICTIONARY
  5
19
102
{ACAD_REACTORS
330
C
102
}
330
C
100
AcDbDictionary
281
     1
  0
ACDBDICTIONARYWDFLT
  5
E
102
{ACAD_REACTORS
330
C
102
}
330
C
100
AcDbDictionary
281
     1
  3
Normal
350
F
100
AcDbDictionaryWithDefault
340
F
  0
DICTIONARY
  5
47
102
{ACAD_REACTORS
330
C
102
}
330
C
100
AcDbDictionary
281
     1
  3
A0
350
48
  3
A1
350
49
  3
A2
350
4A
  3
A3
350
4B
  3
A4
350
4C
  3
A5
350
4D
  3
A6
350
4E
  3
A7
350
4F
  3
A8
350
50
  3
A9
350
51
  3
B0
350
52
  3
B1
350
53
  3
B2
350
54
  3
B3
350
55
  3
B4
350
56
  3
B5
350
57
  3
B6
350
58
  3
B7
350
59
  3
B8
350
5A
  3
B9
350
5B
  3
C0
350
5C
  3
C1
350
5D
  3
C2
350
5E
  3
C3
350
5F
  3
C4
350
60
  3
C5
350
61
  3
C6
350
62
  3
C7
350
63
  3
C8
350
64
  3
C9
350
65
  3
D0
350
66
  3
D1
350
67
  3
D2
350
68
  0
LAYOUT
  5
1E
102
{ACAD_REACTORS
330
1A
102
}
330
1A
100
AcDbPlotSettings
  1

  2
none_device
  4

  6

 40
0.0
 41
0.0
 42
0.0
 43
0.0
 44
0.0
 45
0.0
 46
0.0
 47
0.0
 48
0.0
 49
0.0
140
0.0
141
0.0
142
1.0
143
1.0
 70
   688
 72
     1
 73
     0
 74
     5
  7

 75
    16
147
1.0
148
0.0
149
0.0
100
AcDbLayout
  1
Layout1
 70
     1
 71
     1
 10
0.0
 20
0.0
 11
420.0
 21
297.0
 12
0.0
 22
0.0
 32
0.0
 14
1.0000000000E+20
 24
1.0000000000E+20
 34
1.0000000000E+20
 15
-1.0000000000E+20
 25
-1.0000000000E+20
 35
-1.0000000000E+20
146
0.0
 13
0.0
 23
0.0
 33
0.0
 16
1.0
 26
0.0
 36
0.0
 17
0.0
 27
1.0
 37
0.0
 76
     0
330
1B
  0
LAYOUT
  5
26
102
{ACAD_REACTORS
330
1A
102
}
330
1A
100
AcDbPlotSettings
  1

  2
none_device
  4

  6

 40
0.0
 41
0.0
 42
0.0
 43
0.0
 44
0.0
 45
0.0
 46
0.0
 47
0.0
 48
0.0
 49
0.0
140
0.0
141
0.0
142
1.0
143
1.0
 70
   688
 72
     1
 73
     0
 74
     5
  7

 75
    16
147
1.0
148
0.0
149
0.0
100
AcDbLayout
  1
Layout2
 70
     1
 71
     2
 10
0.0
 20
0.0
 11
0.0
 21
0.0
 12
0.0
 22
0.0
 32
0.0
 14
0.0
 24
0.0
 34
0.0
 15
0.0
 25
0.0
 35
0.0
146
0.0
 13
0.0
 23
0.0
 33
0.0
 16
1.0
 26
0.0
 36
0.0
 17
0.0
 27
1.0
 37
0.0
 76
     0
330
23
  0
LAYOUT
  5
22
102
{ACAD_REACTORS
330
1A
102
}
330
1A
100
AcDbPlotSettings
  1

  2
none_device
  4
Letter_(8.50_x_11.00_Inches)
  6

 40
6.35
 41
6.35
 42
6.35000508
 43
6.35000508
 44
215.9
 45
279.4
 46
0.0
 47
0.0
 48
0.0
 49
0.0
140
0.0
141
0.0
142
1.0
143
1.0
 70
  1712
 72
     1
 73
     0
 74
     0
  7

 75
     0
147
1.0
148
0.0
149
0.0
100
AcDbLayout
  1
Model
 70
     1
 71
     0
 10
0.0
 20
0.0
 11
386.1
 21
273.0
 12
0.0
 22
0.0
 32
0.0
 14
0.0
 24
0.0
 34
0.0
 15
386.1
 25
273.0
 35
0.0
146
0.0
 13
0.0
 23
0.0
 33
0.0
 16
1.0
 26
0.0
 36
0.0
 17
0.0
 27
1.0
 37
0.0
 76
     0
330
1F
331
29
  0
MLINESTYLE
  5
18
102
{ACAD_REACTORS
330
17
102
}
330
17
100
AcDbMlineStyle
  2
Standard
 70
     0
  3

 62
   256
 51
90.0
 52
90.0
 71
     2
 49
0.5
 62
   256
  6
BYLAYER
 49
-0.5
 62
   256
  6
BYLAYER
  0
ACDBPLACEHOLDER
  5
F
102
{ACAD_REACTORS
330
E
102
}
330
E
  0
SCALE
  5
48
102
{ACAD_REACTORS
330
47
102
}
330
47
100
AcDbScale
 70
     0
300
1:1
140
1.0
141
1.0
290
     1
  0
SCALE
  5
49
102
{ACAD_REACTORS
330
47
102
}
330
47
100
AcDbScale
 70
     0
300
1:2
140
1.0
141
2.0
290
     0
  0
SCALE
  5
4A
102
{ACAD_REACTORS
330
47
102
}
330
47
100
AcDbScale
 70
     0
300
1:4
140
1.0
141
4.0
290
     0
  0
SCALE
  5
4B
102
{ACAD_REACTORS
330
47
102
}
330
47
100
AcDbScale
 70
     0
300
1:5
140
1.0
141
5.0
290
     0
  0
SCALE
  5
4C
102
{ACAD_REACTORS
330
47
102
}
330
47
100
AcDbScale
 70
     0
300
1:8
140
1.0
141
8.0
290
     0
  0
SCALE
  5
4D
102
{ACAD_REACTORS
330
47
102
}
330
47
100
AcDbScale
 70
     0
300
1:10
140
1.0
141
10.0
290
     0
  0
SCALE
  5
4E
102
{ACAD_REACTORS
330
47
102
}
330
47
100
AcDbScale
 70
     0
300
1:16
140
1.0
141
16.0
290
     0
  0
SCALE
  5
4F
102
{ACAD_REACTORS
330
47
102
}
330
47
100
AcDbScale
 70
     0
300
1:20
140
1.0
141
20.0
290
     0
  0
SCALE
  5
50
102
{ACAD_REACTORS
330
47
102
}
330
47
100
AcDbScale
 70
     0
300
1:30
140
1.0
141
30.0
290
     0
  0
SCALE
  5
51
102
{ACAD_REACTORS
330
47
102
}
330
47
100
AcDbScale
 70
     0
300
1:40
140
1.0
141
40.0
290
     0
  0
SCALE
  5
52
102
{ACAD_REACTORS
330
47
102
}
330
47
100
AcDbScale
 70
     0
300
1:50
140
1.0
141
50.0
290
     0
  0
SCALE
  5
53
102
{ACAD_REACTORS
330
47
102
}
330
47
100
AcDbScale
 70
     0
300
1:100
140
1.0
141
100.0
290
     0
  0
SCALE
  5
54
102
{ACAD_REACTORS
330
47
102
}
330
47
100
AcDbScale
 70
     0
300
2:1
140
2.0
141
1.0
290
     0
  0
SCALE
  5
55
102
{ACAD_REACTORS
330
47
102
}
330
47
100
AcDbScale
 70
     0
300
4:1
140
4.0
141
1.0
290
     0
  0
SCALE
  5
56
102
{ACAD_REACTORS
330
47
102
}
330
47
100
AcDbScale
 70
     0
300
8:1
140
8.0
141
1.0
290
     0
  0
SCALE
  5
57
102
{ACAD_REACTORS
330
47
102
}
330
47
100
AcDbScale
 70
     0
300
10:1
140
10.0
141
1.0
290
     0
  0
SCALE
  5
58
102
{ACAD_REACTORS
330
47
102
}
330
47
100
AcDbScale
 70
     0
300
100:1
140
100.0
141
1.0
290
     0
  0
SCALE
  5
59
102
{ACAD_REACTORS
330
47
102
}
330
47
100
AcDbScale
 70
     0
300
1/128" = 1'-0"
140
0.0078125
141
12.0
290
     0
  0
SCALE
  5
5A
102
{ACAD_REACTORS
330
47
102
}
330
47
100
AcDbScale
 70
     0
300
1/64" = 1'-0"
140
0.015625
141
12.0
290
     0
  0
SCALE
  5
5B
102
{ACAD_REACTORS
330
47
102
}
330
47
100
AcDbScale
 70
     0
300
1/32" = 1'-0"
140
0.03125
141
12.0
290
     0
  0
SCALE
  5
5C
102
{ACAD_REACTORS
330
47
102
}
330
47
100
AcDbScale
 70
     0
300
1/16" = 1'-0"
140
0.0625
141
12.0
290
     0
  0
SCALE
  5
5D
102
{ACAD_REACTORS
330
47
102
}
330
47
100
AcDbScale
 70
     0
300
3/32" = 1'-0"
140
0.09375
141
12.0
290
     0
  0
SCALE
  5
5E
102
{ACAD_REACTORS
330
47
102
}
330
47
100
AcDbScale
 70
     0
300
1/8" = 1'-0"
140
0.125
141
12.0
290
     0
  0
SCALE
  5
5F
102
{ACAD_REACTORS
330
47
102
}
330
47
100
AcDbScale
 70
     0
300
3/16" = 1'-0"
140
0.1875
141
12.0
290
     0
  0
SCALE
  5
60
102
{ACAD_REACTORS
330
47
102
}
330
47
100
AcDbScale
 70
     0
300
1/4" = 1'-0"
140
0.25
141
12.0
290
     0
  0
SCALE
  5
61
102
{ACAD_REACTORS
330
47
102
}
330
47
100
AcDbScale
 70
     0
300
3/8" = 1'-0"
140
0.375
141
12.0
290
     0
  0
SCALE
  5
62
102
{ACAD_REACTORS
330
47
102
}
330
47
100
AcDbScale
 70
     0
300
1/2" = 1'-0"
140
0.5
141
12.0
290
     0
  0
SCALE
  5
63
102
{ACAD_REACTORS
330
47
102
}
330
47
100
AcDbScale
 70
     0
300
3/4" = 1'-0"
140
0.75
141
12.0
290
     0
  0
SCALE
  5
64
102
{ACAD_REACTORS
330
47
102
}
330
47
100
AcDbScale
 70
     0
300
1" = 1'-0"
140
1.0
141
12.0
290
     0
  0
SCALE
  5
65
102
{ACAD_REACTORS
330
47
102
}
330
47
100
AcDbScale
 70
     0
300
1-1/2" = 1'-0"
140
1.5
141
12.0
290
     0
  0
SCALE
  5
66
102
{ACAD_REACTORS
330
47
102
}
330
47
100
AcDbScale
 70
     0
300
3" = 1'-0"
140
3.0
141
12.0
290
     0
  0
SCALE
  5
67
102
{ACAD_REACTORS
330
47
102
}
330
47
100
AcDbScale
 70
     0
300
6" = 1'-0"
140
6.0
141
12.0
290
     0
  0
SCALE
  5
68
102
{ACAD_REACTORS
330
47
102
}
330
47
100
AcDbScale
 70
     0
300
1'-0" = 1'-0"
140
12.0
141
12.0
290
     0
  0
ENDSEC
  0
EOF
