  0
SECTION
  2
HEADER
  9
$ACADVER
  1
AC1015
  9
$ACADMAINTVER
 70
     6
  9
$DWGCODEPAGE
  3
ANSI_1252
  9
$INSBASE
 10
0.0
 20
0.0
 30
0.0
  9
$EXTMIN
 10
0.0
 20
0.0
 30
0.0
  9
$EXTMAX
 10
247.5
 20
175.0
 30
0.0
  9
$LIMMIN
 10
0.0
 20
0.0
  9
$LIMMAX
 10
247.5
 20
175.0
  9
$ORTHOMODE
 70
     0
  9
$REGENMODE
 70
     1
  9
$FILLMODE
 70
     1
  9
$QTEXTMODE
 70
     0
  9
$MIRRTEXT
 70
     1
  9
$LTSCALE
 40
0.8333333333
  9
$ATTMODE
 70
     1
  9
$TEXTSIZE
 40
3.2337962963
  9
$TRACEWID
 40
1.0
  9
$TEXTSTYLE
  7
Standard
  9
$CLAYER
  8
0
  9
$CELTYPE
  6
ByLayer
  9
$CECOLOR
 62
   256
  9
$CELTSCALE
 40
1.0
  9
$DISPSILH
 70
     0
  9
$DIMSCALE
 40
1.0
  9
$DIMASZ
 40
2.7516666667
  9
$DIMEXO
 40
0.8333333333
  9
$DIMDLI
 40
3.75
  9
$DIMRND
 40
0.0
  9
$DIMDLE
 40
0.0
  9
$DIMEXE
 40
0.8333333333
  9
$DIMTP
 40
0.0
  9
$DIMTM
 40
0.0
  9
$DIMTXT
 40
3.2337962963
  9
$DIMCEN
 40
2.5
  9
$DIMTSZ
 40
0.0
  9
$DIMTOL
 70
     0
  9
$DIMLIM
 70
     0
  9
$DIMTIH
 70
     1
  9
$DIMTOH
 70
     1
  9
$DIMSE1
 70
     0
  9
$DIMSE2
 70
     0
  9
$DIMTAD
 70
     1
  9
$DIMZIN
 70
     0
  9
$DIMBLK
  1

  9
$DIMASO
 70
     1
  9
$DIMSHO
 70
     1
  9
$DIMPOST
  1

  9
$DIMAPOST
  1

  9
$DIMALT
 70
     0
  9
$DIMALTD
 70
     3
  9
$DIMALTF
 40
0.0393700787
  9
$DIMLFAC
 40
1.0
  9
$DIMTOFL
 70
     1
  9
$DIMTVP
 40
0.0
  9
$DIMTIX
 70
     0
  9
$DIMSOXD
 70
     0
  9
$DIMSAH
 70
     0
  9
$DIMBLK1
  1

  9
$DIMBLK2
  1

  9
$DIMSTYLE
  2
ISO-25
  9
$DIMCLRD
 70
     0
  9
$DIMCLRE
 70
     0
  9
$DIMCLRT
 70
     0
  9
$DIMTFAC
 40
1.0
  9
$DIMGAP
 40
1.27
  9
$DIMJUST
 70
     0
  9
$DIMSD1
 70
     0
  9
$DIMSD2
 70
     0
  9
$DIMTOLJ
 70
     0
  9
$DIMTZIN
 70
     0
  9
$DIMALTZ
 70
     0
  9
$DIMALTTZ
 70
     0
  9
$DIMUPT
 70
     0
  9
$DIMDEC
 70
     2
  9
$DIMTDEC
 70
     2
  9
$DIMALTU
 70
     2
  9
$DIMALTTD
 70
     3
  9
$DIMTXSTY
  7
Standard
  9
$DIMAUNIT
 70
     0
  9
$DIMADEC
 70
     2
  9
$DIMALTRND
 40
0.0
  9
$DIMAZIN
 70
     0
  9
$DIMDSEP
 70
    44
  9
$DIMATFIT
 70
     3
  9
$DIMFRAC
 70
     0
  9
$DIMLDRBLK
  1

  9
$DIMLUNIT
 70
     2
  9
$DIMLWD
 70
    -2
  9
$DIMLWE
 70
    -2
  9
$DIMTMOVE
 70
     0
  9
$LUNITS
 70
     2
  9
$LUPREC
 70
     2
  9
$SKETCHINC
 40
1.0
  9
$FILLETRAD
 40
10.0
  9
$AUNITS
 70
     1
  9
$AUPREC
 70
     2
  9
$MENU
  1
.
  9
$ELEVATION
 40
0.0
  9
$PELEVATION
 40
0.0
  9
$THICKNESS
 40
0.0
  9
$LIMCHECK
 70
     0
  9
$CHAMFERA
 40
0.0
  9
$CHAMFERB
 40
0.0
  9
$CHAMFERC
 40
0.0
  9
$CHAMFERD
 40
0.0
  9
$SKPOLY
 70
     0
  9
$TDCREATE
 40
2458625.532487755
  9
$TDUCREATE
 40
2458625.303321088
  9
$TDUPDATE
 40
2458625.53248868
  9
$TDUUPDATE
 40
2458625.303322014
  9
$TDINDWG
 40
0.0000000116
  9
$TDUSRTIMER
 40
0.0000000116
  9
$USRTIMER
 70
     1
  9
$ANGBASE
 50
0.0
  9
$ANGDIR
 70
     0
  9
$PDMODE
 70
     0
  9
$PDSIZE
 40
-1.0
  9
$PLINEWID
 40
0.0
  9
$SPLFRAME
 70
     0
  9
$SPLINETYPE
 70
     6
  9
$SPLINESEGS
 70
     8
  9
$HANDSEED
  5
16E
  9
$SURFTAB1
 70
     6
  9
$SURFTAB2
 70
     6
  9
$SURFTYPE
 70
     6
  9
$SURFU
 70
     6
  9
$SURFV
 70
     6
  9
$UCSBASE
  2

  9
$UCSNAME
  2

  9
$UCSORG
 10
0.0
 20
0.0
 30
0.0
  9
$UCSXDIR
 10
1.0
 20
0.0
 30
0.0
  9
$UCSYDIR
 10
0.0
 20
1.0
 30
0.0
  9
$UCSORTHOREF
  2

  9
$UCSORTHOVIEW
 70
     0
  9
$UCSORGTOP
 10
0.0
 20
0.0
 30
0.0
  9
$UCSORGBOTTOM
 10
0.0
 20
0.0
 30
0.0
  9
$UCSORGLEFT
 10
0.0
 20
0.0
 30
0.0
  9
$UCSORGRIGHT
 10
0.0
 20
0.0
 30
0.0
  9
$UCSORGFRONT
 10
0.0
 20
0.0
 30
0.0
  9
$UCSORGBACK
 10
0.0
 20
0.0
 30
0.0
  9
$PUCSBASE
  2

  9
$PUCSNAME
  2

  9
$PUCSORG
 10
0.0
 20
0.0
 30
0.0
  9
$PUCSXDIR
 10
1.0
 20
0.0
 30
0.0
  9
$PUCSYDIR
 10
0.0
 20
1.0
 30
0.0
  9
$PUCSORTHOREF
  2

  9
$PUCSORTHOVIEW
 70
     0
  9
$PUCSORGTOP
 10
0.0
 20
0.0
 30
0.0
  9
$PUCSORGBOTTOM
 10
0.0
 20
0.0
 30
0.0
  9
$PUCSORGLEFT
 10
0.0
 20
0.0
 30
0.0
  9
$PUCSORGRIGHT
 10
0.0
 20
0.0
 30
0.0
  9
$PUCSORGFRONT
 10
0.0
 20
0.0
 30
0.0
  9
$PUCSORGBACK
 10
0.0
 20
0.0
 30
0.0
  9
$USERI1
 70
     0
  9
$USERI2
 70
     0
  9
$USERI3
 70
     0
  9
$USERI4
 70
     0
  9
$USERI5
 70
     0
  9
$USERR1
 40
0.0
  9
$USERR2
 40
0.0
  9
$USERR3
 40
0.0
  9
$USERR4
 40
0.0
  9
$USERR5
 40
0.0
  9
$WORLDVIEW
 70
     1
  9
$SHADEDGE
 70
     3
  9
$SHADEDIF
 70
    70
  9
$TILEMODE
 70
     1
  9
$MAXACTVP
 70
    64
  9
$PINSBASE
 10
0.0
 20
0.0
 30
0.0
  9
$PLIMCHECK
 70
     0
  9
$PEXTMIN
 10
1.0000000000E+20
 20
1.0000000000E+20
 30
1.0000000000E+20
  9
$PEXTMAX
 10
-1.0000000000E+20
 20
-1.0000000000E+20
 30
-1.0000000000E+20
  9
$PLIMMIN
 10
0.0
 20
0.0
  9
$PLIMMAX
 10
420.0
 20
297.0
  9
$UNITMODE
 70
     0
  9
$VISRETAIN
 70
     1
  9
$PLINEGEN
 70
     0
  9
$PSLTSCALE
 70
     1
  9
$TREEDEPTH
 70
  3020
  9
$CMLSTYLE
  2
Standard
  9
$CMLJUST
 70
     0
  9
$CMLSCALE
 40
20.0
  9
$PROXYGRAPHICS
 70
     1
  9
$MEASUREMENT
 70
     1
  9
$CELWEIGHT
370
    -1
  9
$ENDCAPS
280
     0
  9
$JOINSTYLE
280
     0
  9
$LWDISPLAY
290
     1
  9
$INSUNITS
 70
     4
  9
$HYPERLINKBASE
  1

  9
$STYLESHEET
  1

  9
$XEDIT
290
     1
  9
$CEPSNTYPE
380
     0
  9
$PSTYLEMODE
290
     1
  9
$FINGERPRINTGUID
  2
{760ADB27-D535-4FA5-A023-6C61FC32B761}
  9
$VERSIONGUID
  2
{FAEB1C32-E019-11D5-929B-00C0DF256EC4}
  9
$EXTNAMES
290
     1
  9
$PSVPSCALE
 40
0.0
  9
$OLESTARTUP
290
     0
  0
ENDSEC
  0
SECTION
  2
CLASSES
  0
CLASS
  1
ACDBDICTIONARYWDFLT
  2
AcDbDictionaryWithDefault
  3
ObjectDBX Classes
 90
        0
280
     0
281
     0
  0
CLASS
  1
VISUALSTYLE
  2
AcDbVisualStyle
  3
ObjectDBX Classes
 90
     4095
280
     0
281
     0
  0
CLASS
  1
MATERIAL
  2
AcDbMaterial
  3
ObjectDBX Classes
 90
     1153
280
     0
281
     0
  0
CLASS
  1
SCALE
  2
AcDbScale
  3
ObjectDBX Classes
 90
     1153
280
     0
281
     0
  0
CLASS
  1
SUN
  2
AcDbSun
  3
SCENEOE
 90
     1153
280
     0
281
     0
  0
CLASS
  1
ACDBPLACEHOLDER
  2
AcDbPlaceHolder
  3
ObjectDBX Classes
 90
        0
280
     0
281
     0
  0
CLASS
  1
LAYOUT
  2
AcDbLayout
  3
ObjectDBX Classes
 90
        0
280
     0
281
     0
  0
ENDSEC
  0
SECTION
  2
TABLES
  0
TABLE
  2
VPORT
  5
8
330
0
100
AcDbSymbolTable
 70
     1
  0
VPORT
  5
29
330
8
100
AcDbSymbolTableRecord
100
AcDbViewportTableRecord
  2
*Active
 70
     0
 10
0.0
 20
0.0
 11
1.0
 21
1.0
 12
123.75
 22
87.5
 13
0.0
 23
0.0
 14
10.0
 24
10.0
 15
10.0
 25
10.0
 16
0.0
 26
0.0
 36
1.0
 17
0.0
 27
0.0
 37
0.0
 40
175.0
 41
1.4142857143
 42
50.0
 43
0.0
 44
0.0
 50
0.0
 51
0.0
 71
     0
 72
  2000
 73
     1
 74
     3
 75
     0
 76
     0
 77
     0
 78
     0
281
     0
 65
     1
110
0.0
120
0.0
130
0.0
111
1.0
121
0.0
131
0.0
112
0.0
122
1.0
132
0.0
 79
     0
146
0.0
  0
ENDTAB
  0
TABLE
  2
LTYPE
  5
5
330
0
100
AcDbSymbolTable
 70
     6
  0
LTYPE
  5
14
330
5
100
AcDbSymbolTableRecord
100
AcDbLinetypeTableRecord
  2
ByBlock
 70
     0
  3

 72
    65
 73
     0
 40
0.0
  0
LTYPE
  5
15
330
5
100
AcDbSymbolTableRecord
100
AcDbLinetypeTableRecord
  2
ByLayer
 70
     0
  3

 72
    65
 73
     0
 40
0.0
  0
LTYPE
  5
16
330
5
100
AcDbSymbolTableRecord
100
AcDbLinetypeTableRecord
  2
Continuous
 70
     0
  3
Solid line
 72
    65
 73
     0
 40
0.0
  0
LTYPE
  5
6A
330
5
100
AcDbSymbolTableRecord
100
AcDbLinetypeTableRecord
  2
HIDDEN
 70
     0
  3
Hidden __ __ __ __ __ __ __ __ __ __ __ __ __ __
 72
    65
 73
     2
 40
1.905
 49
1.27
 74
     0
 49
-0.635
 74
     0
  0
LTYPE
  5
6B
330
5
100
AcDbSymbolTableRecord
100
AcDbLinetypeTableRecord
  2
PHANTOM
 70
     0
  3
Phantom ______  __  __  ______  __  __  ______
 72
    65
 73
     6
 40
12.7
 49
6.35
 74
     0
 49
-1.27
 74
     0
 49
1.27
 74
     0
 49
-1.27
 74
     0
 49
1.27
 74
     0
 49
-1.27
 74
     0
  0
LTYPE
  5
6C
330
5
100
AcDbSymbolTableRecord
100
AcDbLinetypeTableRecord
  2
CENTER
 70
     0
  3
Center ____ _ ____ _ ____ _ ____ _ ____ _ ____
 72
    65
 73
     4
 40
10.16
 49
6.35
 74
     0
 49
-1.27
 74
     0
 49
1.27
 74
     0
 49
-1.27
 74
     0
  0
LTYPE
  5
6D
330
5
100
AcDbSymbolTableRecord
100
AcDbLinetypeTableRecord
  2
CENTERX2
 70
     0
  3
Center (2x) ________  __  ________  __  _____
 72
    65
 73
     4
 40
20.32
 49
12.7
 74
     0
 49
-2.54
 74
     0
 49
2.54
 74
     0
 49
-2.54
 74
     0
  0
LTYPE
  5
6E
330
5
100
AcDbSymbolTableRecord
100
AcDbLinetypeTableRecord
  2
DOT2
 70
     0
  3
Dot (.5x) ........................................
 72
    65
 73
     2
 40
0.635
 49
0.0
 74
     0
 49
-0.635
 74
     0
  0
ENDTAB
  0
TABLE
  2
LAYER
  5
2
330
0
100
AcDbSymbolTable
 70
     8
  0
LAYER
  5
10
330
2
100
AcDbSymbolTableRecord
100
AcDbLayerTableRecord
  2
0
 70
     0
 62
     7
  6
Continuous
370
    -3
390
F
  0
LAYER
  5
6F
330
2
100
AcDbSymbolTableRecord
100
AcDbLayerTableRecord
  2
FORMAT
 70
     0
 62
     7
  6
Continuous
370
    -3
390
F
  0
LAYER
  5
70
330
2
100
AcDbSymbolTableRecord
100
AcDbLayerTableRecord
  2
SLD-0
 70
     0
 62
     2
  6
Continuous
370
    -3
390
F
  0
LAYER
  5
71
330
2
100
AcDbSymbolTableRecord
100
AcDbLayerTableRecord
  2
DIM
 70
     0
 62
   179
  6
Continuous
370
    -3
390
F
  0
LAYER
  5
72
330
2
100
AcDbSymbolTableRecord
100
AcDbLayerTableRecord
  2
SLD-DEFPOINTS
 70
     0
 62
   179
  6
Continuous
370
    -3
390
F
  0
LAYER
  5
73
330
2
100
AcDbSymbolTableRecord
100
AcDbLayerTableRecord
  2
HAT
 70
     0
 62
   135
  6
Continuous
370
    -3
390
F
  0
LAYER
  5
74
330
2
100
AcDbSymbolTableRecord
100
AcDbLayerTableRecord
  2
JOB
 70
     0
 62
   201
  6
Continuous
370
    -3
390
F
  0
LAYER
  5
75
330
2
100
AcDbSymbolTableRecord
100
AcDbLayerTableRecord
  2
INSPECTION_REPORT
 70
     0
 62
   255
  6
Continuous
370
    -3
390
F
  0
ENDTAB
  0
TABLE
  2
STYLE
  5
3
330
0
100
AcDbSymbolTable
 70
     4
  0
STYLE
  5
11
330
3
100
AcDbSymbolTableRecord
100
AcDbTextStyleTableRecord
  2
Standard
 70
     0
 40
0.0
 41
1.0
 50
0.0
 71
     0
 42
3.2337962963
  3
txt
  4

  0
STYLE
  5
96
330
3
100
AcDbSymbolTableRecord
100
AcDbTextStyleTableRecord
  2
SLDTEXTSTYLE0
 70
     0
 40
0.0
 41
0.7
 50
0.0
 71
     0
 42
3.2337962963
  3
TXT
  4

  0
STYLE
  5
98
330
3
100
AcDbSymbolTableRecord
100
AcDbTextStyleTableRecord
  2
SLDTEXTSTYLE1
 70
     0
 40
0.0
 41
0.75
 50
0.0
 71
     0
 42
3.2337962963
  3
TXT
  4

  0
STYLE
  5
AB
330
3
100
AcDbSymbolTableRecord
100
AcDbTextStyleTableRecord
  2
SLDTEXTSTYLE2
 70
     0
 40
0.0
 41
0.6875
 50
0.0
 71
     0
 42
3.2337962963
  3
TXT
  4

  0
ENDTAB
  0
TABLE
  2
VIEW
  5
6
330
0
100
AcDbSymbolTable
 70
     0
  0
ENDTAB
  0
TABLE
  2
UCS
  5
7
330
0
100
AcDbSymbolTable
 70
     0
  0
ENDTAB
  0
TABLE
  2
APPID
  5
9
330
0
100
AcDbSymbolTable
 70
     1
  0
APPID
  5
12
330
9
100
AcDbSymbolTableRecord
100
AcDbRegAppTableRecord
  2
ACAD
 70
     0
  0
ENDTAB
  0
TABLE
  2
DIMSTYLE
  5
A
330
0
100
AcDbSymbolTable
 70
     3
100
AcDbDimStyleTable
  0
DIMSTYLE
105
27
330
A
100
AcDbSymbolTableRecord
100
AcDbDimStyleTableRecord
  2
ISO-25
 70
     0
 41
2.5
 42
0.625
 43
3.75
 44
1.25
 73
     0
 74
     0
 77
     1
 78
     8
140
2.5
141
2.5
143
0.0393700787
147
0.625
171
     3
172
     1
178
     0
271
     2
272
     2
274
     3
278
    44
283
     0
284
     8
340
11
  0
DIMSTYLE
105
142
102
{ACAD_REACTORS
330
141
330
14D
330
157
102
}
330
A
100
AcDbSymbolTableRecord
100
AcDbDimStyleTableRecord
  2
SLDDIMSTYLE0
 70
     0
 41
2.7516666667
 44
0.0
 45
0.000000001
 73
     0
 74
     0
 77
     1
 78
    12
 79
     3
140
2.4253472222
147
0.6063368056
173
     1
178
     0
271
     2
272
     2
276
     2
284
    12
340
96
  0
DIMSTYLE
105
163
102
{ACAD_REACTORS
330
162
102
}
330
A
100
AcDbSymbolTableRecord
100
AcDbDimStyleTableRecord
  2
SLDDIMSTYLE1
 70
     0
 41
2.7516666667
 44
0.0
 45
0.000000001
 73
     0
 74
     0
 77
     1
 78
     4
 79
     1
140
2.4253472222
147
0.6063368056
173
     1
178
     0
271
     2
272
     2
276
     2
284
    12
340
96
  0
ENDTAB
  0
TABLE
  2
BLOCK_RECORD
  5
1
330
0
100
AcDbSymbolTable
 70
     5
  0
BLOCK_RECORD
  5
1F
330
1
100
AcDbSymbolTableRecord
100
AcDbBlockTableRecord
  2
*Model_Space
340
22
  0
BLOCK_RECORD
  5
1B
330
1
100
AcDbSymbolTableRecord
100
AcDbBlockTableRecord
  2
*Paper_Space
340
1E
  0
BLOCK_RECORD
  5
23
330
1
100
AcDbSymbolTableRecord
100
AcDbBlockTableRecord
  2
*Paper_Space0
340
26
  0
BLOCK_RECORD
  5
143
330
1
100
AcDbSymbolTableRecord
100
AcDbBlockTableRecord
  2
_D
340
0
  0
BLOCK_RECORD
  5
14E
330
1
100
AcDbSymbolTableRecord
100
AcDbBlockTableRecord
  2
_D_1
340
0
  0
BLOCK_RECORD
  5
158
330
1
100
AcDbSymbolTableRecord
100
AcDbBlockTableRecord
  2
_D_2
340
0
  0
BLOCK_RECORD
  5
164
330
1
100
AcDbSymbolTableRecord
100
AcDbBlockTableRecord
  2
_D_3
340
0
  0
ENDTAB
  0
ENDSEC
  0
SECTION
  2
BLOCKS
  0
BLOCK
  5
20
330
1F
100
AcDbEntity
  8
0
100
AcDbBlockBegin
  2
*Model_Space
 70
     0
 10
0.0
 20
0.0
 30
0.0
  3
*Model_Space
  1
*Model_Space
  0
ENDBLK
  5
21
330
1F
100
AcDbEntity
  8
0
100
AcDbBlockEnd
  0
BLOCK
  5
1C
330
1B
100
AcDbEntity
 67
     1
  8
0
100
AcDbBlockBegin
  2
*Paper_Space
 70
     0
 10
0.0
 20
0.0
 30
0.0
  3
*Paper_Space
  1
*Paper_Space
  0
ENDBLK
  5
1D
330
1B
100
AcDbEntity
 67
     1
  8
0
100
AcDbBlockEnd
  0
BLOCK
  5
24
330
23
100
AcDbEntity
  8
0
100
AcDbBlockBegin
  2
*Paper_Space0
 70
     0
 10
0.0
 20
0.0
 30
0.0
  3
*Paper_Space0
  1
*Paper_Space0
  0
ENDBLK
  5
25
330
23
100
AcDbEntity
  8
0
100
AcDbBlockEnd
  0
BLOCK
  5
144
330
143
100
AcDbEntity
  8
0
100
AcDbBlockBegin
  2
_D
 70
     0
 10
0.0
 20
0.0
 30
0.0
  3
_D
  1
_D
  0
SOLID
  5
146
330
143
100
AcDbEntity
  8
DIM
100
AcDbTrace
 10
207.5892789581
 20
108.4470582175
 30
0.0
 11
207.1659456248
 21
105.6953915509
 31
0.0
 12
208.0126122914
 22
105.6953915509
 32
0.0
 13
208.0126122914
 23
105.6953915509
 33
0.0
  0
SOLID
  5
147
330
143
100
AcDbEntity
  8
DIM
100
AcDbTrace
 10
207.5892789581
 20
76.4470582175
 30
0.0
 11
208.0126122914
 21
79.1987248842
 31
0.0
 12
207.1659456248
 22
79.1987248842
 32
0.0
 13
207.1659456248
 23
79.1987248842
 33
0.0
  0
LINE
  5
148
330
143
100
AcDbEntity
  8
DIM
100
AcDbLine
 10
199.4453459397
 20
108.4470582175
 30
0.0
 11
208.4226122914
 21
108.4470582175
 31
0.0
  0
LINE
  5
149
330
143
100
AcDbEntity
  8
DIM
100
AcDbLine
 10
199.4453459397
 20
76.4470582175
 30
0.0
 11
208.4226122914
 21
76.4470582175
 31
0.0
  0
LINE
  5
14A
330
143
100
AcDbEntity
  8
DIM
100
AcDbLine
 10
207.5892789581
 20
108.4470582175
 30
0.0
 11
207.5892789581
 21
76.4470582175
 31
0.0
  0
MTEXT
  5
14B
330
143
100
AcDbEntity
  8
DIM
100
AcDbMText
 10
204.4628419022
 20
88.9324381301
 30
0.0
 40
2.4253472222
 41
0.0
 71
     1
 72
     1
  1
%%c
  7
SLDTEXTSTYLE0
 11
-7.044195017643634E-15
 21
1.0
 31
0.0
 73
     1
 44
1.0
  0
MTEXT
  5
14C
330
143
100
AcDbEntity
  8
DIM
100
AcDbMText
 10
204.4628419022
 20
92.6829680465
 30
0.0
 40
2.4253472222
 41
0.0
 71
     1
 72
     1
  1
32
  7
SLDTEXTSTYLE0
 11
-7.044195017643634E-15
 21
1.0
 31
0.0
 73
     1
 44
1.0
  0
ENDBLK
  5
145
330
143
100
AcDbEntity
  8
0
100
AcDbBlockEnd
  0
BLOCK
  5
14F
330
14E
100
AcDbEntity
  8
0
100
AcDbBlockBegin
  2
_D_1
 70
     0
 10
0.0
 20
0.0
 30
0.0
  3
_D_1
  1
_D_1
  0
SOLID
  5
151
330
14E
100
AcDbEntity
  8
DIM
100
AcDbTrace
 10
201.6887377982
 20
52.6127322798
 30
0.0
 11
198.9370711316
 21
53.0360656132
 31
0.0
 12
198.9370711316
 22
52.1893989465
 32
0.0
 13
198.9370711316
 23
52.1893989465
 33
0.0
  0
SOLID
  5
152
330
14E
100
AcDbEntity
  8
DIM
100
AcDbTrace
 10
101.6887377985
 20
52.6127322798
 30
0.0
 11
104.4404044651
 21
52.1893989465
 31
0.0
 12
104.4404044651
 22
53.0360656132
 32
0.0
 13
104.4404044651
 23
53.0360656132
 33
0.0
  0
LINE
  5
153
330
14E
100
AcDbEntity
  8
DIM
100
AcDbLine
 10
201.6887377982
 20
80.9427692375
 30
0.0
 11
201.6887377982
 21
51.7793989465
 31
0.0
  0
LINE
  5
154
330
14E
100
AcDbEntity
  8
DIM
100
AcDbLine
 10
101.6887377985
 20
69.3887248842
 30
0.0
 11
101.6887377985
 21
51.7793989465
 31
0.0
  0
LINE
  5
155
330
14E
100
AcDbEntity
  8
DIM
100
AcDbLine
 10
201.6887377982
 20
52.6127322798
 30
0.0
 11
101.6887377985
 21
52.6127322798
 31
0.0
  0
MTEXT
  5
156
330
14E
100
AcDbEntity
  8
DIM
100
AcDbMText
 10
149.2297051045
 20
55.7391693358
 30
0.0
 40
2.4253472222
 41
0.0
 71
     1
 72
     1
  1
100
  7
SLDTEXTSTYLE0
 73
     1
 44
1.0
  0
ENDBLK
  5
150
330
14E
100
AcDbEntity
  8
0
100
AcDbBlockEnd
  0
BLOCK
  5
159
330
158
100
AcDbEntity
  8
0
100
AcDbBlockBegin
  2
_D_2
 70
     0
 10
0.0
 20
0.0
 30
0.0
  3
_D_2
  1
_D_2
  0
SOLID
  5
15B
330
158
100
AcDbEntity
  8
DIM
100
AcDbTrace
 10
27.9539412262
 20
60.9470582175
 30
0.0
 11
28.3772745595
 21
63.6987248842
 31
0.0
 12
27.5306078929
 22
63.6987248842
 32
0.0
 13
27.5306078929
 23
63.6987248842
 33
0.0
  0
SOLID
  5
15C
330
158
100
AcDbEntity
  8
DIM
100
AcDbTrace
 10
27.9539412262
 20
123.9470582175
 30
0.0
 11
27.5306078929
 21
121.1953915509
 31
0.0
 12
28.3772745595
 22
121.1953915509
 32
0.0
 13
28.3772745595
 23
121.1953915509
 33
0.0
  0
LINE
  5
15D
330
158
100
AcDbEntity
  8
DIM
100
AcDbLine
 10
104.0210898912
 20
60.9470582175
 30
0.0
 11
27.1206078929
 21
60.9470582175
 31
0.0
  0
LINE
  5
15E
330
158
100
AcDbEntity
  8
DIM
100
AcDbLine
 10
104.0210898912
 20
123.9470582175
 30
0.0
 11
27.1206078929
 21
123.9470582175
 31
0.0
  0
LINE
  5
15F
330
158
100
AcDbEntity
  8
DIM
100
AcDbLine
 10
27.9539412262
 20
60.9470582175
 30
0.0
 11
27.9539412262
 21
123.9470582175
 31
0.0
  0
MTEXT
  5
160
330
158
100
AcDbEntity
  8
DIM
100
AcDbMText
 10
24.8275041703
 20
88.9324381301
 30
0.0
 40
2.4253472222
 41
0.0
 71
     1
 72
     1
  1
%%c
  7
SLDTEXTSTYLE0
 11
6.123233995736766E-17
 21
1.0
 31
0.0
 73
     1
 44
1.0
  0
MTEXT
  5
161
330
158
100
AcDbEntity
  8
DIM
100
AcDbMText
 10
24.8275041703
 20
92.6829680465
 30
0.0
 40
2.4253472222
 41
0.0
 71
     1
 72
     1
  1
63
  7
SLDTEXTSTYLE0
 11
6.123233995736766E-17
 21
1.0
 31
0.0
 73
     1
 44
1.0
  0
ENDBLK
  5
15A
330
158
100
AcDbEntity
  8
0
100
AcDbBlockEnd
  0
BLOCK
  5
165
330
164
100
AcDbEntity
  8
0
100
AcDbBlockBegin
  2
_D_3
 70
     0
 10
0.0
 20
0.0
 30
0.0
  3
_D_3
  1
_D_3
  0
SOLID
  5
167
330
164
100
AcDbEntity
  8
DIM
100
AcDbTrace
 10
36.2887377985
 20
47.6127322798
 30
0.0
 11
39.0404044651
 21
47.1893989465
 31
0.0
 12
39.0404044651
 22
48.0360656132
 32
0.0
 13
39.0404044651
 23
48.0360656132
 33
0.0
  0
SOLID
  5
168
330
164
100
AcDbEntity
  8
DIM
100
AcDbTrace
 10
201.6887377982
 20
47.6127322798
 30
0.0
 11
198.9370711316
 21
48.0360656132
 31
0.0
 12
198.9370711316
 22
47.1893989465
 32
0.0
 13
198.9370711316
 23
47.1893989465
 33
0.0
  0
LINE
  5
169
330
164
100
AcDbEntity
  8
DIM
100
AcDbLine
 10
36.2887377985
 20
79.7910581668
 30
0.0
 11
36.2887377985
 21
46.7793989465
 31
0.0
  0
LINE
  5
16A
330
164
100
AcDbEntity
  8
DIM
100
AcDbLine
 10
201.6887377982
 20
80.9427692375
 30
0.0
 11
201.6887377982
 21
46.7793989465
 31
0.0
  0
LINE
  5
16B
330
164
100
AcDbEntity
  8
DIM
100
AcDbLine
 10
36.2887377985
 20
47.6127322798
 30
0.0
 11
201.6887377982
 21
47.6127322798
 31
0.0
  0
MTEXT
  5
16C
330
164
100
AcDbEntity
  8
DIM
100
AcDbMText
 10
114.4591771151
 20
50.7391693358
 30
0.0
 40
2.4253472222
 41
0.0
 71
     1
 72
     1
  1
165.40
  7
SLDTEXTSTYLE0
 73
     1
 44
1.0
  0
ENDBLK
  5
166
330
164
100
AcDbEntity
  8
0
100
AcDbBlockEnd
  0
ENDSEC
  0
SECTION
  2
ENTITIES
  0
LINE
  5
76
330
1F
100
AcDbEntity
  8
DIM
100
AcDbLine
 10
87.2536872408
 20
8.1591595474
 30
0.0
 11
87.2536872408
 21
3.9924928807
 31
0.0
  0
LINE
  5
77
330
1F
100
AcDbEntity
  8
DIM
100
AcDbLine
 10
212.0580014127
 20
8.1591595474
 30
0.0
 11
212.0580014127
 21
3.9924928807
 31
0.0
  0
LINE
  5
78
330
1F
100
AcDbEntity
  8
DIM
100
AcDbLine
 10
197.876424943
 20
8.1591595474
 30
0.0
 11
197.876424943
 21
3.9924928807
 31
0.0
  0
LINE
  5
79
330
1F
100
AcDbEntity
  8
DIM
100
AcDbLine
 10
232.4203539075
 20
3.9924928807
 30
0.0
 11
232.4203539075
 21
8.1591595474
 31
0.0
  0
LINE
  5
7A
330
1F
100
AcDbEntity
  8
DIM
100
AcDbLine
 10
93.7536872408
 20
8.1591595474
 30
0.0
 11
93.7536872408
 21
3.9924928807
 31
0.0
  0
LINE
  5
7B
330
1F
100
AcDbEntity
  8
DIM
100
AcDbLine
 10
109.7461476023
 20
8.1591595474
 30
0.0
 11
109.7461476023
 21
3.9924928807
 31
0.0
  0
LINE
  5
7C
330
1F
100
AcDbEntity
  8
DIM
100
AcDbLine
 10
243.2536872408
 20
3.9924928807
 30
0.0
 11
243.2536872408
 21
64.200826214
 31
0.0
  0
LINE
  5
7D
330
1F
100
AcDbEntity
  8
DIM
100
AcDbLine
 10
238.1825039122
 20
50.0341595474
 30
0.0
 11
243.2536872408
 21
50.0341595474
 31
0.0
  0
LINE
  5
7E
330
1F
100
AcDbEntity
  8
DIM
100
AcDbLine
 10
124.2527923771
 20
7.5341595474
 30
0.0
 11
124.2527923771
 21
3.9924928807
 31
0.0
  0
LINE
  5
7F
330
1F
100
AcDbEntity
  8
DIM
100
AcDbLine
 10
163.9699576337
 20
8.1591595474
 30
0.0
 11
163.9699576337
 21
3.9924928807
 31
0.0
  0
LINE
  5
80
330
1F
100
AcDbEntity
  8
DIM
100
AcDbLine
 10
124.2527923771
 20
8.1591595474
 30
0.0
 11
124.2527923771
 21
7.5341595474
 31
0.0
  0
LINE
  5
81
330
1F
100
AcDbEntity
  8
DIM
100
AcDbLine
 10
239.0870205742
 20
14.6174328807
 30
0.0
 11
243.2536872408
 21
14.6174328807
 31
0.0
  0
LINE
  5
82
330
1F
100
AcDbEntity
  8
DIM
100
AcDbLine
 10
239.0870205742
 20
166.4924928807
 30
0.0
 11
8.2536872408
 21
166.4924928807
 31
0.0
  0
LINE
  5
83
330
1F
100
AcDbEntity
  8
DIM
100
AcDbLine
 10
243.2536872408
 20
170.6591595474
 30
0.0
 11
4.0870205742
 21
170.6591595474
 31
0.0
  0
LINE
  5
84
330
1F
100
AcDbEntity
  8
DIM
100
AcDbLine
 10
8.2536872408
 20
166.4924928807
 30
0.0
 11
8.2536872408
 21
8.1591595474
 31
0.0
  0
LINE
  5
85
330
1F
100
AcDbEntity
  8
DIM
100
AcDbLine
 10
4.0870205742
 20
170.6591595474
 30
0.0
 11
4.0870205742
 21
3.9924928807
 31
0.0
  0
LINE
  5
86
330
1F
100
AcDbEntity
  8
DIM
100
AcDbLine
 10
8.2536872408
 20
45.6591595474
 30
0.0
 11
4.0870205742
 21
45.6591595474
 31
0.0
  0
LINE
  5
87
330
1F
100
AcDbEntity
  8
DIM
100
AcDbLine
 10
4.0870205742
 20
87.325826214
 30
0.0
 11
8.2536872408
 21
87.325826214
 31
0.0
  0
LINE
  5
88
330
1F
100
AcDbEntity
  8
DIM
100
AcDbLine
 10
4.0870205742
 20
3.9924928807
 30
0.0
 11
243.2536872408
 21
3.9924928807
 31
0.0
  0
LINE
  5
89
330
1F
100
AcDbEntity
  8
DIM
100
AcDbLine
 10
8.2536872408
 20
8.1591595474
 30
0.0
 11
243.2536872408
 21
8.1591595474
 31
0.0
  0
LINE
  5
8A
330
1F
100
AcDbEntity
  8
DIM
100
AcDbLine
 10
40.3370205742
 20
3.9924928807
 30
0.0
 11
40.3370205742
 21
8.1591595474
 31
0.0
  0
LINE
  5
8B
330
1F
100
AcDbEntity
  8
DIM
100
AcDbLine
 10
82.0036872408
 20
8.1591595474
 30
0.0
 11
82.0036872408
 21
3.9924928807
 31
0.0
  0
LINE
  5
8C
330
1F
100
AcDbEntity
  8
DIM
100
AcDbLine
 10
8.2536872408
 20
128.9924928807
 30
0.0
 11
4.0870205742
 21
128.9924928807
 31
0.0
  0
LINE
  5
8D
330
1F
100
AcDbEntity
  8
DIM
100
AcDbLine
 10
40.3370205742
 20
166.4924928807
 30
0.0
 11
40.3370205742
 21
170.6591595474
 31
0.0
  0
LINE
  5
8E
330
1F
100
AcDbEntity
  8
DIM
100
AcDbLine
 10
82.0036872408
 20
170.6591595474
 30
0.0
 11
82.0036872408
 21
166.4924928807
 31
0.0
  0
LINE
  5
8F
330
1F
100
AcDbEntity
  8
DIM
100
AcDbLine
 10
123.6703539075
 20
170.6591595474
 30
0.0
 11
123.6703539075
 21
166.4924928807
 31
0.0
  0
LINE
  5
90
330
1F
100
AcDbEntity
  8
DIM
100
AcDbLine
 10
239.0870205742
 20
8.1591595474
 30
0.0
 11
239.0870205742
 21
166.4924928807
 31
0.0
  0
LINE
  5
91
330
1F
100
AcDbEntity
  8
DIM
100
AcDbLine
 10
243.2536872408
 20
64.200826214
 30
0.0
 11
243.2536872408
 21
170.6591595474
 31
0.0
  0
LINE
  5
92
330
1F
100
AcDbEntity
  8
DIM
100
AcDbLine
 10
243.2536872408
 20
87.325826214
 30
0.0
 11
239.0870205742
 21
87.325826214
 31
0.0
  0
LINE
  5
93
330
1F
100
AcDbEntity
  8
DIM
100
AcDbLine
 10
165.3370205742
 20
170.6591595474
 30
0.0
 11
165.3370205742
 21
166.4924928807
 31
0.0
  0
LINE
  5
94
330
1F
100
AcDbEntity
  8
DIM
100
AcDbLine
 10
207.0036872408
 20
166.4924928807
 30
0.0
 11
207.0036872408
 21
170.6591595474
 31
0.0
  0
LINE
  5
95
330
1F
100
AcDbEntity
  8
DIM
100
AcDbLine
 10
239.0870205742
 20
128.9924928807
 30
0.0
 11
243.2536872408
 21
128.9924928807
 31
0.0
  0
MTEXT
  5
97
330
1F
100
AcDbEntity
  8
DIM
100
AcDbMText
 10
11.1210511919
 20
161.6263586553
 30
0.0
 40
3.5277777778
 41
0.0
 71
     1
 72
     1
  1
BT 40 ER 16 100 AD+B/6.3G15000 SL
  7
SLDTEXTSTYLE0
 73
     1
 44
1.0
  0
MTEXT
  5
99
330
1F
100
AcDbEntity
  8
DIM
 62
     7
100
AcDbMText
 10
164.7773155389
 20
6.5016262719
 30
0.0
 40
1.2488333333
 41
0.0
 71
     1
 72
     1
  1
WEIGHT:
  7
SLDTEXTSTYLE1
 73
     1
 44
1.0
  0
MTEXT
  5
9A
330
1F
100
AcDbEntity
  8
DIM
 62
     7
100
AcDbMText
 10
240.4975639623
 20
68.2838445902
 30
0.0
 40
1.5434027778
 41
0.0
 71
     1
 72
     1
  1
C
  7
SLDTEXTSTYLE1
 73
     1
 44
1.0
  0
MTEXT
  5
9B
330
1F
100
AcDbEntity
  8
DIM
 62
     7
100
AcDbMText
 10
235.8696505162
 20
12.3783183197
 30
0.0
 40
2.4253472222
 41
0.0
 71
     1
 72
     1
  1
A4
  7
SLDTEXTSTYLE1
 73
     1
 44
1.0
  0
MTEXT
  5
9C
330
1F
100
AcDbEntity
  8
DIM
 62
     7
100
AcDbMText
 10
227.1425794631
 20
169.549173217
 30
0.0
 40
1.5434027778
 41
0.0
 71
     1
 72
     1
  1
6
  7
SLDTEXTSTYLE1
 73
     1
 44
1.0
  0
MTEXT
  5
9D
330
1F
100
AcDbEntity
  8
DIM
 62
     7
100
AcDbMText
 10
185.4759127964
 20
169.549173217
 30
0.0
 40
1.5434027778
 41
0.0
 71
     1
 72
     1
  1
5
  7
SLDTEXTSTYLE1
 73
     1
 44
1.0
  0
MTEXT
  5
9E
330
1F
100
AcDbEntity
  8
DIM
 62
     7
100
AcDbMText
 10
240.4759161297
 20
150.799173217
 30
0.0
 40
1.5434027778
 41
0.0
 71
     1
 72
     1
  1
A
  7
SLDTEXTSTYLE1
 73
     1
 44
1.0
  0
MTEXT
  5
9F
330
1F
100
AcDbEntity
  8
DIM
 62
     7
100
AcDbMText
 10
240.4759161297
 20
109.1325065503
 30
0.0
 40
1.5434027778
 41
0.0
 71
     1
 72
     1
  1
B
  7
SLDTEXTSTYLE1
 73
     1
 44
1.0
  0
MTEXT
  5
A0
330
1F
100
AcDbEntity
  8
DIM
 62
     7
100
AcDbMText
 10
143.8092461297
 20
169.549173217
 30
0.0
 40
1.5434027778
 41
0.0
 71
     1
 72
     1
  1
4
  7
SLDTEXTSTYLE1
 73
     1
 44
1.0
  0
MTEXT
  5
A1
330
1F
100
AcDbEntity
  8
DIM
 62
     7
100
AcDbMText
 10
19.1564683519
 20
169.549173217
 30
0.0
 40
1.5434027778
 41
0.0
 71
     1
 72
     1
  1
1
  7
SLDTEXTSTYLE1
 73
     1
 44
1.0
  0
MTEXT
  5
A2
330
1F
100
AcDbEntity
  8
DIM
 62
     7
100
AcDbMText
 10
60.4759127964
 20
169.549173217
 30
0.0
 40
1.5434027778
 41
0.0
 71
     1
 72
     1
  1
2
  7
SLDTEXTSTYLE1
 73
     1
 44
1.0
  0
MTEXT
  5
A3
330
1F
100
AcDbEntity
  8
DIM
 62
     7
100
AcDbMText
 10
102.1425794631
 20
169.549173217
 30
0.0
 40
1.5434027778
 41
0.0
 71
     1
 72
     1
  1
3
  7
SLDTEXTSTYLE1
 73
     1
 44
1.0
  0
MTEXT
  5
A4
330
1F
100
AcDbEntity
  8
DIM
 62
     7
100
AcDbMText
 10
5.4759094631
 20
150.799173217
 30
0.0
 40
1.5434027778
 41
0.0
 71
     1
 72
     1
  1
A
  7
SLDTEXTSTYLE1
 73
     1
 44
1.0
  0
MTEXT
  5
A5
330
1F
100
AcDbEntity
  8
DIM
 62
     7
100
AcDbMText
 10
60.4759127964
 20
7.049173217
 30
0.0
 40
1.5434027778
 41
0.0
 71
     1
 72
     1
  1
2
  7
SLDTEXTSTYLE1
 73
     1
 44
1.0
  0
MTEXT
  5
A6
330
1F
100
AcDbEntity
  8
DIM
 62
     7
100
AcDbMText
 10
19.1564683519
 20
7.049173217
 30
0.0
 40
1.5434027778
 41
0.0
 71
     1
 72
     1
  1
1
  7
SLDTEXTSTYLE1
 73
     1
 44
1.0
  0
MTEXT
  5
A7
330
1F
100
AcDbEntity
  8
DIM
 62
     7
100
AcDbMText
 10
5.4759094631
 20
25.799173217
 30
0.0
 40
1.5434027778
 41
0.0
 71
     1
 72
     1
  1
D
  7
SLDTEXTSTYLE1
 73
     1
 44
1.0
  0
MTEXT
  5
A8
330
1F
100
AcDbEntity
  8
DIM
 62
     7
100
AcDbMText
 10
5.4759094631
 20
67.4658398837
 30
0.0
 40
1.5434027778
 41
0.0
 71
     1
 72
     1
  1
C
  7
SLDTEXTSTYLE1
 73
     1
 44
1.0
  0
MTEXT
  5
A9
330
1F
100
AcDbEntity
  8
DIM
 62
     7
100
AcDbMText
 10
5.4759094631
 20
109.1325065503
 30
0.0
 40
1.5434027778
 41
0.0
 71
     1
 72
     1
  1
B
  7
SLDTEXTSTYLE1
 73
     1
 44
1.0
  0
MTEXT
  5
AA
330
1F
100
AcDbEntity
  8
DIM
 62
     7
100
AcDbMText
 10
240.4975639623
 20
68.2838445902
 30
0.0
 40
1.5434027778
 41
0.0
 71
     1
 72
     1
  1
C
  7
SLDTEXTSTYLE1
 73
     1
 44
1.0
  0
MTEXT
  5
AC
330
1F
100
AcDbEntity
  8
DIM
 62
     7
100
AcDbMText
 10
213.7711381771
 20
6.4092322762
 30
0.0
 40
1.25
 41
0.0
 71
     1
 72
     1
  1
SHEET 1 OF 1
  7
SLDTEXTSTYLE2
 73
     1
 44
1.0
  0
MTEXT
  5
AD
330
1F
100
AcDbEntity
  8
DIM
 62
     7
100
AcDbMText
 10
125.3098169862
 20
6.544472903
 30
0.0
 40
1.25
 41
0.0
 71
     1
 72
     1
  1
MATERIAL:
  7
SLDTEXTSTYLE1
 73
     1
 44
1.0
  0
MTEXT
  5
AE
330
1F
100
AcDbEntity
  8
DIM
 62
     7
100
AcDbMText
 10
227.1425794631
 20
169.549173217
 30
0.0
 40
1.5434027778
 41
0.0
 71
     1
 72
     1
  1
6
  7
SLDTEXTSTYLE1
 73
     1
 44
1.0
  0
MTEXT
  5
AF
330
1F
100
AcDbEntity
  8
DIM
 62
     7
100
AcDbMText
 10
185.4759127964
 20
169.549173217
 30
0.0
 40
1.5434027778
 41
0.0
 71
     1
 72
     1
  1
5
  7
SLDTEXTSTYLE1
 73
     1
 44
1.0
  0
MTEXT
  5
B0
330
1F
100
AcDbEntity
  8
DIM
 62
     7
100
AcDbMText
 10
240.4759161297
 20
150.799173217
 30
0.0
 40
1.5434027778
 41
0.0
 71
     1
 72
     1
  1
A
  7
SLDTEXTSTYLE1
 73
     1
 44
1.0
  0
MTEXT
  5
B1
330
1F
100
AcDbEntity
  8
DIM
 62
     7
100
AcDbMText
 10
240.4759161297
 20
109.1325065503
 30
0.0
 40
1.5434027778
 41
0.0
 71
     1
 72
     1
  1
B
  7
SLDTEXTSTYLE1
 73
     1
 44
1.0
  0
MTEXT
  5
B2
330
1F
100
AcDbEntity
  8
DIM
 62
     7
100
AcDbMText
 10
143.8092461297
 20
169.549173217
 30
0.0
 40
1.5434027778
 41
0.0
 71
     1
 72
     1
  1
4
  7
SLDTEXTSTYLE1
 73
     1
 44
1.0
  0
MTEXT
  5
B3
330
1F
100
AcDbEntity
  8
DIM
 62
     7
100
AcDbMText
 10
19.1564683519
 20
169.549173217
 30
0.0
 40
1.5434027778
 41
0.0
 71
     1
 72
     1
  1
1
  7
SLDTEXTSTYLE1
 73
     1
 44
1.0
  0
MTEXT
  5
B4
330
1F
100
AcDbEntity
  8
DIM
 62
     7
100
AcDbMText
 10
60.4759127964
 20
169.549173217
 30
0.0
 40
1.5434027778
 41
0.0
 71
     1
 72
     1
  1
2
  7
SLDTEXTSTYLE1
 73
     1
 44
1.0
  0
MTEXT
  5
B5
330
1F
100
AcDbEntity
  8
DIM
 62
     7
100
AcDbMText
 10
102.1425794631
 20
169.549173217
 30
0.0
 40
1.5434027778
 41
0.0
 71
     1
 72
     1
  1
3
  7
SLDTEXTSTYLE1
 73
     1
 44
1.0
  0
MTEXT
  5
B6
330
1F
100
AcDbEntity
  8
DIM
 62
     7
100
AcDbMText
 10
5.4759094631
 20
150.799173217
 30
0.0
 40
1.5434027778
 41
0.0
 71
     1
 72
     1
  1
A
  7
SLDTEXTSTYLE1
 73
     1
 44
1.0
  0
MTEXT
  5
B7
330
1F
100
AcDbEntity
  8
DIM
 62
     7
100
AcDbMText
 10
60.4759127964
 20
7.049173217
 30
0.0
 40
1.5434027778
 41
0.0
 71
     1
 72
     1
  1
2
  7
SLDTEXTSTYLE1
 73
     1
 44
1.0
  0
MTEXT
  5
B8
330
1F
100
AcDbEntity
  8
DIM
 62
     7
100
AcDbMText
 10
19.1564683519
 20
7.049173217
 30
0.0
 40
1.5434027778
 41
0.0
 71
     1
 72
     1
  1
1
  7
SLDTEXTSTYLE1
 73
     1
 44
1.0
  0
MTEXT
  5
B9
330
1F
100
AcDbEntity
  8
DIM
 62
     7
100
AcDbMText
 10
5.4759094631
 20
25.799173217
 30
0.0
 40
1.5434027778
 41
0.0
 71
     1
 72
     1
  1
D
  7
SLDTEXTSTYLE1
 73
     1
 44
1.0
  0
MTEXT
  5
BA
330
1F
100
AcDbEntity
  8
DIM
 62
     7
100
AcDbMText
 10
5.4759094631
 20
67.4658398837
 30
0.0
 40
1.5434027778
 41
0.0
 71
     1
 72
     1
  1
C
  7
SLDTEXTSTYLE1
 73
     1
 44
1.0
  0
MTEXT
  5
BB
330
1F
100
AcDbEntity
  8
DIM
 62
     7
100
AcDbMText
 10
5.4759094631
 20
109.1325065503
 30
0.0
 40
1.5434027778
 41
0.0
 71
     1
 72
     1
  1
B
  7
SLDTEXTSTYLE1
 73
     1
 44
1.0
  0
LINE
  5
BC
330
1F
100
AcDbEntity
  8
0
  6
Continuous
 62
     7
370
    15
100
AcDbLine
 10
104.8544232245
 20
60.9470582175
 30
0.0
 11
113.3946896886
 21
60.9470582175
 31
0.0
  0
LINE
  5
BD
330
1F
100
AcDbEntity
  8
0
  6
Continuous
 62
     7
370
    15
100
AcDbLine
 10
113.3946896886
 20
123.9470582175
 30
0.0
 11
104.8544232245
 21
123.9470582175
 31
0.0
  0
LINE
  5
BE
330
1F
100
AcDbEntity
  8
0
  6
Continuous
 62
     7
370
    15
100
AcDbLine
 10
123.2368043599
 20
60.9470582175
 30
0.0
 11
127.5230523735
 21
60.9470582175
 31
0.0
  0
LINE
  5
BF
330
1F
100
AcDbEntity
  8
0
  6
Continuous
 62
     7
370
    15
100
AcDbLine
 10
127.5230523735
 20
123.9470582175
 30
0.0
 11
123.2368043599
 21
123.9470582175
 31
0.0
  0
SPLINE
  5
C0
330
1F
100
AcDbEntity
  8
0
  6
Continuous
 62
     7
370
    15
100
AcDbSpline
210
0.0
220
0.0
230
1.0
 70
     8
 71
     3
 72
     9
 73
     5
 74
     0
 42
0.000000001
 43
0.00000001
 40
0.0
 40
0.0
 40
0.0
 40
0.0
 40
0.5592874522282794
 40
1.0
 40
1.0
 40
1.0
 40
1.0
 10
104.8544232245481
 20
123.9470582181104
 30
0.0
 10
104.7950802227559
 20
123.9401737944372
 30
0.0
 10
104.6889755684215
 20
123.9278645183292
 30
0.0
 10
104.6074915444429
 20
123.8598678962585
 30
0.0
 10
104.5715805126326
 20
123.8299009317058
 30
0.0
  0
SPLINE
  5
C1
330
1F
100
AcDbEntity
  8
0
  6
Continuous
 62
     7
370
    15
100
AcDbSpline
210
0.0
220
0.0
230
1.0
 70
     8
 71
     3
 72
     9
 73
     5
 74
     0
 42
0.000000001
 43
0.00000001
 40
0.0
 40
0.0
 40
0.0
 40
0.0
 40
0.5591334016820445
 40
1.0
 40
1.0
 40
1.0
 40
1.0
 10
104.5715805126326
 20
61.06421550337665
 30
0.0
 10
104.6183994054524
 20
61.02714034123038
 30
0.0
 10
104.7021341504683
 20
60.96083208270968
 30
0.0
 10
104.8078268455849
 20
60.95127265107752
 30
0.0
 10
104.8544232245481
 20
60.94705821697198
 30
0.0
  0
SPLINE
  5
C2
330
1F
100
AcDbEntity
  8
0
  6
Continuous
 62
     7
370
    15
100
AcDbSpline
210
0.0
220
0.0
230
1.0
 70
     8
 71
     3
 72
    11
 73
     7
 74
     0
 42
0.000000001
 43
0.00000001
 40
0.0
 40
0.0
 40
0.0
 40
0.0
 40
0.2475748611847611
 40
0.5000000000615412
 40
0.7524251388752842
 40
1.0
 40
1.0
 40
1.0
 40
1.0
 10
127.5230523734681
 20
60.94705821754122
 30
0.0
 10
127.5489876027134
 20
60.94850926638836
 30
0.0
 10
127.6013661623223
 20
60.95143979180676
 30
0.0
 10
127.6770003227698
 20
60.97539498982829
 30
0.0
 10
127.7474206334988
 20
61.01193753457986
 30
0.0
 10
127.7865300624997
 20
61.04690257495165
 30
0.0
 10
127.8058950854092
 20
61.06421550498231
 30
0.0
  0
SPLINE
  5
C3
330
1F
100
AcDbEntity
  8
0
  6
Continuous
 62
     7
370
    15
100
AcDbSpline
210
0.0
220
0.0
230
1.0
 70
     8
 71
     3
 72
    11
 73
     7
 74
     0
 42
0.000000001
 43
0.00000001
 40
0.0
 40
0.0
 40
0.0
 40
0.0
 40
0.2475748596937814
 40
0.4999999986634966
 40
0.7524251383614108
 40
0.9999999999999999
 40
0.9999999999999999
 40
0.9999999999999999
 40
0.9999999999999999
 10
127.8058950852817
 20
123.8299009302276
 30
0.0
 10
127.7865300625143
 20
123.847213860172
 30
0.0
 10
127.7474206336741
 20
123.8821789004826
 30
0.0
 10
127.6770003229799
 20
123.9187214451117
 30
0.0
 10
127.6013661624562
 20
123.942676643214
 30
0.0
 10
127.5489876027453
 20
123.9456071686744
 30
0.0
 10
127.5230523734681
 20
123.9470582175413
 30
0.0
  0
LINE
  5
C4
330
1F
100
AcDbEntity
  8
0
  6
Continuous
 62
     7
370
    15
100
AcDbLine
 10
113.3946896886
 20
60.947058217
 30
0.0
 11
115.7887377985
 21
65.093671179
 31
0.0
  0
LINE
  5
C5
330
1F
100
AcDbEntity
  8
0
  6
Continuous
 62
     7
370
    15
100
AcDbLine
 10
115.7887377985
 20
119.8004452561
 30
0.0
 11
113.3946896886
 21
123.9470582181
 31
0.0
  0
LINE
  5
C6
330
1F
100
AcDbEntity
  8
0
  6
Continuous
 62
     7
370
    15
100
AcDbLine
 10
123.2368043599
 20
123.9470582171
 30
0.0
 11
120.788737799
 21
119.7068824158
 31
0.0
  0
LINE
  5
C7
330
1F
100
AcDbEntity
  8
0
  6
Continuous
 62
     7
370
    15
100
AcDbLine
 10
120.788737799
 20
65.1872340193
 30
0.0
 11
123.2368043599
 21
60.947058218
 31
0.0
  0
LINE
  5
C8
330
1F
100
AcDbEntity
  8
0
  6
Continuous
 62
     7
370
    15
100
AcDbLine
 10
104.5715805126
 20
123.8299009317
 30
0.0
 11
103.8058950842
 21
123.0642155033
 31
0.0
  0
LINE
  5
C9
330
1F
100
AcDbEntity
  8
0
  6
Continuous
 62
     7
370
    15
100
AcDbLine
 10
103.8058950842
 20
61.8299009318
 30
0.0
 11
104.5715805126
 21
61.0642155034
 31
0.0
  0
LINE
  5
CA
330
1F
100
AcDbEntity
  8
0
  6
Continuous
 62
     7
370
    15
100
AcDbLine
 10
127.8058950855
 20
61.0642155046
 30
0.0
 11
128.5715805105
 21
61.8299009295
 31
0.0
  0
LINE
  5
CB
330
1F
100
AcDbEntity
  8
0
  6
Continuous
 62
     7
370
    15
100
AcDbLine
 10
128.5715805105
 20
123.0642155055
 30
0.0
 11
127.8058950854
 21
123.8299009306
 31
0.0
  0
LINE
  5
CC
330
1F
100
AcDbEntity
  8
0
  6
Continuous
 62
     7
370
    15
100
AcDbLine
 10
128.6653180309
 20
119.3867874911
 30
0.0
 11
128.6637235073
 21
119.5088407844
 31
0.0
  0
LINE
  5
CD
330
1F
100
AcDbEntity
  8
0
  6
Continuous
 62
     7
370
    15
100
AcDbLine
 10
115.7887377985
 20
65.9470582175
 30
0.0
 11
120.7887377985
 21
65.9470582175
 31
0.0
  0
LINE
  5
CE
330
1F
100
AcDbEntity
  8
0
  6
Continuous
 62
     7
370
    15
100
AcDbLine
 10
120.7887377985
 20
118.9470582175
 30
0.0
 11
115.7887377985
 21
118.9470582175
 31
0.0
  0
SPLINE
  5
CF
330
1F
100
AcDbEntity
  8
0
  6
Continuous
 62
     7
370
    15
100
AcDbSpline
210
0.0
220
0.0
230
1.0
 70
     8
 71
     3
 72
    13
 73
     9
 74
     0
 42
0.000000001
 43
0.00000001
 40
0.0
 40
0.0
 40
0.0
 40
0.0
 40
0.2394568445743232
 40
0.3683606605054257
 40
0.5000000003437163
 40
0.6316393401503477
 40
0.7605431559736745
 40
1.0
 40
1.0
 40
1.0
 40
1.0
 10
103.1887377989681
 20
70.44705821754127
 30
0.0
 10
103.2516359596471
 20
70.44037922237831
 30
0.0
 10
103.3483933025141
 20
70.43010480706933
 30
0.0
 10
103.4648013442334
 20
70.36775600743769
 30
0.0
 10
103.5449047072184
 20
70.3032251227102
 30
0.0
 10
103.6094355910112
 20
70.2231217590067
 30
0.0
 10
103.671784389289
 20
70.10671371679322
 30
0.0
 10
103.6820588038165
 20
70.00995637403759
 30
0.0
 10
103.6887377984681
 20
69.94705821346284
 30
0.0
  0
SPLINE
  5
D0
330
1F
100
AcDbEntity
  8
0
  6
Continuous
 62
     7
370
    15
100
AcDbSpline
210
0.0
220
0.0
230
1.0
 70
     8
 71
     3
 72
    13
 73
     9
 74
     0
 42
0.000000001
 43
0.00000001
 40
0.0
 40
0.0
 40
0.0
 40
0.0
 40
0.2394568439820519
 40
0.3683606597993136
 40
0.4999999996093543
 40
0.6316393394580017
 40
0.7605431554028486
 40
0.9999999999999999
 40
0.9999999999999999
 40
0.9999999999999999
 40
0.9999999999999999
 10
103.6887377984681
 20
114.9470582220412
 30
0.0
 10
103.6820588038648
 20
114.8841600614386
 30
0.0
 10
103.671784389411
 20
114.7874027186355
 30
0.0
 10
103.6094355911816
 20
114.6709946763285
 30
0.0
 10
103.5449047073973
 20
114.5908913125442
 30
0.0
 10
103.464801344391
 20
114.5263604277429
 30
0.0
 10
103.3483933026163
 20
114.464011628035
 30
0.0
 10
103.2516359596873
 20
114.4537372127127
 30
0.0
 10
103.1887377989681
 20
114.4470582175412
 30
0.0
  0
LINE
  5
D1
330
1F
100
AcDbEntity
  8
0
  6
Continuous
 62
     7
370
    15
100
AcDbLine
 10
101.6887377985
 20
70.2220582175
 30
0.0
 11
102.1712518555
 21
70.4470582175
 31
0.0
  0
LINE
  5
D2
330
1F
100
AcDbEntity
  8
0
  6
Continuous
 62
     7
370
    15
100
AcDbLine
 10
102.1712518555
 20
114.4470582175
 30
0.0
 11
101.6887377985
 21
114.6720582175
 31
0.0
  0
LINE
  5
D3
330
1F
100
AcDbEntity
  8
0
  6
Continuous
 62
     7
370
    15
100
AcDbLine
 10
101.6887377985
 20
114.6720582175
 30
0.0
 11
37.1444295715
 21
105.2592577245
 31
0.0
  0
LINE
  5
D4
330
1F
100
AcDbEntity
  8
0
  6
Continuous
 62
     7
370
    15
100
AcDbLine
 10
37.1444295715
 20
79.6348587105
 30
0.0
 11
101.6887377985
 21
70.2220582175
 31
0.0
  0
LINE
  5
D5
330
1F
100
AcDbEntity
  8
0
  6
Continuous
 62
     7
370
    15
100
AcDbLine
 10
102.1712518555
 20
70.4470582175
 30
0.0
 11
103.1887377995
 21
70.4470582175
 31
0.0
  0
LINE
  5
D6
330
1F
100
AcDbEntity
  8
0
  6
Continuous
 62
     7
370
    15
100
AcDbLine
 10
103.1887377995
 20
114.4470582175
 30
0.0
 11
102.1712518555
 21
114.4470582175
 31
0.0
  0
SPLINE
  5
D7
330
1F
100
AcDbEntity
  8
0
  6
Continuous
 62
     7
370
    15
100
AcDbSpline
210
0.0
220
0.0
230
1.0
 70
     8
 71
     3
 72
    13
 73
     9
 74
     0
 42
0.000000001
 43
0.00000001
 40
0.0
 40
0.0
 40
0.0
 40
0.0
 40
0.1487750131526003
 40
0.2763890588399591
 40
0.450217174176266
 40
0.6720786316626473
 40
0.8266097637004366
 40
0.9999999999999999
 40
0.9999999999999999
 40
0.9999999999999999
 40
0.9999999999999999
 10
130.6887377974681
 20
107.4470582175412
 30
0.0
 10
130.5330375459784
 20
107.457516096674
 30
0.0
 10
130.2437830195732
 20
107.4769443817719
 30
0.0
 10
129.7970372886919
 20
107.6373240613116
 30
0.0
 10
129.3306651043066
 20
107.9334414284611
 30
0.0
 10
128.9600175039429
 20
108.3872765152024
 30
0.0
 10
128.7301320845193
 20
108.9219525969708
 30
0.0
 10
128.7030549716064
 20
109.2654382676784
 30
0.0
 10
128.6887377984681
 20
109.4470582148976
 30
0.0
  0
SPLINE
  5
D8
330
1F
100
AcDbEntity
  8
0
  6
Continuous
 62
     7
370
    15
100
AcDbSpline
210
0.0
220
0.0
230
1.0
 70
     8
 71
     3
 72
    13
 73
     9
 74
     0
 42
0.000000001
 43
0.00000001
 40
0.0
 40
0.0
 40
0.0
 40
0.0
 40
0.2394568445459065
 40
0.3683606604182313
 40
0.5000000001769949
 40
0.6316393399089024
 40
0.7605431557050516
 40
1.0
 40
1.0
 40
1.0
 40
1.0
 10
128.6887377984681
 20
75.44705822104828
 30
0.0
 10
128.7154537790225
 20
75.69865086222961
 30
0.0
 10
128.7565514401039
 20
76.08568023129055
 30
0.0
 10
129.005946635652
 20
76.55131239599557
 30
0.0
 10
129.2640701715157
 20
76.87172584704032
 30
0.0
 10
129.5844836228841
 20
77.12984938237295
 30
0.0
 10
130.0501157876455
 20
77.37924457703657
 30
0.0
 10
130.4371451564342
 20
77.42034223743498
 30
0.0
 10
130.6887377973983
 20
77.44705821754121
 30
0.0
  0
LINE
  5
D9
330
1F
100
AcDbEntity
  8
0
  6
Continuous
 62
     7
370
    15
100
AcDbLine
 10
198.6120126064
 20
76.4470582175
 30
0.0
 11
201.6887377982
 21
81.7761025708
 31
0.0
  0
LINE
  5
DA
330
1F
100
AcDbEntity
  8
0
  6
Continuous
 62
     7
370
    15
100
AcDbLine
 10
201.6887377982
 20
103.1180138643
 30
0.0
 11
198.6120126064
 21
108.4470582175
 31
0.0
  0
LINE
  5
DB
330
1F
100
AcDbEntity
  8
0
  6
Continuous
 62
     7
370
    15
100
AcDbLine
 10
185.1887377985
 20
76.4470582175
 30
0.0
 11
198.6120126064
 21
76.4470582175
 31
0.0
  0
LINE
  5
DC
330
1F
100
AcDbEntity
  8
0
  6
Continuous
 62
     7
370
    15
100
AcDbLine
 10
198.6120126064
 20
108.4470582175
 30
0.0
 11
185.1887377985
 21
108.4470582175
 31
0.0
  0
LINE
  5
DD
330
1F
100
AcDbEntity
  8
0
  6
Continuous
 62
     7
370
    15
100
AcDbLine
 10
185.1887377985
 20
108.4470582175
 30
0.0
 11
184.1887377985
 21
107.4470582175
 31
0.0
  0
LINE
  5
DE
330
1F
100
AcDbEntity
  8
0
  6
Continuous
 62
     7
370
    15
100
AcDbLine
 10
184.1887377985
 20
77.4470582175
 30
0.0
 11
185.1887377985
 21
76.4470582175
 31
0.0
  0
LINE
  5
DF
330
1F
100
AcDbEntity
  8
0
  6
Continuous
 62
     7
370
    15
100
AcDbLine
 10
130.6887377973
 20
77.4470582175
 30
0.0
 11
159.7275218665
 21
77.4470582175
 31
0.0
  0
LINE
  5
E0
330
1F
100
AcDbEntity
  8
0
  6
Continuous
 62
     7
370
    15
100
AcDbLine
 10
159.7275218665
 20
107.4470582175
 30
0.0
 11
130.6887377975
 21
107.4470582175
 31
0.0
  0
LINE
  5
E1
330
1F
100
AcDbEntity
  8
0
  6
Continuous
 62
     7
370
    15
100
AcDbLine
 10
159.7275218665
 20
77.4470582175
 30
0.0
 11
166.8566869905
 21
81.5630836215
 31
0.0
  0
LINE
  5
E2
330
1F
100
AcDbEntity
  8
0
  6
Continuous
 62
     7
370
    15
100
AcDbLine
 10
166.8566869905
 20
103.3310328135
 30
0.0
 11
159.7275218665
 21
107.4470582175
 31
0.0
  0
SPLINE
  5
E3
330
1F
100
AcDbEntity
  8
0
  6
Continuous
 62
     7
370
    15
100
AcDbSpline
210
0.0
220
0.0
230
1.0
 70
     8
 71
     3
 72
    12
 73
     8
 74
     0
 42
0.000000001
 43
0.00000001
 40
0.0
 40
0.0
 40
0.0
 40
0.0
 40
0.2770635075972122
 40
0.449888156307002
 40
0.6702042078546971
 40
0.8245924590053973
 40
1.0
 40
1.0
 40
1.0
 40
1.0
 10
37.14442957146805
 20
105.2592577245412
 30
0.0
 10
37.0158317249168
 20
105.2253973912688
 30
0.0
 10
36.80701805403049
 20
105.1704159069153
 30
0.0
 10
36.55549620142578
 20
104.9678229899414
 30
0.0
 10
36.40156344018146
 20
104.7554119744909
 30
0.0
 10
36.30605540226276
 20
104.5095437686057
 30
0.0
 10
36.29475050285519
 20
104.3529904820012
 30
0.0
 10
36.2887377984681
 20
104.2697249349812
 30
0.0
  0
SPLINE
  5
E4
330
1F
100
AcDbEntity
  8
0
  6
Continuous
 62
     7
370
    15
100
AcDbSpline
210
0.0
220
0.0
230
1.0
 70
     8
 71
     3
 72
    12
 73
     8
 74
     0
 42
0.000000001
 43
0.00000001
 40
0.0
 40
0.0
 40
0.0
 40
0.0
 40
0.2770635074123169
 40
0.4498881560536556
 40
0.6702042076482259
 40
0.8245924588473634
 40
1.0
 40
1.0
 40
1.0
 40
1.0
 10
36.28873779846801
 20
80.62439150010123
 30
0.0
 10
36.3036859808082
 20
80.49225339005821
 30
0.0
 10
36.32795843102073
 20
80.27769113598553
 30
0.0
 10
36.49213409099015
 20
79.99956619114722
 30
0.0
 10
36.68010799046819
 20
79.81659201920962
 30
0.0
 10
36.90962004542217
 20
79.68660287860169
 30
0.0
 10
37.0629032653821
 20
79.65282438235404
 30
0.0
 10
37.14442957146809
 20
79.63485871054122
 30
0.0
  0
LINE
  5
E5
330
1F
100
AcDbEntity
  8
0
  6
Continuous
 62
     7
370
    15
100
AcDbLine
 10
170.0887377985
 20
81.4970582175
 30
0.0
 11
184.1887377985
 21
81.4970582175
 31
0.0
  0
LINE
  5
E6
330
1F
100
AcDbEntity
  8
0
  6
Continuous
 62
     7
370
    15
100
AcDbLine
 10
184.1887377985
 20
103.3970582175
 30
0.0
 11
170.0887377985
 21
103.3970582175
 31
0.0
  0
LINE
  5
E7
330
1F
100
AcDbEntity
  8
0
  6
Continuous
 62
     7
370
    15
100
AcDbLine
 10
170.0887377985
 20
103.3970582175
 30
0.0
 11
169.8607600132
 21
103.2907504304
 31
0.0
  0
LINE
  5
E8
330
1F
100
AcDbEntity
  8
0
  6
Continuous
 62
     7
370
    15
100
AcDbLine
 10
169.8607600132
 20
81.6033660047
 30
0.0
 11
170.0887377985
 21
81.4970582175
 31
0.0
  0
SPLINE
  5
E9
330
1F
100
AcDbEntity
  8
0
  6
Continuous
 62
     7
370
    15
100
AcDbSpline
210
0.0
220
0.0
230
1.0
 70
     8
 71
     3
 72
     9
 73
     5
 74
     0
 42
0.000000001
 43
0.00000001
 40
0.0
 40
0.0
 40
0.0
 40
0.0
 40
0.5000000009428551
 40
1.0
 40
1.0
 40
1.0
 40
1.0
 10
166.8566869905771
 20
81.56308362110417
 30
0.0
 10
166.9356108015086
 20
81.60186928272125
 30
0.0
 10
167.093458423074
 20
81.67944060580919
 30
0.0
 10
167.2689441348047
 20
81.6911856803046
 30
0.0
 10
167.3566869905046
 20
81.6970582175412
 30
0.0
  0
SPLINE
  5
EA
330
1F
100
AcDbEntity
  8
0
  6
Continuous
 62
     7
370
    15
100
AcDbSpline
210
0.0
220
0.0
230
1.0
 70
     8
 71
     3
 72
     9
 73
     5
 74
     0
 42
0.000000001
 43
0.00000001
 40
0.0
 40
0.0
 40
0.0
 40
0.0
 40
0.4999999990605896
 40
1.0
 40
1.0
 40
1.0
 40
1.0
 10
167.3566869905046
 20
103.1970582175412
 30
0.0
 10
167.2689441347791
 20
103.2029307547813
 30
0.0
 10
167.0934584229983
 20
103.2146758292837
 30
0.0
 10
166.9356108013977
 20
103.2922471524141
 30
0.0
 10
166.8566869904491
 20
103.3310328140522
 30
0.0
  0
SPLINE
  5
EB
330
1F
100
AcDbEntity
  8
0
  6
Continuous
 62
     7
370
    15
100
AcDbSpline
210
0.0
220
0.0
230
1.0
 70
     8
 71
     3
 72
     9
 73
     5
 74
     0
 42
0.000000001
 43
0.00000001
 40
0.0
 40
0.0
 40
0.0
 40
0.0
 40
0.5600565472100877
 40
1.0
 40
1.0
 40
1.0
 40
1.0
 10
169.4381417514681
 20
81.69705821754127
 30
0.0
 10
169.5207784459052
 20
81.69186602064558
 30
0.0
 10
169.6683290724424
 20
81.68259517661828
 30
0.0
 10
169.8046914822178
 20
81.6263022724896
 30
0.0
 10
169.8646832316051
 20
81.60153657787967
 30
0.0
  0
SPLINE
  5
EC
330
1F
100
AcDbEntity
  8
0
  6
Continuous
 62
     7
370
    15
100
AcDbSpline
210
0.0
220
0.0
230
1.0
 70
     8
 71
     3
 72
     9
 73
     5
 74
     0
 42
0.000000001
 43
0.00000001
 40
0.0
 40
0.0
 40
0.0
 40
0.0
 40
0.559943175066054
 40
1.0
 40
1.0
 40
1.0
 40
1.0
 10
169.8646832316051
 20
103.2925798572028
 30
0.0
 10
169.7877411134951
 20
103.2620362511144
 30
0.0
 10
169.6503305305356
 20
103.2074885622623
 30
0.0
 10
169.5029830263305
 20
103.200245553139
 30
0.0
 10
169.4381417514681
 20
103.1970582175412
 30
0.0
  0
LINE
  5
ED
330
1F
100
AcDbEntity
  8
0
  6
Continuous
 62
     7
370
    15
100
AcDbLine
 10
167.3566869905
 20
81.6970582175
 30
0.0
 11
169.4381417515
 21
81.6970582175
 31
0.0
  0
LINE
  5
EE
330
1F
100
AcDbEntity
  8
0
  6
Continuous
 62
     7
370
    15
100
AcDbLine
 10
169.4381417515
 20
103.1970582175
 30
0.0
 11
167.3566869905
 21
103.1970582175
 31
0.0
  0
ARC
  5
EF
330
1F
100
AcDbEntity
  8
0
  6
Continuous
 62
     7
370
    15
100
AcDbCircle
 10
104.0887377923
 20
122.7813727952
 30
0.0
 40
0.3999999938096579
100
AcDbArc
 50
135.0
 51
180.0
  0
ARC
  5
F0
330
1F
100
AcDbEntity
  8
0
  6
Continuous
 62
     7
370
    15
100
AcDbCircle
 10
104.0887377923
 20
62.1127436399
 30
0.0
 40
0.3999999938096579
100
AcDbArc
 50
180.0
 51
225.0
  0
LINE
  5
F1
330
1F
100
AcDbEntity
  8
0
  6
Continuous
 62
     7
370
    15
100
AcDbLine
 10
113.3946896886
 20
123.9470582175
 30
0.0
 11
113.3946896886
 21
60.9470582175
 31
0.0
  0
LINE
  5
F2
330
1F
100
AcDbEntity
  8
0
  6
Continuous
 62
     7
370
    15
100
AcDbLine
 10
104.8544232252
 20
62.1773372626
 30
0.0
 11
104.8544232245
 21
92.447058224
 31
0.0
  0
LINE
  5
F3
330
1F
100
AcDbEntity
  8
0
  6
Continuous
 62
     7
370
    15
100
AcDbLine
 10
104.8544232245
 20
92.447058224
 30
0.0
 11
104.8544232251
 21
122.750518096
 31
0.0
  0
LINE
  5
F4
330
1F
100
AcDbEntity
  8
0
  6
Continuous
 62
     7
370
    15
100
AcDbLine
 10
104.8544232245
 20
123.9470582175
 30
0.0
 11
104.8544232245
 21
122.7505180963
 31
0.0
  0
LINE
  5
F5
330
1F
100
AcDbEntity
  8
0
  6
Continuous
 62
     7
370
    15
100
AcDbLine
 10
104.8544232245
 20
62.1773372619
 30
0.0
 11
104.8544232245
 21
60.9470582175
 31
0.0
  0
LINE
  5
F6
330
1F
100
AcDbEntity
  8
0
  6
Continuous
 62
     7
370
    15
100
AcDbLine
 10
123.2368043599
 20
123.9470582175
 30
0.0
 11
123.2368043599
 21
60.9470582175
 31
0.0
  0
SPLINE
  5
F7
330
1F
100
AcDbEntity
  8
0
  6
Continuous
 62
     7
370
    15
100
AcDbSpline
210
0.0
220
0.0
230
1.0
 70
     8
 71
     3
 72
    14
 73
    10
 74
     0
 42
0.000000001
 43
0.00000001
 40
0.0
 40
0.0
 40
0.0
 40
0.0
 40
0.25
 40
0.25
 40
0.5
 40
0.5
 40
0.75
 40
0.75
 40
1.0
 40
1.0
 40
1.0
 40
1.0
 10
104.6492161054728
 20
62.21680343381372
 30
0.0
 10
104.6492160790344
 20
63.14831526745268
 30
0.0
 10
104.6492160661939
 20
64.60933846719544
 30
0.0
 10
104.6492160555088
 20
68.44298132477769
 30
0.0
 10
104.6492160574391
 20
70.8133489596761
 30
0.0
 10
104.6492160637395
 20
76.22046869108918
 30
0.0
 10
104.6492160679043
 20
79.25529869493894
 30
0.0
 10
104.6492160725134
 20
85.67645903045971
 30
0.0
 10
104.6492160729291
 20
89.06076463255677
 30
0.0
 10
104.649216072926
 20
92.44705819402768
 30
0.0
  0
SPLINE
  5
F8
330
1F
100
AcDbEntity
  8
0
  6
Continuous
 62
     7
370
    15
100
AcDbSpline
210
0.0
220
0.0
230
1.0
 70
     8
 71
     3
 72
     9
 73
     5
 74
     0
 42
0.000000001
 43
0.00000001
 40
0.0
 40
0.0
 40
0.0
 40
0.0
 40
0.5074834058195585
 40
1.0
 40
1.0
 40
1.0
 40
1.0
 10
104.64921610547
 20
62.21680343387333
 30
0.0
 10
104.655320140179
 20
62.21433384675942
 30
0.0
 10
104.66734818807
 20
62.20946750613514
 30
0.0
 10
104.6802101284423
 20
62.20517518696539
 30
0.0
 10
104.686544847509
 20
62.20306114854681
 30
0.0
  0
SPLINE
  5
F9
330
1F
100
AcDbEntity
  8
0
  6
Continuous
 62
     7
370
    15
100
AcDbSpline
210
0.0
220
0.0
230
1.0
 70
     8
 71
     3
 72
     8
 73
     4
 74
     0
 42
0.000000001
 43
0.00000001
 40
0.0
 40
0.0
 40
0.0
 40
0.0
 40
1.0
 40
1.0
 40
1.0
 40
1.0
 10
104.6865418256865
 20
62.20305877687048
 30
0.0
 10
104.6873522785317
 20
62.20279754379964
 30
0.0
 10
104.6881644421278
 20
62.20253810240072
 30
0.0
 10
104.6889783223289
 20
62.20228045880459
 30
0.0
  0
SPLINE
  5
FA
330
1F
100
AcDbEntity
  8
0
  6
Continuous
 62
     7
370
    15
100
AcDbSpline
210
0.0
220
0.0
230
1.0
 70
     8
 71
     3
 72
     9
 73
     5
 74
     0
 42
0.000000001
 43
0.00000001
 40
0.0
 40
0.0
 40
0.0
 40
0.0
 40
0.507432641708621
 40
1.0
 40
1.0
 40
1.0
 40
1.0
 10
104.6889815320858
 20
62.2022829078786
 30
0.0
 10
104.6972004484924
 20
62.19979337544479
 30
0.0
 10
104.7133975074339
 20
62.19488724164654
 30
0.0
 10
104.7306852711024
 20
62.19103826982347
 30
0.0
 10
104.7392006591833
 20
62.18914239194044
 30
0.0
  0
SPLINE
  5
FB
330
1F
100
AcDbEntity
  8
0
  6
Continuous
 62
     7
370
    15
100
AcDbSpline
210
0.0
220
0.0
230
1.0
 70
     8
 71
     3
 72
    20
 73
    16
 74
     0
 42
0.000000001
 43
0.00000001
 40
0.0
 40
0.0
 40
0.0
 40
0.0
 40
0.1250000000000002
 40
0.1250000000000002
 40
0.2500000000000003
 40
0.2500000000000003
 40
0.3750000000000005
 40
0.3750000000000005
 40
0.5000000000000007
 40
0.5000000000000007
 40
0.750000000000001
 40
0.750000000000001
 40
0.8750000000000004
 40
0.8750000000000004
 40
1.0
 40
1.0
 40
1.0
 40
1.0
 10
104.739200663137
 20
92.44705821754123
 30
0.0
 10
104.7392006631362
 20
90.75321792239357
 30
0.0
 10
104.7392006636912
 20
89.06069182237277
 30
0.0
 10
104.7392006654686
 20
85.71768479795979
 30
0.0
 10
104.7392006671458
 20
84.06731629932817
 30
0.0
 10
104.7392006697605
 20
80.8565899204936
 30
0.0
 10
104.7392006707736
 20
79.29374979194763
 30
0.0
 10
104.739200673203
 20
76.29590361617561
 30
0.0
 10
104.7392006741554
 20
74.86131518549743
 30
0.0
 10
104.7392006760978
 20
70.80279907791483
 30
0.0
 10
104.7392006759431
 20
68.42957971706504
 30
0.0
 10
104.7392006718985
 20
65.5505855194347
 30
0.0
 10
104.7392006699402
 20
64.70310503876539
 30
0.0
 10
104.7392006652197
 20
63.25651736747954
 30
0.0
 10
104.7392006622348
 20
62.65705598728557
 30
0.0
 10
104.73920065918
 20
62.18914239194094
 30
0.0
  0
SPLINE
  5
FC
330
1F
100
AcDbEntity
  8
0
  6
Continuous
 62
     7
370
    15
100
AcDbSpline
210
0.0
220
0.0
230
1.0
 70
     8
 71
     3
 72
    22
 73
    18
 74
     0
 42
0.000000001
 43
0.00000001
 40
0.0
 40
0.0
 40
0.0
 40
0.0
 40
0.125
 40
0.125
 40
0.25
 40
0.25
 40
0.375
 40
0.375
 40
0.5
 40
0.5
 40
0.625
 40
0.625
 40
0.75
 40
0.75
 40
0.875
 40
0.875
 40
1.0
 40
1.0
 40
1.0
 40
1.0
 10
104.739200665493
 20
122.7367886468661
 30
0.0
 10
104.7392006389132
 20
122.2735572424478
 30
0.0
 10
104.7392006148567
 20
121.6782490378797
 30
0.0
 10
104.7392005746105
 20
120.2374401064871
 30
0.0
 10
104.7392005583944
 20
119.3918392457258
 30
0.0
 10
104.7392005353798
 20
117.4753765040068
 30
0.0
 10
104.7392005284869
 20
116.4027124620568
 30
0.0
 10
104.7392005235179
 20
114.0582662302816
 30
0.0
 10
104.7392005256729
 20
112.7866021197152
 30
0.0
 10
104.7392005361682
 20
110.078577973748
 30
0.0
 10
104.7392005445272
 20
108.640374386242
 30
0.0
 10
104.7392005649436
 20
105.6357315799659
 30
0.0
 10
104.7392005767266
 20
104.0704163344184
 30
0.0
 10
104.7392005992737
 20
100.8495531923361
 30
0.0
 10
104.739200609997
 20
99.19578586544
 30
0.0
 10
104.7392006257302
 20
95.84281610220093
 30
0.0
 10
104.7392006304727
 20
94.14578770294216
 30
0.0
 10
104.7392006307151
 20
92.44705821753514
 30
0.0
  0
SPLINE
  5
FD
330
1F
100
AcDbEntity
  8
0
  6
Continuous
 62
     7
370
    15
100
AcDbSpline
210
0.0
220
0.0
230
1.0
 70
     8
 71
     3
 72
     9
 73
     5
 74
     0
 42
0.000000001
 43
0.00000001
 40
0.0
 40
0.0
 40
0.0
 40
0.0
 40
0.4954077120675459
 40
1.0
 40
1.0
 40
1.0
 40
1.0
 10
104.7392006654319
 20
122.7367886468483
 30
0.0
 10
104.7307090959779
 20
122.7345927523652
 30
0.0
 10
104.7135685282251
 20
122.7301602527702
 30
0.0
 10
104.697227311654
 20
122.7244119797239
 30
0.0
 10
104.6889816597968
 20
122.7215114454758
 30
0.0
  0
SPLINE
  5
FE
330
1F
100
AcDbEntity
  8
0
  6
Continuous
 62
     7
370
    15
100
AcDbSpline
210
0.0
220
0.0
230
1.0
 70
     8
 71
     3
 72
     9
 73
     5
 74
     0
 42
0.000000001
 43
0.00000001
 40
0.0
 40
0.0
 40
0.0
 40
0.0
 40
0.4947744017618073
 40
0.9999999999999999
 40
0.9999999999999999
 40
0.9999999999999999
 40
0.9999999999999999
 10
104.6889816597969
 20
122.7215114454758
 30
0.0
 10
104.682244725876
 20
122.7189389546922
 30
0.0
 10
104.6686285527334
 20
122.7137396340032
 30
0.0
 10
104.6557317579179
 20
122.7076917114338
 30
0.0
 10
104.6492159670419
 20
122.7046361461356
 30
0.0
  0
SPLINE
  5
FF
330
1F
100
AcDbEntity
  8
0
  6
Continuous
 62
     7
370
    15
100
AcDbSpline
210
0.0
220
0.0
230
1.0
 70
     8
 71
     3
 72
    14
 73
    10
 74
     0
 42
0.000000001
 43
0.00000001
 40
0.0
 40
0.0
 40
0.0
 40
0.0
 40
0.2499999999999992
 40
0.2499999999999992
 40
0.4999999999999984
 40
0.4999999999999984
 40
0.7499999999999992
 40
0.7499999999999992
 40
1.0
 40
1.0
 40
1.0
 40
1.0
 10
104.6492160578331
 20
92.44705821753949
 30
0.0
 10
104.6492160579693
 20
95.8417339828645
 30
0.0
 10
104.6492160756794
 20
99.23443408166082
 30
0.0
 10
104.6492161047769
 20
105.6703395612973
 30
0.0
 10
104.6492161153739
 20
108.7105904997062
 30
0.0
 10
104.6492161069802
 20
114.1243058038166
 30
0.0
 10
104.6492160870395
 20
116.4962464036103
 30
0.0
 10
104.649216030025
 20
120.3249167182154
 30
0.0
 10
104.6492159933133
 20
121.7814113185285
 30
0.0
 10
104.6492159670127
 20
122.704636142229
 30
0.0
  0
LINE
  5
100
330
1F
100
AcDbEntity
  8
0
  6
Continuous
 62
     7
370
    15
100
AcDbLine
 10
104.5715805126
 20
123.8299008999
 30
0.0
 11
104.5715805126
 21
122.6555996871
 31
0.0
  0
SPLINE
  5
101
330
1F
100
AcDbEntity
  8
0
  6
Continuous
 62
     7
370
    15
100
AcDbSpline
210
0.0
220
0.0
230
1.0
 70
     8
 71
     3
 72
     9
 73
     5
 74
     0
 42
0.000000001
 43
0.00000001
 40
0.0
 40
0.0
 40
0.0
 40
0.0
 40
0.4987350237890235
 40
1.0
 40
1.0
 40
1.0
 40
1.0
 10
104.8544232234681
 20
122.7505180957322
 30
0.0
 10
104.8437186808122
 20
122.7503434955414
 30
0.0
 10
104.8222552941533
 20
122.7499934094586
 30
0.0
 10
104.8010623362611
 20
122.7475648391922
 30
0.0
 10
104.7904390487274
 20
122.7463474819754
 30
0.0
  0
SPLINE
  5
102
330
1F
100
AcDbEntity
  8
0
  6
Continuous
 62
     7
370
    15
100
AcDbSpline
210
0.0
220
0.0
230
1.0
 70
     8
 71
     3
 72
    14
 73
    10
 74
     0
 42
0.000000001
 43
0.00000001
 40
0.0
 40
0.0
 40
0.0
 40
0.0
 40
0.2499999999999996
 40
0.2499999999999996
 40
0.4999999999999991
 40
0.4999999999999991
 40
0.7499999999999996
 40
0.7499999999999996
 40
1.0
 40
1.0
 40
1.0
 40
1.0
 10
104.7904390451795
 20
92.4470710167953
 30
0.0
 10
104.7904390451795
 20
95.84529213920882
 30
0.0
 10
104.7904390489541
 20
99.24094362039973
 30
0.0
 10
104.7904390590886
 20
105.6830999869937
 30
0.0
 10
104.7904390653463
 20
108.7272261768315
 30
0.0
 10
104.7904390736145
 20
114.14721341689
 30
0.0
 10
104.7904390755193
 20
116.5228262686205
 30
0.0
 10
104.7904390697125
 20
120.3591589961877
 30
0.0
 10
104.7904390619422
 20
121.8192447026595
 30
0.0
 10
104.7904390487271
 20
122.7463474859097
 30
0.0
  0
SPLINE
  5
103
330
1F
100
AcDbEntity
  8
0
  6
Continuous
 62
     7
370
    15
100
AcDbSpline
210
0.0
220
0.0
230
1.0
 70
     8
 71
     3
 72
    14
 73
    10
 74
     0
 42
0.000000001
 43
0.00000001
 40
0.0
 40
0.0
 40
0.0
 40
0.0
 40
0.25
 40
0.25
 40
0.5
 40
0.5
 40
0.75
 40
0.75
 40
1.0
 40
1.0
 40
1.0
 40
1.0
 10
104.790439055124
 20
62.18092291537969
 30
0.0
 10
104.7904390537717
 20
63.11792830551234
 30
0.0
 10
104.7904390509692
 20
64.58426110584968
 30
0.0
 10
104.7904390461871
 20
68.42526909802747
 30
0.0
 10
104.7904390442371
 20
70.79912371042563
 30
0.0
 10
104.7904390425584
 20
76.21231780182619
 30
0.0
 10
104.7904390428127
 20
79.24904449867861
 30
0.0
 10
104.7904390442
 20
85.67363047694218
 30
0.0
 10
104.790439045281
 20
89.05924021487532
 30
0.0
 10
104.7904390452811
 20
92.44705821754123
 30
0.0
  0
SPLINE
  5
104
330
1F
100
AcDbEntity
  8
0
  6
Continuous
 62
     7
370
    15
100
AcDbSpline
210
0.0
220
0.0
230
1.0
 70
     8
 71
     3
 72
     9
 73
     5
 74
     0
 42
0.000000001
 43
0.00000001
 40
0.0
 40
0.0
 40
0.0
 40
0.0
 40
0.5022087647666819
 40
1.0
 40
1.0
 40
1.0
 40
1.0
 10
104.7904390551266
 20
62.18092291539176
 30
0.0
 10
104.8010516229787
 20
62.17987617818282
 30
0.0
 10
104.8221834083967
 20
62.17779191107641
 30
0.0
 10
104.8437083147475
 20
62.17748836537689
 30
0.0
 10
104.8544232244681
 20
62.17733726298818
 30
0.0
  0
LINE
  5
105
330
1F
100
AcDbEntity
  8
0
  6
Continuous
 62
     7
370
    15
100
AcDbLine
 10
104.5715805126
 20
62.2590310585
 30
0.0
 11
104.5715805126
 21
61.064215533
 31
0.0
  0
SPLINE
  5
106
330
1F
100
AcDbEntity
  8
0
  6
Continuous
 62
     7
370
    15
100
AcDbSpline
210
0.0
220
0.0
230
1.0
 70
     8
 71
     3
 72
     9
 73
     5
 74
     0
 42
0.000000001
 43
0.00000001
 40
0.0
 40
0.0
 40
0.0
 40
0.0
 40
0.5139336952726578
 40
1.0
 40
1.0
 40
1.0
 40
1.0
 10
104.5715805138261
 20
62.2590310585359
 30
0.0
 10
104.5782714959974
 20
62.25451278085793
 30
0.0
 10
104.5912906504777
 20
62.24572122327079
 30
0.0
 10
104.6060376482108
 20
62.23765247291608
 30
0.0
 10
104.6132056669047
 20
62.23373052524739
 30
0.0
  0
SPLINE
  5
107
330
1F
100
AcDbEntity
  8
0
  6
Continuous
 62
     7
370
    15
100
AcDbSpline
210
0.0
220
0.0
230
1.0
 70
     8
 71
     3
 72
    20
 73
    16
 74
     0
 42
0.000000001
 43
0.00000001
 40
0.0
 40
0.0
 40
0.0
 40
0.0
 40
0.2499999999999995
 40
0.2499999999999995
 40
0.3749999999999996
 40
0.3749999999999996
 40
0.4999999999999997
 40
0.4999999999999997
 40
0.6249999999999998
 40
0.6249999999999998
 40
0.7499999999999998
 40
0.7499999999999998
 40
0.8749999999999999
 40
0.8749999999999999
 40
1.0
 40
1.0
 40
1.0
 40
1.0
 10
104.613205672136
 20
92.44705821754123
 30
0.0
 10
104.6132056721356
 20
89.06105014849187
 30
0.0
 10
104.6132056725428
 20
85.67768352472216
 30
0.0
 10
104.6132056738331
 20
80.86319563473691
 30
0.0
 10
104.6132056743163
 20
79.30073440198069
 30
0.0
 10
104.6132056754208
 20
76.30721625224758
 30
0.0
 10
104.613205676047
 20
74.87386956392714
 30
0.0
 10
104.6132056770042
 20
72.17104609477549
 30
0.0
 10
104.6132056773831
 20
70.90323270674203
 30
0.0
 10
104.6132056776308
 20
68.5639668259243
 30
0.0
 10
104.6132056774924
 20
67.49340254122325
 30
0.0
 10
104.6132056763584
 20
65.57959992108196
 30
0.0
 10
104.6132056749901
 20
64.73455599758246
 30
0.0
 10
104.6132056717605
 20
63.29445097033081
 30
0.0
 10
104.6132056699033
 20
62.6982406167535
 30
0.0
 10
104.6132056669035
 20
62.2337305252476
 30
0.0
  0
SPLINE
  5
108
330
1F
100
AcDbEntity
  8
0
  6
Continuous
 62
     7
370
    15
100
AcDbSpline
210
0.0
220
0.0
230
1.0
 70
     8
 71
     3
 72
    18
 73
    14
 74
     0
 42
0.000000001
 43
0.00000001
 40
0.0
 40
0.0
 40
0.0
 40
0.0
 40
0.25
 40
0.25
 40
0.375
 40
0.375
 40
0.5
 40
0.5
 40
0.625
 40
0.625
 40
0.75
 40
0.75
 40
1.0
 40
1.0
 40
1.0
 40
1.0
 10
104.6132057093129
 20
122.6849728355379
 30
0.0
 10
104.6132057083045
 20
121.7632865214986
 30
0.0
 10
104.6132057037768
 20
120.3094284188336
 30
0.0
 10
104.6132056976606
 20
117.4395453012374
 30
0.0
 10
104.6132056957178
 20
116.369022495227
 30
0.0
 10
104.6132056925877
 20
114.0305429523846
 30
0.0
 10
104.6132056913981
 20
112.760134941156
 30
0.0
 10
104.613205690036
 20
110.056172828994
 30
0.0
 10
104.6132056898557
 20
108.6204674913003
 30
0.0
 10
104.6132056903501
 20
105.6203173564182
 30
0.0
 10
104.6132056910131
 20
104.0565619079675
 30
0.0
 10
104.6132056935927
 20
99.23198550410811
 30
0.0
 10
104.6132056961373
 20
95.84079096856044
 30
0.0
 10
104.6132056961373
 20
92.44705821755052
 30
0.0
  0
SPLINE
  5
109
330
1F
100
AcDbEntity
  8
0
  6
Continuous
 62
     7
370
    15
100
AcDbSpline
210
0.0
220
0.0
230
1.0
 70
     8
 71
     3
 72
     9
 73
     5
 74
     0
 42
0.000000001
 43
0.00000001
 40
0.0
 40
0.0
 40
0.0
 40
0.0
 40
0.4892317204050905
 40
0.9999999999999999
 40
0.9999999999999999
 40
0.9999999999999999
 40
0.9999999999999999
 10
104.6132057093148
 20
122.6849728355419
 30
0.0
 10
104.6060606252936
 20
122.6804363983686
 30
0.0
 10
104.5914559221985
 20
122.6711638246901
 30
0.0
 10
104.5783000918101
 20
122.6608616893482
 30
0.0
 10
104.5715805109559
 20
122.6555996854035
 30
0.0
  0
SPLINE
  5
10A
330
1F
100
AcDbEntity
  8
0
  6
Continuous
 62
     7
370
    15
100
AcDbSpline
210
0.0
220
0.0
230
1.0
 70
    24
 71
     3
 72
     8
 73
     4
 74
     0
 42
0.000000001
 43
0.00000001
 40
0.0
 40
0.0
 40
0.0
 40
0.0
 40
1.0
 40
1.0
 40
1.0
 40
1.0
 10
104.8544232244681
 20
92.4470582175412
 30
0.0
 10
104.8332952626991
 20
92.4470582175412
 30
0.0
 10
104.8118295831406
 20
92.44705821754123
 30
0.0
 10
104.7904390452675
 20
92.44705821754123
 30
0.0
  0
SPLINE
  5
10B
330
1F
100
AcDbEntity
  8
0
  6
Continuous
 62
     7
370
    15
100
AcDbSpline
210
0.0
220
0.0
230
1.0
 70
    24
 71
     3
 72
    10
 73
     6
 74
     0
 42
0.000000001
 43
0.00000001
 40
0.0
 40
0.0
 40
0.0
 40
0.0
 40
0.5
 40
0.5
 40
1.0
 40
1.0
 40
1.0
 40
1.0
 10
127.5230523734681
 20
92.44705821754123
 30
0.0
 10
127.5740768311886
 20
92.44705821754123
 30
0.0
 10
127.6271201293019
 20
92.44705821754127
 30
0.0
 10
127.7251313639273
 20
92.44705821754123
 30
0.0
 10
127.7698153459271
 20
92.44705821754123
 30
0.0
 10
127.8058950854076
 20
92.44705821754123
 30
0.0
  0
LINE
  5
10C
330
1F
100
AcDbEntity
  8
0
  6
Continuous
 62
     7
370
    15
100
AcDbLine
 10
115.7887377985
 20
119.8004452561
 30
0.0
 11
115.7887377985
 21
65.093671179
 31
0.0
  0
LINE
  5
10D
330
1F
100
AcDbEntity
  8
0
  6
Continuous
 62
     7
370
    15
100
AcDbLine
 10
120.788737799
 20
119.7068824158
 30
0.0
 11
120.788737799
 21
65.1872340193
 31
0.0
  0
SPLINE
  5
10E
330
1F
100
AcDbEntity
  8
0
  6
Continuous
 62
     7
370
    15
100
AcDbSpline
210
0.0
220
0.0
230
1.0
 70
    24
 71
     3
 72
     8
 73
     4
 74
     0
 42
0.000000001
 43
0.00000001
 40
0.0
 40
0.0
 40
0.0
 40
0.0
 40
1.0
 40
1.0
 40
1.0
 40
1.0
 10
104.7392006625442
 20
92.4470582175412
 30
0.0
 10
104.7077625869749
 20
92.4470582175412
 30
0.0
 10
104.6773172858277
 20
92.44705821754118
 30
0.0
 10
104.6492160739461
 20
92.44705821754118
 30
0.0
  0
SPLINE
  5
10F
330
1F
100
AcDbEntity
  8
0
  6
Continuous
 62
     7
370
    15
100
AcDbSpline
210
0.0
220
0.0
230
1.0
 70
    24
 71
     3
 72
     8
 73
     4
 74
     0
 42
0.000000001
 43
0.00000001
 40
0.0
 40
0.0
 40
0.0
 40
0.0
 40
1.0
 40
1.0
 40
1.0
 40
1.0
 10
104.6132056721329
 20
92.44705821754123
 30
0.0
 10
104.5983638631412
 20
92.44705821754123
 30
0.0
 10
104.5844432495056
 20
92.44705821754123
 30
0.0
 10
104.571580511968
 20
92.44705821754123
 30
0.0
  0
LINE
  5
110
330
1F
100
AcDbEntity
  8
0
  6
Continuous
 62
     7
370
    15
100
AcDbLine
 10
104.5715805109
 20
122.6555996854
 30
0.0
 11
104.5715805115
 21
92.4470582111
 31
0.0
  0
LINE
  5
111
330
1F
100
AcDbEntity
  8
0
  6
Continuous
 62
     7
370
    15
100
AcDbLine
 10
104.5715805115
 20
92.4470582111
 30
0.0
 11
104.5715805137
 21
62.259031058
 31
0.0
  0
LINE
  5
112
330
1F
100
AcDbEntity
  8
0
  6
Continuous
 62
     7
370
    15
100
AcDbLine
 10
103.8058950859
 20
63.0721650759
 30
0.0
 11
103.8058950855
 21
92.447058205
 31
0.0
  0
LINE
  5
113
330
1F
100
AcDbEntity
  8
0
  6
Continuous
 62
     7
370
    15
100
AcDbLine
 10
103.8058950855
 20
92.447058205
 30
0.0
 11
103.8058950867
 21
121.8219513598
 31
0.0
  0
SPLINE
  5
114
330
1F
100
AcDbEntity
  8
0
  6
Continuous
 62
     7
370
    15
100
AcDbSpline
210
0.0
220
0.0
230
1.0
 70
    24
 71
     3
 72
    30
 73
    26
 74
     0
 42
0.000000001
 43
0.00000001
 40
0.0
 40
0.0
 40
0.0
 40
0.0
 40
0.1249999999999998
 40
0.1249999999999998
 40
0.2499999999999996
 40
0.2499999999999996
 40
0.3749999999999993
 40
0.3749999999999993
 40
0.4999999999999991
 40
0.4999999999999991
 40
0.5624999999999992
 40
0.5624999999999992
 40
0.6249999999999993
 40
0.6249999999999993
 40
0.6874999999999994
 40
0.6874999999999994
 40
0.7499999999999996
 40
0.7499999999999996
 40
0.8124999999999997
 40
0.8124999999999997
 40
0.8749999999999998
 40
0.8749999999999998
 40
0.9374999999999999
 40
0.9374999999999999
 40
1.0
 40
1.0
 40
1.0
 40
1.0
 10
128.6887377984681
 20
92.44705821754118
 30
0.0
 10
128.6887377984681
 20
93.86897921296038
 30
0.0
 10
128.6887377984681
 20
95.39217437337683
 30
0.0
 10
128.6887377984681
 20
98.62651751552866
 30
0.0
 10
128.6887377984681
 20
100.338415555452
 30
0.0
 10
128.6887377984681
 20
103.8930939403211
 30
0.0
 10
128.6887377984681
 20
105.7365598505603
 30
0.0
 10
128.6887377984681
 20
109.4308139786685
 30
0.0
 10
128.6887377984681
 20
111.2815615788692
 30
0.0
 10
128.6887377984681
 20
113.9111333357516
 30
0.0
 10
128.6887377984681
 20
114.7626066088829
 30
0.0
 10
128.6887377984681
 20
116.3842833447032
 30
0.0
 10
128.6887377984681
 20
117.1544055195063
 30
0.0
 10
128.6887377984681
 20
118.5804849407077
 30
0.0
 10
128.6887377984681
 20
119.2363364024965
 30
0.0
 10
128.6887377984681
 20
120.4021923803493
 30
0.0
 10
128.6887377984681
 20
120.9120816181582
 30
0.0
 10
128.6887377984681
 20
121.7589275802747
 30
0.0
 10
128.6887377984681
 20
122.0957818184391
 30
0.0
 10
128.6887377984681
 20
122.5774267505176
 30
0.0
 10
128.6887377984681
 20
122.7221513824466
 30
0.0
 10
128.6887377984681
 20
122.8109780669627
 30
0.0
 10
128.6887377984681
 20
122.7550672860581
 30
0.0
 10
128.6887377984681
 20
122.4458742550703
 30
0.0
 10
128.6887377984681
 20
122.1926357936769
 30
0.0
 10
128.6887377984681
 20
121.8480092612967
 30
0.0
  0
SPLINE
  5
115
330
1F
100
AcDbEntity
  8
0
  6
Continuous
 62
     7
370
    15
100
AcDbSpline
210
0.0
220
0.0
230
1.0
 70
    24
 71
     3
 72
    10
 73
     6
 74
     0
 42
0.000000001
 43
0.00000001
 40
0.0
 40
0.0
 40
0.0
 40
0.0
 40
0.5
 40
0.5
 40
1.0
 40
1.0
 40
1.0
 40
1.0
 10
128.5715805104681
 20
92.4470582175412
 30
0.0
 10
128.6076602513172
 20
92.44705821754118
 30
0.0
 10
128.6379908212073
 20
92.44705821754124
 30
0.0
 10
128.6785884041708
 20
92.44705821754123
 30
0.0
 10
128.6887377994204
 20
92.44705821753755
 30
0.0
 10
128.6887377984681
 20
92.44705821754118
 30
0.0
  0
SPLINE
  5
116
330
1F
100
AcDbEntity
  8
0
  6
Continuous
 62
     7
370
    15
100
AcDbSpline
210
0.0
220
0.0
230
1.0
 70
    24
 71
     3
 72
    30
 73
    26
 74
     0
 42
0.000000001
 43
0.00000001
 40
0.0
 40
0.0
 40
0.0
 40
0.0
 40
0.0625
 40
0.0625
 40
0.125
 40
0.125
 40
0.1875
 40
0.1875
 40
0.25
 40
0.25
 40
0.3125
 40
0.3125
 40
0.375
 40
0.375
 40
0.4375
 40
0.4375
 40
0.5
 40
0.5
 40
0.625
 40
0.625
 40
0.75
 40
0.75
 40
0.875
 40
0.875
 40
1.0
 40
1.0
 40
1.0
 40
1.0
 10
128.6887377984681
 20
63.0461071737865
 30
0.0
 10
128.6887377984681
 20
62.70148064140613
 30
0.0
 10
128.6887377984681
 20
62.44824218001264
 30
0.0
 10
128.6887377984681
 20
62.13904914902457
 30
0.0
 10
128.6887377984681
 20
62.08313836811979
 30
0.0
 10
128.6887377984681
 20
62.17196505263552
 30
0.0
 10
128.6887377984681
 20
62.31668968456445
 30
0.0
 10
128.6887377984681
 20
62.79833461664273
 30
0.0
 10
128.6887377984681
 20
63.13518885480703
 30
0.0
 10
128.6887377984681
 20
63.98203481692344
 30
0.0
 10
128.6887377984681
 20
64.49192405473222
 30
0.0
 10
128.6887377984681
 20
65.65778003258497
 30
0.0
 10
128.6887377984681
 20
66.31363149437374
 30
0.0
 10
128.6887377984681
 20
67.73971091557505
 30
0.0
 10
128.6887377984681
 20
68.50983309037808
 30
0.0
 10
128.6887377984681
 20
70.13150982619847
 30
0.0
 10
128.6887377984681
 20
70.98298309932972
 30
0.0
 10
128.6887377984681
 20
73.61255485621218
 30
0.0
 10
128.6887377984681
 20
75.46330245641296
 30
0.0
 10
128.6887377984681
 20
79.15755658452134
 30
0.0
 10
128.6887377984681
 20
81.00102249476072
 30
0.0
 10
128.6887377984681
 20
84.55570087962998
 30
0.0
 10
128.6887377984681
 20
86.26759891955341
 30
0.0
 10
128.6887377984681
 20
89.50194206170548
 30
0.0
 10
128.6887377984681
 20
91.02513722212196
 30
0.0
 10
128.6887377984681
 20
92.44705821754123
 30
0.0
  0
SPLINE
  5
117
330
1F
100
AcDbEntity
  8
0
  6
Continuous
 62
     7
370
    15
100
AcDbSpline
210
0.0
220
0.0
230
1.0
 70
    24
 71
     3
 72
    10
 73
     6
 74
     0
 42
0.000000001
 43
0.00000001
 40
0.0
 40
0.0
 40
0.0
 40
0.0
 40
0.5
 40
0.5
 40
1.0
 40
1.0
 40
1.0
 40
1.0
 10
103.6887377984681
 20
92.44705821754118
 30
0.0
 10
103.6887377979931
 20
92.44705821754057
 30
0.0
 10
103.6988871935059
 20
92.44705821754123
 30
0.0
 10
103.7394847761875
 20
92.44705821754123
 30
0.0
 10
103.7698153455231
 20
92.44705821754123
 30
0.0
 10
103.8058950854681
 20
92.44705821754123
 30
0.0
  0
SPLINE
  5
118
330
1F
100
AcDbEntity
  8
0
  6
Continuous
 62
     7
370
    15
100
AcDbSpline
210
0.0
220
0.0
230
1.0
 70
    24
 71
     3
 72
    31
 73
    27
 74
     0
 42
0.000000001
 43
0.00000001
 40
0.0
 40
0.0
 40
0.0
 40
0.0
 40
0.0132582450143676
 40
0.0265035409791593
 40
0.0397396742313269
 40
0.0529704389742909
 40
0.0661996340306225
 40
0.0794310595748935
 40
0.0926685138607063
 40
0.1059157899559912
 40
0.1191766725005549
 40
0.181117339185894
 40
0.2430716069696351
 40
0.3067153881337372
 40
0.3703731444037168
 40
0.499381464212232
 40
0.628474966415802
 40
0.6922434269533948
 40
0.7560258899753373
 40
0.8181636483394888
 40
0.8803150510815574
 40
0.9042723331711991
 40
0.9281970335198151
 40
0.9521115797527523
 40
0.9760384280489942
 40
1.0
 40
1.0
 40
1.0
 40
1.0
 10
103.6887377984681
 20
92.44705821754123
 30
0.0
 10
103.6887377984681
 20
92.61833967942908
 30
0.0
 10
103.6887377984681
 20
92.96073531619668
 30
0.0
 10
103.6887377984681
 20
93.47398057334681
 30
0.0
 10
103.6887377984681
 20
93.98657773784504
 30
0.0
 10
103.6887377984681
 20
94.4985267345211
 30
0.0
 10
103.6887377984681
 20
95.00982729807946
 30
0.0
 10
103.6887377984681
 20
95.52047980459044
 30
0.0
 10
103.6887377984681
 20
96.03048225574733
 30
0.0
 10
103.6887377984681
 20
96.53984152330628
 30
0.0
 10
103.6887377984681
 20
97.67070517585499
 30
0.0
 10
103.6887377984681
 20
99.41223299288168
 30
0.0
 10
103.6887377984681
 20
101.7487472920095
 30
0.0
 10
103.6887377984681
 20
104.0472192020017
 30
0.0
 10
103.6887377984681
 20
107.0559656450435
 30
0.0
 10
103.6887377984681
 20
110.604553188522
 30
0.0
 10
103.6887377984681
 20
113.7429539305523
 30
0.0
 10
103.6887377984681
 20
115.9479191218697
 30
0.0
 10
103.6887377984681
 20
117.4227986587066
 30
0.0
 10
103.6887377984681
 20
118.7246548306116
 30
0.0
 10
103.6887377984681
 20
119.6186541862005
 30
0.0
 10
103.6887377984681
 20
120.211664349564
 30
0.0
 10
103.6887377984681
 20
120.5727906727668
 30
0.0
 10
103.6887377984681
 20
120.9068899590318
 30
0.0
 10
103.6887377984681
 20
121.2164279625297
 30
0.0
 10
103.6887377984681
 20
121.4000924954148
 30
0.0
 10
103.6887377984681
 20
121.4919913489758
 30
0.0
  0
SPLINE
  5
119
330
1F
100
AcDbEntity
  8
0
  6
Continuous
 62
     7
370
    15
100
AcDbSpline
210
0.0
220
0.0
230
1.0
 70
     8
 71
     3
 72
    10
 73
     6
 74
     0
 42
0.000000001
 43
0.00000001
 40
0.0
 40
0.0
 40
0.0
 40
0.0
 40
0.5
 40
0.5
 40
1.0
 40
1.0
 40
1.0
 40
1.0
 10
103.8058950860207
 20
121.8219513591412
 30
0.0
 10
103.7732675383175
 20
121.7783552426745
 30
0.0
 10
103.7451343090125
 20
121.7294326229998
 30
0.0
 10
103.7024788961052
 20
121.6175364474856
 30
0.0
 10
103.6887377978991
 20
121.5558131015681
 30
0.0
 10
103.6887377984681
 20
121.4919913441049
 30
0.0
  0
SPLINE
  5
11A
330
1F
100
AcDbEntity
  8
0
  6
Continuous
 62
     7
370
    15
100
AcDbSpline
210
0.0
220
0.0
230
1.0
 70
     8
 71
     3
 72
    10
 73
     6
 74
     0
 42
0.000000001
 43
0.00000001
 40
0.0
 40
0.0
 40
0.0
 40
0.0
 40
0.5
 40
0.5
 40
1.0
 40
1.0
 40
1.0
 40
1.0
 10
103.6887377984681
 20
63.4021250940204
 30
0.0
 10
103.6887377979012
 20
63.33830638785528
 30
0.0
 10
103.7025742415914
 20
63.27643957760504
 30
0.0
 10
103.7447676249306
 20
63.16553671437801
 30
0.0
 10
103.7732700551027
 20
63.11575782910256
 30
0.0
 10
103.8058950855138
 20
63.07216507661857
 30
0.0
  0
SPLINE
  5
11B
330
1F
100
AcDbEntity
  8
0
  6
Continuous
 62
     7
370
    15
100
AcDbSpline
210
0.0
220
0.0
230
1.0
 70
    24
 71
     3
 72
    31
 73
    27
 74
     0
 42
0.000000001
 43
0.00000001
 40
0.0
 40
0.0
 40
0.0
 40
0.0
 40
0.0133152966056619
 40
0.0266174735791711
 40
0.0399103661806601
 40
0.0531978177097239
 40
0.0664836761878981
 40
0.0797717910206826
 40
0.0930660096535621
 40
0.1063701742365299
 40
0.1196881183115335
 40
0.1818258734528897
 40
0.243977272974219
 40
0.3077457304628376
 40
0.371528190434565
 40
0.5006216873901045
 40
0.6296300019553539
 40
0.693273781017754
 40
0.7569315351841439
 40
0.8188722000681313
 40
0.8808264660488166
 40
0.9046811864442346
 40
0.9285037511618587
 40
0.9523163012966724
 40
0.976141005864336
 40
1.0
 40
1.0
 40
1.0
 40
1.0
 10
103.6887377984681
 20
63.40212508595366
 30
0.0
 10
103.6887377984681
 20
63.45254856487982
 30
0.0
 10
103.6887377984681
 20
63.55334584021176
 30
0.0
 10
103.6887377984681
 20
63.71505231078684
 30
0.0
 10
103.6887377984681
 20
63.88434131538845
 30
0.0
 10
103.6887377984681
 20
64.06197253843202
 30
0.0
 10
103.6887377984681
 20
64.24774246763587
 30
0.0
 10
103.6887377984681
 20
64.44170589626424
 30
0.0
 10
103.6887377984681
 20
64.64384678372457
 30
0.0
 10
103.6887377984681
 20
64.85417417570608
 30
0.0
 10
103.6887377984681
 20
65.33952400353772
 30
0.0
 10
103.6887377984681
 20
66.16938342409642
 30
0.0
 10
103.6887377984681
 20
67.47111182710904
 30
0.0
 10
103.6887377984681
 20
68.94608332675364
 30
0.0
 10
103.6887377984681
 20
71.15102542482286
 30
0.0
 10
103.6887377984681
 20
74.28956346978137
 30
0.0
 10
103.6887377984681
 20
77.83799655254407
 30
0.0
 10
103.6887377984681
 20
80.84673008389429
 30
0.0
 10
103.6887377984681
 20
83.14502599440591
 30
0.0
 10
103.6887377984681
 20
85.48172650142865
 30
0.0
 10
103.6887377984681
 20
87.35770910336791
 30
0.0
 10
103.6887377984681
 20
88.76086341877604
 30
0.0
 10
103.6887377984681
 20
89.67932611331858
 30
0.0
 10
103.6887377984681
 20
90.59996056662884
 30
0.0
 10
103.6887377984681
 20
91.52278314865447
 30
0.0
 10
103.6887377984681
 20
92.13881886320299
 30
0.0
 10
103.6887377984681
 20
92.44705821754123
 30
0.0
  0
LINE
  5
11C
330
1F
100
AcDbEntity
  8
0
  6
Continuous
 62
     7
370
    15
100
AcDbLine
 10
102.1712518555
 20
92.4470582175
 30
0.0
 11
102.1712518555
 21
70.4470582175
 31
0.0
  0
LINE
  5
11D
330
1F
100
AcDbEntity
  8
0
  6
Continuous
 62
     7
370
    15
100
AcDbLine
 10
102.1712518555
 20
114.4470582175
 30
0.0
 11
102.1712518555
 21
92.4470582175
 31
0.0
  0
LINE
  5
11E
330
1F
100
AcDbEntity
  8
0
  6
Continuous
 62
     7
370
    15
100
AcDbLine
 10
101.6887377985
 20
114.6720582175
 30
0.0
 11
101.6887377985
 21
70.2220582175
 31
0.0
  0
LINE
  5
11F
330
1F
100
AcDbEntity
  8
0
  6
Continuous
 62
     7
370
    15
100
AcDbLine
 10
201.6887377982
 20
103.1180138643
 30
0.0
 11
201.6887377982
 21
81.7761025708
 31
0.0
  0
LINE
  5
120
330
1F
100
AcDbEntity
  8
0
  6
Continuous
 62
     7
370
    15
100
AcDbLine
 10
198.6120126064
 20
108.4470582175
 30
0.0
 11
198.6120126064
 21
76.4470582175
 31
0.0
  0
LINE
  5
121
330
1F
100
AcDbEntity
  8
0
  6
Continuous
 62
     7
370
    15
100
AcDbLine
 10
185.1887377985
 20
76.4470582175
 30
0.0
 11
185.1887377985
 21
108.4470582175
 31
0.0
  0
LINE
  5
122
330
1F
100
AcDbEntity
  8
0
  6
Continuous
 62
     7
370
    15
100
AcDbLine
 10
184.1887377985
 20
77.4470582175
 30
0.0
 11
184.1887377985
 21
107.4470582175
 31
0.0
  0
LINE
  5
123
330
1F
100
AcDbEntity
  8
0
  6
Continuous
 62
     7
370
    15
100
AcDbLine
 10
159.7275218665
 20
107.4470582175
 30
0.0
 11
159.7275218665
 21
77.4470582175
 31
0.0
  0
SPLINE
  5
124
330
1F
100
AcDbEntity
  8
0
  6
Continuous
 62
     7
370
    15
100
AcDbSpline
210
0.0
220
0.0
230
1.0
 70
    24
 71
     3
 72
    14
 73
    10
 74
     0
 42
0.000000001
 43
0.00000001
 40
0.0
 40
0.0
 40
0.0
 40
0.0
 40
0.25
 40
0.25
 40
0.5
 40
0.5
 40
0.75
 40
0.75
 40
1.0
 40
1.0
 40
1.0
 40
1.0
 10
36.2887377984681
 20
92.44705821754123
 30
0.0
 10
36.28873779825915
 20
92.44705821754124
 30
0.0
 10
36.30704197979069
 20
92.44705821754123
 30
0.0
 10
36.38814790355831
 20
92.44705821754123
 30
0.0
 10
36.45113200076389
 20
92.44705821754124
 30
0.0
 10
36.6135262042108
 20
92.44705821754118
 30
0.0
 10
36.71257160040143
 20
92.44705821754123
 30
0.0
 10
36.92433258691989
 20
92.44705821754124
 30
0.0
 10
37.03655412157757
 20
92.44705821754123
 30
0.0
 10
37.14442957146809
 20
92.44705821754123
 30
0.0
  0
SPLINE
  5
125
330
1F
100
AcDbEntity
  8
0
  6
Continuous
 62
     7
370
    15
100
AcDbSpline
210
0.0
220
0.0
230
1.0
 70
    24
 71
     3
 72
    22
 73
    18
 74
     0
 42
0.000000001
 43
0.00000001
 40
0.0
 40
0.0
 40
0.0
 40
0.0
 40
0.125
 40
0.125
 40
0.25
 40
0.25
 40
0.375
 40
0.375
 40
0.5
 40
0.5
 40
0.625
 40
0.625
 40
0.75
 40
0.75
 40
0.875
 40
0.875
 40
1.0
 40
1.0
 40
1.0
 40
1.0
 10
36.28873779846808
 20
104.2697249349812
 30
0.0
 10
36.28873779846808
 20
104.2697249349706
 30
0.0
 10
36.2887377984681
 20
104.1447357957001
 30
0.0
 10
36.2887377984681
 20
103.6671653531352
 30
0.0
 10
36.28873779846803
 20
103.3151843695201
 30
0.0
 10
36.28873779846803
 20
102.4424615668426
 30
0.0
 10
36.28873779846798
 20
101.9224963015982
 30
0.0
 10
36.28873779846803
 20
100.7865973788502
 30
0.0
 10
36.2887377984681
 20
100.171200472892
 30
0.0
 10
36.28873779846808
 20
98.91011602303712
 30
0.0
 10
36.2887377984681
 20
98.26460827124686
 30
0.0
 10
36.28873779846808
 20
96.99094641051921
 30
0.0
 10
36.2887377984681
 20
96.36272543433415
 30
0.0
 10
36.28873779846808
 20
95.15208436247575
 30
0.0
 10
36.28873779846803
 20
94.5695026536852
 30
0.0
 10
36.28873779846803
 20
93.46337485680598
 30
0.0
 10
36.28873779846808
 20
92.93966933076523
 30
0.0
 10
36.28873779846808
 20
92.44705821754123
 30
0.0
  0
SPLINE
  5
126
330
1F
100
AcDbEntity
  8
0
  6
Continuous
 62
     7
370
    15
100
AcDbSpline
210
0.0
220
0.0
230
1.0
 70
    24
 71
     3
 72
    28
 73
    24
 74
     0
 42
0.000000001
 43
0.00000001
 40
0.0
 40
0.0
 40
0.0
 40
0.0
 40
0.0159050150626422
 40
0.0317998717569026
 40
0.0476945022662028
 40
0.0635988392016188
 40
0.079522797011011
 40
0.1189567777952477
 40
0.1584201501739366
 40
0.1972537745855119
 40
0.2361163431111572
 40
0.3120439297964664
 40
0.3857781978274837
 40
0.4569425335140401
 40
0.5903163461288202
 40
0.7111080181235626
 40
0.7651628672342582
 40
0.8192451463064018
 40
0.8672065505904405
 40
0.9151955408707508
 40
0.9434668864308652
 40
0.9717164360534576
 40
1.0
 40
1.0
 40
1.0
 40
1.0
 10
36.28873779846808
 20
80.62439150010123
 30
0.0
 10
36.28873779846803
 20
80.62509506415958
 30
0.0
 10
36.28873779846803
 20
80.62650174291716
 30
0.0
 10
36.28873779846808
 20
80.63795565663818
 30
0.0
 10
36.28873779846803
 20
80.65625147572388
 30
0.0
 10
36.2887377984681
 20
80.68206165150777
 30
0.0
 10
36.28873779846808
 20
80.73147765357248
 30
0.0
 10
36.28873779846813
 20
80.82252221299919
 30
0.0
 10
36.28873779846801
 20
80.98000636866595
 30
0.0
 10
36.28873779846808
 20
81.179825804946
 30
0.0
 10
36.28873779846808
 20
81.49713694123646
 30
0.0
 10
36.2887377984681
 20
81.98485555126354
 30
0.0
 10
36.28873779846803
 20
82.69810396804488
 30
0.0
 10
36.28873779846808
 20
83.7575700076608
 30
0.0
 10
36.28873779846801
 20
85.24386895594222
 30
0.0
 10
36.28873779846803
 20
86.88147341691229
 30
0.0
 10
36.28873779846803
 20
88.18088112381768
 30
0.0
 10
36.28873779846808
 20
89.09686662539981
 30
0.0
 10
36.28873779846801
 20
89.99781632667133
 30
0.0
 10
36.28873779846815
 20
90.75591947455084
 30
0.0
 10
36.28873779846801
 20
91.39865605069144
 30
0.0
 10
36.28873779846813
 20
91.92230713275858
 30
0.0
 10
36.28873779846808
 20
92.2720710417028
 30
0.0
 10
36.28873779846803
 20
92.44705821754123
 30
0.0
  0
LINE
  5
127
330
1F
100
AcDbEntity
  8
0
  6
Continuous
 62
     7
370
    15
100
AcDbLine
 10
170.0887377985
 20
92.4470582175
 30
0.0
 11
170.0887377985
 21
103.3970582175
 31
0.0
  0
LINE
  5
128
330
1F
100
AcDbEntity
  8
0
  6
Continuous
 62
     7
370
    15
100
AcDbLine
 10
170.0887377985
 20
81.4970582175
 30
0.0
 11
170.0887377985
 21
92.4470582175
 31
0.0
  0
LINE
  5
129
330
1F
100
AcDbEntity
  8
0
  6
Continuous
 62
     7
370
    15
100
AcDbLine
 10
103.6887377985
 20
122.7813727952
 30
0.0
 11
103.6887377985
 21
121.4919913545
 31
0.0
  0
LINE
  5
12A
330
1F
100
AcDbEntity
  8
0
  6
Continuous
 62
     7
370
    15
100
AcDbLine
 10
103.6887377985
 20
63.4021250808
 30
0.0
 11
103.6887377985
 21
62.1127436399
 31
0.0
  0
LINE
  5
12B
330
1F
100
AcDbEntity
  8
0
  6
Continuous
 62
     8
370
    15
100
AcDbLine
 10
127.5230523735
 20
92.4470582208
 30
0.0
 11
127.5230523735
 21
60.9470582175
 31
0.0
  0
LINE
  5
12C
330
1F
100
AcDbEntity
  8
0
  6
Continuous
 62
     8
370
    15
100
AcDbLine
 10
127.5230523735
 20
123.9470582175
 30
0.0
 11
127.5230523735
 21
92.4470582208
 31
0.0
  0
LINE
  5
12D
330
1F
100
AcDbEntity
  8
0
  6
Continuous
 62
     8
370
    15
100
AcDbLine
 10
127.8058950855
 20
92.4470582175
 30
0.0
 11
127.8058950855
 21
61.0642155046
 31
0.0
  0
LINE
  5
12E
330
1F
100
AcDbEntity
  8
0
  6
Continuous
 62
     8
370
    15
100
AcDbLine
 10
127.8058950854
 20
92.4470582175
 30
0.0
 11
127.8058950854
 21
123.829900905
 31
0.0
  0
LINE
  5
12F
330
1F
100
AcDbEntity
  8
0
  6
Continuous
 62
     8
370
    15
100
AcDbLine
 10
103.8058950842
 20
63.0721650778
 30
0.0
 11
103.8058950842
 21
61.8299009318
 31
0.0
  0
LINE
  5
130
330
1F
100
AcDbEntity
  8
0
  6
Continuous
 62
     8
370
    15
100
AcDbLine
 10
103.8058950842
 20
123.0642155033
 30
0.0
 11
103.8058950842
 21
121.8219513573
 31
0.0
  0
LINE
  5
131
330
1F
100
AcDbEntity
  8
0
  6
Continuous
 62
     8
370
    15
100
AcDbLine
 10
128.5715805105
 20
123.0642155055
 30
0.0
 11
128.5715805105
 21
92.4470582238
 31
0.0
  0
LINE
  5
132
330
1F
100
AcDbEntity
  8
0
  6
Continuous
 62
     8
370
    15
100
AcDbLine
 10
128.5715805105
 20
92.4470582238
 30
0.0
 11
128.5715805105
 21
61.8299009295
 31
0.0
  0
LINE
  5
133
330
1F
100
AcDbEntity
  8
0
  6
Continuous
 62
     8
370
    15
100
AcDbLine
 10
103.1887377995
 20
92.4470582166
 30
0.0
 11
103.1887377995
 21
70.447058239
 31
0.0
  0
LINE
  5
134
330
1F
100
AcDbEntity
  8
0
  6
Continuous
 62
     8
370
    15
100
AcDbLine
 10
103.1887377995
 20
92.4470582166
 30
0.0
 11
103.1887377995
 21
114.4470582175
 31
0.0
  0
LINE
  5
135
330
1F
100
AcDbEntity
  8
0
  6
Continuous
 62
     8
370
    15
100
AcDbLine
 10
37.1444295715
 20
79.6348587105
 30
0.0
 11
37.1444295715
 21
92.4470582175
 31
0.0
  0
LINE
  5
136
330
1F
100
AcDbEntity
  8
0
  6
Continuous
 62
     8
370
    15
100
AcDbLine
 10
37.1444295715
 20
92.4470582175
 30
0.0
 11
37.1444295715
 21
105.2592577245
 31
0.0
  0
LINE
  5
137
330
1F
100
AcDbEntity
  8
0
  6
Continuous
 62
     8
370
    15
100
AcDbLine
 10
130.6887377975
 20
107.4470582023
 30
0.0
 11
130.6887377975
 21
92.4470582175
 31
0.0
  0
LINE
  5
138
330
1F
100
AcDbEntity
  8
0
  6
Continuous
 62
     8
370
    15
100
AcDbLine
 10
130.6887377973
 20
92.4470582175
 30
0.0
 11
130.6887377973
 21
77.447058237
 31
0.0
  0
LINE
  5
139
330
1F
100
AcDbEntity
  8
0
  6
Continuous
 62
     8
370
    15
100
AcDbLine
 10
166.8566869905
 20
92.4470582156
 30
0.0
 11
166.8566869905
 21
81.5630836215
 31
0.0
  0
LINE
  5
13A
330
1F
100
AcDbEntity
  8
0
  6
Continuous
 62
     8
370
    15
100
AcDbLine
 10
166.8566869905
 20
103.3310328135
 30
0.0
 11
166.8566869905
 21
92.4470582175
 31
0.0
  0
LINE
  5
13B
330
1F
100
AcDbEntity
  8
0
  6
Continuous
 62
     8
370
    15
100
AcDbLine
 10
169.8607600132
 20
92.4470582175
 30
0.0
 11
169.8607600132
 21
81.6033660047
 31
0.0
  0
LINE
  5
13C
330
1F
100
AcDbEntity
  8
0
  6
Continuous
 62
     8
370
    15
100
AcDbLine
 10
169.8607600132
 20
103.2907504304
 30
0.0
 11
169.8607600132
 21
92.4470582175
 31
0.0
  0
LINE
  5
13D
330
1F
100
AcDbEntity
  8
0
  6
Continuous
 62
     8
370
    15
100
AcDbLine
 10
167.3566869905
 20
92.4470582175
 30
0.0
 11
167.3566869905
 21
81.6970582727
 31
0.0
  0
LINE
  5
13E
330
1F
100
AcDbEntity
  8
0
  6
Continuous
 62
     8
370
    15
100
AcDbLine
 10
167.3566869905
 20
92.4470582175
 30
0.0
 11
167.3566869905
 21
103.1970582175
 31
0.0
  0
LINE
  5
13F
330
1F
100
AcDbEntity
  8
0
  6
Continuous
 62
     8
370
    15
100
AcDbLine
 10
169.4381417515
 20
92.4470582186
 30
0.0
 11
169.4381417515
 21
81.6970582789
 31
0.0
  0
LINE
  5
140
330
1F
100
AcDbEntity
  8
0
  6
Continuous
 62
     8
370
    15
100
AcDbLine
 10
169.4381417515
 20
92.4470582186
 30
0.0
 11
169.4381417515
 21
103.1970582175
 31
0.0
  0
DIMENSION
  5
141
330
1F
100
AcDbEntity
  8
DIM
100
AcDbDimension
  2
_D
 10
207.5892789581
 20
76.4470582175
 30
0.0
 11
207.5892789581
 21
92.4470582175
 31
0.0
 70
   160
  1
%%c<>
 71
     2
 42
-1.0
  3
SLDDIMSTYLE0
100
AcDbAlignedDimension
 13
198.6120126064
 23
108.4470582175
 33
0.0
 14
198.6120126064
 24
76.4470582175
 34
0.0
 50
90.0
100
AcDbRotatedDimension
  0
DIMENSION
  5
14D
330
1F
100
AcDbEntity
  8
DIM
100
AcDbDimension
  2
_D_1
 10
101.6887377985
 20
52.6127322798
 30
0.0
 11
151.6887377984
 21
52.6127322798
 31
0.0
 70
   160
  1
<>
 71
     2
 42
-1.0
  3
SLDDIMSTYLE0
100
AcDbAlignedDimension
 13
201.6887377982
 23
81.7761025708
 33
0.0
 14
101.6887377985
 24
70.2220582175
 34
0.0
100
AcDbRotatedDimension
  0
DIMENSION
  5
157
330
1F
100
AcDbEntity
  8
DIM
100
AcDbDimension
  2
_D_2
 10
27.9539412262
 20
123.9470582175
 30
0.0
 11
27.9539412262
 21
92.4470582175
 31
0.0
 70
   160
  1
%%c<>
 71
     2
 42
-1.0
  3
SLDDIMSTYLE0
100
AcDbAlignedDimension
 13
104.8544232245
 23
60.9470582175
 33
0.0
 14
104.8544232245
 24
123.9470582175
 34
0.0
 50
90.0
100
AcDbRotatedDimension
  0
DIMENSION
  5
162
330
1F
100
AcDbEntity
  8
DIM
100
AcDbDimension
  2
_D_3
 10
201.6887377982
 20
47.6127322798
 30
0.0
 11
118.9887377984
 21
47.6127322798
 31
0.0
 70
   160
  1
<>
 71
     2
 42
-1.0
  3
SLDDIMSTYLE1
100
AcDbAlignedDimension
 13
36.2887377985
 23
80.6243915001
 33
0.0
 14
201.6887377982
 24
81.7761025708
 34
0.0
 50
0.0
100
AcDbRotatedDimension
  0
LINE
  5
16D
330
1F
100
AcDbEntity
  8
DIM
  6
CENTERX2
370
     0
100
AcDbLine
 10
33.5349530941
 20
92.4470582175
 30
0.0
 11
201.8330420364
 21
92.4470582175
 31
0.0
  0
ENDSEC
  0
SECTION
  2
OBJECTS
  0
DICTIONARY
  5
C
330
0
100
AcDbDictionary
281
     1
  3
ACAD_GROUP
350
D
  3
ACAD_LAYOUT
350
1A
  3
ACAD_MLINESTYLE
350
17
  3
ACAD_PLOTSETTINGS
350
19
  3
ACAD_PLOTSTYLENAME
350
E
  3
ACAD_SCALELIST
350
47
  0
DICTIONARY
  5
D
102
{ACAD_REACTORS
330
C
102
}
330
C
100
AcDbDictionary
281
     1
  0
DICTIONARY
  5
1A
102
{ACAD_REACTORS
330
C
102
}
330
C
100
AcDbDictionary
281
     1
  3
Layout1
350
1E
  3
Layout2
350
26
  3
Model
350
22
  0
DICTIONARY
  5
17
102
{ACAD_REACTORS
330
C
102
}
330
C
100
AcDbDictionary
281
     1
  3
Standard
350
18
  0
DICTIONARY
  5
19
102
{ACAD_REACTORS
330
C
102
}
330
C
100
AcDbDictionary
281
     1
  0
ACDBDICTIONARYWDFLT
  5
E
102
{ACAD_REACTORS
330
C
102
}
330
C
100
AcDbDictionary
281
     1
  3
Normal
350
F
100
AcDbDictionaryWithDefault
340
F
  0
DICTIONARY
  5
47
102
{ACAD_REACTORS
330
C
102
}
330
C
100
AcDbDictionary
281
     1
  3
A0
350
48
  3
A1
350
49
  3
A2
350
4A
  3
A3
350
4B
  3
A4
350
4C
  3
A5
350
4D
  3
A6
350
4E
  3
A7
350
4F
  3
A8
350
50
  3
A9
350
51
  3
B0
350
52
  3
B1
350
53
  3
B2
350
54
  3
B3
350
55
  3
B4
350
56
  3
B5
350
57
  3
B6
350
58
  3
B7
350
59
  3
B8
350
5A
  3
B9
350
5B
  3
C0
350
5C
  3
C1
350
5D
  3
C2
350
5E
  3
C3
350
5F
  3
C4
350
60
  3
C5
350
61
  3
C6
350
62
  3
C7
350
63
  3
C8
350
64
  3
C9
350
65
  3
D0
350
66
  3
D1
350
67
  3
D2
350
68
  0
LAYOUT
  5
1E
102
{ACAD_REACTORS
330
1A
102
}
330
1A
100
AcDbPlotSettings
  1

  2
none_device
  4

  6

 40
0.0
 41
0.0
 42
0.0
 43
0.0
 44
0.0
 45
0.0
 46
0.0
 47
0.0
 48
0.0
 49
0.0
140
0.0
141
0.0
142
1.0
143
1.0
 70
   688
 72
     1
 73
     0
 74
     5
  7

 75
    16
147
1.0
148
0.0
149
0.0
100
AcDbLayout
  1
Layout1
 70
     1
 71
     1
 10
0.0
 20
0.0
 11
420.0
 21
297.0
 12
0.0
 22
0.0
 32
0.0
 14
1.0000000000E+20
 24
1.0000000000E+20
 34
1.0000000000E+20
 15
-1.0000000000E+20
 25
-1.0000000000E+20
 35
-1.0000000000E+20
146
0.0
 13
0.0
 23
0.0
 33
0.0
 16
1.0
 26
0.0
 36
0.0
 17
0.0
 27
1.0
 37
0.0
 76
     0
330
1B
  0
LAYOUT
  5
26
102
{ACAD_REACTORS
330
1A
102
}
330
1A
100
AcDbPlotSettings
  1

  2
none_device
  4

  6

 40
0.0
 41
0.0
 42
0.0
 43
0.0
 44
0.0
 45
0.0
 46
0.0
 47
0.0
 48
0.0
 49
0.0
140
0.0
141
0.0
142
1.0
143
1.0
 70
   688
 72
     1
 73
     0
 74
     5
  7

 75
    16
147
1.0
148
0.0
149
0.0
100
AcDbLayout
  1
Layout2
 70
     1
 71
     2
 10
0.0
 20
0.0
 11
0.0
 21
0.0
 12
0.0
 22
0.0
 32
0.0
 14
0.0
 24
0.0
 34
0.0
 15
0.0
 25
0.0
 35
0.0
146
0.0
 13
0.0
 23
0.0
 33
0.0
 16
1.0
 26
0.0
 36
0.0
 17
0.0
 27
1.0
 37
0.0
 76
     0
330
23
  0
LAYOUT
  5
22
102
{ACAD_REACTORS
330
1A
102
}
330
1A
100
AcDbPlotSettings
  1

  2
none_device
  4
Letter_(8.50_x_11.00_Inches)
  6

 40
6.35
 41
6.35
 42
6.35000508
 43
6.35000508
 44
215.9
 45
279.4
 46
0.0
 47
0.0
 48
0.0
 49
0.0
140
0.0
141
0.0
142
1.0
143
1.0
 70
  1712
 72
     1
 73
     0
 74
     0
  7

 75
     0
147
1.0
148
0.0
149
0.0
100
AcDbLayout
  1
Model
 70
     1
 71
     0
 10
0.0
 20
0.0
 11
247.5
 21
175.0
 12
0.0
 22
0.0
 32
0.0
 14
0.0
 24
0.0
 34
0.0
 15
247.5
 25
175.0
 35
0.0
146
0.0
 13
0.0
 23
0.0
 33
0.0
 16
1.0
 26
0.0
 36
0.0
 17
0.0
 27
1.0
 37
0.0
 76
     0
330
1F
331
29
  0
MLINESTYLE
  5
18
102
{ACAD_REACTORS
330
17
102
}
330
17
100
AcDbMlineStyle
  2
Standard
 70
     0
  3

 62
   256
 51
90.0
 52
90.0
 71
     2
 49
0.5
 62
   256
  6
BYLAYER
 49
-0.5
 62
   256
  6
BYLAYER
  0
ACDBPLACEHOLDER
  5
F
102
{ACAD_REACTORS
330
E
102
}
330
E
  0
SCALE
  5
48
102
{ACAD_REACTORS
330
47
102
}
330
47
100
AcDbScale
 70
     0
300
1:1
140
1.0
141
1.0
290
     1
  0
SCALE
  5
49
102
{ACAD_REACTORS
330
47
102
}
330
47
100
AcDbScale
 70
     0
300
1:2
140
1.0
141
2.0
290
     0
  0
SCALE
  5
4A
102
{ACAD_REACTORS
330
47
102
}
330
47
100
AcDbScale
 70
     0
300
1:4
140
1.0
141
4.0
290
     0
  0
SCALE
  5
4B
102
{ACAD_REACTORS
330
47
102
}
330
47
100
AcDbScale
 70
     0
300
1:5
140
1.0
141
5.0
290
     0
  0
SCALE
  5
4C
102
{ACAD_REACTORS
330
47
102
}
330
47
100
AcDbScale
 70
     0
300
1:8
140
1.0
141
8.0
290
     0
  0
SCALE
  5
4D
102
{ACAD_REACTORS
330
47
102
}
330
47
100
AcDbScale
 70
     0
300
1:10
140
1.0
141
10.0
290
     0
  0
SCALE
  5
4E
102
{ACAD_REACTORS
330
47
102
}
330
47
100
AcDbScale
 70
     0
300
1:16
140
1.0
141
16.0
290
     0
  0
SCALE
  5
4F
102
{ACAD_REACTORS
330
47
102
}
330
47
100
AcDbScale
 70
     0
300
1:20
140
1.0
141
20.0
290
     0
  0
SCALE
  5
50
102
{ACAD_REACTORS
330
47
102
}
330
47
100
AcDbScale
 70
     0
300
1:30
140
1.0
141
30.0
290
     0
  0
SCALE
  5
51
102
{ACAD_REACTORS
330
47
102
}
330
47
100
AcDbScale
 70
     0
300
1:40
140
1.0
141
40.0
290
     0
  0
SCALE
  5
52
102
{ACAD_REACTORS
330
47
102
}
330
47
100
AcDbScale
 70
     0
300
1:50
140
1.0
141
50.0
290
     0
  0
SCALE
  5
53
102
{ACAD_REACTORS
330
47
102
}
330
47
100
AcDbScale
 70
     0
300
1:100
140
1.0
141
100.0
290
     0
  0
SCALE
  5
54
102
{ACAD_REACTORS
330
47
102
}
330
47
100
AcDbScale
 70
     0
300
2:1
140
2.0
141
1.0
290
     0
  0
SCALE
  5
55
102
{ACAD_REACTORS
330
47
102
}
330
47
100
AcDbScale
 70
     0
300
4:1
140
4.0
141
1.0
290
     0
  0
SCALE
  5
56
102
{ACAD_REACTORS
330
47
102
}
330
47
100
AcDbScale
 70
     0
300
8:1
140
8.0
141
1.0
290
     0
  0
SCALE
  5
57
102
{ACAD_REACTORS
330
47
102
}
330
47
100
AcDbScale
 70
     0
300
10:1
140
10.0
141
1.0
290
     0
  0
SCALE
  5
58
102
{ACAD_REACTORS
330
47
102
}
330
47
100
AcDbScale
 70
     0
300
100:1
140
100.0
141
1.0
290
     0
  0
SCALE
  5
59
102
{ACAD_REACTORS
330
47
102
}
330
47
100
AcDbScale
 70
     0
300
1/128" = 1'-0"
140
0.0078125
141
12.0
290
     0
  0
SCALE
  5
5A
102
{ACAD_REACTORS
330
47
102
}
330
47
100
AcDbScale
 70
     0
300
1/64" = 1'-0"
140
0.015625
141
12.0
290
     0
  0
SCALE
  5
5B
102
{ACAD_REACTORS
330
47
102
}
330
47
100
AcDbScale
 70
     0
300
1/32" = 1'-0"
140
0.03125
141
12.0
290
     0
  0
SCALE
  5
5C
102
{ACAD_REACTORS
330
47
102
}
330
47
100
AcDbScale
 70
     0
300
1/16" = 1'-0"
140
0.0625
141
12.0
290
     0
  0
SCALE
  5
5D
102
{ACAD_REACTORS
330
47
102
}
330
47
100
AcDbScale
 70
     0
300
3/32" = 1'-0"
140
0.09375
141
12.0
290
     0
  0
SCALE
  5
5E
102
{ACAD_REACTORS
330
47
102
}
330
47
100
AcDbScale
 70
     0
300
1/8" = 1'-0"
140
0.125
141
12.0
290
     0
  0
SCALE
  5
5F
102
{ACAD_REACTORS
330
47
102
}
330
47
100
AcDbScale
 70
     0
300
3/16" = 1'-0"
140
0.1875
141
12.0
290
     0
  0
SCALE
  5
60
102
{ACAD_REACTORS
330
47
102
}
330
47
100
AcDbScale
 70
     0
300
1/4" = 1'-0"
140
0.25
141
12.0
290
     0
  0
SCALE
  5
61
102
{ACAD_REACTORS
330
47
102
}
330
47
100
AcDbScale
 70
     0
300
3/8" = 1'-0"
140
0.375
141
12.0
290
     0
  0
SCALE
  5
62
102
{ACAD_REACTORS
330
47
102
}
330
47
100
AcDbScale
 70
     0
300
1/2" = 1'-0"
140
0.5
141
12.0
290
     0
  0
SCALE
  5
63
102
{ACAD_REACTORS
330
47
102
}
330
47
100
AcDbScale
 70
     0
300
3/4" = 1'-0"
140
0.75
141
12.0
290
     0
  0
SCALE
  5
64
102
{ACAD_REACTORS
330
47
102
}
330
47
100
AcDbScale
 70
     0
300
1" = 1'-0"
140
1.0
141
12.0
290
     0
  0
SCALE
  5
65
102
{ACAD_REACTORS
330
47
102
}
330
47
100
AcDbScale
 70
     0
300
1-1/2" = 1'-0"
140
1.5
141
12.0
290
     0
  0
SCALE
  5
66
102
{ACAD_REACTORS
330
47
102
}
330
47
100
AcDbScale
 70
     0
300
3" = 1'-0"
140
3.0
141
12.0
290
     0
  0
SCALE
  5
67
102
{ACAD_REACTORS
330
47
102
}
330
47
100
AcDbScale
 70
     0
300
6" = 1'-0"
140
6.0
141
12.0
290
     0
  0
SCALE
  5
68
102
{ACAD_REACTORS
330
47
102
}
330
47
100
AcDbScale
 70
     0
300
1'-0" = 1'-0"
140
12.0
141
12.0
290
     0
  0
ENDSEC
  0
EOF
