  0
SECTION
  2
HEADER
  9
$ACADVER
  1
AC1015
  9
$ACADMAINTVER
 70
     6
  9
$DWGCODEPAGE
  3
ANSI_1252
  9
$INSBASE
 10
0.0
 20
0.0
 30
0.0
  9
$EXTMIN
 10
0.0
 20
0.0
 30
0.0
  9
$EXTMAX
 10
297.0
 20
210.0
 30
0.0
  9
$LIMMIN
 10
0.0
 20
0.0
  9
$LIMMAX
 10
297.0
 20
210.0
  9
$ORTHOMODE
 70
     0
  9
$REGENMODE
 70
     1
  9
$FILLMODE
 70
     1
  9
$QTEXTMODE
 70
     0
  9
$MIRRTEXT
 70
     1
  9
$LTSCALE
 40
1.0
  9
$ATTMODE
 70
     1
  9
$TEXTSIZE
 40
3.8805555556
  9
$TRACEWID
 40
1.0
  9
$TEXTSTYLE
  7
Standard
  9
$CLAYER
  8
0
  9
$CELTYPE
  6
ByLayer
  9
$CECOLOR
 62
   256
  9
$CELTSCALE
 40
1.0
  9
$DISPSILH
 70
     0
  9
$DIMSCALE
 40
1.0
  9
$DIMASZ
 40
3.302
  9
$DIMEXO
 40
1.0
  9
$DIMDLI
 40
3.75
  9
$DIMRND
 40
0.0
  9
$DIMDLE
 40
0.0
  9
$DIMEXE
 40
1.0
  9
$DIMTP
 40
0.0
  9
$DIMTM
 40
0.0
  9
$DIMTXT
 40
3.8805555556
  9
$DIMCEN
 40
2.5
  9
$DIMTSZ
 40
0.0
  9
$DIMTOL
 70
     0
  9
$DIMLIM
 70
     0
  9
$DIMTIH
 70
     1
  9
$DIMTOH
 70
     1
  9
$DIMSE1
 70
     0
  9
$DIMSE2
 70
     0
  9
$DIMTAD
 70
     1
  9
$DIMZIN
 70
     0
  9
$DIMBLK
  1

  9
$DIMASO
 70
     1
  9
$DIMSHO
 70
     1
  9
$DIMPOST
  1

  9
$DIMAPOST
  1

  9
$DIMALT
 70
     0
  9
$DIMALTD
 70
     3
  9
$DIMALTF
 40
0.0393700787
  9
$DIMLFAC
 40
1.0
  9
$DIMTOFL
 70
     1
  9
$DIMTVP
 40
0.0
  9
$DIMTIX
 70
     0
  9
$DIMSOXD
 70
     0
  9
$DIMSAH
 70
     0
  9
$DIMBLK1
  1

  9
$DIMBLK2
  1

  9
$DIMSTYLE
  2
ISO-25
  9
$DIMCLRD
 70
     0
  9
$DIMCLRE
 70
     0
  9
$DIMCLRT
 70
     0
  9
$DIMTFAC
 40
1.0
  9
$DIMGAP
 40
1.524
  9
$DIMJUST
 70
     0
  9
$DIMSD1
 70
     0
  9
$DIMSD2
 70
     0
  9
$DIMTOLJ
 70
     0
  9
$DIMTZIN
 70
     0
  9
$DIMALTZ
 70
     0
  9
$DIMALTTZ
 70
     0
  9
$DIMUPT
 70
     0
  9
$DIMDEC
 70
     2
  9
$DIMTDEC
 70
     2
  9
$DIMALTU
 70
     2
  9
$DIMALTTD
 70
     3
  9
$DIMTXSTY
  7
Standard
  9
$DIMAUNIT
 70
     0
  9
$DIMADEC
 70
     2
  9
$DIMALTRND
 40
0.0
  9
$DIMAZIN
 70
     0
  9
$DIMDSEP
 70
    44
  9
$DIMATFIT
 70
     3
  9
$DIMFRAC
 70
     0
  9
$DIMLDRBLK
  1

  9
$DIMLUNIT
 70
     2
  9
$DIMLWD
 70
    -2
  9
$DIMLWE
 70
    -2
  9
$DIMTMOVE
 70
     0
  9
$LUNITS
 70
     2
  9
$LUPREC
 70
     2
  9
$SKETCHINC
 40
1.0
  9
$FILLETRAD
 40
10.0
  9
$AUNITS
 70
     1
  9
$AUPREC
 70
     2
  9
$MENU
  1
.
  9
$ELEVATION
 40
0.0
  9
$PELEVATION
 40
0.0
  9
$THICKNESS
 40
0.0
  9
$LIMCHECK
 70
     0
  9
$CHAMFERA
 40
0.0
  9
$CHAMFERB
 40
0.0
  9
$CHAMFERC
 40
0.0
  9
$CHAMFERD
 40
0.0
  9
$SKPOLY
 70
     0
  9
$TDCREATE
 40
2458632.376483368
  9
$TDUCREATE
 40
2458632.147316701
  9
$TDUPDATE
 40
2458632.376507373
  9
$TDUUPDATE
 40
2458632.147340706
  9
$TDINDWG
 40
0.0000000116
  9
$TDUSRTIMER
 40
0.0000000116
  9
$USRTIMER
 70
     1
  9
$ANGBASE
 50
0.0
  9
$ANGDIR
 70
     0
  9
$PDMODE
 70
     0
  9
$PDSIZE
 40
-1.0
  9
$PLINEWID
 40
0.0
  9
$SPLFRAME
 70
     0
  9
$SPLINETYPE
 70
     6
  9
$SPLINESEGS
 70
     8
  9
$HANDSEED
  5
174
  9
$SURFTAB1
 70
     6
  9
$SURFTAB2
 70
     6
  9
$SURFTYPE
 70
     6
  9
$SURFU
 70
     6
  9
$SURFV
 70
     6
  9
$UCSBASE
  2

  9
$UCSNAME
  2

  9
$UCSORG
 10
0.0
 20
0.0
 30
0.0
  9
$UCSXDIR
 10
1.0
 20
0.0
 30
0.0
  9
$UCSYDIR
 10
0.0
 20
1.0
 30
0.0
  9
$UCSORTHOREF
  2

  9
$UCSORTHOVIEW
 70
     0
  9
$UCSORGTOP
 10
0.0
 20
0.0
 30
0.0
  9
$UCSORGBOTTOM
 10
0.0
 20
0.0
 30
0.0
  9
$UCSORGLEFT
 10
0.0
 20
0.0
 30
0.0
  9
$UCSORGRIGHT
 10
0.0
 20
0.0
 30
0.0
  9
$UCSORGFRONT
 10
0.0
 20
0.0
 30
0.0
  9
$UCSORGBACK
 10
0.0
 20
0.0
 30
0.0
  9
$PUCSBASE
  2

  9
$PUCSNAME
  2

  9
$PUCSORG
 10
0.0
 20
0.0
 30
0.0
  9
$PUCSXDIR
 10
1.0
 20
0.0
 30
0.0
  9
$PUCSYDIR
 10
0.0
 20
1.0
 30
0.0
  9
$PUCSORTHOREF
  2

  9
$PUCSORTHOVIEW
 70
     0
  9
$PUCSORGTOP
 10
0.0
 20
0.0
 30
0.0
  9
$PUCSORGBOTTOM
 10
0.0
 20
0.0
 30
0.0
  9
$PUCSORGLEFT
 10
0.0
 20
0.0
 30
0.0
  9
$PUCSORGRIGHT
 10
0.0
 20
0.0
 30
0.0
  9
$PUCSORGFRONT
 10
0.0
 20
0.0
 30
0.0
  9
$PUCSORGBACK
 10
0.0
 20
0.0
 30
0.0
  9
$USERI1
 70
     0
  9
$USERI2
 70
     0
  9
$USERI3
 70
     0
  9
$USERI4
 70
     0
  9
$USERI5
 70
     0
  9
$USERR1
 40
0.0
  9
$USERR2
 40
0.0
  9
$USERR3
 40
0.0
  9
$USERR4
 40
0.0
  9
$USERR5
 40
0.0
  9
$WORLDVIEW
 70
     1
  9
$SHADEDGE
 70
     3
  9
$SHADEDIF
 70
    70
  9
$TILEMODE
 70
     1
  9
$MAXACTVP
 70
    64
  9
$PINSBASE
 10
0.0
 20
0.0
 30
0.0
  9
$PLIMCHECK
 70
     0
  9
$PEXTMIN
 10
1.0000000000E+20
 20
1.0000000000E+20
 30
1.0000000000E+20
  9
$PEXTMAX
 10
-1.0000000000E+20
 20
-1.0000000000E+20
 30
-1.0000000000E+20
  9
$PLIMMIN
 10
0.0
 20
0.0
  9
$PLIMMAX
 10
420.0
 20
297.0
  9
$UNITMODE
 70
     0
  9
$VISRETAIN
 70
     1
  9
$PLINEGEN
 70
     0
  9
$PSLTSCALE
 70
     1
  9
$TREEDEPTH
 70
  3020
  9
$CMLSTYLE
  2
Standard
  9
$CMLJUST
 70
     0
  9
$CMLSCALE
 40
20.0
  9
$PROXYGRAPHICS
 70
     1
  9
$MEASUREMENT
 70
     1
  9
$CELWEIGHT
370
    -1
  9
$ENDCAPS
280
     0
  9
$JOINSTYLE
280
     0
  9
$LWDISPLAY
290
     1
  9
$INSUNITS
 70
     4
  9
$HYPERLINKBASE
  1

  9
$STYLESHEET
  1

  9
$XEDIT
290
     1
  9
$CEPSNTYPE
380
     0
  9
$PSTYLEMODE
290
     1
  9
$FINGERPRINTGUID
  2
{2737F4D0-3E00-4A1F-BCB2-C9CE7AEA9F5B}
  9
$VERSIONGUID
  2
{FAEB1C32-E019-11D5-929B-00C0DF256EC4}
  9
$EXTNAMES
290
     1
  9
$PSVPSCALE
 40
0.0
  9
$OLESTARTUP
290
     0
  0
ENDSEC
  0
SECTION
  2
CLASSES
  0
CLASS
  1
ACDBDICTIONARYWDFLT
  2
AcDbDictionaryWithDefault
  3
ObjectDBX Classes
 90
        0
280
     0
281
     0
  0
CLASS
  1
VISUALSTYLE
  2
AcDbVisualStyle
  3
ObjectDBX Classes
 90
     4095
280
     0
281
     0
  0
CLASS
  1
MATERIAL
  2
AcDbMaterial
  3
ObjectDBX Classes
 90
     1153
280
     0
281
     0
  0
CLASS
  1
SCALE
  2
AcDbScale
  3
ObjectDBX Classes
 90
     1153
280
     0
281
     0
  0
CLASS
  1
SUN
  2
AcDbSun
  3
SCENEOE
 90
     1153
280
     0
281
     0
  0
CLASS
  1
ACDBPLACEHOLDER
  2
AcDbPlaceHolder
  3
ObjectDBX Classes
 90
        0
280
     0
281
     0
  0
CLASS
  1
LAYOUT
  2
AcDbLayout
  3
ObjectDBX Classes
 90
        0
280
     0
281
     0
  0
ENDSEC
  0
SECTION
  2
TABLES
  0
TABLE
  2
VPORT
  5
8
330
0
100
AcDbSymbolTable
 70
     1
  0
VPORT
  5
29
330
8
100
AcDbSymbolTableRecord
100
AcDbViewportTableRecord
  2
*Active
 70
     0
 10
0.0
 20
0.0
 11
1.0
 21
1.0
 12
148.5
 22
105.0
 13
0.0
 23
0.0
 14
10.0
 24
10.0
 15
10.0
 25
10.0
 16
0.0
 26
0.0
 36
1.0
 17
0.0
 27
0.0
 37
0.0
 40
210.0
 41
1.4142857143
 42
50.0
 43
0.0
 44
0.0
 50
0.0
 51
0.0
 71
     0
 72
  2000
 73
     1
 74
     3
 75
     0
 76
     0
 77
     0
 78
     0
281
     0
 65
     1
110
0.0
120
0.0
130
0.0
111
1.0
121
0.0
131
0.0
112
0.0
122
1.0
132
0.0
 79
     0
146
0.0
  0
ENDTAB
  0
TABLE
  2
LTYPE
  5
5
330
0
100
AcDbSymbolTable
 70
     6
  0
LTYPE
  5
14
330
5
100
AcDbSymbolTableRecord
100
AcDbLinetypeTableRecord
  2
ByBlock
 70
     0
  3

 72
    65
 73
     0
 40
0.0
  0
LTYPE
  5
15
330
5
100
AcDbSymbolTableRecord
100
AcDbLinetypeTableRecord
  2
ByLayer
 70
     0
  3

 72
    65
 73
     0
 40
0.0
  0
LTYPE
  5
16
330
5
100
AcDbSymbolTableRecord
100
AcDbLinetypeTableRecord
  2
Continuous
 70
     0
  3
Solid line
 72
    65
 73
     0
 40
0.0
  0
LTYPE
  5
6A
330
5
100
AcDbSymbolTableRecord
100
AcDbLinetypeTableRecord
  2
HIDDEN
 70
     0
  3
Hidden __ __ __ __ __ __ __ __ __ __ __ __ __ __
 72
    65
 73
     2
 40
1.905
 49
1.27
 74
     0
 49
-0.635
 74
     0
  0
LTYPE
  5
6B
330
5
100
AcDbSymbolTableRecord
100
AcDbLinetypeTableRecord
  2
PHANTOM
 70
     0
  3
Phantom ______  __  __  ______  __  __  ______
 72
    65
 73
     6
 40
12.7
 49
6.35
 74
     0
 49
-1.27
 74
     0
 49
1.27
 74
     0
 49
-1.27
 74
     0
 49
1.27
 74
     0
 49
-1.27
 74
     0
  0
LTYPE
  5
6C
330
5
100
AcDbSymbolTableRecord
100
AcDbLinetypeTableRecord
  2
CENTER
 70
     0
  3
Center ____ _ ____ _ ____ _ ____ _ ____ _ ____
 72
    65
 73
     4
 40
10.16
 49
6.35
 74
     0
 49
-1.27
 74
     0
 49
1.27
 74
     0
 49
-1.27
 74
     0
  0
LTYPE
  5
6D
330
5
100
AcDbSymbolTableRecord
100
AcDbLinetypeTableRecord
  2
CENTERX2
 70
     0
  3
Center (2x) ________  __  ________  __  _____
 72
    65
 73
     4
 40
20.32
 49
12.7
 74
     0
 49
-2.54
 74
     0
 49
2.54
 74
     0
 49
-2.54
 74
     0
  0
LTYPE
  5
6E
330
5
100
AcDbSymbolTableRecord
100
AcDbLinetypeTableRecord
  2
DOT2
 70
     0
  3
Dot (.5x) ........................................
 72
    65
 73
     2
 40
0.635
 49
0.0
 74
     0
 49
-0.635
 74
     0
  0
ENDTAB
  0
TABLE
  2
LAYER
  5
2
330
0
100
AcDbSymbolTable
 70
     8
  0
LAYER
  5
10
330
2
100
AcDbSymbolTableRecord
100
AcDbLayerTableRecord
  2
0
 70
     0
 62
     7
  6
Continuous
370
    -3
390
F
  0
LAYER
  5
6F
330
2
100
AcDbSymbolTableRecord
100
AcDbLayerTableRecord
  2
FORMAT
 70
     0
 62
     7
  6
Continuous
370
    -3
390
F
  0
LAYER
  5
70
330
2
100
AcDbSymbolTableRecord
100
AcDbLayerTableRecord
  2
SLD-0
 70
     0
 62
     2
  6
Continuous
370
    -3
390
F
  0
LAYER
  5
71
330
2
100
AcDbSymbolTableRecord
100
AcDbLayerTableRecord
  2
DIM
 70
     0
 62
   179
  6
Continuous
370
    -3
390
F
  0
LAYER
  5
72
330
2
100
AcDbSymbolTableRecord
100
AcDbLayerTableRecord
  2
SLD-DEFPOINTS
 70
     0
 62
   179
  6
Continuous
370
    -3
390
F
  0
LAYER
  5
73
330
2
100
AcDbSymbolTableRecord
100
AcDbLayerTableRecord
  2
HAT
 70
     0
 62
   135
  6
Continuous
370
    -3
390
F
  0
LAYER
  5
74
330
2
100
AcDbSymbolTableRecord
100
AcDbLayerTableRecord
  2
JOB
 70
     0
 62
   201
  6
Continuous
370
    -3
390
F
  0
LAYER
  5
75
330
2
100
AcDbSymbolTableRecord
100
AcDbLayerTableRecord
  2
INSPECTION_REPORT
 70
     0
 62
   255
  6
Continuous
370
    -3
390
F
  0
ENDTAB
  0
TABLE
  2
STYLE
  5
3
330
0
100
AcDbSymbolTable
 70
     4
  0
STYLE
  5
11
330
3
100
AcDbSymbolTableRecord
100
AcDbTextStyleTableRecord
  2
Standard
 70
     0
 40
0.0
 41
1.0
 50
0.0
 71
     0
 42
3.8805555556
  3
txt
  4

  0
STYLE
  5
96
330
3
100
AcDbSymbolTableRecord
100
AcDbTextStyleTableRecord
  2
SLDTEXTSTYLE0
 70
     0
 40
0.0
 41
0.7
 50
0.0
 71
     0
 42
3.8805555556
  3
TXT
  4

  0
STYLE
  5
98
330
3
100
AcDbSymbolTableRecord
100
AcDbTextStyleTableRecord
  2
SLDTEXTSTYLE1
 70
     0
 40
0.0
 41
0.75
 50
0.0
 71
     0
 42
3.8805555556
  3
TXT
  4

  0
STYLE
  5
AB
330
3
100
AcDbSymbolTableRecord
100
AcDbTextStyleTableRecord
  2
SLDTEXTSTYLE2
 70
     0
 40
0.0
 41
0.6875
 50
0.0
 71
     0
 42
3.8805555556
  3
TXT
  4

  0
ENDTAB
  0
TABLE
  2
VIEW
  5
6
330
0
100
AcDbSymbolTable
 70
     0
  0
ENDTAB
  0
TABLE
  2
UCS
  5
7
330
0
100
AcDbSymbolTable
 70
     0
  0
ENDTAB
  0
TABLE
  2
APPID
  5
9
330
0
100
AcDbSymbolTable
 70
     1
  0
APPID
  5
12
330
9
100
AcDbSymbolTableRecord
100
AcDbRegAppTableRecord
  2
ACAD
 70
     0
  0
ENDTAB
  0
TABLE
  2
DIMSTYLE
  5
A
330
0
100
AcDbSymbolTable
 70
     4
100
AcDbDimStyleTable
  0
DIMSTYLE
105
27
330
A
100
AcDbSymbolTableRecord
100
AcDbDimStyleTableRecord
  2
ISO-25
 70
     0
 41
2.5
 42
0.625
 43
3.75
 44
1.25
 73
     0
 74
     0
 77
     1
 78
     8
140
2.5
141
2.5
143
0.0393700787
147
0.625
171
     3
172
     1
178
     0
271
     2
272
     2
274
     3
278
    44
283
     0
284
     8
340
11
  0
DIMSTYLE
105
130
102
{ACAD_REACTORS
330
12F
330
149
102
}
330
A
100
AcDbSymbolTableRecord
100
AcDbDimStyleTableRecord
  2
SLDDIMSTYLE0
 70
     0
 41
3.302
 44
0.0
 45
0.000000001
 73
     0
 74
     0
 77
     1
 78
    12
 79
     3
140
2.9104166667
147
0.7276041667
172
     1
173
     1
178
     0
271
     2
272
     2
276
     2
284
    12
289
     0
340
96
  0
DIMSTYLE
105
13E
102
{ACAD_REACTORS
330
13D
330
153
330
168
102
}
330
A
100
AcDbSymbolTableRecord
100
AcDbDimStyleTableRecord
  2
SLDDIMSTYLE1
 70
     0
 41
3.302
 44
0.0
 45
0.000000001
 73
     0
 74
     0
 77
     1
 78
    12
 79
     3
140
2.9104166667
147
0.7276041667
173
     1
178
     0
271
     2
272
     2
276
     2
284
    12
340
96
  0
DIMSTYLE
105
15E
102
{ACAD_REACTORS
330
15D
102
}
330
A
100
AcDbSymbolTableRecord
100
AcDbDimStyleTableRecord
  2
SLDDIMSTYLE2
 70
     0
 41
3.302
 44
0.0
 45
0.000000001
 73
     0
 74
     0
 77
     1
 78
     4
 79
     1
140
2.9104166667
147
0.7276041667
173
     1
178
     0
271
     2
272
     2
276
     2
284
    12
340
96
  0
ENDTAB
  0
TABLE
  2
BLOCK_RECORD
  5
1
330
0
100
AcDbSymbolTable
 70
     7
  0
BLOCK_RECORD
  5
1F
330
1
100
AcDbSymbolTableRecord
100
AcDbBlockTableRecord
  2
*Model_Space
340
22
  0
BLOCK_RECORD
  5
1B
330
1
100
AcDbSymbolTableRecord
100
AcDbBlockTableRecord
  2
*Paper_Space
340
1E
  0
BLOCK_RECORD
  5
23
330
1
100
AcDbSymbolTableRecord
100
AcDbBlockTableRecord
  2
*Paper_Space0
340
26
  0
BLOCK_RECORD
  5
131
330
1
100
AcDbSymbolTableRecord
100
AcDbBlockTableRecord
  2
_D
340
0
  0
BLOCK_RECORD
  5
13F
330
1
100
AcDbSymbolTableRecord
100
AcDbBlockTableRecord
  2
_D_1
340
0
  0
BLOCK_RECORD
  5
14A
330
1
100
AcDbSymbolTableRecord
100
AcDbBlockTableRecord
  2
_D_2
340
0
  0
BLOCK_RECORD
  5
154
330
1
100
AcDbSymbolTableRecord
100
AcDbBlockTableRecord
  2
_D_3
340
0
  0
BLOCK_RECORD
  5
15F
330
1
100
AcDbSymbolTableRecord
100
AcDbBlockTableRecord
  2
_D_4
340
0
  0
BLOCK_RECORD
  5
169
330
1
100
AcDbSymbolTableRecord
100
AcDbBlockTableRecord
  2
_D_5
340
0
  0
ENDTAB
  0
ENDSEC
  0
SECTION
  2
BLOCKS
  0
BLOCK
  5
20
330
1F
100
AcDbEntity
  8
0
100
AcDbBlockBegin
  2
*Model_Space
 70
     0
 10
0.0
 20
0.0
 30
0.0
  3
*Model_Space
  1
*Model_Space
  0
ENDBLK
  5
21
330
1F
100
AcDbEntity
  8
0
100
AcDbBlockEnd
  0
BLOCK
  5
1C
330
1B
100
AcDbEntity
 67
     1
  8
0
100
AcDbBlockBegin
  2
*Paper_Space
 70
     0
 10
0.0
 20
0.0
 30
0.0
  3
*Paper_Space
  1
*Paper_Space
  0
ENDBLK
  5
1D
330
1B
100
AcDbEntity
 67
     1
  8
0
100
AcDbBlockEnd
  0
BLOCK
  5
24
330
23
100
AcDbEntity
  8
0
100
AcDbBlockBegin
  2
*Paper_Space0
 70
     0
 10
0.0
 20
0.0
 30
0.0
  3
*Paper_Space0
  1
*Paper_Space0
  0
ENDBLK
  5
25
330
23
100
AcDbEntity
  8
0
100
AcDbBlockEnd
  0
BLOCK
  5
132
330
131
100
AcDbEntity
  8
0
100
AcDbBlockBegin
  2
_D
 70
     0
 10
0.0
 20
0.0
 30
0.0
  3
_D
  1
_D
  0
SOLID
  5
134
330
131
100
AcDbEntity
  8
DIM
100
AcDbTrace
 10
205.47319791
 20
122.7201052744
 30
0.0
 11
205.98119791
 21
126.0221052744
 31
0.0
 12
204.96519791
 22
126.0221052744
 32
0.0
 13
204.96519791
 23
126.0221052744
 33
0.0
  0
SOLID
  5
135
330
131
100
AcDbEntity
  8
DIM
100
AcDbTrace
 10
205.47319791
 20
106.7201052744
 30
0.0
 11
204.96519791
 21
103.4181052744
 31
0.0
 12
205.98119791
 22
103.4181052744
 32
0.0
 13
205.98119791
 23
103.4181052744
 33
0.0
  0
LINE
  5
136
330
131
100
AcDbEntity
  8
DIM
100
AcDbLine
 10
188.0705793151
 20
122.7201052744
 30
0.0
 11
206.47319791
 21
122.7201052744
 31
0.0
  0
LINE
  5
137
330
131
100
AcDbEntity
  8
DIM
100
AcDbLine
 10
188.0705793151
 20
106.7201052744
 30
0.0
 11
206.47319791
 21
106.7201052744
 31
0.0
  0
LINE
  5
138
330
131
100
AcDbEntity
  8
DIM
100
AcDbLine
 10
205.47319791
 20
122.7201052744
 30
0.0
 11
205.47319791
 21
129.0701052744
 31
0.0
  0
LINE
  5
139
330
131
100
AcDbEntity
  8
DIM
100
AcDbLine
 10
205.47319791
 20
122.7201052744
 30
0.0
 11
205.47319791
 21
106.7201052744
 31
0.0
  0
LINE
  5
13A
330
131
100
AcDbEntity
  8
DIM
100
AcDbLine
 10
205.47319791
 20
106.7201052744
 30
0.0
 11
205.47319791
 21
100.3701052744
 31
0.0
  0
MTEXT
  5
13B
330
131
100
AcDbEntity
  8
DIM
100
AcDbMText
 10
201.7214734428
 20
110.9831429126
 30
0.0
 40
2.9104166667
 41
0.0
 71
     1
 72
     1
  1
%%c
  7
SLDTEXTSTYLE0
 11
-1.059690869644414E-14
 21
1.0
 31
0.0
 73
     1
 44
1.0
  0
MTEXT
  5
13C
330
131
100
AcDbEntity
  8
DIM
100
AcDbMText
 10
201.7214734428
 20
115.4837788122
 30
0.0
 40
2.9104166667
 41
0.0
 71
     1
 72
     1
  1
16
  7
SLDTEXTSTYLE0
 11
-1.059690869644414E-14
 21
1.0
 31
0.0
 73
     1
 44
1.0
  0
ENDBLK
  5
133
330
131
100
AcDbEntity
  8
0
100
AcDbBlockEnd
  0
BLOCK
  5
140
330
13F
100
AcDbEntity
  8
0
100
AcDbBlockBegin
  2
_D_1
 70
     0
 10
0.0
 20
0.0
 30
0.0
  3
_D_1
  1
_D_1
  0
SOLID
  5
142
330
13F
100
AcDbEntity
  8
DIM
100
AcDbTrace
 10
211.8403189108
 20
133.7201052744
 30
0.0
 11
211.3323189108
 21
130.4181052744
 31
0.0
 12
212.3483189108
 22
130.4181052744
 32
0.0
 13
212.3483189108
 23
130.4181052744
 33
0.0
  0
SOLID
  5
143
330
13F
100
AcDbEntity
  8
DIM
100
AcDbTrace
 10
211.8403189108
 20
95.7201052744
 30
0.0
 11
212.3483189108
 21
99.0221052744
 31
0.0
 12
211.3323189108
 22
99.0221052744
 32
0.0
 13
211.3323189108
 23
99.0221052744
 33
0.0
  0
LINE
  5
144
330
13F
100
AcDbEntity
  8
DIM
100
AcDbLine
 10
171.5428225011
 20
133.7201052744
 30
0.0
 11
212.8403189108
 21
133.7201052744
 31
0.0
  0
LINE
  5
145
330
13F
100
AcDbEntity
  8
DIM
100
AcDbLine
 10
171.5428225011
 20
95.7201052744
 30
0.0
 11
212.8403189108
 21
95.7201052744
 31
0.0
  0
LINE
  5
146
330
13F
100
AcDbEntity
  8
DIM
100
AcDbLine
 10
211.8403189108
 20
133.7201052744
 30
0.0
 11
211.8403189108
 21
95.7201052744
 31
0.0
  0
MTEXT
  5
147
330
13F
100
AcDbEntity
  8
DIM
100
AcDbMText
 10
208.0885944436
 20
110.9831429126
 30
0.0
 40
2.9104166667
 41
0.0
 71
     1
 72
     1
  1
%%c
  7
SLDTEXTSTYLE0
 11
-1.059690869644414E-14
 21
1.0
 31
0.0
 73
     1
 44
1.0
  0
MTEXT
  5
148
330
13F
100
AcDbEntity
  8
DIM
100
AcDbMText
 10
208.0885944436
 20
115.4837788122
 30
0.0
 40
2.9104166667
 41
0.0
 71
     1
 72
     1
  1
38
  7
SLDTEXTSTYLE0
 11
-1.059690869644414E-14
 21
1.0
 31
0.0
 73
     1
 44
1.0
  0
ENDBLK
  5
141
330
13F
100
AcDbEntity
  8
0
100
AcDbBlockEnd
  0
BLOCK
  5
14B
330
14A
100
AcDbEntity
  8
0
100
AcDbBlockBegin
  2
_D_2
 70
     0
 10
0.0
 20
0.0
 30
0.0
  3
_D_2
  1
_D_2
  0
SOLID
  5
14D
330
14A
100
AcDbEntity
  8
DIM
100
AcDbTrace
 10
188.5428225011
 20
68.9498545958
 30
0.0
 11
185.2408225011
 21
69.4578545958
 31
0.0
 12
185.2408225011
 22
68.4418545958
 32
0.0
 13
185.2408225011
 23
68.4418545958
 33
0.0
  0
SOLID
  5
14E
330
14A
100
AcDbEntity
  8
DIM
100
AcDbTrace
 10
171.5428225011
 20
68.9498545958
 30
0.0
 11
174.8448225011
 21
68.4418545958
 31
0.0
 12
174.8448225011
 22
69.4578545958
 32
0.0
 13
174.8448225011
 23
69.4578545958
 33
0.0
  0
LINE
  5
14F
330
14A
100
AcDbEntity
  8
DIM
100
AcDbLine
 10
188.5428225011
 20
106.5701052744
 30
0.0
 11
188.5428225011
 21
67.9498545958
 31
0.0
  0
LINE
  5
150
330
14A
100
AcDbEntity
  8
DIM
100
AcDbLine
 10
171.5428225011
 20
95.7201052744
 30
0.0
 11
171.5428225011
 21
67.9498545958
 31
0.0
  0
LINE
  5
151
330
14A
100
AcDbEntity
  8
DIM
100
AcDbLine
 10
188.5428225011
 20
68.9498545958
 30
0.0
 11
171.5428225011
 21
68.9498545958
 31
0.0
  0
MTEXT
  5
152
330
14A
100
AcDbEntity
  8
DIM
100
AcDbMText
 10
182.1000055727
 20
72.701579063
 30
0.0
 40
2.9104166667
 41
0.0
 71
     1
 72
     1
  1
17
  7
SLDTEXTSTYLE0
 73
     1
 44
1.0
  0
ENDBLK
  5
14C
330
14A
100
AcDbEntity
  8
0
100
AcDbBlockEnd
  0
BLOCK
  5
155
330
154
100
AcDbEntity
  8
0
100
AcDbBlockBegin
  2
_D_3
 70
     0
 10
0.0
 20
0.0
 30
0.0
  3
_D_3
  1
_D_3
  0
SOLID
  5
157
330
154
100
AcDbEntity
  8
DIM
100
AcDbTrace
 10
171.5428225011
 20
68.9498545958
 30
0.0
 11
168.2408225011
 21
69.4578545958
 31
0.0
 12
168.2408225011
 22
68.4418545958
 32
0.0
 13
168.2408225011
 23
68.4418545958
 33
0.0
  0
SOLID
  5
158
330
154
100
AcDbEntity
  8
DIM
100
AcDbTrace
 10
126.5428225011
 20
68.9498545958
 30
0.0
 11
129.8448225011
 21
68.4418545958
 31
0.0
 12
129.8448225011
 22
69.4578545958
 32
0.0
 13
129.8448225011
 23
69.4578545958
 33
0.0
  0
LINE
  5
159
330
154
100
AcDbEntity
  8
DIM
100
AcDbLine
 10
171.5428225011
 20
95.7201052744
 30
0.0
 11
171.5428225011
 21
67.9498545958
 31
0.0
  0
LINE
  5
15A
330
154
100
AcDbEntity
  8
DIM
100
AcDbLine
 10
126.5428225011
 20
91.4951052744
 30
0.0
 11
126.5428225011
 21
67.9498545958
 31
0.0
  0
LINE
  5
15B
330
154
100
AcDbEntity
  8
DIM
100
AcDbLine
 10
171.5428225011
 20
68.9498545958
 30
0.0
 11
126.5428225011
 21
68.9498545958
 31
0.0
  0
MTEXT
  5
15C
330
154
100
AcDbEntity
  8
DIM
100
AcDbMText
 10
140.7671897847
 20
72.701579063
 30
0.0
 40
2.9104166667
 41
0.0
 71
     1
 72
     1
  1
45
  7
SLDTEXTSTYLE0
 73
     1
 44
1.0
  0
ENDBLK
  5
156
330
154
100
AcDbEntity
  8
0
100
AcDbBlockEnd
  0
BLOCK
  5
160
330
15F
100
AcDbEntity
  8
0
100
AcDbBlockBegin
  2
_D_4
 70
     0
 10
0.0
 20
0.0
 30
0.0
  3
_D_4
  1
_D_4
  0
SOLID
  5
162
330
15F
100
AcDbEntity
  8
DIM
100
AcDbTrace
 10
61.1428225012
 20
61.9777773981
 30
0.0
 11
64.4448225012
 21
61.4697773981
 31
0.0
 12
64.4448225012
 22
62.4857773981
 32
0.0
 13
64.4448225012
 23
62.4857773981
 33
0.0
  0
SOLID
  5
163
330
15F
100
AcDbEntity
  8
DIM
100
AcDbTrace
 10
199.5428225011
 20
61.9777773981
 30
0.0
 11
196.2408225011
 21
62.4857773981
 31
0.0
 12
196.2408225011
 22
61.4697773981
 32
0.0
 13
196.2408225011
 23
61.4697773981
 33
0.0
  0
LINE
  5
164
330
15F
100
AcDbEntity
  8
DIM
100
AcDbLine
 10
61.1428225012
 20
101.8974385563
 30
0.0
 11
61.1428225012
 21
60.9777773981
 31
0.0
  0
LINE
  5
165
330
15F
100
AcDbEntity
  8
DIM
100
AcDbLine
 10
199.5428225011
 20
104.4201052744
 30
0.0
 11
199.5428225011
 21
60.9777773981
 31
0.0
  0
LINE
  5
166
330
15F
100
AcDbEntity
  8
DIM
100
AcDbLine
 10
61.1428225012
 20
61.9777773981
 30
0.0
 11
199.5428225011
 21
61.9777773981
 31
0.0
  0
MTEXT
  5
167
330
15F
100
AcDbEntity
  8
DIM
100
AcDbMText
 10
137.2989431198
 20
65.7295018652
 30
0.0
 40
2.9104166667
 41
0.0
 71
     1
 72
     1
  1
138.40
  7
SLDTEXTSTYLE0
 73
     1
 44
1.0
  0
ENDBLK
  5
161
330
15F
100
AcDbEntity
  8
0
100
AcDbBlockEnd
  0
BLOCK
  5
16A
330
169
100
AcDbEntity
  8
0
100
AcDbBlockBegin
  2
_D_5
 70
     0
 10
0.0
 20
0.0
 30
0.0
  3
_D_5
  1
_D_5
  0
SOLID
  5
16C
330
169
100
AcDbEntity
  8
DIM
100
AcDbTrace
 10
57.0325188773
 20
146.2201052744
 30
0.0
 11
56.5245188773
 21
142.9181052744
 31
0.0
 12
57.5405188773
 22
142.9181052744
 32
0.0
 13
57.5405188773
 23
142.9181052744
 33
0.0
  0
SOLID
  5
16D
330
169
100
AcDbEntity
  8
DIM
100
AcDbTrace
 10
57.0325188773
 20
83.2201052744
 30
0.0
 11
57.5405188773
 21
86.5221052744
 31
0.0
 12
56.5245188773
 22
86.5221052744
 32
0.0
 13
56.5245188773
 23
86.5221052744
 33
0.0
  0
LINE
  5
16E
330
169
100
AcDbEntity
  8
DIM
100
AcDbLine
 10
128.7085079261
 20
146.2201052744
 30
0.0
 11
56.0325188773
 21
146.2201052744
 31
0.0
  0
LINE
  5
16F
330
169
100
AcDbEntity
  8
DIM
100
AcDbLine
 10
128.7085079261
 20
83.2201052744
 30
0.0
 11
56.0325188773
 21
83.2201052744
 31
0.0
  0
LINE
  5
170
330
169
100
AcDbEntity
  8
DIM
100
AcDbLine
 10
57.0325188773
 20
146.2201052744
 30
0.0
 11
57.0325188773
 21
83.2201052744
 31
0.0
  0
MTEXT
  5
171
330
169
100
AcDbEntity
  8
DIM
100
AcDbMText
 10
53.2807944102
 20
109.2223286648
 30
0.0
 40
2.9104166667
 41
0.0
 71
     1
 72
     1
  1
%%c
  7
SLDTEXTSTYLE0
 11
-1.059690869644414E-14
 21
1.0
 31
0.0
 73
     1
 44
1.0
  0
MTEXT
  5
172
330
169
100
AcDbEntity
  8
DIM
100
AcDbMText
 10
53.2807944102
 20
113.7229645644
 30
0.0
 40
2.9104166667
 41
0.0
 71
     1
 72
     1
  1
63
  7
SLDTEXTSTYLE0
 11
-1.059690869644414E-14
 21
1.0
 31
0.0
 73
     1
 44
1.0
  0
ENDBLK
  5
16B
330
169
100
AcDbEntity
  8
0
100
AcDbBlockEnd
  0
ENDSEC
  0
SECTION
  2
ENTITIES
  0
LINE
  5
76
330
1F
100
AcDbEntity
  8
DIM
100
AcDbLine
 10
104.704424689
 20
9.7909914569
 30
0.0
 11
104.704424689
 21
4.7909914569
 31
0.0
  0
LINE
  5
77
330
1F
100
AcDbEntity
  8
DIM
100
AcDbLine
 10
254.4696016953
 20
9.7909914569
 30
0.0
 11
254.4696016953
 21
4.7909914569
 31
0.0
  0
LINE
  5
78
330
1F
100
AcDbEntity
  8
DIM
100
AcDbLine
 10
237.4517099316
 20
9.7909914569
 30
0.0
 11
237.4517099316
 21
4.7909914569
 31
0.0
  0
LINE
  5
79
330
1F
100
AcDbEntity
  8
DIM
100
AcDbLine
 10
278.904424689
 20
4.7909914569
 30
0.0
 11
278.904424689
 21
9.7909914569
 31
0.0
  0
LINE
  5
7A
330
1F
100
AcDbEntity
  8
DIM
100
AcDbLine
 10
112.504424689
 20
9.7909914569
 30
0.0
 11
112.504424689
 21
4.7909914569
 31
0.0
  0
LINE
  5
7B
330
1F
100
AcDbEntity
  8
DIM
100
AcDbLine
 10
131.6953771228
 20
9.7909914569
 30
0.0
 11
131.6953771228
 21
4.7909914569
 31
0.0
  0
LINE
  5
7C
330
1F
100
AcDbEntity
  8
DIM
100
AcDbLine
 10
291.904424689
 20
4.7909914569
 30
0.0
 11
291.904424689
 21
77.0409914569
 31
0.0
  0
LINE
  5
7D
330
1F
100
AcDbEntity
  8
DIM
100
AcDbLine
 10
285.8190046947
 20
60.0409914569
 30
0.0
 11
291.904424689
 21
60.0409914569
 31
0.0
  0
LINE
  5
7E
330
1F
100
AcDbEntity
  8
DIM
100
AcDbLine
 10
149.1033508525
 20
9.0409914569
 30
0.0
 11
149.1033508525
 21
4.7909914569
 31
0.0
  0
LINE
  5
7F
330
1F
100
AcDbEntity
  8
DIM
100
AcDbLine
 10
196.7639491604
 20
9.7909914569
 30
0.0
 11
196.7639491604
 21
4.7909914569
 31
0.0
  0
LINE
  5
80
330
1F
100
AcDbEntity
  8
DIM
100
AcDbLine
 10
149.1033508525
 20
9.7909914569
 30
0.0
 11
149.1033508525
 21
9.0409914569
 31
0.0
  0
LINE
  5
81
330
1F
100
AcDbEntity
  8
DIM
100
AcDbLine
 10
286.904424689
 20
17.5409194569
 30
0.0
 11
291.904424689
 21
17.5409194569
 31
0.0
  0
LINE
  5
82
330
1F
100
AcDbEntity
  8
DIM
100
AcDbLine
 10
286.904424689
 20
199.7909914569
 30
0.0
 11
9.904424689
 21
199.7909914569
 31
0.0
  0
LINE
  5
83
330
1F
100
AcDbEntity
  8
DIM
100
AcDbLine
 10
291.904424689
 20
204.7909914569
 30
0.0
 11
4.904424689
 21
204.7909914569
 31
0.0
  0
LINE
  5
84
330
1F
100
AcDbEntity
  8
DIM
100
AcDbLine
 10
9.904424689
 20
199.7909914569
 30
0.0
 11
9.904424689
 21
9.7909914569
 31
0.0
  0
LINE
  5
85
330
1F
100
AcDbEntity
  8
DIM
100
AcDbLine
 10
4.904424689
 20
204.7909914569
 30
0.0
 11
4.904424689
 21
4.7909914569
 31
0.0
  0
LINE
  5
86
330
1F
100
AcDbEntity
  8
DIM
100
AcDbLine
 10
9.904424689
 20
54.7909914569
 30
0.0
 11
4.904424689
 21
54.7909914569
 31
0.0
  0
LINE
  5
87
330
1F
100
AcDbEntity
  8
DIM
100
AcDbLine
 10
4.904424689
 20
104.7909914569
 30
0.0
 11
9.904424689
 21
104.7909914569
 31
0.0
  0
LINE
  5
88
330
1F
100
AcDbEntity
  8
DIM
100
AcDbLine
 10
4.904424689
 20
4.7909914569
 30
0.0
 11
291.904424689
 21
4.7909914569
 31
0.0
  0
LINE
  5
89
330
1F
100
AcDbEntity
  8
DIM
100
AcDbLine
 10
9.904424689
 20
9.7909914569
 30
0.0
 11
291.904424689
 21
9.7909914569
 31
0.0
  0
LINE
  5
8A
330
1F
100
AcDbEntity
  8
DIM
100
AcDbLine
 10
48.404424689
 20
4.7909914569
 30
0.0
 11
48.404424689
 21
9.7909914569
 31
0.0
  0
LINE
  5
8B
330
1F
100
AcDbEntity
  8
DIM
100
AcDbLine
 10
98.404424689
 20
9.7909914569
 30
0.0
 11
98.404424689
 21
4.7909914569
 31
0.0
  0
LINE
  5
8C
330
1F
100
AcDbEntity
  8
DIM
100
AcDbLine
 10
9.904424689
 20
154.7909914569
 30
0.0
 11
4.904424689
 21
154.7909914569
 31
0.0
  0
LINE
  5
8D
330
1F
100
AcDbEntity
  8
DIM
100
AcDbLine
 10
48.404424689
 20
199.7909914569
 30
0.0
 11
48.404424689
 21
204.7909914569
 31
0.0
  0
LINE
  5
8E
330
1F
100
AcDbEntity
  8
DIM
100
AcDbLine
 10
98.404424689
 20
204.7909914569
 30
0.0
 11
98.404424689
 21
199.7909914569
 31
0.0
  0
LINE
  5
8F
330
1F
100
AcDbEntity
  8
DIM
100
AcDbLine
 10
148.404424689
 20
204.7909914569
 30
0.0
 11
148.404424689
 21
199.7909914569
 31
0.0
  0
LINE
  5
90
330
1F
100
AcDbEntity
  8
DIM
100
AcDbLine
 10
286.904424689
 20
9.7909914569
 30
0.0
 11
286.904424689
 21
199.7909914569
 31
0.0
  0
LINE
  5
91
330
1F
100
AcDbEntity
  8
DIM
100
AcDbLine
 10
291.904424689
 20
77.0409914569
 30
0.0
 11
291.904424689
 21
204.7909914569
 31
0.0
  0
LINE
  5
92
330
1F
100
AcDbEntity
  8
DIM
100
AcDbLine
 10
291.904424689
 20
104.7909914569
 30
0.0
 11
286.904424689
 21
104.7909914569
 31
0.0
  0
LINE
  5
93
330
1F
100
AcDbEntity
  8
DIM
100
AcDbLine
 10
198.404424689
 20
204.7909914569
 30
0.0
 11
198.404424689
 21
199.7909914569
 31
0.0
  0
LINE
  5
94
330
1F
100
AcDbEntity
  8
DIM
100
AcDbLine
 10
248.404424689
 20
199.7909914569
 30
0.0
 11
248.404424689
 21
204.7909914569
 31
0.0
  0
LINE
  5
95
330
1F
100
AcDbEntity
  8
DIM
100
AcDbLine
 10
286.904424689
 20
154.7909914569
 30
0.0
 11
291.904424689
 21
154.7909914569
 31
0.0
  0
MTEXT
  5
97
330
1F
100
AcDbEntity
  8
DIM
100
AcDbMText
 10
13.3452614302
 20
193.9516303863
 30
0.0
 40
4.2333333333
 41
0.0
 71
     1
 72
     1
  1
BT40 FMH-K16 045 AD+B/6.3G 15000 SL SP.S
  7
SLDTEXTSTYLE0
 73
     1
 44
1.0
  0
MTEXT
  5
99
330
1F
100
AcDbEntity
  8
DIM
 62
     7
100
AcDbMText
 10
197.7327786466
 20
7.8019515263
 30
0.0
 40
1.4986
 41
0.0
 71
     1
 72
     1
  1
WEIGHT:
  7
SLDTEXTSTYLE1
 73
     1
 44
1.0
  0
MTEXT
  5
9A
330
1F
100
AcDbEntity
  8
DIM
 62
     7
100
AcDbMText
 10
288.5970767548
 20
81.9406135082
 30
0.0
 40
1.8520833333
 41
0.0
 71
     1
 72
     1
  1
C
  7
SLDTEXTSTYLE1
 73
     1
 44
1.0
  0
MTEXT
  5
9B
330
1F
100
AcDbEntity
  8
DIM
 62
     7
100
AcDbMText
 10
283.0435806195
 20
14.8539819836
 30
0.0
 40
2.9104166667
 41
0.0
 71
     1
 72
     1
  1
A4
  7
SLDTEXTSTYLE1
 73
     1
 44
1.0
  0
MTEXT
  5
9C
330
1F
100
AcDbEntity
  8
DIM
 62
     7
100
AcDbMText
 10
272.5710953557
 20
203.4590078604
 30
0.0
 40
1.8520833333
 41
0.0
 71
     1
 72
     1
  1
6
  7
SLDTEXTSTYLE1
 73
     1
 44
1.0
  0
MTEXT
  5
9D
330
1F
100
AcDbEntity
  8
DIM
 62
     7
100
AcDbMText
 10
222.5710953557
 20
203.4590078604
 30
0.0
 40
1.8520833333
 41
0.0
 71
     1
 72
     1
  1
5
  7
SLDTEXTSTYLE1
 73
     1
 44
1.0
  0
MTEXT
  5
9E
330
1F
100
AcDbEntity
  8
DIM
 62
     7
100
AcDbMText
 10
288.5710993557
 20
180.9590078604
 30
0.0
 40
1.8520833333
 41
0.0
 71
     1
 72
     1
  1
A
  7
SLDTEXTSTYLE1
 73
     1
 44
1.0
  0
MTEXT
  5
9F
330
1F
100
AcDbEntity
  8
DIM
 62
     7
100
AcDbMText
 10
288.5710993557
 20
130.9590078604
 30
0.0
 40
1.8520833333
 41
0.0
 71
     1
 72
     1
  1
B
  7
SLDTEXTSTYLE1
 73
     1
 44
1.0
  0
MTEXT
  5
A0
330
1F
100
AcDbEntity
  8
DIM
 62
     7
100
AcDbMText
 10
172.5710953557
 20
203.4590078604
 30
0.0
 40
1.8520833333
 41
0.0
 71
     1
 72
     1
  1
4
  7
SLDTEXTSTYLE1
 73
     1
 44
1.0
  0
MTEXT
  5
A1
330
1F
100
AcDbEntity
  8
DIM
 62
     7
100
AcDbMText
 10
22.9877620223
 20
203.4590078604
 30
0.0
 40
1.8520833333
 41
0.0
 71
     1
 72
     1
  1
1
  7
SLDTEXTSTYLE1
 73
     1
 44
1.0
  0
MTEXT
  5
A2
330
1F
100
AcDbEntity
  8
DIM
 62
     7
100
AcDbMText
 10
72.5710953557
 20
203.4590078604
 30
0.0
 40
1.8520833333
 41
0.0
 71
     1
 72
     1
  1
2
  7
SLDTEXTSTYLE1
 73
     1
 44
1.0
  0
MTEXT
  5
A3
330
1F
100
AcDbEntity
  8
DIM
 62
     7
100
AcDbMText
 10
122.5710953557
 20
203.4590078604
 30
0.0
 40
1.8520833333
 41
0.0
 71
     1
 72
     1
  1
3
  7
SLDTEXTSTYLE1
 73
     1
 44
1.0
  0
MTEXT
  5
A4
330
1F
100
AcDbEntity
  8
DIM
 62
     7
100
AcDbMText
 10
6.5710913557
 20
180.9590078604
 30
0.0
 40
1.8520833333
 41
0.0
 71
     1
 72
     1
  1
A
  7
SLDTEXTSTYLE1
 73
     1
 44
1.0
  0
MTEXT
  5
A5
330
1F
100
AcDbEntity
  8
DIM
 62
     7
100
AcDbMText
 10
72.5710953557
 20
8.4590078604
 30
0.0
 40
1.8520833333
 41
0.0
 71
     1
 72
     1
  1
2
  7
SLDTEXTSTYLE1
 73
     1
 44
1.0
  0
MTEXT
  5
A6
330
1F
100
AcDbEntity
  8
DIM
 62
     7
100
AcDbMText
 10
22.9877620223
 20
8.4590078604
 30
0.0
 40
1.8520833333
 41
0.0
 71
     1
 72
     1
  1
1
  7
SLDTEXTSTYLE1
 73
     1
 44
1.0
  0
MTEXT
  5
A7
330
1F
100
AcDbEntity
  8
DIM
 62
     7
100
AcDbMText
 10
6.5710913557
 20
30.9590078604
 30
0.0
 40
1.8520833333
 41
0.0
 71
     1
 72
     1
  1
D
  7
SLDTEXTSTYLE1
 73
     1
 44
1.0
  0
MTEXT
  5
A8
330
1F
100
AcDbEntity
  8
DIM
 62
     7
100
AcDbMText
 10
6.5710913557
 20
80.9590078604
 30
0.0
 40
1.8520833333
 41
0.0
 71
     1
 72
     1
  1
C
  7
SLDTEXTSTYLE1
 73
     1
 44
1.0
  0
MTEXT
  5
A9
330
1F
100
AcDbEntity
  8
DIM
 62
     7
100
AcDbMText
 10
6.5710913557
 20
130.9590078604
 30
0.0
 40
1.8520833333
 41
0.0
 71
     1
 72
     1
  1
B
  7
SLDTEXTSTYLE1
 73
     1
 44
1.0
  0
MTEXT
  5
AA
330
1F
100
AcDbEntity
  8
DIM
 62
     7
100
AcDbMText
 10
288.5970767548
 20
81.9406135082
 30
0.0
 40
1.8520833333
 41
0.0
 71
     1
 72
     1
  1
C
  7
SLDTEXTSTYLE1
 73
     1
 44
1.0
  0
MTEXT
  5
AC
330
1F
100
AcDbEntity
  8
DIM
 62
     7
100
AcDbMText
 10
256.5253658125
 20
7.6910787314
 30
0.0
 40
1.5
 41
0.0
 71
     1
 72
     1
  1
SHEET 1 OF 1
  7
SLDTEXTSTYLE2
 73
     1
 44
1.0
  0
MTEXT
  5
AD
330
1F
100
AcDbEntity
  8
DIM
 62
     7
100
AcDbMText
 10
150.3717803834
 20
7.8533674836
 30
0.0
 40
1.5
 41
0.0
 71
     1
 72
     1
  1
MATERIAL:
  7
SLDTEXTSTYLE1
 73
     1
 44
1.0
  0
MTEXT
  5
AE
330
1F
100
AcDbEntity
  8
DIM
 62
     7
100
AcDbMText
 10
272.5710953557
 20
203.4590078604
 30
0.0
 40
1.8520833333
 41
0.0
 71
     1
 72
     1
  1
6
  7
SLDTEXTSTYLE1
 73
     1
 44
1.0
  0
MTEXT
  5
AF
330
1F
100
AcDbEntity
  8
DIM
 62
     7
100
AcDbMText
 10
222.5710953557
 20
203.4590078604
 30
0.0
 40
1.8520833333
 41
0.0
 71
     1
 72
     1
  1
5
  7
SLDTEXTSTYLE1
 73
     1
 44
1.0
  0
MTEXT
  5
B0
330
1F
100
AcDbEntity
  8
DIM
 62
     7
100
AcDbMText
 10
288.5710993557
 20
180.9590078604
 30
0.0
 40
1.8520833333
 41
0.0
 71
     1
 72
     1
  1
A
  7
SLDTEXTSTYLE1
 73
     1
 44
1.0
  0
MTEXT
  5
B1
330
1F
100
AcDbEntity
  8
DIM
 62
     7
100
AcDbMText
 10
288.5710993557
 20
130.9590078604
 30
0.0
 40
1.8520833333
 41
0.0
 71
     1
 72
     1
  1
B
  7
SLDTEXTSTYLE1
 73
     1
 44
1.0
  0
MTEXT
  5
B2
330
1F
100
AcDbEntity
  8
DIM
 62
     7
100
AcDbMText
 10
172.5710953557
 20
203.4590078604
 30
0.0
 40
1.8520833333
 41
0.0
 71
     1
 72
     1
  1
4
  7
SLDTEXTSTYLE1
 73
     1
 44
1.0
  0
MTEXT
  5
B3
330
1F
100
AcDbEntity
  8
DIM
 62
     7
100
AcDbMText
 10
22.9877620223
 20
203.4590078604
 30
0.0
 40
1.8520833333
 41
0.0
 71
     1
 72
     1
  1
1
  7
SLDTEXTSTYLE1
 73
     1
 44
1.0
  0
MTEXT
  5
B4
330
1F
100
AcDbEntity
  8
DIM
 62
     7
100
AcDbMText
 10
72.5710953557
 20
203.4590078604
 30
0.0
 40
1.8520833333
 41
0.0
 71
     1
 72
     1
  1
2
  7
SLDTEXTSTYLE1
 73
     1
 44
1.0
  0
MTEXT
  5
B5
330
1F
100
AcDbEntity
  8
DIM
 62
     7
100
AcDbMText
 10
122.5710953557
 20
203.4590078604
 30
0.0
 40
1.8520833333
 41
0.0
 71
     1
 72
     1
  1
3
  7
SLDTEXTSTYLE1
 73
     1
 44
1.0
  0
MTEXT
  5
B6
330
1F
100
AcDbEntity
  8
DIM
 62
     7
100
AcDbMText
 10
6.5710913557
 20
180.9590078604
 30
0.0
 40
1.8520833333
 41
0.0
 71
     1
 72
     1
  1
A
  7
SLDTEXTSTYLE1
 73
     1
 44
1.0
  0
MTEXT
  5
B7
330
1F
100
AcDbEntity
  8
DIM
 62
     7
100
AcDbMText
 10
72.5710953557
 20
8.4590078604
 30
0.0
 40
1.8520833333
 41
0.0
 71
     1
 72
     1
  1
2
  7
SLDTEXTSTYLE1
 73
     1
 44
1.0
  0
MTEXT
  5
B8
330
1F
100
AcDbEntity
  8
DIM
 62
     7
100
AcDbMText
 10
22.9877620223
 20
8.4590078604
 30
0.0
 40
1.8520833333
 41
0.0
 71
     1
 72
     1
  1
1
  7
SLDTEXTSTYLE1
 73
     1
 44
1.0
  0
MTEXT
  5
B9
330
1F
100
AcDbEntity
  8
DIM
 62
     7
100
AcDbMText
 10
6.5710913557
 20
30.9590078604
 30
0.0
 40
1.8520833333
 41
0.0
 71
     1
 72
     1
  1
D
  7
SLDTEXTSTYLE1
 73
     1
 44
1.0
  0
MTEXT
  5
BA
330
1F
100
AcDbEntity
  8
DIM
 62
     7
100
AcDbMText
 10
6.5710913557
 20
80.9590078604
 30
0.0
 40
1.8520833333
 41
0.0
 71
     1
 72
     1
  1
C
  7
SLDTEXTSTYLE1
 73
     1
 44
1.0
  0
MTEXT
  5
BB
330
1F
100
AcDbEntity
  8
DIM
 62
     7
100
AcDbMText
 10
6.5710913557
 20
130.9590078604
 30
0.0
 40
1.8520833333
 41
0.0
 71
     1
 72
     1
  1
B
  7
SLDTEXTSTYLE1
 73
     1
 44
1.0
  0
LINE
  5
BC
330
1F
100
AcDbEntity
  8
0
  6
Continuous
 62
     7
370
    15
100
AcDbLine
 10
148.120595632
 20
83.2201052744
 30
0.0
 11
152.377137076
 21
83.2201052744
 31
0.0
  0
LINE
  5
BD
330
1F
100
AcDbEntity
  8
0
  6
Continuous
 62
     7
370
    15
100
AcDbLine
 10
152.377137076
 20
146.2201052744
 30
0.0
 11
148.120595632
 21
146.2201052744
 31
0.0
  0
LINE
  5
BE
330
1F
100
AcDbEntity
  8
0
  6
Continuous
 62
     7
370
    15
100
AcDbLine
 10
129.7085079261
 20
83.2201052744
 30
0.0
 11
138.1543792073
 21
83.2201052744
 31
0.0
  0
LINE
  5
BF
330
1F
100
AcDbEntity
  8
0
  6
Continuous
 62
     7
370
    15
100
AcDbLine
 10
138.1543792073
 20
146.2201052744
 30
0.0
 11
129.7085079261
 21
146.2201052744
 31
0.0
  0
LINE
  5
C0
330
1F
100
AcDbEntity
  8
0
  6
Continuous
 62
     7
370
    15
100
AcDbLine
 10
148.120595632
 20
146.2201052744
 30
0.0
 11
145.6428225011
 21
141.928476322
 31
0.0
  0
LINE
  5
C1
330
1F
100
AcDbEntity
  8
0
  6
Continuous
 62
     7
370
    15
100
AcDbLine
 10
145.6428225011
 20
87.5117342268
 30
0.0
 11
148.120595632
 21
83.2201052744
 31
0.0
  0
LINE
  5
C2
330
1F
100
AcDbEntity
  8
0
  6
Continuous
 62
     7
370
    15
100
AcDbLine
 10
138.1543792073
 20
83.2201052744
 30
0.0
 11
140.6428225011
 21
87.530215491
 31
0.0
  0
LINE
  5
C3
330
1F
100
AcDbEntity
  8
0
  6
Continuous
 62
     7
370
    15
100
AcDbLine
 10
140.6428225011
 20
141.9099950578
 30
0.0
 11
138.1543792073
 21
146.2201052744
 31
0.0
  0
LINE
  5
C4
330
1F
100
AcDbEntity
  8
0
  6
Continuous
 62
     7
370
    15
100
AcDbLine
 10
129.4256652139
 20
146.1029479872
 30
0.0
 11
128.6599797883
 21
145.3372625616
 31
0.0
  0
LINE
  5
C5
330
1F
100
AcDbEntity
  8
0
  6
Continuous
 62
     7
370
    15
100
AcDbLine
 10
128.6599797883
 20
84.1029479871
 30
0.0
 11
129.4256652139
 21
83.3372625615
 31
0.0
  0
LINE
  5
C6
330
1F
100
AcDbEntity
  8
0
  6
Continuous
 62
     7
370
    15
100
AcDbLine
 10
152.6599797891
 20
83.3372625624
 30
0.0
 11
153.4256652138
 21
84.1029479871
 31
0.0
  0
LINE
  5
C7
330
1F
100
AcDbEntity
  8
0
  6
Continuous
 62
     7
370
    15
100
AcDbLine
 10
153.4256652138
 20
145.3372625616
 30
0.0
 11
152.6599797891
 21
146.1029479864
 31
0.0
  0
SPLINE
  5
C8
330
1F
100
AcDbEntity
  8
0
  6
Continuous
 62
     7
370
    15
100
AcDbSpline
210
0.0
220
0.0
230
1.0
 70
     8
 71
     3
 72
    11
 73
     7
 74
     0
 42
0.000000001
 43
0.00000001
 40
0.0
 40
0.0
 40
0.0
 40
0.0
 40
0.2474601456631131
 40
0.499884042505212
 40
0.7523676334848453
 40
1.0
 40
1.0
 40
1.0
 40
1.0
 10
129.4243699201481
 20
83.33856381473134
 30
0.0
 10
129.443764694146
 20
83.3210741746993
 30
0.0
 10
129.4829432778471
 20
83.28574407361275
 30
0.0
 10
129.5536683315381
 20
83.2487825283722
 30
0.0
 10
129.6297178376886
 20
83.22454059213561
 30
0.0
 10
129.6824149552075
 20
83.22157412189648
 30
0.0
 10
129.7085079276955
 20
83.22010527445323
 30
0.0
  0
SPLINE
  5
C9
330
1F
100
AcDbEntity
  8
0
  6
Continuous
 62
     7
370
    15
100
AcDbSpline
210
0.0
220
0.0
230
1.0
 70
     8
 71
     3
 72
    10
 73
     6
 74
     0
 42
0.000000001
 43
0.00000001
 40
0.0
 40
0.0
 40
0.0
 40
0.0
 40
0.2055669127968098
 40
0.6565288649426279
 40
0.9999999999999999
 40
0.9999999999999999
 40
0.9999999999999999
 40
0.9999999999999999
 10
128.5616976356526
 20
86.32513046724645
 30
0.0
 10
128.5634063421937
 20
86.25433702468641
 30
0.0
 10
128.5688635198626
 20
86.02824062689082
 30
0.0
 10
128.5761394873511
 20
85.71619729966685
 30
0.0
 10
128.5820204472978
 20
85.50882497246725
 30
0.0
 10
128.5845630654498
 20
85.4191680715274
 30
0.0
  0
LINE
  5
CA
330
1F
100
AcDbEntity
  8
0
  6
Continuous
 62
     7
370
    15
100
AcDbLine
 10
140.6428225011
 20
88.2201052744
 30
0.0
 11
145.6428225011
 21
88.2201052744
 31
0.0
  0
LINE
  5
CB
330
1F
100
AcDbEntity
  8
0
  6
Continuous
 62
     7
370
    15
100
AcDbLine
 10
145.6428225011
 20
141.2201052744
 30
0.0
 11
140.6428225011
 21
141.2201052744
 31
0.0
  0
ARC
  5
CC
330
1F
100
AcDbEntity
  8
0
  6
Continuous
 62
     7
370
    15
100
AcDbCircle
 10
128.1428225007
 20
92.3201052741
 30
0.0
 40
0.400000000216707
100
AcDbArc
 50
359.9999985623
 51
89.9999999705
  0
ARC
  5
CD
330
1F
100
AcDbEntity
  8
0
  6
Continuous
 62
     7
370
    15
100
AcDbCircle
 10
128.1428225007
 20
137.1201052747
 30
0.0
 40
0.4000000002167212
100
AcDbArc
 50
270.0000000295
 51
0.0000014377
  0
LINE
  5
CE
330
1F
100
AcDbEntity
  8
0
  6
Continuous
 62
     7
370
    15
100
AcDbLine
 10
126.5428225011
 20
136.9451052744
 30
0.0
 11
61.9985142741
 21
127.5323047814
 31
0.0
  0
LINE
  5
CF
330
1F
100
AcDbEntity
  8
0
  6
Continuous
 62
     7
370
    15
100
AcDbLine
 10
61.9985142741
 20
101.9079057674
 30
0.0
 11
126.5428225011
 21
92.4951052744
 31
0.0
  0
LINE
  5
D0
330
1F
100
AcDbEntity
  8
0
  6
Continuous
 62
     7
370
    15
100
AcDbLine
 10
126.5428225011
 20
92.4951052744
 30
0.0
 11
127.0253365581
 21
92.7201052744
 31
0.0
  0
LINE
  5
D1
330
1F
100
AcDbEntity
  8
0
  6
Continuous
 62
     7
370
    15
100
AcDbLine
 10
127.0253365581
 20
136.7201052744
 30
0.0
 11
126.5428225011
 21
136.9451052744
 31
0.0
  0
LINE
  5
D2
330
1F
100
AcDbEntity
  8
0
  6
Continuous
 62
     7
370
    15
100
AcDbLine
 10
127.0253365581
 20
92.7201052744
 30
0.0
 11
128.1428225009
 21
92.7201052744
 31
0.0
  0
LINE
  5
D3
330
1F
100
AcDbEntity
  8
0
  6
Continuous
 62
     7
370
    15
100
AcDbLine
 10
128.1428225009
 20
136.7201052744
 30
0.0
 11
127.0253365581
 21
136.7201052744
 31
0.0
  0
LINE
  5
D4
330
1F
100
AcDbEntity
  8
0
  6
Continuous
 62
     7
370
    15
100
AcDbLine
 10
154.5428225011
 20
95.7201052744
 30
0.0
 11
170.5428225011
 21
95.7201052744
 31
0.0
  0
LINE
  5
D5
330
1F
100
AcDbEntity
  8
0
  6
Continuous
 62
     7
370
    15
100
AcDbLine
 10
170.5428225011
 20
133.7201052744
 30
0.0
 11
154.5428225011
 21
133.7201052744
 31
0.0
  0
LINE
  5
D6
330
1F
100
AcDbEntity
  8
0
  6
Continuous
 62
     7
370
    15
100
AcDbLine
 10
170.5428225011
 20
95.7201052744
 30
0.0
 11
171.5428225011
 21
96.7201052744
 31
0.0
  0
LINE
  5
D7
330
1F
100
AcDbEntity
  8
0
  6
Continuous
 62
     7
370
    15
100
AcDbLine
 10
171.5428225011
 20
132.7201052744
 30
0.0
 11
170.5428225011
 21
133.7201052744
 31
0.0
  0
LINE
  5
D8
330
1F
100
AcDbEntity
  8
0
  6
Continuous
 62
     7
370
    15
100
AcDbLine
 10
193.2428225011
 20
124.7201052744
 30
0.0
 11
192.5428225011
 21
124.0201052744
 31
0.0
  0
LINE
  5
D9
330
1F
100
AcDbEntity
  8
0
  6
Continuous
 62
     7
370
    15
100
AcDbLine
 10
192.5428225011
 20
105.4201052744
 30
0.0
 11
193.2428225011
 21
104.7201052744
 31
0.0
  0
LINE
  5
DA
330
1F
100
AcDbEntity
  8
0
  6
Continuous
 62
     7
370
    15
100
AcDbLine
 10
198.8428225011
 20
104.7201052744
 30
0.0
 11
199.5428225011
 21
105.4201052744
 31
0.0
  0
LINE
  5
DB
330
1F
100
AcDbEntity
  8
0
  6
Continuous
 62
     7
370
    15
100
AcDbLine
 10
199.5428225011
 20
124.0201052744
 30
0.0
 11
198.8428225011
 21
124.7201052744
 31
0.0
  0
LINE
  5
DC
330
1F
100
AcDbEntity
  8
0
  6
Continuous
 62
     7
370
    15
100
AcDbLine
 10
193.2428225011
 20
104.7201052744
 30
0.0
 11
198.8428225011
 21
104.7201052744
 31
0.0
  0
LINE
  5
DD
330
1F
100
AcDbEntity
  8
0
  6
Continuous
 62
     7
370
    15
100
AcDbLine
 10
198.8428225011
 20
124.7201052744
 30
0.0
 11
193.2428225011
 21
124.7201052744
 31
0.0
  0
LINE
  5
DE
330
1F
100
AcDbEntity
  8
0
  6
Continuous
 62
     7
370
    15
100
AcDbLine
 10
171.5428225011
 20
106.7201052744
 30
0.0
 11
187.0705793151
 21
106.7201052744
 31
0.0
  0
LINE
  5
DF
330
1F
100
AcDbEntity
  8
0
  6
Continuous
 62
     7
370
    15
100
AcDbLine
 10
187.0705793151
 20
122.7201052744
 30
0.0
 11
171.5428225011
 21
122.7201052744
 31
0.0
  0
LINE
  5
E0
330
1F
100
AcDbEntity
  8
0
  6
Continuous
 62
     7
370
    15
100
AcDbLine
 10
187.0705793151
 20
106.7201052744
 30
0.0
 11
188.5428225011
 21
107.5701052744
 31
0.0
  0
LINE
  5
E1
330
1F
100
AcDbEntity
  8
0
  6
Continuous
 62
     7
370
    15
100
AcDbLine
 10
188.5428225011
 20
121.8701052744
 30
0.0
 11
187.0705793151
 21
122.7201052744
 31
0.0
  0
LINE
  5
E2
330
1F
100
AcDbEntity
  8
0
  6
Continuous
 62
     7
370
    15
100
AcDbLine
 10
188.5428225011
 20
110.7201052744
 30
0.0
 11
192.5428225011
 21
110.7201052744
 31
0.0
  0
LINE
  5
E3
330
1F
100
AcDbEntity
  8
0
  6
Continuous
 62
     7
370
    15
100
AcDbLine
 10
192.5428225011
 20
118.7201052744
 30
0.0
 11
188.5428225011
 21
118.7201052744
 31
0.0
  0
LINE
  5
E4
330
1F
100
AcDbEntity
  8
0
  6
Continuous
 62
     7
370
    15
100
AcDbLine
 10
148.120595632
 20
83.2201052744
 30
0.0
 11
148.120595632
 21
146.2201052744
 31
0.0
  0
LINE
  5
E5
330
1F
100
AcDbEntity
  8
0
  6
Continuous
 62
     7
370
    15
100
AcDbLine
 10
152.377137076
 20
146.2201052744
 30
0.0
 11
152.377137076
 21
83.2201052744
 31
0.0
  0
LINE
  5
E6
330
1F
100
AcDbEntity
  8
0
  6
Continuous
 62
     7
370
    15
100
AcDbLine
 10
152.6599797891
 20
83.3372625624
 30
0.0
 11
152.6599797891
 21
146.1029479864
 31
0.0
  0
SPLINE
  5
E7
330
1F
100
AcDbEntity
  8
0
  6
Continuous
 62
     7
370
    15
100
AcDbSpline
210
0.0
220
0.0
230
1.0
 70
     8
 71
     3
 72
    10
 73
     6
 74
     0
 42
0.000000001
 43
0.00000001
 40
0.0
 40
0.0
 40
0.0
 40
0.0
 40
0.5
 40
0.5
 40
1.0
 40
1.0
 40
1.0
 40
1.0
 10
152.3771370760369
 20
83.22010527436812
 30
0.0
 10
152.4281615338807
 20
83.22010527425697
 30
0.0
 10
152.4812048318803
 20
83.23025466994186
 30
0.0
 10
152.579216066385
 20
83.27085225261787
 30
0.0
 10
152.623900048393
 20
83.30118282179593
 30
0.0
 10
152.6599797882145
 20
83.33726256164344
 30
0.0
  0
SPLINE
  5
E8
330
1F
100
AcDbEntity
  8
0
  6
Continuous
 62
     7
370
    15
100
AcDbSpline
210
0.0
220
0.0
230
1.0
 70
     8
 71
     3
 72
    10
 73
     6
 74
     0
 42
0.000000001
 43
0.00000001
 40
0.0
 40
0.0
 40
0.0
 40
0.0
 40
0.5
 40
0.5
 40
1.0
 40
1.0
 40
1.0
 40
1.0
 10
152.3771370760369
 20
146.2201052744044
 30
0.0
 10
152.4281615338807
 20
146.2201052745155
 30
0.0
 10
152.4812048318804
 20
146.2099558788306
 30
0.0
 10
152.579216066385
 20
146.1693582961546
 30
0.0
 10
152.623900048393
 20
146.1390277269766
 30
0.0
 10
152.6599797882145
 20
146.1029479871291
 30
0.0
  0
LINE
  5
E9
330
1F
100
AcDbEntity
  8
0
  6
Continuous
 62
     7
370
    15
100
AcDbLine
 10
138.1543792073
 20
83.2201052744
 30
0.0
 11
138.1543792073
 21
146.2201052744
 31
0.0
  0
LINE
  5
EA
330
1F
100
AcDbEntity
  8
0
  6
Continuous
 62
     7
370
    15
100
AcDbLine
 10
129.7085079264
 20
123.3195424307
 30
0.0
 11
129.7085079261
 21
146.2201052744
 31
0.0
  0
LINE
  5
EB
330
1F
100
AcDbEntity
  8
0
  6
Continuous
 62
     7
370
    15
100
AcDbLine
 10
129.7085079261
 20
106.0026519015
 30
0.0
 11
129.7085079261
 21
123.3195424307
 31
0.0
  0
LINE
  5
EC
330
1F
100
AcDbEntity
  8
0
  6
Continuous
 62
     7
370
    15
100
AcDbLine
 10
145.6428225011
 20
87.5117342268
 30
0.0
 11
145.6428225011
 21
141.928476322
 31
0.0
  0
LINE
  5
ED
330
1F
100
AcDbEntity
  8
0
  6
Continuous
 62
     7
370
    15
100
AcDbLine
 10
140.6428225011
 20
87.530215491
 30
0.0
 11
140.6428225011
 21
141.9099950578
 31
0.0
  0
LINE
  5
EE
330
1F
100
AcDbEntity
  8
0
  6
Continuous
 62
     7
370
    15
100
AcDbLine
 10
129.4256652139
 20
106.1430525723
 30
0.0
 11
129.4256652139
 21
123.2246240204
 31
0.0
  0
SPLINE
  5
EF
330
1F
100
AcDbEntity
  8
0
  6
Continuous
 62
     7
370
    15
100
AcDbSpline
210
0.0
220
0.0
230
1.0
 70
     8
 71
     3
 72
     8
 73
     4
 74
     0
 42
0.000000001
 43
0.00000001
 40
0.0
 40
0.0
 40
0.0
 40
0.0
 40
1.0
 40
1.0
 40
1.0
 40
1.0
 10
129.4256652134043
 20
123.2246240201134
 30
0.0
 10
129.4968594421022
 20
123.2823378066918
 30
0.0
 10
129.6000304015037
 20
123.3195424310097
 30
0.0
 10
129.708507926752
 20
123.3195424309451
 30
0.0
  0
SPLINE
  5
F0
330
1F
100
AcDbEntity
  8
0
  6
Continuous
 62
     7
370
    15
100
AcDbSpline
210
0.0
220
0.0
230
1.0
 70
     8
 71
     3
 72
    10
 73
     6
 74
     0
 42
0.000000001
 43
0.00000001
 40
0.0
 40
0.0
 40
0.0
 40
0.0
 40
0.5
 40
0.5
 40
1.0
 40
1.0
 40
1.0
 40
1.0
 10
129.7085079276955
 20
106.0026519010837
 30
0.0
 10
129.6514432442454
 20
106.0026519011429
 30
0.0
 10
129.5959991693898
 20
106.0176662482032
 30
0.0
 10
129.499569142402
 20
106.0683361955322
 30
0.0
 10
129.4588563928097
 20
106.1032078385943
 30
0.0
 10
129.4256652113986
 20
106.1430525751768
 30
0.0
  0
LINE
  5
F1
330
1F
100
AcDbEntity
  8
0
  6
Continuous
 62
     7
370
    15
100
AcDbLine
 10
128.6599797884
 20
106.0872625617
 30
0.0
 11
128.6599797884
 21
123.352947987
 31
0.0
  0
LINE
  5
F2
330
1F
100
AcDbEntity
  8
0
  6
Continuous
 62
     7
370
    15
100
AcDbLine
 10
128.6599797877
 20
123.3529479877
 30
0.0
 11
128.6599797883
 21
145.337262562
 31
0.0
  0
LINE
  5
F3
330
1F
100
AcDbEntity
  8
0
  6
Continuous
 62
     7
370
    15
100
AcDbLine
 10
129.4256652139
 20
146.1029479871
 30
0.0
 11
129.4256652134
 21
123.2246240201
 31
0.0
  0
LINE
  5
F4
330
1F
100
AcDbEntity
  8
0
  6
Continuous
 62
     7
370
    15
100
AcDbLine
 10
153.4256652138
 20
145.3372625615
 30
0.0
 11
153.4256652138
 21
84.1029479872
 31
0.0
  0
SPLINE
  5
F5
330
1F
100
AcDbEntity
  8
0
  6
Continuous
 62
     7
370
    15
100
AcDbSpline
210
0.0
220
0.0
230
1.0
 70
    24
 71
     3
 72
    47
 73
    43
 74
     0
 42
0.000000001
 43
0.00000001
 40
0.0
 40
0.0
 40
0.0
 40
0.0
 40
0.0053041438740758
 40
0.0106040483952174
 40
0.01590118065308
 40
0.021197010041298
 40
0.0264930070379634
 40
0.0317906419815981
 40
0.0370913838477052
 40
0.0423966990309845
 40
0.0663768045816359
 40
0.0903622845633264
 40
0.1173884786822996
 40
0.1444200168318278
 40
0.1738405150018931
 40
0.204871819441735
 40
0.2374904003485773
 40
0.2716370914837193
 40
0.307212130576857
 40
0.3440718784041744
 40
0.3820280658471386
 40
0.420850285344154
 40
0.4602721112809129
 40
0.5000007264822417
 40
0.5397293416835706
 40
0.5791511676203294
 40
0.6179733871173448
 40
0.6559295745603092
 40
0.6927893223876265
 40
0.7283643614807641
 40
0.7625110526159061
 40
0.7951296335227485
 40
0.8261609379625904
 40
0.8555814361326557
 40
0.8826076300166479
 40
0.9096391680721915
 40
0.9336192735861479
 40
0.9576047536724086
 40
0.9682084425967672
 40
0.978801037520647
 40
0.9893943026598754
 40
1.0
 40
1.0
 40
1.0
 40
1.0
 10
153.5428225010629
 20
145.0544198492316
 30
0.0
 10
153.5428225010629
 20
145.0536133939881
 30
0.0
 10
153.5428225010629
 20
145.052001128063
 30
0.0
 10
153.5428225010629
 20
145.0389447078128
 30
0.0
 10
153.5428225010629
 20
145.018098047717
 30
0.0
 10
153.5428225010629
 20
144.9886992522123
 30
0.0
 10
153.5428225010629
 20
144.9509521867608
 30
0.0
 10
153.5428225010629
 20
144.904802830902
 30
0.0
 10
153.5428225010629
 20
144.8502635232616
 30
0.0
 10
153.5428225010629
 20
144.713538029854
 30
0.0
 10
153.5428225010629
 20
144.4259971687747
 30
0.0
 10
153.5428225010629
 20
143.844937995527
 30
0.0
 10
153.5428225010629
 20
143.0502729308031
 30
0.0
 10
153.5428225010629
 20
141.9892576777887
 30
0.0
 10
153.5428225010629
 20
140.656214863064
 30
0.0
 10
153.5428225010629
 20
138.9977469800965
 30
0.0
 10
153.5428225010629
 20
137.006350005846
 30
0.0
 10
153.5428225010629
 20
134.6716865164802
 30
0.0
 10
153.5428225010629
 20
131.9960833184195
 30
0.0
 10
153.5428225010629
 20
128.9972574979901
 30
0.0
 10
153.5428225010629
 20
125.7101873860029
 30
0.0
 10
153.5428225010629
 20
122.1873895892268
 30
0.0
 10
153.5428225010629
 20
118.4972225482565
 30
0.0
 10
153.5428225010629
 20
114.7201052743882
 30
0.0
 10
153.5428225010629
 20
110.9429880005081
 30
0.0
 10
153.5428225010629
 20
107.252820959573
 30
0.0
 10
153.5428225010629
 20
103.7300231626708
 30
0.0
 10
153.5428225010629
 20
100.4429530511376
 30
0.0
 10
153.5428225010629
 20
97.44412722908766
 30
0.0
 10
153.5428225010629
 20
94.76852403675949
 30
0.0
 10
153.5428225010629
 20
92.4338605272792
 30
0.0
 10
153.5428225010629
 20
90.44246362311206
 30
0.0
 10
153.5428225010629
 20
88.78399549742221
 30
0.0
 10
153.5428225010629
 20
87.45103494583216
 30
0.0
 10
153.5428225010629
 20
86.38999690173124
 30
0.0
 10
153.5428225010629
 20
85.59537882802888
 30
0.0
 10
153.5428225010629
 20
85.01421511218099
 30
0.0
 10
153.5428225010629
 20
84.6981897903412
 30
0.0
 10
153.5428225010629
 20
84.5311434544713
 30
0.0
 10
153.5428225010629
 20
84.4477023085066
 30
0.0
 10
153.5428225010629
 20
84.39545807853024
 30
0.0
 10
153.5428225010629
 20
84.38901441883914
 30
0.0
 10
153.5428225010629
 20
84.38579069954093
 30
0.0
  0
SPLINE
  5
F6
330
1F
100
AcDbEntity
  8
0
  6
Continuous
 62
     7
370
    15
100
AcDbSpline
210
0.0
220
0.0
230
1.0
 70
     8
 71
     3
 72
    10
 73
     6
 74
     0
 42
0.000000001
 43
0.00000001
 40
0.0
 40
0.0
 40
0.0
 40
0.0
 40
0.5
 40
0.5
 40
1.0
 40
1.0
 40
1.0
 40
1.0
 10
153.4256652138057
 20
84.10294798723467
 30
0.0
 10
153.4617449536532
 20
84.13902772705613
 30
0.0
 10
153.4920755228312
 20
84.1837117090641
 30
0.0
 10
153.5326731055073
 20
84.28172294356877
 30
0.0
 10
153.5428225011922
 20
84.33476624156845
 30
0.0
 10
153.542822501081
 20
84.38579069941215
 30
0.0
  0
SPLINE
  5
F7
330
1F
100
AcDbEntity
  8
0
  6
Continuous
 62
     7
370
    15
100
AcDbSpline
210
0.0
220
0.0
230
1.0
 70
     8
 71
     3
 72
    10
 73
     6
 74
     0
 42
0.000000001
 43
0.00000001
 40
0.0
 40
0.0
 40
0.0
 40
0.0
 40
0.5
 40
0.5
 40
1.0
 40
1.0
 40
1.0
 40
1.0
 10
153.4256652138057
 20
145.3372625615378
 30
0.0
 10
153.4617449536532
 20
145.3011828217164
 30
0.0
 10
153.4920755228312
 20
145.2564988397084
 30
0.0
 10
153.5326731055073
 20
145.1584876052037
 30
0.0
 10
153.5428225011922
 20
145.1054443072041
 30
0.0
 10
153.542822501081
 20
145.0544198493604
 30
0.0
  0
LINE
  5
F8
330
1F
100
AcDbEntity
  8
0
  6
Continuous
 62
     7
370
    15
100
AcDbLine
 10
128.5428225011
 20
105.9701052744
 30
0.0
 11
128.5428225011
 21
123.4701052744
 31
0.0
  0
SPLINE
  5
F9
330
1F
100
AcDbEntity
  8
0
  6
Continuous
 62
     7
370
    15
100
AcDbSpline
210
0.0
220
0.0
230
1.0
 70
    24
 71
     3
 72
    10
 73
     6
 74
     0
 42
0.000000001
 43
0.00000001
 40
0.0
 40
0.0
 40
0.0
 40
0.0
 40
0.5
 40
0.5
 40
1.0
 40
1.0
 40
1.0
 40
1.0
 10
128.5428225010448
 20
123.4701052744044
 30
0.0
 10
128.5428225005378
 20
123.4701052749113
 30
0.0
 10
128.5566631513183
 20
123.4562646241308
 30
0.0
 10
128.5988167844532
 20
123.4141109909959
 30
0.0
 10
128.627304176284
 20
123.3856235991651
 30
0.0
 10
128.6599797883023
 20
123.3529479871468
 30
0.0
  0
SPLINE
  5
FA
330
1F
100
AcDbEntity
  8
0
  6
Continuous
 62
     7
370
    15
100
AcDbSpline
210
0.0
220
0.0
230
1.0
 70
    24
 71
     3
 72
    10
 73
     6
 74
     0
 42
0.000000001
 43
0.00000001
 40
0.0
 40
0.0
 40
0.0
 40
0.0
 40
0.5
 40
0.5
 40
1.0
 40
1.0
 40
1.0
 40
1.0
 10
128.6599797868894
 20
106.0872625602128
 30
0.0
 10
128.6273258087091
 20
106.0546085820325
 30
0.0
 10
128.5993456272236
 20
106.026628400547
 30
0.0
 10
128.556700324874
 20
105.9839830981973
 30
0.0
 10
128.5428225009313
 20
105.9701052742479
 30
0.0
 10
128.5428225010465
 20
105.9701052743631
 30
0.0
  0
SPLINE
  5
FB
330
1F
100
AcDbEntity
  8
0
  6
Continuous
 62
     7
370
    15
100
AcDbSpline
210
0.0
220
0.0
230
1.0
 70
     8
 71
     3
 72
    10
 73
     6
 74
     0
 42
0.000000001
 43
0.00000001
 40
0.0
 40
0.0
 40
0.0
 40
0.0
 40
0.5
 40
0.5
 40
1.0
 40
1.0
 40
1.0
 40
1.0
 10
129.4256652139113
 20
146.1029479871291
 30
0.0
 10
129.4617449537328
 20
146.1390277269765
 30
0.0
 10
129.5064289357407
 20
146.1693582961546
 30
0.0
 10
129.6044401702454
 20
146.2099558788306
 30
0.0
 10
129.6574834682451
 20
146.2201052745155
 30
0.0
 10
129.7085079260888
 20
146.2201052744044
 30
0.0
  0
SPLINE
  5
FC
330
1F
100
AcDbEntity
  8
0
  6
Continuous
 62
     7
370
    15
100
AcDbSpline
210
0.0
220
0.0
230
1.0
 70
    24
 71
     3
 72
    31
 73
    27
 74
     0
 42
0.000000001
 43
0.00000001
 40
0.0
 40
0.0
 40
0.0
 40
0.0
 40
0.0100187037860453
 40
0.0200387126488899
 40
0.0300623662873012
 40
0.0400920018493024
 40
0.0704090723483456
 40
0.1007379865273601
 40
0.1311856480256127
 40
0.161645204220074
 40
0.2225360047362104
 40
0.2831657827694742
 40
0.343280165368696
 40
0.4026376609114214
 40
0.4610151035628111
 40
0.5182120283309928
 40
0.6282963922177888
 40
0.7319416159104913
 40
0.7802590511527273
 40
0.8285880699467106
 40
0.8732461115500266
 40
0.9179156515965591
 40
0.9384446508912873
 40
0.9589549722664883
 40
0.9794667214561482
 40
0.9999999999999999
 40
0.9999999999999999
 40
0.9999999999999999
 40
0.9999999999999999
 10
128.5428225010629
 20
85.30159228658334
 30
0.0
 10
128.5428225010629
 20
85.26460418778015
 30
0.0
 10
128.5428225010629
 20
85.19062317195468
 30
0.0
 10
128.5428225010629
 20
85.08836796538328
 30
0.0
 10
128.5428225010629
 20
84.99250022877621
 30
0.0
 10
128.5428225010629
 20
84.84374745612773
 30
0.0
 10
128.5428225010629
 20
84.6678021379742
 30
0.0
 10
128.5428225010629
 20
84.50543426246276
 30
0.0
 10
128.5428225010629
 20
84.40754979310104
 30
0.0
 10
128.5428225010629
 20
84.36401461314657
 30
0.0
 10
128.5428225010629
 20
84.47278196586679
 30
0.0
 10
128.5428225010629
 20
84.86123491772355
 30
0.0
 10
128.5428225010629
 20
85.49770425133691
 30
0.0
 10
128.5428225010629
 20
86.36647610300652
 30
0.0
 10
128.5428225010629
 20
87.44709044471344
 30
0.0
 10
128.5428225010629
 20
89.11565580315374
 30
0.0
 10
128.5428225010629
 20
91.5788714051535
 30
0.0
 10
128.5428225010629
 20
94.46191438681477
 30
0.0
 10
128.5428225010629
 20
96.89344809360796
 30
0.0
 10
128.5428225010629
 20
98.70375724295896
 30
0.0
 10
128.5428225010629
 20
100.545914920458
 30
0.0
 10
128.5428225010629
 20
102.0702980290714
 30
0.0
 10
128.5428225010629
 20
103.2857343162852
 30
0.0
 10
128.5428225010629
 20
104.1699843013642
 30
0.0
 10
128.5428225010629
 20
105.0640090146758
 30
0.0
 10
128.5428225010629
 20
105.6679676014346
 30
0.0
 10
128.5428225010629
 20
105.9701052920553
 30
0.0
  0
SPLINE
  5
FD
330
1F
100
AcDbEntity
  8
0
  6
Continuous
 62
     7
370
    15
100
AcDbSpline
210
0.0
220
0.0
230
1.0
 70
     8
 71
     3
 72
    10
 73
     6
 74
     0
 42
0.000000001
 43
0.00000001
 40
0.0
 40
0.0
 40
0.0
 40
0.0
 40
0.5
 40
0.5
 40
1.0
 40
1.0
 40
1.0
 40
1.0
 10
128.5428225010448
 20
145.0544198493603
 30
0.0
 10
128.5428225009336
 20
145.105444307204
 30
0.0
 10
128.5529718966185
 20
145.1584876052038
 30
0.0
 10
128.5935694792945
 20
145.2564988397084
 30
0.0
 10
128.6239000484726
 20
145.3011828217164
 30
0.0
 10
128.6599797883201
 20
145.3372625615378
 30
0.0
  0
SPLINE
  5
FE
330
1F
100
AcDbEntity
  8
0
  6
Continuous
 62
     7
370
    15
100
AcDbSpline
210
0.0
220
0.0
230
1.0
 70
    24
 71
     3
 72
    31
 73
    27
 74
     0
 42
0.000000001
 43
0.00000001
 40
0.0
 40
0.0
 40
0.0
 40
0.0
 40
0.0133152966053203
 40
0.0266174735785581
 40
0.0399103661798454
 40
0.0531978177087775
 40
0.0664836761868902
 40
0.0797717910196832
 40
0.0930660096526417
 40
0.106370174235758
 40
0.1196881183109804
 40
0.1818258734524132
 40
0.243977272974286
 40
0.3077457304655279
 40
0.3715281904360461
 40
0.5006216873931932
 40
0.6296300019595602
 40
0.693273781020663
 40
0.7569315351883745
 40
0.8188722000676552
 40
0.8808264660516469
 40
0.9046811864448817
 40
0.9285037511611238
 40
0.9523163012953649
 40
0.976141005863272
 40
1.0
 40
1.0
 40
1.0
 40
1.0
 10
128.5428225010629
 20
123.470105270743
 30
0.0
 10
128.5428225010629
 20
123.6345697123326
 30
0.0
 10
128.5428225010629
 20
123.9633365478288
 30
0.0
 10
128.5428225010629
 20
124.4529520030329
 30
0.0
 10
128.5428225010629
 20
124.9395974276408
 30
0.0
 10
128.5428225010629
 20
125.4230438805184
 30
0.0
 10
128.5428225010629
 20
125.9033523896637
 30
0.0
 10
128.5428225010629
 20
126.3805068438602
 30
0.0
 10
128.5428225010629
 20
126.8545099641887
 30
0.0
 10
128.5428225010629
 20
127.3253662796557
 30
0.0
 10
128.5428225010629
 20
128.3642641159375
 30
0.0
 10
128.5428225010629
 20
129.9388241786605
 30
0.0
 10
128.5428225010629
 20
131.9929710523142
 30
0.0
 10
128.5428225010629
 20
133.9537147809926
 30
0.0
 10
128.5428225010629
 20
136.4338525774207
 30
0.0
 10
128.5428225010629
 20
139.1923980288298
 30
0.0
 10
128.5428225010629
 20
141.3954234259586
 30
0.0
 10
128.5428225010629
 20
142.7852414684805
 30
0.0
 10
128.5428225010629
 20
143.6270577897776
 30
0.0
 10
128.5428225010629
 20
144.2767865355417
 30
0.0
 10
128.5428225010629
 20
144.6408104361832
 30
0.0
 10
128.5428225010629
 20
144.8343812236818
 30
0.0
 10
128.5428225010629
 20
144.9328258260141
 30
0.0
 10
128.5428225010629
 20
145.0026271237928
 30
0.0
 10
128.5428225010629
 20
145.0463334995344
 30
0.0
 10
128.5428225010629
 20
145.0517231075193
 30
0.0
 10
128.5428225010629
 20
145.0544198493579
 30
0.0
  0
LINE
  5
FF
330
1F
100
AcDbEntity
  8
0
  6
Continuous
 62
     7
370
    15
100
AcDbLine
 10
126.5428225011
 20
92.4951052744
 30
0.0
 11
126.5428225011
 21
136.9451052744
 31
0.0
  0
LINE
  5
100
330
1F
100
AcDbEntity
  8
0
  6
Continuous
 62
     7
370
    15
100
AcDbLine
 10
61.9985142741
 20
101.9079057674
 30
0.0
 11
61.9985142741
 21
127.5323047814
 31
0.0
  0
LINE
  5
101
330
1F
100
AcDbEntity
  8
0
  6
Continuous
 62
     7
370
    15
100
AcDbLine
 10
127.0253365581
 20
92.7201052744
 30
0.0
 11
127.0253365581
 21
136.7201052744
 31
0.0
  0
LINE
  5
102
330
1F
100
AcDbEntity
  8
0
  6
Continuous
 62
     7
370
    15
100
AcDbLine
 10
154.5428225011
 20
95.7201052744
 30
0.0
 11
154.5428225011
 21
133.7201052744
 31
0.0
  0
SPLINE
  5
103
330
1F
100
AcDbEntity
  8
0
  6
Continuous
 62
     7
370
    15
100
AcDbSpline
210
0.0
220
0.0
230
1.0
 70
     8
 71
     3
 72
    14
 73
    10
 74
     0
 42
0.000000001
 43
0.00000001
 40
0.0
 40
0.0
 40
0.0
 40
0.0
 40
0.25
 40
0.25
 40
0.5
 40
0.5
 40
0.75
 40
0.75
 40
1.0
 40
1.0
 40
1.0
 40
1.0
 10
153.5428225012679
 20
94.72010527451943
 30
0.0
 10
153.5428225012456
 20
94.83795640469341
 30
0.0
 10
153.5643012400473
 20
94.96510303363996
 30
0.0
 10
153.6617671602609
 20
95.21129693433024
 30
0.0
 10
153.7380846470507
 20
95.32958098259067
 30
0.0
 10
153.9333467928585
 20
95.52484312839844
 30
0.0
 10
154.0516308411189
 20
95.60116061518826
 30
0.0
 10
154.2978247418092
 20
95.69862653540181
 30
0.0
 10
154.4249713707557
 20
95.72010527420352
 30
0.0
 10
154.5428225009297
 20
95.72010527418121
 30
0.0
  0
SPLINE
  5
104
330
1F
100
AcDbEntity
  8
0
  6
Continuous
 62
     7
370
    15
100
AcDbSpline
210
0.0
220
0.0
230
1.0
 70
     8
 71
     3
 72
    14
 73
    10
 74
     0
 42
0.000000001
 43
0.00000001
 40
0.0
 40
0.0
 40
0.0
 40
0.0
 40
0.25
 40
0.25
 40
0.5
 40
0.5
 40
0.75
 40
0.75
 40
1.0
 40
1.0
 40
1.0
 40
1.0
 10
153.5428225012679
 20
134.7201052742531
 30
0.0
 10
153.5428225012456
 20
134.602254144068
 30
0.0
 10
153.5643012400515
 20
134.4751075151085
 30
0.0
 10
153.6617671602842
 20
134.2289136143968
 30
0.0
 10
153.738084647089
 20
134.1106295661282
 30
0.0
 10
153.9333467929304
 20
133.9153674203174
 30
0.0
 10
154.051630841209
 20
133.8390499335326
 30
0.0
 10
154.2978247419277
 20
133.7415840133397
 30
0.0
 10
154.4249713708843
 20
133.7201052745533
 30
0.0
 10
154.5428225010629
 20
133.7201052745913
 30
0.0
  0
LINE
  5
105
330
1F
100
AcDbEntity
  8
0
  6
Continuous
 62
     7
370
    15
100
AcDbLine
 10
170.5428225011
 20
95.7201052744
 30
0.0
 11
170.5428225011
 21
133.7201052744
 31
0.0
  0
LINE
  5
106
330
1F
100
AcDbEntity
  8
0
  6
Continuous
 62
     7
370
    15
100
AcDbLine
 10
171.5428225011
 20
96.7201052744
 30
0.0
 11
171.5428225011
 21
132.7201052744
 31
0.0
  0
SPLINE
  5
107
330
1F
100
AcDbEntity
  8
0
  6
Continuous
 62
     7
370
    15
100
AcDbSpline
210
0.0
220
0.0
230
1.0
 70
     8
 71
     3
 72
    14
 73
    10
 74
     0
 42
0.000000001
 43
0.00000001
 40
0.0
 40
0.0
 40
0.0
 40
0.0
 40
0.25
 40
0.25
 40
0.5
 40
0.5
 40
0.75
 40
0.75
 40
1.0
 40
1.0
 40
1.0
 40
1.0
 10
61.14282250134807
 20
102.8974385538704
 30
0.0
 10
61.14282250133999
 20
102.7884220049295
 30
0.0
 10
61.16112668319673
 20
102.6723440135088
 30
0.0
 10
61.24223260732818
 20
102.4465149746413
 30
0.0
 10
61.30521670462877
 20
102.3372366152556
 30
0.0
 10
61.46761090801836
 20
102.1494419048788
 30
0.0
 10
61.56665630405796
 20
102.071347309202
 30
0.0
 10
61.77841729012404
 20
101.9585013497353
 30
0.0
 10
61.89063882448599
 20
101.9236377524456
 30
0.0
 10
61.9985142740811
 20
101.907905767511
 30
0.0
  0
SPLINE
  5
108
330
1F
100
AcDbEntity
  8
0
  6
Continuous
 62
     7
370
    15
100
AcDbSpline
210
0.0
220
0.0
230
1.0
 70
    24
 71
     3
 72
    38
 73
    34
 74
     0
 42
0.000000001
 43
0.00000001
 40
0.0
 40
0.0
 40
0.0
 40
0.0
 40
0.0624999999999999
 40
0.0624999999999999
 40
0.125
 40
0.125
 40
0.1875
 40
0.1875
 40
0.25
 40
0.25
 40
0.3125
 40
0.3125
 40
0.3750000000000001
 40
0.3750000000000001
 40
0.4375000000000001
 40
0.4375000000000001
 40
0.5000000000000001
 40
0.5000000000000001
 40
0.5625000000000001
 40
0.5625000000000001
 40
0.625
 40
0.625
 40
0.6875
 40
0.6875
 40
0.75
 40
0.75
 40
0.8125
 40
0.8125
 40
0.875
 40
0.875
 40
0.9375
 40
0.9375
 40
1.0
 40
1.0
 40
1.0
 40
1.0
 10
61.14282250134806
 20
126.542771994863
 30
0.0
 10
61.14282250134804
 20
126.542771994863
 30
0.0
 10
61.14282250134811
 20
126.5122176835015
 30
0.0
 10
61.14282250134807
 20
126.3640755678091
 30
0.0
 10
61.14282250134802
 20
126.2464171490698
 30
0.0
 10
61.14282250134803
 20
125.8933135030182
 30
0.0
 10
61.1428225013481
 20
125.6576765062577
 30
0.0
 10
61.14282250134806
 20
125.0367663489899
 30
0.0
 10
61.14282250134806
 20
124.6511453195868
 30
0.0
 10
61.14282250134806
 20
123.7053319819486
 30
0.0
 10
61.14282250134807
 20
123.1446889536051
 30
0.0
 10
61.14282250134804
 20
121.8431381042876
 30
0.0
 10
61.14282250134804
 20
121.1018907705606
 30
0.0
 10
61.14282250134806
 20
119.4655355151313
 30
0.0
 10
61.14282250134807
 20
118.5705169684398
 30
0.0
 10
61.14282250134806
 20
116.6900833504136
 30
0.0
 10
61.14282250134804
 20
115.7053275010927
 30
0.0
 10
61.14282250134804
 20
113.7348830476799
 30
0.0
 10
61.14282250134806
 20
112.7501271983589
 30
0.0
 10
61.14282250134804
 20
110.8696935803328
 30
0.0
 10
61.14282250134803
 20
109.9746750336412
 30
0.0
 10
61.14282250134806
 20
108.3383197782119
 30
0.0
 10
61.14282250134809
 20
107.5970724444849
 30
0.0
 10
61.14282250134804
 20
106.2955215951674
 30
0.0
 10
61.14282250134803
 20
105.7348785668239
 30
0.0
 10
61.14282250134806
 20
104.7890652291857
 30
0.0
 10
61.14282250134809
 20
104.4034441997826
 30
0.0
 10
61.14282250134809
 20
103.7825340425148
 30
0.0
 10
61.14282250134804
 20
103.5468970457543
 30
0.0
 10
61.14282250134804
 20
103.1937933997027
 30
0.0
 10
61.14282250134809
 20
103.0761349809634
 30
0.0
 10
61.14282250134809
 20
102.927992865271
 30
0.0
 10
61.14282250134807
 20
102.8974385539095
 30
0.0
 10
61.14282250134806
 20
102.8974385539095
 30
0.0
  0
SPLINE
  5
109
330
1F
100
AcDbEntity
  8
0
  6
Continuous
 62
     7
370
    15
100
AcDbSpline
210
0.0
220
0.0
230
1.0
 70
     8
 71
     3
 72
    14
 73
    10
 74
     0
 42
0.000000001
 43
0.00000001
 40
0.0
 40
0.0
 40
0.0
 40
0.0
 40
0.25
 40
0.25
 40
0.5
 40
0.5
 40
0.75
 40
0.75
 40
1.0
 40
1.0
 40
1.0
 40
1.0
 10
61.14282250134807
 20
126.5427719949021
 30
0.0
 10
61.14282250133999
 20
126.6517885438386
 30
0.0
 10
61.16112668319519
 20
126.7678665352543
 30
0.0
 10
61.24223260731986
 20
126.9936955741132
 30
0.0
 10
61.3052167046152
 20
127.1029739334955
 30
0.0
 10
61.46761090799248
 20
127.2907686438695
 30
0.0
 10
61.56665630402522
 20
127.3688632395472
 30
0.0
 10
61.7784172900795
 20
127.4817091990194
 30
0.0
 10
61.89063882443659
 20
127.5165727963138
 30
0.0
 10
61.99851427402862
 20
127.5323047812539
 30
0.0
  0
LINE
  5
10A
330
1F
100
AcDbEntity
  8
0
  6
Continuous
 62
     7
370
    15
100
AcDbLine
 10
192.5428225011
 20
105.4201052744
 30
0.0
 11
192.5428225011
 21
124.0201052744
 31
0.0
  0
LINE
  5
10B
330
1F
100
AcDbEntity
  8
0
  6
Continuous
 62
     7
370
    15
100
AcDbLine
 10
193.2428225011
 20
104.7201052744
 30
0.0
 11
193.2428225011
 21
124.7201052744
 31
0.0
  0
LINE
  5
10C
330
1F
100
AcDbEntity
  8
0
  6
Continuous
 62
     7
370
    15
100
AcDbLine
 10
198.8428225011
 20
104.7201052744
 30
0.0
 11
198.8428225011
 21
124.7201052744
 31
0.0
  0
LINE
  5
10D
330
1F
100
AcDbEntity
  8
0
  6
Continuous
 62
     7
370
    15
100
AcDbLine
 10
199.5428225011
 20
124.0201052744
 30
0.0
 11
199.5428225011
 21
105.4201052744
 31
0.0
  0
LINE
  5
10E
330
1F
100
AcDbEntity
  8
0
  6
Continuous
 62
     7
370
    15
100
AcDbLine
 10
187.0705793151
 20
106.7201052744
 30
0.0
 11
187.0705793151
 21
122.7201052744
 31
0.0
  0
LINE
  5
10F
330
1F
100
AcDbEntity
  8
0
  6
Continuous
 62
     7
370
    15
100
AcDbLine
 10
188.5428225011
 20
121.8701052744
 30
0.0
 11
188.5428225011
 21
107.5701052744
 31
0.0
  0
LINE
  5
110
330
1F
100
AcDbEntity
  8
0
  6
Continuous
 62
     7
370
    15
100
AcDbLine
 10
171.5428225011
 20
97.7201052765
 30
0.0
 11
175.8428225011
 21
97.7201052741
 31
0.0
  0
LINE
  5
111
330
1F
100
AcDbEntity
  8
0
  6
Continuous
 62
     7
370
    15
100
AcDbLine
 10
175.8428225011
 20
98.4201052747
 30
0.0
 11
171.5428225011
 21
98.4201052773
 31
0.0
  0
LINE
  5
112
330
1F
100
AcDbEntity
  8
0
  6
Continuous
 62
     7
370
    15
100
AcDbLine
 10
175.8428225011
 20
98.4201052747
 30
0.0
 11
175.8428225011
 21
97.7201052741
 31
0.0
  0
LINE
  5
113
330
1F
100
AcDbEntity
  8
0
  6
Continuous
 62
     7
370
    15
100
AcDbLine
 10
176.2428225011
 20
98.9857906985
 30
0.0
 11
175.8428225011
 21
98.4201052747
 31
0.0
  0
LINE
  5
114
330
1F
100
AcDbEntity
  8
0
  6
Continuous
 62
     7
370
    15
100
AcDbLine
 10
176.2428225011
 20
98.9857906985
 30
0.0
 11
176.2428225011
 21
97.7201052743
 31
0.0
  0
LINE
  5
115
330
1F
100
AcDbEntity
  8
0
  6
Continuous
 62
     7
370
    15
100
AcDbLine
 10
175.8428225011
 20
97.7201052741
 30
0.0
 11
176.2428225011
 21
97.7201052743
 31
0.0
  0
LINE
  5
116
330
1F
100
AcDbEntity
  8
0
  6
Continuous
 62
     7
370
    15
100
AcDbLine
 10
171.5428225011
 20
105.0201052747
 30
0.0
 11
175.8428225011
 21
105.0201052741
 31
0.0
  0
LINE
  5
117
330
1F
100
AcDbEntity
  8
0
  6
Continuous
 62
     7
370
    15
100
AcDbLine
 10
175.8428225011
 20
105.0201052741
 30
0.0
 11
176.2428225011
 21
104.4544198503
 31
0.0
  0
LINE
  5
118
330
1F
100
AcDbEntity
  8
0
  6
Continuous
 62
     7
370
    15
100
AcDbLine
 10
176.2428225011
 20
104.4544198503
 30
0.0
 11
176.2428225011
 21
98.9857906985
 31
0.0
  0
LINE
  5
119
330
1F
100
AcDbEntity
  8
0
  6
Continuous
 62
     7
370
    15
100
AcDbLine
 10
175.8428225011
 20
105.7201052747
 30
0.0
 11
175.8428225011
 21
105.0201052741
 31
0.0
  0
LINE
  5
11A
330
1F
100
AcDbEntity
  8
0
  6
Continuous
 62
     7
370
    15
100
AcDbLine
 10
176.2428225011
 20
105.7201052745
 30
0.0
 11
175.8428225011
 21
105.7201052747
 31
0.0
  0
LINE
  5
11B
330
1F
100
AcDbEntity
  8
0
  6
Continuous
 62
     7
370
    15
100
AcDbLine
 10
176.2428225011
 20
105.7201052745
 30
0.0
 11
176.2428225011
 21
104.4544198503
 31
0.0
  0
LINE
  5
11C
330
1F
100
AcDbEntity
  8
0
  6
Continuous
 62
     7
370
    15
100
AcDbLine
 10
175.8428225011
 20
105.7201052747
 30
0.0
 11
171.5428225011
 21
105.7201052755
 31
0.0
  0
LINE
  5
11D
330
1F
100
AcDbEntity
  8
0
  6
Continuous
 62
     7
370
    15
100
AcDbLine
 10
175.8428225011
 20
124.4201052747
 30
0.0
 11
175.8428225011
 21
123.7201052741
 31
0.0
  0
LINE
  5
11E
330
1F
100
AcDbEntity
  8
0
  6
Continuous
 62
     7
370
    15
100
AcDbLine
 10
176.2428225011
 20
124.9857906985
 30
0.0
 11
175.8428225011
 21
124.4201052747
 31
0.0
  0
LINE
  5
11F
330
1F
100
AcDbEntity
  8
0
  6
Continuous
 62
     7
370
    15
100
AcDbLine
 10
176.2428225011
 20
124.9857906985
 30
0.0
 11
176.2428225011
 21
123.7201052743
 31
0.0
  0
LINE
  5
120
330
1F
100
AcDbEntity
  8
0
  6
Continuous
 62
     7
370
    15
100
AcDbLine
 10
175.8428225011
 20
123.7201052741
 30
0.0
 11
176.2428225011
 21
123.7201052743
 31
0.0
  0
LINE
  5
121
330
1F
100
AcDbEntity
  8
0
  6
Continuous
 62
     7
370
    15
100
AcDbLine
 10
171.5428225011
 20
123.7201052733
 30
0.0
 11
175.8428225011
 21
123.7201052741
 31
0.0
  0
LINE
  5
122
330
1F
100
AcDbEntity
  8
0
  6
Continuous
 62
     7
370
    15
100
AcDbLine
 10
175.8428225011
 20
124.4201052747
 30
0.0
 11
171.5428225011
 21
124.4201052741
 31
0.0
  0
LINE
  5
123
330
1F
100
AcDbEntity
  8
0
  6
Continuous
 62
     7
370
    15
100
AcDbLine
 10
171.5428225011
 20
131.0201052715
 30
0.0
 11
175.8428225011
 21
131.0201052741
 31
0.0
  0
LINE
  5
124
330
1F
100
AcDbEntity
  8
0
  6
Continuous
 62
     7
370
    15
100
AcDbLine
 10
175.8428225011
 20
131.0201052741
 30
0.0
 11
176.2428225011
 21
130.4544198503
 31
0.0
  0
LINE
  5
125
330
1F
100
AcDbEntity
  8
0
  6
Continuous
 62
     7
370
    15
100
AcDbLine
 10
176.2428225011
 20
130.4544198503
 30
0.0
 11
176.2428225011
 21
124.9857906985
 31
0.0
  0
LINE
  5
126
330
1F
100
AcDbEntity
  8
0
  6
Continuous
 62
     7
370
    15
100
AcDbLine
 10
175.8428225011
 20
131.7201052747
 30
0.0
 11
175.8428225011
 21
131.0201052741
 31
0.0
  0
LINE
  5
127
330
1F
100
AcDbEntity
  8
0
  6
Continuous
 62
     7
370
    15
100
AcDbLine
 10
176.2428225011
 20
131.7201052745
 30
0.0
 11
175.8428225011
 21
131.7201052747
 31
0.0
  0
LINE
  5
128
330
1F
100
AcDbEntity
  8
0
  6
Continuous
 62
     7
370
    15
100
AcDbLine
 10
176.2428225011
 20
131.7201052745
 30
0.0
 11
176.2428225011
 21
130.4544198503
 31
0.0
  0
LINE
  5
129
330
1F
100
AcDbEntity
  8
0
  6
Continuous
 62
     7
370
    15
100
AcDbLine
 10
175.8428225011
 20
131.7201052747
 30
0.0
 11
171.5428225011
 21
131.7201052723
 31
0.0
  0
LINE
  5
12A
330
1F
100
AcDbEntity
  8
0
  6
Continuous
 62
     8
370
    15
100
AcDbLine
 10
129.7085079263
 20
83.2201052742
 30
0.0
 11
129.7085079269
 21
106.0026519012
 31
0.0
  0
LINE
  5
12B
330
1F
100
AcDbEntity
  8
0
  6
Continuous
 62
     8
370
    15
100
AcDbLine
 10
128.6599797883
 20
84.1029479871
 30
0.0
 11
128.6599797853
 21
106.0872625586
 31
0.0
  0
LINE
  5
12C
330
1F
100
AcDbEntity
  8
0
  6
Continuous
 62
     8
370
    15
100
AcDbLine
 10
129.4256652135
 20
106.1430525706
 30
0.0
 11
129.4256652138
 21
83.33726256
 31
0.0
  0
LINE
  5
12D
330
1F
100
AcDbEntity
  8
0
  6
Continuous
 62
     8
370
    15
100
AcDbLine
 10
128.1428225009
 20
114.7201052744
 30
0.0
 11
128.1428225009
 21
136.7201052745
 31
0.0
  0
LINE
  5
12E
330
1F
100
AcDbEntity
  8
0
  6
Continuous
 62
     8
370
    15
100
AcDbLine
 10
128.1428225009
 20
92.7201052743
 30
0.0
 11
128.1428225009
 21
114.7201052744
 31
0.0
  0
DIMENSION
  5
12F
330
1F
100
AcDbEntity
  8
DIM
100
AcDbDimension
  2
_D
 10
205.47319791
 20
106.7201052744
 30
0.0
 11
205.47319791
 21
115.2006870175
 31
0.0
 70
   160
  1
%%c<>
 71
     2
 42
-1.0
  3
SLDDIMSTYLE0
100
AcDbAlignedDimension
 13
187.0705793151
 23
122.7201052744
 33
0.0
 14
187.0705793151
 24
106.7201052744
 34
0.0
 50
90.0
100
AcDbRotatedDimension
  0
DIMENSION
  5
13D
330
1F
100
AcDbEntity
  8
DIM
100
AcDbDimension
  2
_D_1
 10
211.8403189108
 20
95.7201052744
 30
0.0
 11
211.8403189108
 21
115.2006870175
 31
0.0
 70
   160
  1
%%c<>
 71
     2
 42
-1.0
  3
SLDDIMSTYLE1
100
AcDbAlignedDimension
 13
170.5428225011
 23
133.7201052744
 33
0.0
 14
170.5428225011
 24
95.7201052744
 34
0.0
 50
90.0
100
AcDbRotatedDimension
  0
DIMENSION
  5
149
330
1F
100
AcDbEntity
  8
DIM
100
AcDbDimension
  2
_D_2
 10
171.5428225011
 20
68.9498545958
 30
0.0
 11
184.0672317278
 21
68.9498545958
 31
0.0
 70
   160
  1
<>
 71
     2
 42
-1.0
  3
SLDDIMSTYLE0
100
AcDbAlignedDimension
 13
188.5428225011
 23
107.5701052744
 33
0.0
 14
171.5428225011
 24
96.7201052744
 34
0.0
 50
0.0
100
AcDbRotatedDimension
  0
DIMENSION
  5
153
330
1F
100
AcDbEntity
  8
DIM
100
AcDbDimension
  2
_D_3
 10
126.5428225011
 20
68.9498545958
 30
0.0
 11
142.7344159398
 21
68.9498545958
 31
0.0
 70
   160
  1
<>
 71
     2
 42
-1.0
  3
SLDDIMSTYLE1
100
AcDbAlignedDimension
 13
171.5428225011
 23
96.7201052744
 33
0.0
 14
126.5428225011
 24
92.4951052744
 34
0.0
 50
0.0
100
AcDbRotatedDimension
  0
DIMENSION
  5
15D
330
1F
100
AcDbEntity
  8
DIM
100
AcDbDimension
  2
_D_4
 10
199.5428225011
 20
61.9777773981
 30
0.0
 11
142.7344159398
 21
61.9777773981
 31
0.0
 70
   160
  1
<>
 71
     2
 42
-1.0
  3
SLDDIMSTYLE2
100
AcDbAlignedDimension
 13
61.1428225012
 23
102.8974385563
 33
0.0
 14
199.5428225011
 24
105.4201052744
 34
0.0
 50
0.0
100
AcDbRotatedDimension
  0
DIMENSION
  5
168
330
1F
100
AcDbEntity
  8
DIM
100
AcDbDimension
  2
_D_5
 10
57.0325188773
 20
83.2201052744
 30
0.0
 11
57.0325188773
 21
113.4398727697
 31
0.0
 70
   160
  1
%%c<>
 71
     2
 42
-1.0
  3
SLDDIMSTYLE1
100
AcDbAlignedDimension
 13
129.7085079261
 23
146.2201052744
 33
0.0
 14
129.7085079261
 24
83.2201052744
 34
0.0
 50
90.0
100
AcDbRotatedDimension
  0
LINE
  5
173
330
1F
100
AcDbEntity
  8
DIM
  6
CENTERX2
370
     0
100
AcDbLine
 10
60.0529126014
 20
114.7201052744
 30
0.0
 11
197.5900123252
 21
114.7201052744
 31
0.0
  0
ENDSEC
  0
SECTION
  2
OBJECTS
  0
DICTIONARY
  5
C
330
0
100
AcDbDictionary
281
     1
  3
ACAD_GROUP
350
D
  3
ACAD_LAYOUT
350
1A
  3
ACAD_MLINESTYLE
350
17
  3
ACAD_PLOTSETTINGS
350
19
  3
ACAD_PLOTSTYLENAME
350
E
  3
ACAD_SCALELIST
350
47
  0
DICTIONARY
  5
D
102
{ACAD_REACTORS
330
C
102
}
330
C
100
AcDbDictionary
281
     1
  0
DICTIONARY
  5
1A
102
{ACAD_REACTORS
330
C
102
}
330
C
100
AcDbDictionary
281
     1
  3
Layout1
350
1E
  3
Layout2
350
26
  3
Model
350
22
  0
DICTIONARY
  5
17
102
{ACAD_REACTORS
330
C
102
}
330
C
100
AcDbDictionary
281
     1
  3
Standard
350
18
  0
DICTIONARY
  5
19
102
{ACAD_REACTORS
330
C
102
}
330
C
100
AcDbDictionary
281
     1
  0
ACDBDICTIONARYWDFLT
  5
E
102
{ACAD_REACTORS
330
C
102
}
330
C
100
AcDbDictionary
281
     1
  3
Normal
350
F
100
AcDbDictionaryWithDefault
340
F
  0
DICTIONARY
  5
47
102
{ACAD_REACTORS
330
C
102
}
330
C
100
AcDbDictionary
281
     1
  3
A0
350
48
  3
A1
350
49
  3
A2
350
4A
  3
A3
350
4B
  3
A4
350
4C
  3
A5
350
4D
  3
A6
350
4E
  3
A7
350
4F
  3
A8
350
50
  3
A9
350
51
  3
B0
350
52
  3
B1
350
53
  3
B2
350
54
  3
B3
350
55
  3
B4
350
56
  3
B5
350
57
  3
B6
350
58
  3
B7
350
59
  3
B8
350
5A
  3
B9
350
5B
  3
C0
350
5C
  3
C1
350
5D
  3
C2
350
5E
  3
C3
350
5F
  3
C4
350
60
  3
C5
350
61
  3
C6
350
62
  3
C7
350
63
  3
C8
350
64
  3
C9
350
65
  3
D0
350
66
  3
D1
350
67
  3
D2
350
68
  0
LAYOUT
  5
1E
102
{ACAD_REACTORS
330
1A
102
}
330
1A
100
AcDbPlotSettings
  1

  2
none_device
  4

  6

 40
0.0
 41
0.0
 42
0.0
 43
0.0
 44
0.0
 45
0.0
 46
0.0
 47
0.0
 48
0.0
 49
0.0
140
0.0
141
0.0
142
1.0
143
1.0
 70
   688
 72
     1
 73
     0
 74
     5
  7

 75
    16
147
1.0
148
0.0
149
0.0
100
AcDbLayout
  1
Layout1
 70
     1
 71
     1
 10
0.0
 20
0.0
 11
420.0
 21
297.0
 12
0.0
 22
0.0
 32
0.0
 14
1.0000000000E+20
 24
1.0000000000E+20
 34
1.0000000000E+20
 15
-1.0000000000E+20
 25
-1.0000000000E+20
 35
-1.0000000000E+20
146
0.0
 13
0.0
 23
0.0
 33
0.0
 16
1.0
 26
0.0
 36
0.0
 17
0.0
 27
1.0
 37
0.0
 76
     0
330
1B
  0
LAYOUT
  5
26
102
{ACAD_REACTORS
330
1A
102
}
330
1A
100
AcDbPlotSettings
  1

  2
none_device
  4

  6

 40
0.0
 41
0.0
 42
0.0
 43
0.0
 44
0.0
 45
0.0
 46
0.0
 47
0.0
 48
0.0
 49
0.0
140
0.0
141
0.0
142
1.0
143
1.0
 70
   688
 72
     1
 73
     0
 74
     5
  7

 75
    16
147
1.0
148
0.0
149
0.0
100
AcDbLayout
  1
Layout2
 70
     1
 71
     2
 10
0.0
 20
0.0
 11
0.0
 21
0.0
 12
0.0
 22
0.0
 32
0.0
 14
0.0
 24
0.0
 34
0.0
 15
0.0
 25
0.0
 35
0.0
146
0.0
 13
0.0
 23
0.0
 33
0.0
 16
1.0
 26
0.0
 36
0.0
 17
0.0
 27
1.0
 37
0.0
 76
     0
330
23
  0
LAYOUT
  5
22
102
{ACAD_REACTORS
330
1A
102
}
330
1A
100
AcDbPlotSettings
  1

  2
none_device
  4
Letter_(8.50_x_11.00_Inches)
  6

 40
6.35
 41
6.35
 42
6.35000508
 43
6.35000508
 44
215.9
 45
279.4
 46
0.0
 47
0.0
 48
0.0
 49
0.0
140
0.0
141
0.0
142
1.0
143
1.0
 70
  1712
 72
     1
 73
     0
 74
     0
  7

 75
     0
147
1.0
148
0.0
149
0.0
100
AcDbLayout
  1
Model
 70
     1
 71
     0
 10
0.0
 20
0.0
 11
297.0
 21
210.0
 12
0.0
 22
0.0
 32
0.0
 14
0.0
 24
0.0
 34
0.0
 15
297.0
 25
210.0
 35
0.0
146
0.0
 13
0.0
 23
0.0
 33
0.0
 16
1.0
 26
0.0
 36
0.0
 17
0.0
 27
1.0
 37
0.0
 76
     0
330
1F
331
29
  0
MLINESTYLE
  5
18
102
{ACAD_REACTORS
330
17
102
}
330
17
100
AcDbMlineStyle
  2
Standard
 70
     0
  3

 62
   256
 51
90.0
 52
90.0
 71
     2
 49
0.5
 62
   256
  6
BYLAYER
 49
-0.5
 62
   256
  6
BYLAYER
  0
ACDBPLACEHOLDER
  5
F
102
{ACAD_REACTORS
330
E
102
}
330
E
  0
SCALE
  5
48
102
{ACAD_REACTORS
330
47
102
}
330
47
100
AcDbScale
 70
     0
300
1:1
140
1.0
141
1.0
290
     1
  0
SCALE
  5
49
102
{ACAD_REACTORS
330
47
102
}
330
47
100
AcDbScale
 70
     0
300
1:2
140
1.0
141
2.0
290
     0
  0
SCALE
  5
4A
102
{ACAD_REACTORS
330
47
102
}
330
47
100
AcDbScale
 70
     0
300
1:4
140
1.0
141
4.0
290
     0
  0
SCALE
  5
4B
102
{ACAD_REACTORS
330
47
102
}
330
47
100
AcDbScale
 70
     0
300
1:5
140
1.0
141
5.0
290
     0
  0
SCALE
  5
4C
102
{ACAD_REACTORS
330
47
102
}
330
47
100
AcDbScale
 70
     0
300
1:8
140
1.0
141
8.0
290
     0
  0
SCALE
  5
4D
102
{ACAD_REACTORS
330
47
102
}
330
47
100
AcDbScale
 70
     0
300
1:10
140
1.0
141
10.0
290
     0
  0
SCALE
  5
4E
102
{ACAD_REACTORS
330
47
102
}
330
47
100
AcDbScale
 70
     0
300
1:16
140
1.0
141
16.0
290
     0
  0
SCALE
  5
4F
102
{ACAD_REACTORS
330
47
102
}
330
47
100
AcDbScale
 70
     0
300
1:20
140
1.0
141
20.0
290
     0
  0
SCALE
  5
50
102
{ACAD_REACTORS
330
47
102
}
330
47
100
AcDbScale
 70
     0
300
1:30
140
1.0
141
30.0
290
     0
  0
SCALE
  5
51
102
{ACAD_REACTORS
330
47
102
}
330
47
100
AcDbScale
 70
     0
300
1:40
140
1.0
141
40.0
290
     0
  0
SCALE
  5
52
102
{ACAD_REACTORS
330
47
102
}
330
47
100
AcDbScale
 70
     0
300
1:50
140
1.0
141
50.0
290
     0
  0
SCALE
  5
53
102
{ACAD_REACTORS
330
47
102
}
330
47
100
AcDbScale
 70
     0
300
1:100
140
1.0
141
100.0
290
     0
  0
SCALE
  5
54
102
{ACAD_REACTORS
330
47
102
}
330
47
100
AcDbScale
 70
     0
300
2:1
140
2.0
141
1.0
290
     0
  0
SCALE
  5
55
102
{ACAD_REACTORS
330
47
102
}
330
47
100
AcDbScale
 70
     0
300
4:1
140
4.0
141
1.0
290
     0
  0
SCALE
  5
56
102
{ACAD_REACTORS
330
47
102
}
330
47
100
AcDbScale
 70
     0
300
8:1
140
8.0
141
1.0
290
     0
  0
SCALE
  5
57
102
{ACAD_REACTORS
330
47
102
}
330
47
100
AcDbScale
 70
     0
300
10:1
140
10.0
141
1.0
290
     0
  0
SCALE
  5
58
102
{ACAD_REACTORS
330
47
102
}
330
47
100
AcDbScale
 70
     0
300
100:1
140
100.0
141
1.0
290
     0
  0
SCALE
  5
59
102
{ACAD_REACTORS
330
47
102
}
330
47
100
AcDbScale
 70
     0
300
1/128" = 1'-0"
140
0.0078125
141
12.0
290
     0
  0
SCALE
  5
5A
102
{ACAD_REACTORS
330
47
102
}
330
47
100
AcDbScale
 70
     0
300
1/64" = 1'-0"
140
0.015625
141
12.0
290
     0
  0
SCALE
  5
5B
102
{ACAD_REACTORS
330
47
102
}
330
47
100
AcDbScale
 70
     0
300
1/32" = 1'-0"
140
0.03125
141
12.0
290
     0
  0
SCALE
  5
5C
102
{ACAD_REACTORS
330
47
102
}
330
47
100
AcDbScale
 70
     0
300
1/16" = 1'-0"
140
0.0625
141
12.0
290
     0
  0
SCALE
  5
5D
102
{ACAD_REACTORS
330
47
102
}
330
47
100
AcDbScale
 70
     0
300
3/32" = 1'-0"
140
0.09375
141
12.0
290
     0
  0
SCALE
  5
5E
102
{ACAD_REACTORS
330
47
102
}
330
47
100
AcDbScale
 70
     0
300
1/8" = 1'-0"
140
0.125
141
12.0
290
     0
  0
SCALE
  5
5F
102
{ACAD_REACTORS
330
47
102
}
330
47
100
AcDbScale
 70
     0
300
3/16" = 1'-0"
140
0.1875
141
12.0
290
     0
  0
SCALE
  5
60
102
{ACAD_REACTORS
330
47
102
}
330
47
100
AcDbScale
 70
     0
300
1/4" = 1'-0"
140
0.25
141
12.0
290
     0
  0
SCALE
  5
61
102
{ACAD_REACTORS
330
47
102
}
330
47
100
AcDbScale
 70
     0
300
3/8" = 1'-0"
140
0.375
141
12.0
290
     0
  0
SCALE
  5
62
102
{ACAD_REACTORS
330
47
102
}
330
47
100
AcDbScale
 70
     0
300
1/2" = 1'-0"
140
0.5
141
12.0
290
     0
  0
SCALE
  5
63
102
{ACAD_REACTORS
330
47
102
}
330
47
100
AcDbScale
 70
     0
300
3/4" = 1'-0"
140
0.75
141
12.0
290
     0
  0
SCALE
  5
64
102
{ACAD_REACTORS
330
47
102
}
330
47
100
AcDbScale
 70
     0
300
1" = 1'-0"
140
1.0
141
12.0
290
     0
  0
SCALE
  5
65
102
{ACAD_REACTORS
330
47
102
}
330
47
100
AcDbScale
 70
     0
300
1-1/2" = 1'-0"
140
1.5
141
12.0
290
     0
  0
SCALE
  5
66
102
{ACAD_REACTORS
330
47
102
}
330
47
100
AcDbScale
 70
     0
300
3" = 1'-0"
140
3.0
141
12.0
290
     0
  0
SCALE
  5
67
102
{ACAD_REACTORS
330
47
102
}
330
47
100
AcDbScale
 70
     0
300
6" = 1'-0"
140
6.0
141
12.0
290
     0
  0
SCALE
  5
68
102
{ACAD_REACTORS
330
47
102
}
330
47
100
AcDbScale
 70
     0
300
1'-0" = 1'-0"
140
12.0
141
12.0
290
     0
  0
ENDSEC
  0
EOF
