  0
SECTION
  2
HEADER
  9
$ACADVER
  1
AC1015
  9
$ACADMAINTVER
 70
     6
  9
$DWGCODEPAGE
  3
ANSI_1252
  9
$INSBASE
 10
0.0
 20
0.0
 30
0.0
  9
$EXTMIN
 10
0.0
 20
0.0
 30
0.0
  9
$EXTMAX
 10
371.25
 20
262.5
 30
0.0
  9
$LIMMIN
 10
0.0
 20
0.0
  9
$LIMMAX
 10
371.25
 20
262.5
  9
$ORTHOMODE
 70
     0
  9
$REGENMODE
 70
     1
  9
$FILLMODE
 70
     1
  9
$QTEXTMODE
 70
     0
  9
$MIRRTEXT
 70
     1
  9
$LTSCALE
 40
1.25
  9
$ATTMODE
 70
     1
  9
$TEXTSIZE
 40
4.8506944444
  9
$TRACEWID
 40
1.0
  9
$TEXTSTYLE
  7
Standard
  9
$CLAYER
  8
0
  9
$CELTYPE
  6
ByLayer
  9
$CECOLOR
 62
   256
  9
$CELTSCALE
 40
1.0
  9
$DISPSILH
 70
     0
  9
$DIMSCALE
 40
1.0
  9
$DIMASZ
 40
4.1275
  9
$DIMEXO
 40
1.25
  9
$DIMDLI
 40
3.75
  9
$DIMRND
 40
0.0
  9
$DIMDLE
 40
0.0
  9
$DIMEXE
 40
1.25
  9
$DIMTP
 40
0.0
  9
$DIMTM
 40
0.0
  9
$DIMTXT
 40
4.8506944444
  9
$DIMCEN
 40
2.5
  9
$DIMTSZ
 40
0.0
  9
$DIMTOL
 70
     0
  9
$DIMLIM
 70
     0
  9
$DIMTIH
 70
     1
  9
$DIMTOH
 70
     1
  9
$DIMSE1
 70
     0
  9
$DIMSE2
 70
     0
  9
$DIMTAD
 70
     1
  9
$DIMZIN
 70
     0
  9
$DIMBLK
  1

  9
$DIMASO
 70
     1
  9
$DIMSHO
 70
     1
  9
$DIMPOST
  1

  9
$DIMAPOST
  1

  9
$DIMALT
 70
     0
  9
$DIMALTD
 70
     3
  9
$DIMALTF
 40
0.0393700787
  9
$DIMLFAC
 40
1.0
  9
$DIMTOFL
 70
     1
  9
$DIMTVP
 40
0.0
  9
$DIMTIX
 70
     0
  9
$DIMSOXD
 70
     0
  9
$DIMSAH
 70
     0
  9
$DIMBLK1
  1

  9
$DIMBLK2
  1

  9
$DIMSTYLE
  2
ISO-25
  9
$DIMCLRD
 70
     0
  9
$DIMCLRE
 70
     0
  9
$DIMCLRT
 70
     0
  9
$DIMTFAC
 40
1.0
  9
$DIMGAP
 40
1.905
  9
$DIMJUST
 70
     0
  9
$DIMSD1
 70
     0
  9
$DIMSD2
 70
     0
  9
$DIMTOLJ
 70
     0
  9
$DIMTZIN
 70
     0
  9
$DIMALTZ
 70
     0
  9
$DIMALTTZ
 70
     0
  9
$DIMUPT
 70
     0
  9
$DIMDEC
 70
     2
  9
$DIMTDEC
 70
     2
  9
$DIMALTU
 70
     2
  9
$DIMALTTD
 70
     3
  9
$DIMTXSTY
  7
Standard
  9
$DIMAUNIT
 70
     0
  9
$DIMADEC
 70
     2
  9
$DIMALTRND
 40
0.0
  9
$DIMAZIN
 70
     0
  9
$DIMDSEP
 70
    44
  9
$DIMATFIT
 70
     3
  9
$DIMFRAC
 70
     0
  9
$DIMLDRBLK
  1

  9
$DIMLUNIT
 70
     2
  9
$DIMLWD
 70
    -2
  9
$DIMLWE
 70
    -2
  9
$DIMTMOVE
 70
     0
  9
$LUNITS
 70
     2
  9
$LUPREC
 70
     2
  9
$SKETCHINC
 40
1.0
  9
$FILLETRAD
 40
10.0
  9
$AUNITS
 70
     1
  9
$AUPREC
 70
     2
  9
$MENU
  1
.
  9
$ELEVATION
 40
0.0
  9
$PELEVATION
 40
0.0
  9
$THICKNESS
 40
0.0
  9
$LIMCHECK
 70
     0
  9
$CHAMFERA
 40
0.0
  9
$CHAMFERB
 40
0.0
  9
$CHAMFERC
 40
0.0
  9
$CHAMFERD
 40
0.0
  9
$SKPOLY
 70
     0
  9
$TDCREATE
 40
2458601.403359132
  9
$TDUCREATE
 40
2458601.174192465
  9
$TDUPDATE
 40
2458601.403360579
  9
$TDUUPDATE
 40
2458601.174193912
  9
$TDINDWG
 40
0.0000000116
  9
$TDUSRTIMER
 40
0.0000000116
  9
$USRTIMER
 70
     1
  9
$ANGBASE
 50
0.0
  9
$ANGDIR
 70
     0
  9
$PDMODE
 70
     0
  9
$PDSIZE
 40
-1.0
  9
$PLINEWID
 40
0.0
  9
$SPLFRAME
 70
     0
  9
$SPLINETYPE
 70
     6
  9
$SPLINESEGS
 70
     8
  9
$HANDSEED
  5
1B3
  9
$SURFTAB1
 70
     6
  9
$SURFTAB2
 70
     6
  9
$SURFTYPE
 70
     6
  9
$SURFU
 70
     6
  9
$SURFV
 70
     6
  9
$UCSBASE
  2

  9
$UCSNAME
  2

  9
$UCSORG
 10
0.0
 20
0.0
 30
0.0
  9
$UCSXDIR
 10
1.0
 20
0.0
 30
0.0
  9
$UCSYDIR
 10
0.0
 20
1.0
 30
0.0
  9
$UCSORTHOREF
  2

  9
$UCSORTHOVIEW
 70
     0
  9
$UCSORGTOP
 10
0.0
 20
0.0
 30
0.0
  9
$UCSORGBOTTOM
 10
0.0
 20
0.0
 30
0.0
  9
$UCSORGLEFT
 10
0.0
 20
0.0
 30
0.0
  9
$UCSORGRIGHT
 10
0.0
 20
0.0
 30
0.0
  9
$UCSORGFRONT
 10
0.0
 20
0.0
 30
0.0
  9
$UCSORGBACK
 10
0.0
 20
0.0
 30
0.0
  9
$PUCSBASE
  2

  9
$PUCSNAME
  2

  9
$PUCSORG
 10
0.0
 20
0.0
 30
0.0
  9
$PUCSXDIR
 10
1.0
 20
0.0
 30
0.0
  9
$PUCSYDIR
 10
0.0
 20
1.0
 30
0.0
  9
$PUCSORTHOREF
  2

  9
$PUCSORTHOVIEW
 70
     0
  9
$PUCSORGTOP
 10
0.0
 20
0.0
 30
0.0
  9
$PUCSORGBOTTOM
 10
0.0
 20
0.0
 30
0.0
  9
$PUCSORGLEFT
 10
0.0
 20
0.0
 30
0.0
  9
$PUCSORGRIGHT
 10
0.0
 20
0.0
 30
0.0
  9
$PUCSORGFRONT
 10
0.0
 20
0.0
 30
0.0
  9
$PUCSORGBACK
 10
0.0
 20
0.0
 30
0.0
  9
$USERI1
 70
     0
  9
$USERI2
 70
     0
  9
$USERI3
 70
     0
  9
$USERI4
 70
     0
  9
$USERI5
 70
     0
  9
$USERR1
 40
0.0
  9
$USERR2
 40
0.0
  9
$USERR3
 40
0.0
  9
$USERR4
 40
0.0
  9
$USERR5
 40
0.0
  9
$WORLDVIEW
 70
     1
  9
$SHADEDGE
 70
     3
  9
$SHADEDIF
 70
    70
  9
$TILEMODE
 70
     1
  9
$MAXACTVP
 70
    64
  9
$PINSBASE
 10
0.0
 20
0.0
 30
0.0
  9
$PLIMCHECK
 70
     0
  9
$PEXTMIN
 10
1.0000000000E+20
 20
1.0000000000E+20
 30
1.0000000000E+20
  9
$PEXTMAX
 10
-1.0000000000E+20
 20
-1.0000000000E+20
 30
-1.0000000000E+20
  9
$PLIMMIN
 10
0.0
 20
0.0
  9
$PLIMMAX
 10
420.0
 20
297.0
  9
$UNITMODE
 70
     0
  9
$VISRETAIN
 70
     1
  9
$PLINEGEN
 70
     0
  9
$PSLTSCALE
 70
     1
  9
$TREEDEPTH
 70
  3020
  9
$CMLSTYLE
  2
Standard
  9
$CMLJUST
 70
     0
  9
$CMLSCALE
 40
20.0
  9
$PROXYGRAPHICS
 70
     1
  9
$MEASUREMENT
 70
     1
  9
$CELWEIGHT
370
    -1
  9
$ENDCAPS
280
     0
  9
$JOINSTYLE
280
     0
  9
$LWDISPLAY
290
     1
  9
$INSUNITS
 70
     4
  9
$HYPERLINKBASE
  1

  9
$STYLESHEET
  1

  9
$XEDIT
290
     1
  9
$CEPSNTYPE
380
     0
  9
$PSTYLEMODE
290
     1
  9
$FINGERPRINTGUID
  2
{ED6AC77F-23F3-4BF1-88DE-4C7BBE3D268B}
  9
$VERSIONGUID
  2
{FAEB1C32-E019-11D5-929B-00C0DF256EC4}
  9
$EXTNAMES
290
     1
  9
$PSVPSCALE
 40
0.0
  9
$OLESTARTUP
290
     0
  0
ENDSEC
  0
SECTION
  2
CLASSES
  0
CLASS
  1
ACDBDICTIONARYWDFLT
  2
AcDbDictionaryWithDefault
  3
ObjectDBX Classes
 90
        0
280
     0
281
     0
  0
CLASS
  1
VISUALSTYLE
  2
AcDbVisualStyle
  3
ObjectDBX Classes
 90
     4095
280
     0
281
     0
  0
CLASS
  1
MATERIAL
  2
AcDbMaterial
  3
ObjectDBX Classes
 90
     1153
280
     0
281
     0
  0
CLASS
  1
SCALE
  2
AcDbScale
  3
ObjectDBX Classes
 90
     1153
280
     0
281
     0
  0
CLASS
  1
SUN
  2
AcDbSun
  3
SCENEOE
 90
     1153
280
     0
281
     0
  0
CLASS
  1
ACDBPLACEHOLDER
  2
AcDbPlaceHolder
  3
ObjectDBX Classes
 90
        0
280
     0
281
     0
  0
CLASS
  1
LAYOUT
  2
AcDbLayout
  3
ObjectDBX Classes
 90
        0
280
     0
281
     0
  0
ENDSEC
  0
SECTION
  2
TABLES
  0
TABLE
  2
VPORT
  5
8
330
0
100
AcDbSymbolTable
 70
     1
  0
VPORT
  5
29
330
8
100
AcDbSymbolTableRecord
100
AcDbViewportTableRecord
  2
*Active
 70
     0
 10
0.0
 20
0.0
 11
1.0
 21
1.0
 12
185.625
 22
131.25
 13
0.0
 23
0.0
 14
10.0
 24
10.0
 15
10.0
 25
10.0
 16
0.0
 26
0.0
 36
1.0
 17
0.0
 27
0.0
 37
0.0
 40
262.5
 41
1.4142857143
 42
50.0
 43
0.0
 44
0.0
 50
0.0
 51
0.0
 71
     0
 72
  2000
 73
     1
 74
     3
 75
     0
 76
     0
 77
     0
 78
     0
281
     0
 65
     1
110
0.0
120
0.0
130
0.0
111
1.0
121
0.0
131
0.0
112
0.0
122
1.0
132
0.0
 79
     0
146
0.0
  0
ENDTAB
  0
TABLE
  2
LTYPE
  5
5
330
0
100
AcDbSymbolTable
 70
     6
  0
LTYPE
  5
14
330
5
100
AcDbSymbolTableRecord
100
AcDbLinetypeTableRecord
  2
ByBlock
 70
     0
  3

 72
    65
 73
     0
 40
0.0
  0
LTYPE
  5
15
330
5
100
AcDbSymbolTableRecord
100
AcDbLinetypeTableRecord
  2
ByLayer
 70
     0
  3

 72
    65
 73
     0
 40
0.0
  0
LTYPE
  5
16
330
5
100
AcDbSymbolTableRecord
100
AcDbLinetypeTableRecord
  2
Continuous
 70
     0
  3
Solid line
 72
    65
 73
     0
 40
0.0
  0
LTYPE
  5
6A
330
5
100
AcDbSymbolTableRecord
100
AcDbLinetypeTableRecord
  2
HIDDEN
 70
     0
  3
Hidden __ __ __ __ __ __ __ __ __ __ __ __ __ __
 72
    65
 73
     2
 40
1.905
 49
1.27
 74
     0
 49
-0.635
 74
     0
  0
LTYPE
  5
6B
330
5
100
AcDbSymbolTableRecord
100
AcDbLinetypeTableRecord
  2
PHANTOM
 70
     0
  3
Phantom ______  __  __  ______  __  __  ______
 72
    65
 73
     6
 40
12.7
 49
6.35
 74
     0
 49
-1.27
 74
     0
 49
1.27
 74
     0
 49
-1.27
 74
     0
 49
1.27
 74
     0
 49
-1.27
 74
     0
  0
LTYPE
  5
6C
330
5
100
AcDbSymbolTableRecord
100
AcDbLinetypeTableRecord
  2
CENTER
 70
     0
  3
Center ____ _ ____ _ ____ _ ____ _ ____ _ ____
 72
    65
 73
     4
 40
10.16
 49
6.35
 74
     0
 49
-1.27
 74
     0
 49
1.27
 74
     0
 49
-1.27
 74
     0
  0
LTYPE
  5
6D
330
5
100
AcDbSymbolTableRecord
100
AcDbLinetypeTableRecord
  2
CENTERX2
 70
     0
  3
Center (2x) ________  __  ________  __  _____
 72
    65
 73
     4
 40
20.32
 49
12.7
 74
     0
 49
-2.54
 74
     0
 49
2.54
 74
     0
 49
-2.54
 74
     0
  0
LTYPE
  5
6E
330
5
100
AcDbSymbolTableRecord
100
AcDbLinetypeTableRecord
  2
DOT2
 70
     0
  3
Dot (.5x) ........................................
 72
    65
 73
     2
 40
0.635
 49
0.0
 74
     0
 49
-0.635
 74
     0
  0
ENDTAB
  0
TABLE
  2
LAYER
  5
2
330
0
100
AcDbSymbolTable
 70
     8
  0
LAYER
  5
10
330
2
100
AcDbSymbolTableRecord
100
AcDbLayerTableRecord
  2
0
 70
     0
 62
     7
  6
Continuous
370
    -3
390
F
  0
LAYER
  5
6F
330
2
100
AcDbSymbolTableRecord
100
AcDbLayerTableRecord
  2
FORMAT
 70
     0
 62
     7
  6
Continuous
370
    -3
390
F
  0
LAYER
  5
70
330
2
100
AcDbSymbolTableRecord
100
AcDbLayerTableRecord
  2
SLD-0
 70
     0
 62
     2
  6
Continuous
370
    -3
390
F
  0
LAYER
  5
71
330
2
100
AcDbSymbolTableRecord
100
AcDbLayerTableRecord
  2
DIM
 70
     0
 62
   179
  6
Continuous
370
    -3
390
F
  0
LAYER
  5
72
330
2
100
AcDbSymbolTableRecord
100
AcDbLayerTableRecord
  2
SLD-DEFPOINTS
 70
     0
 62
   179
  6
Continuous
370
    -3
390
F
  0
LAYER
  5
73
330
2
100
AcDbSymbolTableRecord
100
AcDbLayerTableRecord
  2
HAT
 70
     0
 62
   135
  6
Continuous
370
    -3
390
F
  0
LAYER
  5
74
330
2
100
AcDbSymbolTableRecord
100
AcDbLayerTableRecord
  2
JOB
 70
     0
 62
   201
  6
Continuous
370
    -3
390
F
  0
LAYER
  5
75
330
2
100
AcDbSymbolTableRecord
100
AcDbLayerTableRecord
  2
INSPECTION_REPORT
 70
     0
 62
   255
  6
Continuous
370
    -3
390
F
  0
ENDTAB
  0
TABLE
  2
STYLE
  5
3
330
0
100
AcDbSymbolTable
 70
     4
  0
STYLE
  5
11
330
3
100
AcDbSymbolTableRecord
100
AcDbTextStyleTableRecord
  2
Standard
 70
     0
 40
0.0
 41
1.0
 50
0.0
 71
     0
 42
4.8506944444
  3
txt
  4

  0
STYLE
  5
96
330
3
100
AcDbSymbolTableRecord
100
AcDbTextStyleTableRecord
  2
SLDTEXTSTYLE0
 70
     0
 40
0.0
 41
0.7
 50
0.0
 71
     0
 42
4.8506944444
  3
TXT
  4

  0
STYLE
  5
98
330
3
100
AcDbSymbolTableRecord
100
AcDbTextStyleTableRecord
  2
SLDTEXTSTYLE1
 70
     0
 40
0.0
 41
0.75
 50
0.0
 71
     0
 42
4.8506944444
  3
TXT
  4

  0
STYLE
  5
AB
330
3
100
AcDbSymbolTableRecord
100
AcDbTextStyleTableRecord
  2
SLDTEXTSTYLE2
 70
     0
 40
0.0
 41
0.6875
 50
0.0
 71
     0
 42
4.8506944444
  3
TXT
  4

  0
ENDTAB
  0
TABLE
  2
VIEW
  5
6
330
0
100
AcDbSymbolTable
 70
     0
  0
ENDTAB
  0
TABLE
  2
UCS
  5
7
330
0
100
AcDbSymbolTable
 70
     0
  0
ENDTAB
  0
TABLE
  2
APPID
  5
9
330
0
100
AcDbSymbolTable
 70
     1
  0
APPID
  5
12
330
9
100
AcDbSymbolTableRecord
100
AcDbRegAppTableRecord
  2
ACAD
 70
     0
  0
ENDTAB
  0
TABLE
  2
DIMSTYLE
  5
A
330
0
100
AcDbSymbolTable
 70
     4
100
AcDbDimStyleTable
  0
DIMSTYLE
105
27
330
A
100
AcDbSymbolTableRecord
100
AcDbDimStyleTableRecord
  2
ISO-25
 70
     0
 41
2.5
 42
0.625
 43
3.75
 44
1.25
 73
     0
 74
     0
 77
     1
 78
     8
140
2.5
141
2.5
143
0.0393700787
147
0.625
171
     3
172
     1
178
     0
271
     2
272
     2
274
     3
278
    44
283
     0
284
     8
340
11
  0
DIMSTYLE
105
184
102
{ACAD_REACTORS
330
183
330
1A8
102
}
330
A
100
AcDbSymbolTableRecord
100
AcDbDimStyleTableRecord
  2
SLDDIMSTYLE0
 70
     0
 41
4.1275
 44
0.0
 45
0.000000001
 73
     0
 74
     0
 77
     1
 78
     4
 79
     1
140
3.6380208333
147
0.9095052083
173
     1
178
     0
271
     2
272
     2
276
     2
284
    12
340
96
  0
DIMSTYLE
105
190
102
{ACAD_REACTORS
330
18F
102
}
330
A
100
AcDbSymbolTableRecord
100
AcDbDimStyleTableRecord
  2
SLDDIMSTYLE1
 70
     0
 41
4.1275
 44
0.0
 45
0.000000001
 73
     0
 74
     0
 77
     1
 78
    12
 79
     3
140
3.6380208333
147
0.9095052083
172
     1
173
     1
178
     0
271
     2
272
     2
276
     2
284
    12
289
     0
340
96
  0
DIMSTYLE
105
19E
102
{ACAD_REACTORS
330
19D
102
}
330
A
100
AcDbSymbolTableRecord
100
AcDbDimStyleTableRecord
  2
SLDDIMSTYLE2
 70
     0
 41
4.1275
 44
0.0
 45
0.000000001
 73
     0
 74
     0
 77
     1
 78
    12
 79
     3
140
3.6380208333
147
0.9095052083
173
     1
178
     0
271
     2
272
     2
276
     2
284
    12
340
96
  0
ENDTAB
  0
TABLE
  2
BLOCK_RECORD
  5
1
330
0
100
AcDbSymbolTable
 70
     6
  0
BLOCK_RECORD
  5
1F
330
1
100
AcDbSymbolTableRecord
100
AcDbBlockTableRecord
  2
*Model_Space
340
22
  0
BLOCK_RECORD
  5
1B
330
1
100
AcDbSymbolTableRecord
100
AcDbBlockTableRecord
  2
*Paper_Space
340
1E
  0
BLOCK_RECORD
  5
23
330
1
100
AcDbSymbolTableRecord
100
AcDbBlockTableRecord
  2
*Paper_Space0
340
26
  0
BLOCK_RECORD
  5
F8
330
1
100
AcDbSymbolTableRecord
100
AcDbBlockTableRecord
  2
SW_CENTERMARKSYMBOL_0
340
0
102
{BLKREFS
331
103
102
}
  0
BLOCK_RECORD
  5
185
330
1
100
AcDbSymbolTableRecord
100
AcDbBlockTableRecord
  2
_D
340
0
  0
BLOCK_RECORD
  5
191
330
1
100
AcDbSymbolTableRecord
100
AcDbBlockTableRecord
  2
_D_1
340
0
  0
BLOCK_RECORD
  5
19F
330
1
100
AcDbSymbolTableRecord
100
AcDbBlockTableRecord
  2
_D_2
340
0
  0
BLOCK_RECORD
  5
1A9
330
1
100
AcDbSymbolTableRecord
100
AcDbBlockTableRecord
  2
_D_3
340
0
  0
ENDTAB
  0
ENDSEC
  0
SECTION
  2
BLOCKS
  0
BLOCK
  5
20
330
1F
100
AcDbEntity
  8
0
100
AcDbBlockBegin
  2
*Model_Space
 70
     0
 10
0.0
 20
0.0
 30
0.0
  3
*Model_Space
  1
*Model_Space
  0
ENDBLK
  5
21
330
1F
100
AcDbEntity
  8
0
100
AcDbBlockEnd
  0
BLOCK
  5
1C
330
1B
100
AcDbEntity
 67
     1
  8
0
100
AcDbBlockBegin
  2
*Paper_Space
 70
     0
 10
0.0
 20
0.0
 30
0.0
  3
*Paper_Space
  1
*Paper_Space
  0
ENDBLK
  5
1D
330
1B
100
AcDbEntity
 67
     1
  8
0
100
AcDbBlockEnd
  0
BLOCK
  5
24
330
23
100
AcDbEntity
  8
0
100
AcDbBlockBegin
  2
*Paper_Space0
 70
     0
 10
0.0
 20
0.0
 30
0.0
  3
*Paper_Space0
  1
*Paper_Space0
  0
ENDBLK
  5
25
330
23
100
AcDbEntity
  8
0
100
AcDbBlockEnd
  0
BLOCK
  5
F9
330
F8
100
AcDbEntity
  8
0
100
AcDbBlockBegin
  2
SW_CENTERMARKSYMBOL_0
 70
     0
 10
0.0
 20
0.0
 30
0.0
  3
SW_CENTERMARKSYMBOL_0
  1
SW_CENTERMARKSYMBOL_0
  0
LINE
  5
FB
330
F8
100
AcDbEntity
  8
DIM
 62
     0
100
AcDbLine
 10
0.0
 20
0.0
 30
0.0
 11
0.0
 21
2.5
 31
0.0
  0
LINE
  5
FC
330
F8
100
AcDbEntity
  8
DIM
 62
     0
100
AcDbLine
 10
0.0
 20
0.0
 30
0.0
 11
-2.5
 21
0.0
 31
0.0
  0
LINE
  5
FD
330
F8
100
AcDbEntity
  8
DIM
 62
     0
100
AcDbLine
 10
0.0
 20
0.0
 30
0.0
 11
0.0
 21
-2.5
 31
0.0
  0
LINE
  5
FE
330
F8
100
AcDbEntity
  8
DIM
 62
     0
100
AcDbLine
 10
0.0
 20
0.0
 30
0.0
 11
2.5
 21
0.0
 31
0.0
  0
LINE
  5
FF
330
F8
100
AcDbEntity
  8
DIM
 62
     0
100
AcDbLine
 10
0.0
 20
5.0
 30
0.0
 11
0.0
 21
34.25
 31
0.0
  0
LINE
  5
100
330
F8
100
AcDbEntity
  8
DIM
 62
     0
100
AcDbLine
 10
-5.0
 20
0.0
 30
0.0
 11
-34.25
 21
0.0
 31
0.0
  0
LINE
  5
101
330
F8
100
AcDbEntity
  8
DIM
 62
     0
100
AcDbLine
 10
0.0
 20
-5.0
 30
0.0
 11
0.0
 21
-34.25
 31
0.0
  0
LINE
  5
102
330
F8
100
AcDbEntity
  8
DIM
 62
     0
100
AcDbLine
 10
5.0
 20
0.0
 30
0.0
 11
34.25
 21
0.0
 31
0.0
  0
ENDBLK
  5
FA
330
F8
100
AcDbEntity
  8
0
100
AcDbBlockEnd
  0
BLOCK
  5
186
330
185
100
AcDbEntity
  8
0
100
AcDbBlockBegin
  2
_D
 70
     0
 10
0.0
 20
0.0
 30
0.0
  3
_D
  1
_D
  0
SOLID
  5
188
330
185
100
AcDbEntity
  8
DIM
100
AcDbTrace
 10
150.066117914
 20
167.8720863255
 30
0.0
 11
149.431117914
 21
163.7445863255
 31
0.0
 12
150.701117914
 22
163.7445863255
 32
0.0
 13
150.701117914
 23
163.7445863255
 33
0.0
  0
SOLID
  5
189
330
185
100
AcDbEntity
  8
DIM
100
AcDbTrace
 10
150.066117914
 20
104.3720863255
 30
0.0
 11
150.701117914
 21
108.4995863255
 31
0.0
 12
149.431117914
 22
108.4995863255
 32
0.0
 13
149.431117914
 23
108.4995863255
 33
0.0
  0
LINE
  5
18A
330
185
100
AcDbEntity
  8
DIM
100
AcDbLine
 10
227.9615923794
 20
167.8720863255
 30
0.0
 11
148.816117914
 21
167.8720863255
 31
0.0
  0
LINE
  5
18B
330
185
100
AcDbEntity
  8
DIM
100
AcDbLine
 10
227.9615923794
 20
104.3720863255
 30
0.0
 11
148.816117914
 21
104.3720863255
 31
0.0
  0
LINE
  5
18C
330
185
100
AcDbEntity
  8
DIM
100
AcDbLine
 10
150.066117914
 20
167.8720863255
 30
0.0
 11
150.066117914
 21
104.3720863255
 31
0.0
  0
MTEXT
  5
18D
330
185
100
AcDbEntity
  8
DIM
100
AcDbMText
 10
145.3764623301
 20
127.7443642102
 30
0.0
 40
3.6380208333
 41
0.0
 71
     1
 72
     1
  1
%%c
  7
SLDTEXTSTYLE0
 11
-7.044195017643634E-15
 21
1.0
 31
0.0
 73
     1
 44
1.0
  0
MTEXT
  5
18E
330
185
100
AcDbEntity
  8
DIM
100
AcDbMText
 10
145.3764623301
 20
133.3701590847
 30
0.0
 40
3.6380208333
 41
0.0
 71
     1
 72
     1
  1
63.50
  7
SLDTEXTSTYLE0
 11
-7.044195017643634E-15
 21
1.0
 31
0.0
 73
     1
 44
1.0
  0
ENDBLK
  5
187
330
185
100
AcDbEntity
  8
0
100
AcDbBlockEnd
  0
BLOCK
  5
192
330
191
100
AcDbEntity
  8
0
100
AcDbBlockBegin
  2
_D_1
 70
     0
 10
0.0
 20
0.0
 30
0.0
  3
_D_1
  1
_D_1
  0
SOLID
  5
194
330
191
100
AcDbEntity
  8
DIM
100
AcDbTrace
 10
303.0378211063
 20
147.1220863255
 30
0.0
 11
303.6728211063
 21
151.2495863255
 31
0.0
 12
302.4028211063
 22
151.2495863255
 32
0.0
 13
302.4028211063
 23
151.2495863255
 33
0.0
  0
SOLID
  5
195
330
191
100
AcDbEntity
  8
DIM
100
AcDbTrace
 10
303.0378211063
 20
125.1220863255
 30
0.0
 11
302.4028211063
 21
120.9945863255
 31
0.0
 12
303.6728211063
 22
120.9945863255
 32
0.0
 13
303.6728211063
 23
120.9945863255
 33
0.0
  0
LINE
  5
196
330
191
100
AcDbEntity
  8
DIM
100
AcDbLine
 10
295.6959069544
 20
147.1220863255
 30
0.0
 11
304.2878211063
 21
147.1220863255
 31
0.0
  0
LINE
  5
197
330
191
100
AcDbEntity
  8
DIM
100
AcDbLine
 10
295.6959069544
 20
125.1220863255
 30
0.0
 11
304.2878211063
 21
125.1220863255
 31
0.0
  0
LINE
  5
198
330
191
100
AcDbEntity
  8
DIM
100
AcDbLine
 10
303.0378211063
 20
147.1220863255
 30
0.0
 11
303.0378211063
 21
155.0595863255
 31
0.0
  0
LINE
  5
199
330
191
100
AcDbEntity
  8
DIM
100
AcDbLine
 10
303.0378211063
 20
147.1220863255
 30
0.0
 11
303.0378211063
 21
125.1220863255
 31
0.0
  0
LINE
  5
19A
330
191
100
AcDbEntity
  8
DIM
100
AcDbLine
 10
303.0378211063
 20
125.1220863255
 30
0.0
 11
303.0378211063
 21
117.1845863255
 31
0.0
  0
MTEXT
  5
19B
330
191
100
AcDbEntity
  8
DIM
100
AcDbMText
 10
298.3481655224
 20
130.8501561943
 30
0.0
 40
3.6380208333
 41
0.0
 71
     1
 72
     1
  1
%%c
  7
SLDTEXTSTYLE0
 11
-7.044195017643634E-15
 21
1.0
 31
0.0
 73
     1
 44
1.0
  0
MTEXT
  5
19C
330
191
100
AcDbEntity
  8
DIM
100
AcDbMText
 10
298.3481655224
 20
136.4759510688
 30
0.0
 40
3.6380208333
 41
0.0
 71
     1
 72
     1
  1
22
  7
SLDTEXTSTYLE0
 11
-7.044195017643634E-15
 21
1.0
 31
0.0
 73
     1
 44
1.0
  0
ENDBLK
  5
193
330
191
100
AcDbEntity
  8
0
100
AcDbBlockEnd
  0
BLOCK
  5
1A0
330
19F
100
AcDbEntity
  8
0
100
AcDbBlockBegin
  2
_D_2
 70
     0
 10
0.0
 20
0.0
 30
0.0
  3
_D_2
  1
_D_2
  0
SOLID
  5
1A2
330
19F
100
AcDbEntity
  8
DIM
100
AcDbTrace
 10
294.8459069543
 20
94.3120566526
 30
0.0
 11
290.7184069543
 21
94.9470566526
 31
0.0
 12
290.7184069543
 22
93.6770566526
 32
0.0
 13
290.7184069543
 23
93.6770566526
 33
0.0
  0
SOLID
  5
1A3
330
19F
100
AcDbEntity
  8
DIM
100
AcDbTrace
 10
224.8459069544
 20
94.3120566526
 30
0.0
 11
228.9734069544
 21
93.6770566526
 31
0.0
 12
228.9734069544
 22
94.9470566526
 32
0.0
 13
228.9734069544
 23
94.9470566526
 33
0.0
  0
LINE
  5
1A4
330
19F
100
AcDbEntity
  8
DIM
100
AcDbLine
 10
294.8459069543
 20
124.2720863258
 30
0.0
 11
294.8459069543
 21
93.0620566526
 31
0.0
  0
LINE
  5
1A5
330
19F
100
AcDbEntity
  8
DIM
100
AcDbLine
 10
224.8459069544
 20
112.6470863255
 30
0.0
 11
224.8459069544
 21
93.0620566526
 31
0.0
  0
LINE
  5
1A6
330
19F
100
AcDbEntity
  8
DIM
100
AcDbLine
 10
294.8459069543
 20
94.3120566526
 30
0.0
 11
224.8459069544
 21
94.3120566526
 31
0.0
  0
MTEXT
  5
1A7
330
19F
100
AcDbEntity
  8
DIM
100
AcDbMText
 10
257.3868742604
 20
99.0017122365
 30
0.0
 40
3.6380208333
 41
0.0
 71
     1
 72
     1
  1
70
  7
SLDTEXTSTYLE0
 73
     1
 44
1.0
  0
ENDBLK
  5
1A1
330
19F
100
AcDbEntity
  8
0
100
AcDbBlockEnd
  0
BLOCK
  5
1AA
330
1A9
100
AcDbEntity
  8
0
100
AcDbBlockBegin
  2
_D_3
 70
     0
 10
0.0
 20
0.0
 30
0.0
  3
_D_3
  1
_D_3
  0
SOLID
  5
1AC
330
1A9
100
AcDbEntity
  8
DIM
100
AcDbTrace
 10
294.8459069543
 20
86.6082833162
 30
0.0
 11
290.7184069543
 21
87.2432833162
 31
0.0
 12
290.7184069543
 22
85.9732833162
 32
0.0
 13
290.7184069543
 23
85.9732833162
 33
0.0
  0
SOLID
  5
1AD
330
1A9
100
AcDbEntity
  8
DIM
100
AcDbTrace
 10
156.4459069545
 20
86.6082833162
 30
0.0
 11
160.5734069545
 21
85.9732833162
 31
0.0
 12
160.5734069545
 22
87.2432833162
 32
0.0
 13
160.5734069545
 23
87.2432833162
 33
0.0
  0
LINE
  5
1AE
330
1A9
100
AcDbEntity
  8
DIM
100
AcDbLine
 10
294.8459069543
 20
124.2720863258
 30
0.0
 11
294.8459069543
 21
85.3582833162
 31
0.0
  0
LINE
  5
1AF
330
1A9
100
AcDbEntity
  8
DIM
100
AcDbLine
 10
156.4459069545
 20
134.8720863255
 30
0.0
 11
156.4459069545
 21
85.3582833162
 31
0.0
  0
LINE
  5
1B0
330
1A9
100
AcDbEntity
  8
DIM
100
AcDbLine
 10
294.8459069543
 20
86.6082833162
 30
0.0
 11
156.4459069545
 21
86.6082833162
 31
0.0
  0
MTEXT
  5
1B1
330
1A9
100
AcDbEntity
  8
DIM
100
AcDbMText
 10
218.8515659295
 20
91.2979389001
 30
0.0
 40
3.6380208333
 41
0.0
 71
     1
 72
     1
  1
138.40
  7
SLDTEXTSTYLE0
 73
     1
 44
1.0
  0
ENDBLK
  5
1AB
330
1A9
100
AcDbEntity
  8
0
100
AcDbBlockEnd
  0
ENDSEC
  0
SECTION
  2
ENTITIES
  0
LINE
  5
76
330
1F
100
AcDbEntity
  8
DIM
100
AcDbLine
 10
130.8805308612
 20
12.2387393211
 30
0.0
 11
130.8805308612
 21
5.9887393211
 31
0.0
  0
LINE
  5
77
330
1F
100
AcDbEntity
  8
DIM
100
AcDbLine
 10
318.0870021191
 20
12.2387393211
 30
0.0
 11
318.0870021191
 21
5.9887393211
 31
0.0
  0
LINE
  5
78
330
1F
100
AcDbEntity
  8
DIM
100
AcDbLine
 10
296.8146374145
 20
12.2387393211
 30
0.0
 11
296.8146374145
 21
5.9887393211
 31
0.0
  0
LINE
  5
79
330
1F
100
AcDbEntity
  8
DIM
100
AcDbLine
 10
348.6305308612
 20
5.9887393211
 30
0.0
 11
348.6305308612
 21
12.2387393211
 31
0.0
  0
LINE
  5
7A
330
1F
100
AcDbEntity
  8
DIM
100
AcDbLine
 10
140.6305308612
 20
12.2387393211
 30
0.0
 11
140.6305308612
 21
5.9887393211
 31
0.0
  0
LINE
  5
7B
330
1F
100
AcDbEntity
  8
DIM
100
AcDbLine
 10
164.6192214035
 20
12.2387393211
 30
0.0
 11
164.6192214035
 21
5.9887393211
 31
0.0
  0
LINE
  5
7C
330
1F
100
AcDbEntity
  8
DIM
100
AcDbLine
 10
364.8805308612
 20
5.9887393211
 30
0.0
 11
364.8805308612
 21
96.3012393211
 31
0.0
  0
LINE
  5
7D
330
1F
100
AcDbEntity
  8
DIM
100
AcDbLine
 10
357.2737558684
 20
75.0512393211
 30
0.0
 11
364.8805308612
 21
75.0512393211
 31
0.0
  0
LINE
  5
7E
330
1F
100
AcDbEntity
  8
DIM
100
AcDbLine
 10
186.3791885657
 20
11.3012393211
 30
0.0
 11
186.3791885657
 21
5.9887393211
 31
0.0
  0
LINE
  5
7F
330
1F
100
AcDbEntity
  8
DIM
100
AcDbLine
 10
245.9549364505
 20
12.2387393211
 30
0.0
 11
245.9549364505
 21
5.9887393211
 31
0.0
  0
LINE
  5
80
330
1F
100
AcDbEntity
  8
DIM
100
AcDbLine
 10
186.3791885657
 20
12.2387393211
 30
0.0
 11
186.3791885657
 21
11.3012393211
 31
0.0
  0
LINE
  5
81
330
1F
100
AcDbEntity
  8
DIM
100
AcDbLine
 10
358.6305308612
 20
21.9261493211
 30
0.0
 11
364.8805308612
 21
21.9261493211
 31
0.0
  0
LINE
  5
82
330
1F
100
AcDbEntity
  8
DIM
100
AcDbLine
 10
358.6305308612
 20
249.7387393211
 30
0.0
 11
12.3805308612
 21
249.7387393211
 31
0.0
  0
LINE
  5
83
330
1F
100
AcDbEntity
  8
DIM
100
AcDbLine
 10
364.8805308612
 20
255.9887393211
 30
0.0
 11
6.1305308612
 21
255.9887393211
 31
0.0
  0
LINE
  5
84
330
1F
100
AcDbEntity
  8
DIM
100
AcDbLine
 10
12.3805308612
 20
249.7387393211
 30
0.0
 11
12.3805308612
 21
12.2387393211
 31
0.0
  0
LINE
  5
85
330
1F
100
AcDbEntity
  8
DIM
100
AcDbLine
 10
6.1305308612
 20
255.9887393211
 30
0.0
 11
6.1305308612
 21
5.9887393211
 31
0.0
  0
LINE
  5
86
330
1F
100
AcDbEntity
  8
DIM
100
AcDbLine
 10
12.3805308612
 20
68.4887393211
 30
0.0
 11
6.1305308612
 21
68.4887393211
 31
0.0
  0
LINE
  5
87
330
1F
100
AcDbEntity
  8
DIM
100
AcDbLine
 10
6.1305308612
 20
130.9887393211
 30
0.0
 11
12.3805308612
 21
130.9887393211
 31
0.0
  0
LINE
  5
88
330
1F
100
AcDbEntity
  8
DIM
100
AcDbLine
 10
6.1305308612
 20
5.9887393211
 30
0.0
 11
364.8805308612
 21
5.9887393211
 31
0.0
  0
LINE
  5
89
330
1F
100
AcDbEntity
  8
DIM
100
AcDbLine
 10
12.3805308612
 20
12.2387393211
 30
0.0
 11
364.8805308612
 21
12.2387393211
 31
0.0
  0
LINE
  5
8A
330
1F
100
AcDbEntity
  8
DIM
100
AcDbLine
 10
60.5055308612
 20
5.9887393211
 30
0.0
 11
60.5055308612
 21
12.2387393211
 31
0.0
  0
LINE
  5
8B
330
1F
100
AcDbEntity
  8
DIM
100
AcDbLine
 10
123.0055308612
 20
12.2387393211
 30
0.0
 11
123.0055308612
 21
5.9887393211
 31
0.0
  0
LINE
  5
8C
330
1F
100
AcDbEntity
  8
DIM
100
AcDbLine
 10
12.3805308612
 20
193.4887393211
 30
0.0
 11
6.1305308612
 21
193.4887393211
 31
0.0
  0
LINE
  5
8D
330
1F
100
AcDbEntity
  8
DIM
100
AcDbLine
 10
60.5055308612
 20
249.7387393211
 30
0.0
 11
60.5055308612
 21
255.9887393211
 31
0.0
  0
LINE
  5
8E
330
1F
100
AcDbEntity
  8
DIM
100
AcDbLine
 10
123.0055308612
 20
255.9887393211
 30
0.0
 11
123.0055308612
 21
249.7387393211
 31
0.0
  0
LINE
  5
8F
330
1F
100
AcDbEntity
  8
DIM
100
AcDbLine
 10
185.5055308612
 20
255.9887393211
 30
0.0
 11
185.5055308612
 21
249.7387393211
 31
0.0
  0
LINE
  5
90
330
1F
100
AcDbEntity
  8
DIM
100
AcDbLine
 10
358.6305308612
 20
12.2387393211
 30
0.0
 11
358.6305308612
 21
249.7387393211
 31
0.0
  0
LINE
  5
91
330
1F
100
AcDbEntity
  8
DIM
100
AcDbLine
 10
364.8805308612
 20
96.3012393211
 30
0.0
 11
364.8805308612
 21
255.9887393211
 31
0.0
  0
LINE
  5
92
330
1F
100
AcDbEntity
  8
DIM
100
AcDbLine
 10
364.8805308612
 20
130.9887393211
 30
0.0
 11
358.6305308612
 21
130.9887393211
 31
0.0
  0
LINE
  5
93
330
1F
100
AcDbEntity
  8
DIM
100
AcDbLine
 10
248.0055308612
 20
255.9887393211
 30
0.0
 11
248.0055308612
 21
249.7387393211
 31
0.0
  0
LINE
  5
94
330
1F
100
AcDbEntity
  8
DIM
100
AcDbLine
 10
310.5055308612
 20
249.7387393211
 30
0.0
 11
310.5055308612
 21
255.9887393211
 31
0.0
  0
LINE
  5
95
330
1F
100
AcDbEntity
  8
DIM
100
AcDbLine
 10
358.6305308612
 20
193.4887393211
 30
0.0
 11
364.8805308612
 21
193.4887393211
 31
0.0
  0
MTEXT
  5
97
330
1F
100
AcDbEntity
  8
DIM
100
AcDbMText
 10
16.5759429274
 20
242.6535727172
 30
0.0
 40
5.2916666667
 41
0.0
 71
     1
 72
     1
  1
SK 40 ER16 070 AD+B/2.5G 25000 SL
  7
SLDTEXTSTYLE0
 73
     1
 44
1.0
  0
MTEXT
  5
99
330
1F
100
AcDbEntity
  8
DIM
 62
     7
100
AcDbMText
 10
247.1659733083
 20
9.7524394079
 30
0.0
 40
1.87325
 41
0.0
 71
     1
 72
     1
  1
WEIGHT:
  7
SLDTEXTSTYLE1
 73
     1
 44
1.0
  0
MTEXT
  5
9A
330
1F
100
AcDbEntity
  8
DIM
 62
     7
100
AcDbMText
 10
360.7463459435
 20
102.4257668853
 30
0.0
 40
2.3151041667
 41
0.0
 71
     1
 72
     1
  1
C
  7
SLDTEXTSTYLE1
 73
     1
 44
1.0
  0
MTEXT
  5
9B
330
1F
100
AcDbEntity
  8
DIM
 62
     7
100
AcDbMText
 10
353.8044757743
 20
18.5674774795
 30
0.0
 40
3.6380208333
 41
0.0
 71
     1
 72
     1
  1
A4
  7
SLDTEXTSTYLE1
 73
     1
 44
1.0
  0
MTEXT
  5
9C
330
1F
100
AcDbEntity
  8
DIM
 62
     7
100
AcDbMText
 10
340.7138691946
 20
254.3237598255
 30
0.0
 40
2.3151041667
 41
0.0
 71
     1
 72
     1
  1
6
  7
SLDTEXTSTYLE1
 73
     1
 44
1.0
  0
MTEXT
  5
9D
330
1F
100
AcDbEntity
  8
DIM
 62
     7
100
AcDbMText
 10
278.2138691946
 20
254.3237598255
 30
0.0
 40
2.3151041667
 41
0.0
 71
     1
 72
     1
  1
5
  7
SLDTEXTSTYLE1
 73
     1
 44
1.0
  0
MTEXT
  5
9E
330
1F
100
AcDbEntity
  8
DIM
 62
     7
100
AcDbMText
 10
360.7138741946
 20
226.1987598255
 30
0.0
 40
2.3151041667
 41
0.0
 71
     1
 72
     1
  1
A
  7
SLDTEXTSTYLE1
 73
     1
 44
1.0
  0
MTEXT
  5
9F
330
1F
100
AcDbEntity
  8
DIM
 62
     7
100
AcDbMText
 10
360.7138741946
 20
163.6987598255
 30
0.0
 40
2.3151041667
 41
0.0
 71
     1
 72
     1
  1
B
  7
SLDTEXTSTYLE1
 73
     1
 44
1.0
  0
MTEXT
  5
A0
330
1F
100
AcDbEntity
  8
DIM
 62
     7
100
AcDbMText
 10
215.7138691946
 20
254.3237598255
 30
0.0
 40
2.3151041667
 41
0.0
 71
     1
 72
     1
  1
4
  7
SLDTEXTSTYLE1
 73
     1
 44
1.0
  0
MTEXT
  5
A1
330
1F
100
AcDbEntity
  8
DIM
 62
     7
100
AcDbMText
 10
28.7347025279
 20
254.3237598255
 30
0.0
 40
2.3151041667
 41
0.0
 71
     1
 72
     1
  1
1
  7
SLDTEXTSTYLE1
 73
     1
 44
1.0
  0
MTEXT
  5
A2
330
1F
100
AcDbEntity
  8
DIM
 62
     7
100
AcDbMText
 10
90.7138691946
 20
254.3237598255
 30
0.0
 40
2.3151041667
 41
0.0
 71
     1
 72
     1
  1
2
  7
SLDTEXTSTYLE1
 73
     1
 44
1.0
  0
MTEXT
  5
A3
330
1F
100
AcDbEntity
  8
DIM
 62
     7
100
AcDbMText
 10
153.2138691946
 20
254.3237598255
 30
0.0
 40
2.3151041667
 41
0.0
 71
     1
 72
     1
  1
3
  7
SLDTEXTSTYLE1
 73
     1
 44
1.0
  0
MTEXT
  5
A4
330
1F
100
AcDbEntity
  8
DIM
 62
     7
100
AcDbMText
 10
8.2138641946
 20
226.1987598255
 30
0.0
 40
2.3151041667
 41
0.0
 71
     1
 72
     1
  1
A
  7
SLDTEXTSTYLE1
 73
     1
 44
1.0
  0
MTEXT
  5
A5
330
1F
100
AcDbEntity
  8
DIM
 62
     7
100
AcDbMText
 10
90.7138691946
 20
10.5737598255
 30
0.0
 40
2.3151041667
 41
0.0
 71
     1
 72
     1
  1
2
  7
SLDTEXTSTYLE1
 73
     1
 44
1.0
  0
MTEXT
  5
A6
330
1F
100
AcDbEntity
  8
DIM
 62
     7
100
AcDbMText
 10
28.7347025279
 20
10.5737598255
 30
0.0
 40
2.3151041667
 41
0.0
 71
     1
 72
     1
  1
1
  7
SLDTEXTSTYLE1
 73
     1
 44
1.0
  0
MTEXT
  5
A7
330
1F
100
AcDbEntity
  8
DIM
 62
     7
100
AcDbMText
 10
8.2138641946
 20
38.6987598255
 30
0.0
 40
2.3151041667
 41
0.0
 71
     1
 72
     1
  1
D
  7
SLDTEXTSTYLE1
 73
     1
 44
1.0
  0
MTEXT
  5
A8
330
1F
100
AcDbEntity
  8
DIM
 62
     7
100
AcDbMText
 10
8.2138641946
 20
101.1987598255
 30
0.0
 40
2.3151041667
 41
0.0
 71
     1
 72
     1
  1
C
  7
SLDTEXTSTYLE1
 73
     1
 44
1.0
  0
MTEXT
  5
A9
330
1F
100
AcDbEntity
  8
DIM
 62
     7
100
AcDbMText
 10
8.2138641946
 20
163.6987598255
 30
0.0
 40
2.3151041667
 41
0.0
 71
     1
 72
     1
  1
B
  7
SLDTEXTSTYLE1
 73
     1
 44
1.0
  0
MTEXT
  5
AA
330
1F
100
AcDbEntity
  8
DIM
 62
     7
100
AcDbMText
 10
360.7463459435
 20
102.4257668853
 30
0.0
 40
2.3151041667
 41
0.0
 71
     1
 72
     1
  1
C
  7
SLDTEXTSTYLE1
 73
     1
 44
1.0
  0
MTEXT
  5
AC
330
1F
100
AcDbEntity
  8
DIM
 62
     7
100
AcDbMText
 10
320.6567072656
 20
9.6138484142
 30
0.0
 40
1.875
 41
0.0
 71
     1
 72
     1
  1
SHEET 1 OF 1
  7
SLDTEXTSTYLE2
 73
     1
 44
1.0
  0
MTEXT
  5
AD
330
1F
100
AcDbEntity
  8
DIM
 62
     7
100
AcDbMText
 10
187.9647254793
 20
9.8167093546
 30
0.0
 40
1.875
 41
0.0
 71
     1
 72
     1
  1
MATERIAL:
  7
SLDTEXTSTYLE1
 73
     1
 44
1.0
  0
MTEXT
  5
AE
330
1F
100
AcDbEntity
  8
DIM
 62
     7
100
AcDbMText
 10
340.7138691946
 20
254.3237598255
 30
0.0
 40
2.3151041667
 41
0.0
 71
     1
 72
     1
  1
6
  7
SLDTEXTSTYLE1
 73
     1
 44
1.0
  0
MTEXT
  5
AF
330
1F
100
AcDbEntity
  8
DIM
 62
     7
100
AcDbMText
 10
278.2138691946
 20
254.3237598255
 30
0.0
 40
2.3151041667
 41
0.0
 71
     1
 72
     1
  1
5
  7
SLDTEXTSTYLE1
 73
     1
 44
1.0
  0
MTEXT
  5
B0
330
1F
100
AcDbEntity
  8
DIM
 62
     7
100
AcDbMText
 10
360.7138741946
 20
226.1987598255
 30
0.0
 40
2.3151041667
 41
0.0
 71
     1
 72
     1
  1
A
  7
SLDTEXTSTYLE1
 73
     1
 44
1.0
  0
MTEXT
  5
B1
330
1F
100
AcDbEntity
  8
DIM
 62
     7
100
AcDbMText
 10
360.7138741946
 20
163.6987598255
 30
0.0
 40
2.3151041667
 41
0.0
 71
     1
 72
     1
  1
B
  7
SLDTEXTSTYLE1
 73
     1
 44
1.0
  0
MTEXT
  5
B2
330
1F
100
AcDbEntity
  8
DIM
 62
     7
100
AcDbMText
 10
215.7138691946
 20
254.3237598255
 30
0.0
 40
2.3151041667
 41
0.0
 71
     1
 72
     1
  1
4
  7
SLDTEXTSTYLE1
 73
     1
 44
1.0
  0
MTEXT
  5
B3
330
1F
100
AcDbEntity
  8
DIM
 62
     7
100
AcDbMText
 10
28.7347025279
 20
254.3237598255
 30
0.0
 40
2.3151041667
 41
0.0
 71
     1
 72
     1
  1
1
  7
SLDTEXTSTYLE1
 73
     1
 44
1.0
  0
MTEXT
  5
B4
330
1F
100
AcDbEntity
  8
DIM
 62
     7
100
AcDbMText
 10
90.7138691946
 20
254.3237598255
 30
0.0
 40
2.3151041667
 41
0.0
 71
     1
 72
     1
  1
2
  7
SLDTEXTSTYLE1
 73
     1
 44
1.0
  0
MTEXT
  5
B5
330
1F
100
AcDbEntity
  8
DIM
 62
     7
100
AcDbMText
 10
153.2138691946
 20
254.3237598255
 30
0.0
 40
2.3151041667
 41
0.0
 71
     1
 72
     1
  1
3
  7
SLDTEXTSTYLE1
 73
     1
 44
1.0
  0
MTEXT
  5
B6
330
1F
100
AcDbEntity
  8
DIM
 62
     7
100
AcDbMText
 10
8.2138641946
 20
226.1987598255
 30
0.0
 40
2.3151041667
 41
0.0
 71
     1
 72
     1
  1
A
  7
SLDTEXTSTYLE1
 73
     1
 44
1.0
  0
MTEXT
  5
B7
330
1F
100
AcDbEntity
  8
DIM
 62
     7
100
AcDbMText
 10
90.7138691946
 20
10.5737598255
 30
0.0
 40
2.3151041667
 41
0.0
 71
     1
 72
     1
  1
2
  7
SLDTEXTSTYLE1
 73
     1
 44
1.0
  0
MTEXT
  5
B8
330
1F
100
AcDbEntity
  8
DIM
 62
     7
100
AcDbMText
 10
28.7347025279
 20
10.5737598255
 30
0.0
 40
2.3151041667
 41
0.0
 71
     1
 72
     1
  1
1
  7
SLDTEXTSTYLE1
 73
     1
 44
1.0
  0
MTEXT
  5
B9
330
1F
100
AcDbEntity
  8
DIM
 62
     7
100
AcDbMText
 10
8.2138641946
 20
38.6987598255
 30
0.0
 40
2.3151041667
 41
0.0
 71
     1
 72
     1
  1
D
  7
SLDTEXTSTYLE1
 73
     1
 44
1.0
  0
MTEXT
  5
BA
330
1F
100
AcDbEntity
  8
DIM
 62
     7
100
AcDbMText
 10
8.2138641946
 20
101.1987598255
 30
0.0
 40
2.3151041667
 41
0.0
 71
     1
 72
     1
  1
C
  7
SLDTEXTSTYLE1
 73
     1
 44
1.0
  0
MTEXT
  5
BB
330
1F
100
AcDbEntity
  8
DIM
 62
     7
100
AcDbMText
 10
8.2138641946
 20
163.6987598255
 30
0.0
 40
2.3151041667
 41
0.0
 71
     1
 72
     1
  1
B
  7
SLDTEXTSTYLE1
 73
     1
 44
1.0
  0
SPLINE
  5
BC
330
1F
100
AcDbEntity
  8
0
  6
Continuous
 62
     7
370
    15
100
AcDbSpline
210
0.0
220
0.0
230
1.0
 70
     8
 71
     3
 72
    38
 73
    34
 74
     0
 42
0.000000001
 43
0.00000001
 40
0.0
 40
0.0
 40
0.0
 40
0.0
 40
0.0624999999999999
 40
0.0624999999999999
 40
0.1249999999999999
 40
0.1249999999999999
 40
0.1874999999999999
 40
0.1874999999999999
 40
0.25
 40
0.25
 40
0.3125
 40
0.3125
 40
0.375
 40
0.375
 40
0.4375
 40
0.4375
 40
0.5
 40
0.5
 40
0.5625
 40
0.5625
 40
0.625
 40
0.625
 40
0.6875
 40
0.6875
 40
0.75
 40
0.75
 40
0.8125
 40
0.8125
 40
0.875
 40
0.875
 40
0.9375
 40
0.9375
 40
1.0
 40
1.0
 40
1.0
 40
1.0
 10
100.0669364922529
 20
136.1220863254544
 30
0.0
 10
100.0669364922529
 20
135.6477045508896
 30
0.0
 10
100.0375128595915
 20
135.1433790289446
 30
0.0
 10
99.8948528224456
 20
134.0781840849144
 30
0.0
 10
99.78154841667666
 20
133.5171611249644
 30
0.0
 10
99.44151156067095
 20
132.351320475794
 30
0.0
 10
99.21459443751739
 20
131.7463471540366
 30
0.0
 10
98.61666139406047
 20
130.5198178341166
 30
0.0
 10
98.24531047793658
 20
129.8981974431646
 30
0.0
 10
97.33449747077846
 20
128.6837801002788
 30
0.0
 10
96.79460133877531
 20
128.0911562871479
 30
0.0
 10
95.54121507759565
 20
126.9972919137473
 30
0.0
 10
94.8273979995179
 20
126.496568242244
 30
0.0
 10
93.25159694907126
 20
125.6561410153334
 30
0.0
 10
92.38969904434296
 20
125.3171852769533
 30
0.0
 10
90.57885188218239
 20
124.8572875849729
 30
0.0
 10
89.63053745189916
 20
124.7369237358999
 30
0.0
 10
87.73301035365301
 20
124.7369237358999
 30
0.0
 10
86.78469592336978
 20
124.8572875849729
 30
0.0
 10
84.97384876120921
 20
125.3171852769533
 30
0.0
 10
84.1119508564809
 20
125.6561410153334
 30
0.0
 10
82.53614980603427
 20
126.496568242244
 30
0.0
 10
81.8223327279565
 20
126.9972919137473
 30
0.0
 10
80.56894646677685
 20
128.0911562871479
 30
0.0
 10
80.02905033477371
 20
128.6837801002788
 30
0.0
 10
79.11823732761559
 20
129.8981974431646
 30
0.0
 10
78.7468864114917
 20
130.5198178341166
 30
0.0
 10
78.14895336803478
 20
131.7463471540366
 30
0.0
 10
77.92203624488121
 20
132.351320475794
 30
0.0
 10
77.5819993888755
 20
133.5171611249644
 30
0.0
 10
77.46869498310656
 20
134.0781840849144
 30
0.0
 10
77.32603494596063
 20
135.1433790289446
 30
0.0
 10
77.29661131329928
 20
135.6477045508896
 30
0.0
 10
77.2966113132993
 20
136.1220863254544
 30
0.0
  0
SPLINE
  5
BD
330
1F
100
AcDbEntity
  8
0
  6
Continuous
 62
     7
370
    15
100
AcDbSpline
210
0.0
220
0.0
230
1.0
 70
     8
 71
     3
 72
    38
 73
    34
 74
     0
 42
0.000000001
 43
0.00000001
 40
0.0
 40
0.0
 40
0.0
 40
0.0
 40
0.0625
 40
0.0625
 40
0.125
 40
0.125
 40
0.1875
 40
0.1875
 40
0.25
 40
0.25
 40
0.3125
 40
0.3125
 40
0.375
 40
0.375
 40
0.4375
 40
0.4375
 40
0.5
 40
0.5
 40
0.5625
 40
0.5625
 40
0.625
 40
0.625
 40
0.6875
 40
0.6875
 40
0.75
 40
0.75
 40
0.8125
 40
0.8125
 40
0.875
 40
0.875
 40
0.9375
 40
0.9375
 40
1.0
 40
1.0
 40
1.0
 40
1.0
 10
77.29661131329928
 20
136.1220863254544
 30
0.0
 10
77.29661131329928
 20
136.5964681000192
 30
0.0
 10
77.32603494596063
 20
137.1007936219643
 30
0.0
 10
77.46869498310656
 20
138.1659885659944
 30
0.0
 10
77.5819993888755
 20
138.7270115259445
 30
0.0
 10
77.92203624488121
 20
139.8928521751149
 30
0.0
 10
78.14895336803477
 20
140.4978254968722
 30
0.0
 10
78.7468864114917
 20
141.7243548167923
 30
0.0
 10
79.11823732761559
 20
142.3459752077442
 30
0.0
 10
80.02905033477371
 20
143.56039255063
 30
0.0
 10
80.56894646677685
 20
144.1530163637609
 30
0.0
 10
81.8223327279565
 20
145.2468807371616
 30
0.0
 10
82.53614980603427
 20
145.7476044086649
 30
0.0
 10
84.11195085648089
 20
146.5880316355755
 30
0.0
 10
84.97384876120921
 20
146.9269873739555
 30
0.0
 10
86.78469592336978
 20
147.386885065936
 30
0.0
 10
87.73301035365301
 20
147.5072489150089
 30
0.0
 10
89.63053745189916
 20
147.5072489150089
 30
0.0
 10
90.57885188218239
 20
147.386885065936
 30
0.0
 10
92.38969904434296
 20
146.9269873739555
 30
0.0
 10
93.25159694907128
 20
146.5880316355755
 30
0.0
 10
94.8273979995179
 20
145.7476044086649
 30
0.0
 10
95.54121507759565
 20
145.2468807371616
 30
0.0
 10
96.79460133877531
 20
144.1530163637609
 30
0.0
 10
97.33449747077846
 20
143.56039255063
 30
0.0
 10
98.24531047793658
 20
142.3459752077442
 30
0.0
 10
98.61666139406047
 20
141.7243548167923
 30
0.0
 10
99.2145944375174
 20
140.4978254968722
 30
0.0
 10
99.44151156067097
 20
139.8928521751149
 30
0.0
 10
99.78154841667667
 20
138.7270115259445
 30
0.0
 10
99.8948528224456
 20
138.1659885659944
 30
0.0
 10
100.0375128595915
 20
137.1007936219643
 30
0.0
 10
100.0669364922529
 20
136.5964681000192
 30
0.0
 10
100.0669364922529
 20
136.1220863254544
 30
0.0
  0
SPLINE
  5
BE
330
1F
100
AcDbEntity
  8
0
  6
Continuous
 62
     7
370
    15
100
AcDbSpline
210
0.0
220
0.0
230
1.0
 70
    24
 71
     3
 72
    14
 73
    10
 74
     0
 42
0.000000001
 43
0.00000001
 40
0.0
 40
0.0
 40
0.0
 40
0.0
 40
0.25
 40
0.25
 40
0.5
 40
0.5
 40
0.75
 40
0.75
 40
1.0
 40
1.0
 40
1.0
 40
1.0
 10
77.2966113132602
 20
136.1220863254544
 30
0.0
 10
77.18759476431931
 20
136.1220863254544
 30
0.0
 10
77.0715167728986
 20
136.1220863254544
 30
0.0
 10
76.84568773403115
 20
136.1220863254544
 30
0.0
 10
76.73640937464538
 20
136.1220863254544
 30
0.0
 10
76.54861466426861
 20
136.1220863254544
 30
0.0
 10
76.47052006859178
 20
136.1220863254544
 30
0.0
 10
76.3576741091251
 20
136.1220863254544
 30
0.0
 10
76.32281051183546
 20
136.1220863254544
 30
0.0
 10
76.30707852690082
 20
136.1220863254544
 30
0.0
  0
ARC
  5
BF
330
1F
100
AcDbEntity
  8
0
  6
Continuous
 62
     7
370
    15
100
AcDbCircle
 10
88.6817739028
 20
136.1220863255
 30
0.0
 40
12.37469537600001
100
AcDbArc
 50
359.9999999765
 51
180.0
  0
SPLINE
  5
C0
330
1F
100
AcDbEntity
  8
0
  6
Continuous
 62
     7
370
    15
100
AcDbSpline
210
0.0
220
0.0
230
1.0
 70
    24
 71
     3
 72
    14
 73
    10
 74
     0
 42
0.000000001
 43
0.00000001
 40
0.0
 40
0.0
 40
0.0
 40
0.0
 40
0.25
 40
0.25
 40
0.5
 40
0.5
 40
0.75
 40
0.75
 40
1.0
 40
1.0
 40
1.0
 40
1.0
 10
100.066936492292
 20
136.1220863254544
 30
0.0
 10
100.1759530412284
 20
136.1220863254544
 30
0.0
 10
100.2920310326441
 20
136.1220863254544
 30
0.0
 10
100.517860071503
 20
136.1220863254544
 30
0.0
 10
100.6271384308853
 20
136.1220863254544
 30
0.0
 10
100.8149331412594
 20
136.1220863254544
 30
0.0
 10
100.893027736937
 20
136.1220863254544
 30
0.0
 10
101.0058736964093
 20
136.1220863254544
 30
0.0
 10
101.0407372937037
 20
136.1220863254544
 30
0.0
 10
101.0564692786437
 20
136.1220863254544
 30
0.0
  0
ARC
  5
C1
330
1F
100
AcDbEntity
  8
0
  6
Continuous
 62
     7
370
    15
100
AcDbCircle
 10
88.6817739028
 20
136.1220863255
 30
0.0
 40
12.37469537600001
100
AcDbArc
 50
180.0000000103
 51
359.9999999765
  0
CIRCLE
  5
C2
330
1F
100
AcDbEntity
  8
0
  6
Continuous
 62
     7
370
    15
100
AcDbCircle
 10
88.6817739028
 20
136.1220863255
 30
0.0
 40
22.22500000000001
  0
CIRCLE
  5
C3
330
1F
100
AcDbEntity
  8
0
  6
Continuous
 62
     7
370
    15
100
AcDbCircle
 10
88.6817739028
 20
136.1220863255
 30
0.0
 40
22.39999999969785
  0
SPLINE
  5
C4
330
1F
100
AcDbEntity
  8
0
  6
Continuous
 62
     7
370
    15
100
AcDbSpline
210
0.0
220
0.0
230
1.0
 70
    24
 71
     3
 72
     8
 73
     4
 74
     0
 42
0.000000001
 43
0.00000001
 40
0.0
 40
0.0
 40
0.0
 40
0.0
 40
1.0
 40
1.0
 40
1.0
 40
1.0
 10
63.97284031548924
 20
117.6220863254544
 30
0.0
 10
64.0730092559496
 20
117.6220863254544
 30
0.0
 10
64.19924719260538
 20
117.6220863254544
 30
0.0
 10
64.32709677638984
 20
117.6220863254544
 30
0.0
  0
ARC
  5
C5
330
1F
100
AcDbEntity
  8
0
  6
Continuous
 62
     7
370
    15
100
AcDbCircle
 10
88.6817739028
 20
136.1220863255
 30
0.0
 40
30.58431456895077
100
AcDbArc
 50
217.2205832067
 51
232.7794167933
  0
SPLINE
  5
C6
330
1F
100
AcDbEntity
  8
0
  6
Continuous
 62
     7
370
    15
100
AcDbSpline
210
0.0
220
0.0
230
1.0
 70
    24
 71
     3
 72
     8
 73
     4
 74
     0
 42
0.000000001
 43
0.00000001
 40
0.0
 40
0.0
 40
0.0
 40
0.0
 40
1.0
 40
1.0
 40
1.0
 40
1.0
 10
70.18177390277609
 20
111.7674091981437
 30
0.0
 10
70.18177390277609
 20
111.6396185382688
 30
0.0
 10
70.18177390277609
 20
111.51321841096
 30
0.0
 10
70.18177390277609
 20
111.4131527386787
 30
0.0
  0
ARC
  5
C7
330
1F
100
AcDbEntity
  8
0
  6
Continuous
 62
     7
370
    15
100
AcDbCircle
 10
88.6817739028
 20
136.1220863255
 30
0.0
 40
30.86715728713051
100
AcDbArc
 50
216.8228239932
 51
233.1771760068
  0
SPLINE
  5
C8
330
1F
100
AcDbEntity
  8
0
  6
Continuous
 62
     7
370
    15
100
AcDbSpline
210
0.0
220
0.0
230
1.0
 70
     8
 71
     3
 72
    10
 73
     6
 74
     0
 42
0.000000001
 43
0.00000001
 40
0.0
 40
0.0
 40
0.0
 40
0.0
 40
0.5
 40
0.5
 40
1.0
 40
1.0
 40
1.0
 40
1.0
 10
97.31461661314788
 20
165.7574608950003
 30
0.0
 10
97.34727123881095
 20
165.7139366365872
 30
0.0
 10
97.37525235599608
 20
165.6653745295009
 30
0.0
 10
97.41789856218037
 20
165.5538962189712
 30
0.0
 10
97.4317739040618
 20
165.4919249286593
 30
0.0
 10
97.43177390279907
 20
165.4280208363681
 30
0.0
  0
ARC
  5
C9
330
1F
100
AcDbEntity
  8
0
  6
Continuous
 62
     7
370
    15
100
AcDbCircle
 10
88.6817739028
 20
136.1220863255
 30
0.0
 40
30.58431456895075
100
AcDbArc
 50
73.3757249499
 51
106.6242750409
  0
SPLINE
  5
CA
330
1F
100
AcDbEntity
  8
0
  6
Continuous
 62
     7
370
    15
100
AcDbSpline
210
0.0
220
0.0
230
1.0
 70
     8
 71
     3
 72
    10
 73
     6
 74
     0
 42
0.000000001
 43
0.00000001
 40
0.0
 40
0.0
 40
0.0
 40
0.0
 40
0.5
 40
0.5
 40
1.0
 40
1.0
 40
1.0
 40
1.0
 10
80.04893118910316
 20
165.757460891016
 30
0.0
 10
80.01627656374902
 20
165.7139366322454
 30
0.0
 10
79.98829544907248
 20
165.6653745288833
 30
0.0
 10
79.9456492431969
 20
165.5538962184704
 30
0.0
 10
79.93177390139645
 20
165.49192492814
 30
0.0
 10
79.9317739027531
 20
165.4280208359266
 30
0.0
  0
ARC
  5
CB
330
1F
100
AcDbEntity
  8
0
  6
Continuous
 62
     7
370
    15
100
AcDbCircle
 10
88.6817739028
 20
136.1220863255
 30
0.0
 40
30.86715728713049
100
AcDbArc
 50
73.7590550445
 51
106.2409449555
  0
SPLINE
  5
CC
330
1F
100
AcDbEntity
  8
0
  6
Continuous
 62
     7
370
    15
100
AcDbSpline
210
0.0
220
0.0
230
1.0
 70
     8
 71
     3
 72
    10
 73
     6
 74
     0
 42
0.000000001
 43
0.00000001
 40
0.0
 40
0.0
 40
0.0
 40
0.0
 40
0.5
 40
0.5
 40
1.0
 40
1.0
 40
1.0
 40
1.0
 10
80.04893119192536
 20
106.4867117561919
 30
0.0
 10
80.01627656630777
 20
106.5302360146438
 30
0.0
 10
79.98829545125243
 20
106.5787981176613
 30
0.0
 10
79.945649244438
 20
106.6902764274706
 30
0.0
 10
79.93177390207978
 20
106.752247717578
 30
0.0
 10
79.93177390275315
 20
106.8161518098484
 30
0.0
  0
ARC
  5
CD
330
1F
100
AcDbEntity
  8
0
  6
Continuous
 62
     7
370
    15
100
AcDbCircle
 10
88.6817739028
 20
136.1220863255
 30
0.0
 40
30.58431456895076
100
AcDbArc
 50
253.3757249646
 51
286.6242750409
  0
SPLINE
  5
CE
330
1F
100
AcDbEntity
  8
0
  6
Continuous
 62
     7
370
    15
100
AcDbSpline
210
0.0
220
0.0
230
1.0
 70
     8
 71
     3
 72
    10
 73
     6
 74
     0
 42
0.000000001
 43
0.00000001
 40
0.0
 40
0.0
 40
0.0
 40
0.0
 40
0.5
 40
0.5
 40
1.0
 40
1.0
 40
1.0
 40
1.0
 10
97.31461661373515
 20
106.4867117566913
 30
0.0
 10
97.34727123921104
 20
106.5302360149973
 30
0.0
 10
97.375252356495
 20
106.5787981224445
 30
0.0
 10
97.41789856234425
 20
106.6902764326337
 30
0.0
 10
97.4317739040891
 20
106.7522477227036
 30
0.0
 10
97.43177390279907
 20
106.8161518147269
 30
0.0
  0
ARC
  5
CF
330
1F
100
AcDbEntity
  8
0
  6
Continuous
 62
     7
370
    15
100
AcDbCircle
 10
88.6817739028
 20
136.1220863255
 30
0.0
 40
30.86715728713051
100
AcDbArc
 50
253.7590550445
 51
286.2409449555
  0
SPLINE
  5
D0
330
1F
100
AcDbEntity
  8
0
  6
Continuous
 62
     7
370
    15
100
AcDbSpline
210
0.0
220
0.0
230
1.0
 70
     8
 71
     3
 72
    31
 73
    27
 74
     0
 42
0.000000001
 43
0.00000001
 40
0.0
 40
0.0
 40
0.0
 40
0.0
 40
0.0132559966349189
 40
0.0264989966081602
 40
0.0397327988291494
 40
0.0529612101314919
 40
0.0661880420034987
 40
0.0794171072986517
 40
0.0926522169401775
 40
0.1058971766339516
 40
0.1191557836038749
 40
0.181094754453264
 40
0.2430471871464789
 40
0.306695881482009
 40
0.3703584092889373
 40
0.4993830193529282
 40
0.6284926302409563
 40
0.6922657259813465
 40
0.7560526822310297
 40
0.8181882638014923
 40
0.8803373499539993
 40
0.9042902683353782
 40
0.9282104830345619
 40
0.952120495510265
 40
0.9760428360099883
 40
1.0
 40
1.0
 40
1.0
 40
1.0
 10
119.2660884777553
 20
136.1220863254544
 30
0.0
 10
119.2652457631875
 20
136.2950823411359
 30
0.0
 10
119.2635611602798
 20
136.6409047609074
 30
0.0
 10
119.2499159121379
 20
137.1592853912979
 30
0.0
 10
119.2281281586127
 20
137.6770089780242
 30
0.0
 10
119.1974019560441
 20
138.1940754445205
 30
0.0
 10
119.1579504430117
 20
138.7104845213785
 30
0.0
 10
119.1097163283871
 20
139.2262365895077
 30
0.0
 10
119.0527158004584
 20
139.7413296223695
 30
0.0
 10
118.9869415047706
 20
140.2557705870766
 30
0.0
 10
118.821227592855
 20
141.3980251872599
 30
0.0
 10
118.479274174244
 20
143.1571016253416
 30
0.0
 10
117.8218380565209
 20
145.5171076012948
 30
0.0
 10
116.9698666343124
 20
147.8385377570848
 30
0.0
 10
115.563313234306
 20
150.8770963630051
 30
0.0
 10
113.3336580974523
 20
154.459936399802
 30
0.0
 10
110.5423294160964
 20
157.6268082014961
 30
0.0
 10
108.0330306805723
 20
159.8503100621015
 30
0.0
 10
106.0496983588548
 20
161.3366691163898
 30
0.0
 10
103.9718849067898
 20
162.6476944533106
 30
0.0
 10
102.2565535801082
 20
163.5471082386507
 30
0.0
 10
100.950154456872
 20
164.1431937140811
 30
0.0
 10
100.0862742589575
 20
164.5059645952112
 30
0.0
 10
99.21189635965952
 20
164.8413660230287
 30
0.0
 10
98.32774869011303
 20
165.1518945202605
 30
0.0
 10
97.73057695227303
 20
165.3359341149816
 30
0.0
 10
97.43177391731889
 20
165.4280208397374
 30
0.0
  0
SPLINE
  5
D1
330
1F
100
AcDbEntity
  8
0
  6
Continuous
 62
     7
370
    15
100
AcDbSpline
210
0.0
220
0.0
230
1.0
 70
     8
 71
     3
 72
    31
 73
    27
 74
     0
 42
0.000000001
 43
0.00000001
 40
0.0
 40
0.0
 40
0.0
 40
0.0
 40
0.0133128930162584
 40
0.0266126186434238
 40
0.0399030247502073
 40
0.0531879673032782
 40
0.0664713070272858
 40
0.0797569060442002
 40
0.0930486245065691
 40
0.1063503172393517
 40
0.1196658304048915
 40
0.1818014087549293
 40
0.2439504916860299
 40
0.3077235843799929
 40
0.3715105375763663
 40
0.5006201432131341
 40
0.6296447480293218
 40
0.6932934402594029
 40
0.7569559659581583
 40
0.8188949349972185
 40
0.8808473658849603
 40
0.9046980020604894
 40
0.9285163609918906
 40
0.9523246573931505
 40
0.9761451341308867
 40
1.0
 40
1.0
 40
1.0
 40
1.0
 10
97.43177391730836
 20
106.8161518112067
 30
0.0
 10
97.59800730011592
 20
106.8666718306443
 30
0.0
 10
97.93030964920419
 20
106.9676619016612
 30
0.0
 10
98.42521237797128
 20
107.1297895456029
 30
0.0
 10
98.91712781350655
 20
107.299595759128
 30
0.0
 10
99.40582622129082
 20
107.4778497057289
 30
0.0
 10
99.8913688369811
 20
107.6643453349535
 30
0.0
 10
100.3737394973879
 20
107.8591381225329
 30
0.0
 10
100.8529409110103
 20
108.0622118314588
 30
0.0
 10
101.3289776965067
 20
108.2735756067195
 30
0.0
 10
102.3794503872866
 20
108.7615071780491
 30
0.0
 10
103.9717442710169
 20
109.5964003788643
 30
0.0
 10
106.0494007832526
 20
110.907298155351
 30
0.0
 10
108.0328900470052
 20
112.3937488579944
 30
0.0
 10
110.5422092553341
 20
114.6172275399756
 30
0.0
 10
113.3336582792931
 20
117.7842364783008
 30
0.0
 10
115.5632168231155
 20
121.3669221508849
 30
0.0
 10
116.9697982905959
 20
124.4054678149097
 30
0.0
 10
117.8217270647887
 20
126.7267219384656
 30
0.0
 10
118.4792400972479
 20
129.0869143495027
 30
0.0
 10
118.8475977037674
 20
130.9817827180572
 30
0.0
 10
119.0434611092973
 20
132.399045795475
 30
0.0
 10
119.1430640069303
 20
133.3266789418561
 30
0.0
 10
119.2136865345253
 20
134.2565126901756
 30
0.0
 10
119.2579070643188
 20
135.1885636253774
 30
0.0
 10
119.2633600288096
 20
135.8107624908036
 30
0.0
 10
119.2660884777185
 20
136.1220863254544
 30
0.0
  0
SPLINE
  5
D2
330
1F
100
AcDbEntity
  8
0
  6
Continuous
 62
     7
370
    15
100
AcDbSpline
210
0.0
220
0.0
230
1.0
 70
     8
 71
     3
 72
    19
 73
    15
 74
     0
 42
0.000000001
 43
0.00000001
 40
0.0
 40
0.0
 40
0.0
 40
0.0
 40
0.049898326359839
 40
0.0997762390400176
 40
0.1496497875438987
 40
0.1995350255870841
 40
0.249447995605912
 40
0.3746647806075449
 40
0.4999273868530857
 40
0.6251631702822329
 40
0.7504447819000601
 40
0.8336320953484949
 40
0.9167923453893622
 40
0.9999999999999999
 40
0.9999999999999999
 40
0.9999999999999999
 40
0.9999999999999999
 10
70.18177390089762
 20
111.7674091983452
 30
0.0
 10
70.32795728004469
 20
111.6575542878877
 30
0.0
 10
70.62026423391465
 20
111.4378894092205
 30
0.0
 10
71.0660824307841
 20
111.118457631919
 30
0.0
 10
71.51710187231494
 20
110.8065368151347
 30
0.0
 10
71.97386669922517
 20
110.5028380851896
 30
0.0
 10
72.66857553081326
 20
110.0585859374107
 30
0.0
 10
73.61452751260019
 20
109.4948040719726
 30
0.0
 10
74.82818654709948
 20
108.8436982283938
 30
0.0
 10
76.07012207873362
 20
108.2477537973852
 30
0.0
 10
77.19570453062552
 20
107.768574347428
 30
0.0
 10
78.1942806700214
 20
107.3875519965019
 30
0.0
 10
79.05764311960847
 20
107.0853704482615
 30
0.0
 10
79.64034162759575
 20
106.9059083996286
 30
0.0
 10
79.93177389811872
 20
106.8161518075165
 30
0.0
  0
SPLINE
  5
D3
330
1F
100
AcDbEntity
  8
0
  6
Continuous
 62
     7
370
    15
100
AcDbSpline
210
0.0
220
0.0
230
1.0
 70
     8
 71
     3
 72
    34
 73
    30
 74
     0
 42
0.000000001
 43
0.00000001
 40
0.0
 40
0.0
 40
0.0
 40
0.0
 40
0.0091332024637246
 40
0.0182612433735732
 40
0.0273869560692221
 40
0.0365131760588104
 40
0.0456427383778029
 40
0.0547784749500532
 40
0.0835461555907233
 40
0.1123228157747314
 40
0.1423937441782167
 40
0.1724736920987865
 40
0.23495273877644
 40
0.2994478819463337
 40
0.3655379407129442
 40
0.4327295637688299
 40
0.5004764062567953
 40
0.568204418590846
 40
0.6353405018135823
 40
0.7013410455269796
 40
0.765716890733637
 40
0.8280520419345111
 40
0.8580414660304878
 40
0.8880398851909563
 40
0.9167194313852449
 40
0.9454079297705411
 40
0.9636070100697356
 40
0.9817968780876327
 40
0.9999999999999999
 40
0.9999999999999999
 40
0.9999999999999999
 40
0.9999999999999999
 10
79.9317738821673
 20
165.4280208381363
 30
0.0
 10
79.75989726511179
 20
165.3757514741917
 30
0.0
 10
79.41624116565013
 20
165.2712422859016
 30
0.0
 10
78.90444930534815
 20
165.1030330120846
 30
0.0
 10
78.3956278577091
 20
164.9265223126366
 30
0.0
 10
77.89002451180181
 20
164.7408854892051
 30
0.0
 10
77.38756958083721
 20
164.546340151284
 30
0.0
 10
76.5308626302766
 20
164.1971547422049
 30
0.0
 10
75.33449735007486
 20
163.6578173214754
 30
0.0
 10
73.80450879659786
 20
162.8628964579893
 30
0.0
 10
72.29961102783416
 20
161.9693312427765
 30
0.0
 10
70.29976015321077
 20
160.6188325508653
 30
0.0
 10
67.89762131979026
 20
158.6635694761614
 30
0.0
 10
65.26119113678244
 20
155.9171206415399
 30
0.0
 10
62.93500847195835
 20
152.7858430762959
 30
0.0
 10
60.99839214088586
 20
149.3257397914822
 30
0.0
 10
59.51557022371807
 20
145.6132038730269
 30
0.0
 10
58.52984902136127
 20
141.7400619310839
 30
0.0
 10
58.0594068574929
 20
137.8061439570054
 30
0.0
 10
58.09646136634355
 20
133.9107904932594
 30
0.0
 10
58.60919678153763
 20
130.145466318764
 30
0.0
 10
59.39683665081524
 20
127.1572298788682
 30
0.0
 10
60.21484848814008
 20
124.893393432769
 30
0.0
 10
60.90195296439842
 20
123.2892873308026
 30
0.0
 10
61.66713407226146
 20
121.7496838911704
 30
0.0
 10
62.4015852870983
 20
120.4564859349288
 30
0.0
 10
63.08409536290965
 20
119.3733827798566
 30
0.0
 10
63.68614452558413
 20
118.4838346817828
 30
0.0
 10
64.11339415191132
 20
117.9094055196023
 30
0.0
 10
64.32709676469334
 20
117.6220863383746
 30
0.0
  0
ARC
  5
D4
330
1F
100
AcDbEntity
  8
0
  6
Continuous
 62
     7
370
    15
100
AcDbCircle
 10
88.6817739035
 20
136.1220863251
 30
0.0
 40
30.86715729090357
100
AcDbArc
 50
106.2409449512
 51
216.8228239872
  0
SPLINE
  5
D5
330
1F
100
AcDbEntity
  8
0
  6
Continuous
 62
     7
370
    15
100
AcDbSpline
210
0.0
220
0.0
230
1.0
 70
    24
 71
     3
 72
    10
 73
     6
 74
     0
 42
0.000000001
 43
0.00000001
 40
0.0
 40
0.0
 40
0.0
 40
0.0
 40
0.5
 40
0.5
 40
1.0
 40
1.0
 40
1.0
 40
1.0
 10
119.2660884777502
 20
136.1220863254544
 30
0.0
 10
119.3171129355939
 20
136.1220863254544
 30
0.0
 10
119.3701562335936
 20
136.1220863254544
 30
0.0
 10
119.4681674680982
 20
136.1220863254544
 30
0.0
 10
119.5128514501062
 20
136.1220863254544
 30
0.0
 10
119.5489311899277
 20
136.1220863254544
 30
0.0
  0
ARC
  5
D6
330
1F
100
AcDbEntity
  8
0
  6
Continuous
 62
     7
370
    15
100
AcDbCircle
 10
88.6817739025
 20
136.1220863255
 30
0.0
 40
30.86715728734562
100
AcDbArc
 50
286.2409449597
 51
0.0
  0
ARC
  5
D7
330
1F
100
AcDbEntity
  8
0
  6
Continuous
 62
     7
370
    15
100
AcDbCircle
 10
88.6817739025
 20
136.1220863255
 30
0.0
 40
30.86715728744035
100
AcDbArc
 50
0.0
 51
73.759055043
  0
ARC
  5
D8
330
1F
100
AcDbEntity
  8
0
  6
Continuous
 62
     7
370
    15
100
AcDbCircle
 10
88.6817739018
 20
136.1220863259
 30
0.0
 40
30.86715728740665
100
AcDbArc
 50
233.177176009
 51
253.7590550465
  0
SPLINE
  5
D9
330
1F
100
AcDbEntity
  8
0
  6
Continuous
 62
     7
370
    15
100
AcDbSpline
210
0.0
220
0.0
230
1.0
 70
     8
 71
     3
 72
     9
 73
     5
 74
     0
 42
0.000000001
 43
0.00000001
 40
0.0
 40
0.0
 40
0.0
 40
0.0
 40
0.4987803470753149
 40
1.0
 40
1.0
 40
1.0
 40
1.0
 10
80.04893119759377
 20
106.4867117540503
 30
0.0
 10
80.11748874161765
 20
106.3955455633783
 30
0.0
 10
80.25493911316072
 20
106.2127673300205
 30
0.0
 10
80.39326953245885
 20
106.0313217878838
 30
0.0
 10
80.4626034572084
 20
105.9403777162294
 30
0.0
  0
SPLINE
  5
DA
330
1F
100
AcDbEntity
  8
0
  6
Continuous
 62
     7
370
    15
100
AcDbSpline
210
0.0
220
0.0
230
1.0
 70
     8
 71
     3
 72
     8
 73
     4
 74
     0
 42
0.000000001
 43
0.00000001
 40
0.0
 40
0.0
 40
0.0
 40
0.0
 40
0.0005364353529605
 40
0.0005364353529605
 40
0.0005364353529605
 40
0.0005364353529605
 10
80.46260345341346
 20
105.9403777180503
 30
0.0
 10
80.36712056325523
 20
105.844894827892
 30
0.0
 10
80.27171306275079
 20
105.7494873294291
 30
0.0
 10
80.17637834883185
 20
105.6541526155102
 30
0.0
  0
ARC
  5
DB
330
1F
100
AcDbEntity
  8
0
  6
Continuous
 62
     7
370
    15
100
AcDbCircle
 10
88.6817739059
 20
136.1220863323
 30
0.0
 40
31.63284272006281
100
AcDbArc
 50
234.2086512609
 51
254.4024500275
  0
SPLINE
  5
DC
330
1F
100
AcDbEntity
  8
0
  6
Continuous
 62
     7
370
    15
100
AcDbSpline
210
0.0
220
0.0
230
1.0
 70
    24
 71
     3
 72
     9
 73
     5
 74
     0
 42
0.000000001
 43
0.00000001
 40
0.0
 40
0.0
 40
0.0
 40
0.0
 40
0.5037136263313898
 40
1.0
 40
1.0
 40
1.0
 40
1.0
 10
70.18177390277609
 20
110.4630384544075
 30
0.0
 10
70.18177390277609
 20
110.622256205048
 30
0.0
 10
70.18177390277609
 20
110.9383440420996
 30
0.0
 10
70.18177390277609
 20
111.2556687904453
 30
0.0
 10
70.18177390277609
 20
111.413152739077
 30
0.0
  0
SPLINE
  5
DD
330
1F
100
AcDbEntity
  8
0
  6
Continuous
 62
     7
370
    15
100
AcDbSpline
210
0.0
220
0.0
230
1.0
 70
     8
 71
     3
 72
     9
 73
     5
 74
     0
 42
0.000000001
 43
0.00000001
 40
0.0
 40
0.0
 40
0.0
 40
0.0
 40
0.498780347075351
 40
1.0
 40
1.0
 40
1.0
 40
1.0
 10
97.31461661669776
 20
165.7574608917669
 30
0.0
 10
97.24605907270077
 20
165.8486270824794
 30
0.0
 10
97.10860870121161
 20
166.0314053159183
 30
0.0
 10
96.97027828196697
 20
166.2128508581365
 30
0.0
 10
96.90094435724426
 20
166.3037949298319
 30
0.0
  0
SPLINE
  5
DE
330
1F
100
AcDbEntity
  8
0
  6
Continuous
 62
     7
370
    15
100
AcDbSpline
210
0.0
220
0.0
230
1.0
 70
    24
 71
     3
 72
     8
 73
     4
 74
     0
 42
0.000000001
 43
0.00000001
 40
0.0
 40
0.0
 40
0.0
 40
0.0
 40
0.000536435349708
 40
0.000536435349708
 40
0.000536435349708
 40
0.000536435349708
 10
96.90094435413674
 20
166.3037949328151
 30
0.0
 10
96.9964272437146
 20
166.3992778223929
 30
0.0
 10
97.09183474308443
 20
166.4946853217627
 30
0.0
 10
97.1871694564255
 20
166.5900200351038
 30
0.0
  0
ARC
  5
DF
330
1F
100
AcDbEntity
  8
0
  6
Continuous
 62
     7
370
    15
100
AcDbCircle
 10
88.6817739028
 20
136.1220863255
 30
0.0
 40
31.63284271224547
100
AcDbArc
 50
359.9999999882
 51
74.4024500297
  0
ARC
  5
E0
330
1F
100
AcDbEntity
  8
0
  6
Continuous
 62
     7
370
    15
100
AcDbCircle
 10
88.6817739028
 20
136.1220863255
 30
0.0
 40
31.63284271276125
100
AcDbArc
 50
285.7334817376
 51
359.9999999765
  0
LINE
  5
E1
330
1F
100
AcDbEntity
  8
0
  6
Continuous
 62
     7
370
    15
100
AcDbLine
 10
97.2594293161
 20
105.6744170232
 30
0.0
 11
96.8711578882
 21
105.9014201158
 31
0.0
  0
SPLINE
  5
E2
330
1F
100
AcDbEntity
  8
0
  6
Continuous
 62
     7
370
    15
100
AcDbSpline
210
0.0
220
0.0
230
1.0
 70
     8
 71
     3
 72
     9
 73
     5
 74
     0
 42
0.000000001
 43
0.00000001
 40
0.0
 40
0.0
 40
0.0
 40
0.0
 40
0.5013065793165208
 40
0.9999999999999999
 40
0.9999999999999999
 40
0.9999999999999999
 40
0.9999999999999999
 10
96.87115788643436
 20
105.9014201247492
 30
0.0
 10
96.9455135839818
 20
105.9988406113189
 30
0.0
 10
97.09383738545439
 20
106.1931737611103
 30
0.0
 10
97.24115186008774
 20
106.3890363675185
 30
0.0
 10
97.31461661935884
 20
106.4867117606923
 30
0.0
  0
SPLINE
  5
E3
330
1F
100
AcDbEntity
  8
0
  6
Continuous
 62
     7
370
    15
100
AcDbSpline
210
0.0
220
0.0
230
1.0
 70
    24
 71
     3
 72
     9
 73
     5
 74
     0
 42
0.000000001
 43
0.00000001
 40
0.0
 40
0.0
 40
0.0
 40
0.0
 40
0.4962863652118921
 40
1.0
 40
1.0
 40
1.0
 40
1.0
 10
63.97284030833783
 20
117.6220863254544
 30
0.0
 10
63.81535636419984
 20
117.6220863254544
 30
0.0
 10
63.49803161950177
 20
117.6220863254544
 30
0.0
 10
63.18194377881364
 20
117.6220863254544
 30
0.0
 10
63.02272602366829
 20
117.6220863254544
 30
0.0
  0
ARC
  5
E4
330
1F
100
AcDbEntity
  8
0
  6
Continuous
 62
     7
370
    15
100
AcDbCircle
 10
88.6817739025
 20
136.1220863257
 30
0.0
 40
31.63284271225417
100
AcDbArc
 50
105.7334817317
 51
215.7913487379
  0
LINE
  5
E5
330
1F
100
AcDbEntity
  8
0
  6
Continuous
 62
     7
370
    15
100
AcDbLine
 10
80.1041185006
 20
166.5697556211
 30
0.0
 11
80.4923899285
 21
166.3427525286
 31
0.0
  0
SPLINE
  5
E6
330
1F
100
AcDbEntity
  8
0
  6
Continuous
 62
     7
370
    15
100
AcDbSpline
210
0.0
220
0.0
230
1.0
 70
     8
 71
     3
 72
     9
 73
     5
 74
     0
 42
0.000000001
 43
0.00000001
 40
0.0
 40
0.0
 40
0.0
 40
0.0
 40
0.5013065560617223
 40
0.9999999999999999
 40
0.9999999999999999
 40
0.9999999999999999
 40
0.9999999999999999
 10
80.49238992802977
 20
166.3427525309897
 30
0.0
 10
80.41803423289723
 20
166.2453320505069
 30
0.0
 10
80.26971042936137
 20
166.0509989038429
 30
0.0
 10
80.12239595666408
 20
165.8551362945001
 30
0.0
 10
80.0489311949327
 20
165.7574608953082
 30
0.0
  0
ARC
  5
E7
330
1F
100
AcDbEntity
  8
0
  6
Continuous
 62
     7
370
    15
100
AcDbCircle
 10
88.6817739028
 20
136.1220863255
 30
0.0
 40
31.63284271224762
100
AcDbArc
 50
215.7913487373
 51
234.2086512627
  0
ARC
  5
E8
330
1F
100
AcDbEntity
  8
0
  6
Continuous
 62
     7
370
    15
100
AcDbCircle
 10
88.6817739028
 20
136.1220863255
 30
0.0
 40
31.63284271224759
100
AcDbArc
 50
74.4024500297
 51
105.7334817367
  0
ARC
  5
E9
330
1F
100
AcDbEntity
  8
0
  6
Continuous
 62
     7
370
    15
100
AcDbCircle
 10
88.6817739028
 20
136.1220863255
 30
0.0
 40
31.63284271224763
100
AcDbArc
 50
254.4024500297
 51
285.7334817367
  0
ARC
  5
EA
330
1F
100
AcDbEntity
  8
0
  6
Continuous
 62
     7
370
    15
100
AcDbCircle
 10
88.6817739028
 20
136.1220863255
 30
0.0
 40
31.75000000000456
100
AcDbArc
 50
254.2833781209
 51
285.9369715327
  0
SPLINE
  5
EB
330
1F
100
AcDbEntity
  8
0
  6
Continuous
 62
     7
370
    15
100
AcDbSpline
210
0.0
220
0.0
230
1.0
 70
    24
 71
     3
 72
     8
 73
     4
 74
     0
 42
0.000000001
 43
0.00000001
 40
0.0
 40
0.0
 40
0.0
 40
0.0
 40
1.0
 40
1.0
 40
1.0
 40
1.0
 10
80.08134286465848
 20
105.5591171313368
 30
0.0
 10
80.08134286469866
 20
105.559117131377
 30
0.0
 10
80.11861684919828
 20
105.5963911158766
 30
0.0
 10
80.17637834886764
 20
105.654152615546
 30
0.0
  0
SPLINE
  5
EC
330
1F
100
AcDbEntity
  8
0
  6
Continuous
 62
     7
370
    15
100
AcDbSpline
210
0.0
220
0.0
230
1.0
 70
    24
 71
     3
 72
    10
 73
     6
 74
     0
 42
0.000000001
 43
0.00000001
 40
0.0
 40
0.0
 40
0.0
 40
0.0
 40
0.5
 40
0.5
 40
1.0
 40
1.0
 40
1.0
 40
1.0
 10
97.25942931257019
 20
105.6744170253375
 30
0.0
 10
97.29922339617617
 20
105.6511513936342
 30
0.0
 10
97.33405806400368
 20
105.6307852869485
 30
0.0
 10
97.38462519722948
 20
105.6012211861748
 30
0.0
 10
97.39968094063882
 20
105.59241883795
 30
0.0
 10
97.39968094031052
 20
105.592418838142
 30
0.0
  0
SPLINE
  5
ED
330
1F
100
AcDbEntity
  8
0
  6
Continuous
 62
     7
370
    15
100
AcDbSpline
210
0.0
220
0.0
230
1.0
 70
    24
 71
     3
 72
     8
 73
     4
 74
     0
 42
0.000000001
 43
0.00000001
 40
0.0
 40
0.0
 40
0.0
 40
0.0
 40
1.0
 40
1.0
 40
1.0
 40
1.0
 10
62.8784310961948
 20
117.6220863254544
 30
0.0
 10
62.87843109563767
 20
117.6220863254544
 30
0.0
 10
62.93721615354107
 20
117.6220863254546
 30
0.0
 10
63.02272602219689
 20
117.6220863254546
 30
0.0
  0
SPLINE
  5
EE
330
1F
100
AcDbEntity
  8
0
  6
Continuous
 62
     7
370
    15
100
AcDbSpline
210
0.0
220
0.0
230
1.0
 70
    24
 71
     3
 72
     8
 73
     4
 74
     0
 42
0.000000001
 43
0.00000001
 40
0.0
 40
0.0
 40
0.0
 40
0.0
 40
1.0
 40
1.0
 40
1.0
 40
1.0
 10
70.18177390277609
 20
110.4630384469265
 30
0.0
 10
70.18177390277609
 20
110.3774248647639
 30
0.0
 10
70.18177390277667
 20
110.3187435182613
 30
0.0
 10
70.18177390277667
 20
110.318743519031
 30
0.0
  0
ARC
  5
EF
330
1F
100
AcDbEntity
  8
0
  6
Continuous
 62
     7
370
    15
100
AcDbCircle
 10
88.6817739028
 20
136.1220863255
 30
0.0
 40
31.75000000000455
100
AcDbArc
 50
215.6390613326
 51
234.3609386674
  0
ARC
  5
F0
330
1F
100
AcDbEntity
  8
0
  6
Continuous
 62
     7
370
    15
100
AcDbCircle
 10
88.6817739028
 20
136.1220863255
 30
0.0
 40
31.75000000000454
100
AcDbArc
 50
74.2833781209
 51
105.9369715327
  0
SPLINE
  5
F1
330
1F
100
AcDbEntity
  8
0
  6
Continuous
 62
     7
370
    15
100
AcDbSpline
210
0.0
220
0.0
230
1.0
 70
    24
 71
     3
 72
     8
 73
     4
 74
     0
 42
0.000000001
 43
0.00000001
 40
0.0
 40
0.0
 40
0.0
 40
0.0
 40
1.0
 40
1.0
 40
1.0
 40
1.0
 10
97.28220494059745
 20
166.6850555192758
 30
0.0
 10
97.28220494092305
 20
166.6850555196014
 30
0.0
 10
97.24493095624892
 20
166.6477815349272
 30
0.0
 10
97.18716945637487
 20
166.5900200350532
 30
0.0
  0
SPLINE
  5
F2
330
1F
100
AcDbEntity
  8
0
  6
Continuous
 62
     7
370
    15
100
AcDbSpline
210
0.0
220
0.0
230
1.0
 70
    24
 71
     3
 72
    10
 73
     6
 74
     0
 42
0.000000001
 43
0.00000001
 40
0.0
 40
0.0
 40
0.0
 40
0.0
 40
0.5
 40
0.5
 40
1.0
 40
1.0
 40
1.0
 40
1.0
 10
80.10411849470778
 20
166.5697556245624
 30
0.0
 10
80.06432441079015
 20
166.5930212564479
 30
0.0
 10
80.02948974269864
 20
166.613387363288
 30
0.0
 10
79.97892260907385
 20
166.6429514642949
 30
0.0
 10
79.9638668655215
 20
166.6517538126033
 30
0.0
 10
79.96386686563046
 20
166.6517538125396
 30
0.0
  0
ARC
  5
F3
330
1F
100
AcDbEntity
  8
0
  6
Continuous
 62
     7
370
    15
100
AcDbCircle
 10
88.6817739028
 20
136.1220863255
 30
0.0
 40
31.75000000000455
100
AcDbArc
 50
105.9369715327
 51
215.6390613326
  0
ARC
  5
F4
330
1F
100
AcDbEntity
  8
0
  6
Continuous
 62
     7
370
    15
100
AcDbCircle
 10
88.6817739028
 20
136.1220863255
 30
0.0
 40
31.75000000000455
100
AcDbArc
 50
234.3609386674
 51
254.2833781209
  0
ARC
  5
F5
330
1F
100
AcDbEntity
  8
0
  6
Continuous
 62
     7
370
    15
100
AcDbCircle
 10
88.6817739028
 20
136.1220863255
 30
0.0
 40
31.75
100
AcDbArc
 50
0.0
 51
74.2833781211
  0
SPLINE
  5
F6
330
1F
100
AcDbEntity
  8
0
  6
Continuous
 62
     7
370
    15
100
AcDbSpline
210
0.0
220
0.0
230
1.0
 70
    24
 71
     3
 72
    10
 73
     6
 74
     0
 42
0.000000001
 43
0.00000001
 40
0.0
 40
0.0
 40
0.0
 40
0.0
 40
0.5
 40
0.5
 40
1.0
 40
1.0
 40
1.0
 40
1.0
 10
120.3146166155189
 20
136.1220863254544
 30
0.0
 10
120.3506963553664
 20
136.1220863254544
 30
0.0
 10
120.3810269245445
 20
136.1220863254544
 30
0.0
 10
120.4216245072205
 20
136.1220863254544
 30
0.0
 10
120.4317739029054
 20
136.1220863254544
 30
0.0
 10
120.4317739027942
 20
136.1220863254544
 30
0.0
  0
ARC
  5
F7
330
1F
100
AcDbEntity
  8
0
  6
Continuous
 62
     7
370
    15
100
AcDbCircle
 10
88.6817739028
 20
136.1220863255
 30
0.0
 40
31.75
100
AcDbArc
 50
285.9369715323
 51
359.9999999897
  0
INSERT
  5
103
330
1F
100
AcDbEntity
  8
DIM
100
AcDbBlockReference
  2
SW_CENTERMARKSYMBOL_0
 10
88.6817739028
 20
136.1220863255
 30
0.0
  0
LINE
  5
104
330
1F
100
AcDbEntity
  8
0
  6
Continuous
 62
     7
370
    15
100
AcDbLine
 10
239.4677435964
 20
104.3720863255
 30
0.0
 11
242.7802215294
 21
104.3720863255
 31
0.0
  0
LINE
  5
105
330
1F
100
AcDbEntity
  8
0
  6
Continuous
 62
     7
370
    15
100
AcDbLine
 10
242.7802215294
 20
167.8720863255
 30
0.0
 11
239.4677435964
 21
167.8720863255
 31
0.0
  0
LINE
  5
106
330
1F
100
AcDbEntity
  8
0
  6
Continuous
 62
     7
370
    15
100
AcDbLine
 10
229.2115923794
 20
104.3720863255
 30
0.0
 11
232.4240703124
 21
104.3720863255
 31
0.0
  0
LINE
  5
107
330
1F
100
AcDbEntity
  8
0
  6
Continuous
 62
     7
370
    15
100
AcDbLine
 10
232.4240703124
 20
167.8720863255
 30
0.0
 11
229.2115923794
 21
167.8720863255
 31
0.0
  0
LINE
  5
108
330
1F
100
AcDbEntity
  8
0
  6
Continuous
 62
     7
370
    15
100
AcDbLine
 10
239.4677435964
 20
167.8720863255
 30
0.0
 11
237.8459069544
 21
165.0629828595
 31
0.0
  0
LINE
  5
109
330
1F
100
AcDbEntity
  8
0
  6
Continuous
 62
     7
370
    15
100
AcDbLine
 10
237.8459069544
 20
107.1811897915
 30
0.0
 11
239.4677435964
 21
104.3720863255
 31
0.0
  0
LINE
  5
10A
330
1F
100
AcDbEntity
  8
0
  6
Continuous
 62
     7
370
    15
100
AcDbLine
 10
232.4240703124
 20
104.3720863255
 30
0.0
 11
234.0459069544
 21
107.1811897915
 31
0.0
  0
LINE
  5
10B
330
1F
100
AcDbEntity
  8
0
  6
Continuous
 62
     7
370
    15
100
AcDbLine
 10
234.0459069544
 20
165.0629828595
 30
0.0
 11
232.4240703124
 21
167.8720863255
 31
0.0
  0
LINE
  5
10C
330
1F
100
AcDbEntity
  8
0
  6
Continuous
 62
     7
370
    15
100
AcDbLine
 10
234.0459069578
 20
108.1220863255
 30
0.0
 11
237.845906958
 21
108.1220863255
 31
0.0
  0
LINE
  5
10D
330
1F
100
AcDbEntity
  8
0
  6
Continuous
 62
     7
370
    15
100
AcDbLine
 10
237.845906958
 20
164.1220863255
 30
0.0
 11
234.0459069578
 21
164.1220863255
 31
0.0
  0
ARC
  5
10E
330
1F
100
AcDbEntity
  8
0
  6
Continuous
 62
     7
370
    15
100
AcDbCircle
 10
227.645906954
 20
113.7220863251
 30
0.0
 40
0.400000000216707
100
AcDbArc
 50
0.000000045
 51
89.9999999705
  0
ARC
  5
10F
330
1F
100
AcDbEntity
  8
0
  6
Continuous
 62
     7
370
    15
100
AcDbCircle
 10
227.645906954
 20
158.5220863258
 30
0.0
 40
0.4000000002167212
100
AcDbArc
 50
270.0000000295
 51
359.999999955
  0
LINE
  5
110
330
1F
100
AcDbEntity
  8
0
  6
Continuous
 62
     7
370
    15
100
AcDbLine
 10
224.8459069544
 20
113.8970863255
 30
0.0
 11
225.3284210114
 21
114.1220863255
 31
0.0
  0
LINE
  5
111
330
1F
100
AcDbEntity
  8
0
  6
Continuous
 62
     7
370
    15
100
AcDbLine
 10
225.3284210114
 20
158.1220863255
 30
0.0
 11
224.8459069544
 21
158.3470863255
 31
0.0
  0
LINE
  5
112
330
1F
100
AcDbEntity
  8
0
  6
Continuous
 62
     7
370
    15
100
AcDbLine
 10
224.8459069544
 20
158.3470863255
 30
0.0
 11
157.3015987274
 21
148.4967817015
 31
0.0
  0
LINE
  5
113
330
1F
100
AcDbEntity
  8
0
  6
Continuous
 62
     7
370
    15
100
AcDbLine
 10
157.3015987274
 20
123.7473909495
 30
0.0
 11
224.8459069544
 21
113.8970863255
 31
0.0
  0
LINE
  5
114
330
1F
100
AcDbEntity
  8
0
  6
Continuous
 62
     7
370
    15
100
AcDbLine
 10
225.3284210114
 20
114.1220863255
 30
0.0
 11
227.6459069543
 21
114.1220863255
 31
0.0
  0
LINE
  5
115
330
1F
100
AcDbEntity
  8
0
  6
Continuous
 62
     7
370
    15
100
AcDbLine
 10
227.6459069543
 20
158.1220863255
 30
0.0
 11
225.3284210114
 21
158.1220863255
 31
0.0
  0
SPLINE
  5
116
330
1F
100
AcDbEntity
  8
0
  6
Continuous
 62
     7
370
    15
100
AcDbSpline
210
0.0
220
0.0
230
1.0
 70
     8
 71
     3
 72
    13
 73
     9
 74
     0
 42
0.000000001
 43
0.00000001
 40
0.0
 40
0.0
 40
0.0
 40
0.0
 40
0.119749623827281
 40
0.3200543765028345
 40
0.5296033109366298
 40
0.6939820896483264
 40
0.8521536786880394
 40
1.0
 40
1.0
 40
1.0
 40
1.0
 10
246.9493086784591
 20
147.1500142763088
 30
0.0
 10
246.7607682748707
 20
147.1492595526621
 30
0.0
 10
246.2568570358413
 20
147.1472424055642
 30
0.0
 10
245.4637935556883
 20
147.4610753645305
 30
0.0
 10
244.7428187697038
 20
148.0195597564265
 30
0.0
 10
244.2638145527113
 20
148.7122335156573
 30
0.0
 10
243.9940629220168
 20
149.4095665612221
 30
0.0
 10
243.961593765829
 20
149.8899829373973
 30
0.0
 10
243.9459069542534
 20
150.1220863258359
 30
0.0
  0
SPLINE
  5
117
330
1F
100
AcDbEntity
  8
0
  6
Continuous
 62
     7
370
    15
100
AcDbSpline
210
0.0
220
0.0
230
1.0
 70
     8
 71
     3
 72
    13
 73
     9
 74
     0
 42
0.000000001
 43
0.00000001
 40
0.0
 40
0.0
 40
0.0
 40
0.0
 40
0.1899421694843544
 40
0.3948365908217507
 40
0.6052300763297734
 40
0.7674455924981578
 40
0.9213787732732265
 40
1.0
 40
1.0
 40
1.0
 40
1.0
 10
243.9459069542534
 20
122.1220863250729
 30
0.0
 10
243.9719392258228
 20
122.4205375873302
 30
0.0
 10
244.0260530299649
 20
123.0409342019209
 30
0.0
 10
244.4701809370494
 20
123.9043715588499
 30
0.0
 10
245.1177997222727
 20
124.5576936164445
 30
0.0
 10
245.8529484262014
 20
124.9437855049714
 30
0.0
 10
246.4583318977959
 20
125.1143777765247
 30
0.0
 10
246.8233074833218
 20
125.1063572789668
 30
0.0
 10
246.9466972249638
 20
125.1036457356177
 30
0.0
  0
SPLINE
  5
118
330
1F
100
AcDbEntity
  8
0
  6
Continuous
 62
     7
370
    15
100
AcDbSpline
210
0.0
220
0.0
230
1.0
 70
     8
 71
     3
 72
    11
 73
     7
 74
     0
 42
0.000000001
 43
0.00000001
 40
0.0
 40
0.0
 40
0.0
 40
0.0
 40
0.2418856032025078
 40
0.5000000000124919
 40
0.758114396836261
 40
1.0
 40
1.0
 40
1.0
 40
1.0
 10
157.3015987274363
 20
148.4967817014136
 30
0.0
 10
157.189446546101
 20
148.4687264057888
 30
0.0
 10
156.9576175743615
 20
148.4107335049008
 30
0.0
 10
156.6740020491969
 20
148.1747484520938
 30
0.0
 10
156.4814151560998
 20
147.8600470065458
 30
0.0
 10
156.457484107103
 20
147.6222757854644
 30
0.0
 10
156.4459069546608
 20
147.5072489150089
 30
0.0
  0
SPLINE
  5
119
330
1F
100
AcDbEntity
  8
0
  6
Continuous
 62
     7
370
    15
100
AcDbSpline
210
0.0
220
0.0
230
1.0
 70
     8
 71
     3
 72
    11
 73
     7
 74
     0
 42
0.000000001
 43
0.00000001
 40
0.0
 40
0.0
 40
0.0
 40
0.0
 40
0.2418856031626066
 40
0.4999999999851674
 40
0.7581143967952234
 40
1.0
 40
1.0
 40
1.0
 40
1.0
 10
156.4459069546608
 20
124.7369237358999
 30
0.0
 10
156.4574841071021
 20
124.621896865449
 30
0.0
 10
156.4814151560971
 20
124.3841256443768
 30
0.0
 10
156.67400204918
 20
124.069424198837
 30
0.0
 10
156.9576175743271
 20
123.8334391460284
 30
0.0
 10
157.1894465460571
 20
123.7754462451315
 30
0.0
 10
157.3015987273882
 20
123.7473909495023
 30
0.0
  0
LINE
  5
11A
330
1F
100
AcDbEntity
  8
0
  6
Continuous
 62
     7
370
    15
100
AcDbLine
 10
246.9459069544
 20
125.1220863255
 30
0.0
 11
271.2459069544
 21
125.1220863255
 31
0.0
  0
LINE
  5
11B
330
1F
100
AcDbEntity
  8
0
  6
Continuous
 62
     7
370
    15
100
AcDbLine
 10
271.2459069544
 20
147.1220863255
 30
0.0
 11
246.9459069544
 21
147.1220863255
 31
0.0
  0
ARC
  5
11C
330
1F
100
AcDbEntity
  8
0
  6
Continuous
 62
     7
370
    15
100
AcDbCircle
 10
294.445906954
 20
125.5220863258
 30
0.0
 40
0.4000000002708788
100
AcDbArc
 50
270.0000000467
 51
0.0000000014
  0
ARC
  5
11D
330
1F
100
AcDbEntity
  8
0
  6
Continuous
 62
     7
370
    15
100
AcDbCircle
 10
294.445906954
 20
146.7220863251
 30
0.0
 40
0.4000000002708646
100
AcDbArc
 50
359.9999999986
 51
89.9999999533
  0
LINE
  5
11E
330
1F
100
AcDbEntity
  8
0
  6
Continuous
 62
     7
370
    15
100
AcDbLine
 10
277.7459069544
 20
125.1220863255
 30
0.0
 11
294.4459069544
 21
125.1220863255
 31
0.0
  0
LINE
  5
11F
330
1F
100
AcDbEntity
  8
0
  6
Continuous
 62
     7
370
    15
100
AcDbLine
 10
294.4459069544
 20
147.1220863255
 30
0.0
 11
277.7459069544
 21
147.1220863255
 31
0.0
  0
LINE
  5
120
330
1F
100
AcDbEntity
  8
0
  6
Continuous
 62
     7
370
    15
100
AcDbLine
 10
277.7459069544
 20
147.1220863255
 30
0.0
 11
277.3459069544
 21
146.7220863255
 31
0.0
  0
LINE
  5
121
330
1F
100
AcDbEntity
  8
0
  6
Continuous
 62
     7
370
    15
100
AcDbLine
 10
277.3459069544
 20
125.5220863255
 30
0.0
 11
277.7459069544
 21
125.1220863255
 31
0.0
  0
LINE
  5
122
330
1F
100
AcDbEntity
  8
0
  6
Continuous
 62
     7
370
    15
100
AcDbLine
 10
271.2459069544
 20
125.1220863255
 30
0.0
 11
272.9615124904
 21
125.9220863255
 31
0.0
  0
LINE
  5
123
330
1F
100
AcDbEntity
  8
0
  6
Continuous
 62
     7
370
    15
100
AcDbLine
 10
272.9615124904
 20
146.3220863255
 30
0.0
 11
271.2459069544
 21
147.1220863255
 31
0.0
  0
LINE
  5
124
330
1F
100
AcDbEntity
  8
0
  6
Continuous
 62
     7
370
    15
100
AcDbLine
 10
272.9615124904
 20
125.9220863255
 30
0.0
 11
277.3459069544
 21
125.9220863255
 31
0.0
  0
LINE
  5
125
330
1F
100
AcDbEntity
  8
0
  6
Continuous
 62
     7
370
    15
100
AcDbLine
 10
277.3459069544
 20
146.3220863255
 30
0.0
 11
272.9615124904
 21
146.3220863255
 31
0.0
  0
ARC
  5
126
330
1F
100
AcDbEntity
  8
0
  6
Continuous
 62
     7
370
    15
100
AcDbCircle
 10
228.4459069525
 20
166.7064009011
 30
0.0
 40
0.3999999981377584
100
AcDbArc
 50
134.9999999424
 51
180.000000483
  0
ARC
  5
127
330
1F
100
AcDbEntity
  8
0
  6
Continuous
 62
     7
370
    15
100
AcDbCircle
 10
228.4459069525
 20
105.5377717498
 30
0.0
 40
0.3999999981377584
100
AcDbArc
 50
179.999999517
 51
225.0000000576
  0
ARC
  5
128
330
1F
100
AcDbEntity
  8
0
  6
Continuous
 62
     7
370
    15
100
AcDbCircle
 10
229.2115923787
 20
104.7720863236
 30
0.0
 40
0.3999999981810835
100
AcDbArc
 50
224.999999831
 51
270.0000001004
  0
ARC
  5
129
330
1F
100
AcDbEntity
  8
0
  6
Continuous
 62
     7
370
    15
100
AcDbCircle
 10
242.7802215301
 20
104.7720863236
 30
0.0
 40
0.3999999981856757
100
AcDbArc
 50
269.9999998996
 51
315.0000001905
  0
LINE
  5
12A
330
1F
100
AcDbEntity
  8
0
  6
Continuous
 62
     7
370
    15
100
AcDbLine
 10
228.1630642416
 20
105.2549290383
 30
0.0
 11
228.9287496667
 21
104.4892436132
 31
0.0
  0
LINE
  5
12B
330
1F
100
AcDbEntity
  8
0
  6
Continuous
 62
     7
370
    15
100
AcDbLine
 10
228.9287496667
 20
167.7549290377
 30
0.0
 11
228.1630642416
 21
166.9892436126
 31
0.0
  0
ARC
  5
12C
330
1F
100
AcDbEntity
  8
0
  6
Continuous
 62
     7
370
    15
100
AcDbCircle
 10
242.7802215301
 20
167.4720863273
 30
0.0
 40
0.3999999981856858
100
AcDbArc
 50
44.9999998095
 51
90.0000001004
  0
ARC
  5
12D
330
1F
100
AcDbEntity
  8
0
  6
Continuous
 62
     7
370
    15
100
AcDbCircle
 10
229.2115923787
 20
167.4720863273
 30
0.0
 40
0.3999999981810634
100
AcDbArc
 50
89.9999998996
 51
135.000000169
  0
LINE
  5
12E
330
1F
100
AcDbEntity
  8
0
  6
Continuous
 62
     7
370
    15
100
AcDbLine
 10
243.0630642422
 20
104.4892436133
 30
0.0
 11
243.8287496671
 21
105.2549290383
 31
0.0
  0
LINE
  5
12F
330
1F
100
AcDbEntity
  8
0
  6
Continuous
 62
     7
370
    15
100
AcDbLine
 10
243.8287496671
 20
166.9892436126
 30
0.0
 11
243.0630642422
 21
167.7549290376
 31
0.0
  0
ARC
  5
130
330
1F
100
AcDbEntity
  8
0
  6
Continuous
 62
     7
370
    15
100
AcDbCircle
 10
243.5459069562
 20
105.5377717498
 30
0.0
 40
0.3999999981593785
100
AcDbArc
 50
314.9999999414
 51
0.0000004805
  0
ARC
  5
131
330
1F
100
AcDbEntity
  8
0
  6
Continuous
 62
     7
370
    15
100
AcDbCircle
 10
243.5459069562
 20
166.7064009011
 30
0.0
 40
0.3999999981593585
100
AcDbArc
 50
359.9999995195
 51
45.0000000586
  0
LINE
  5
132
330
1F
100
AcDbEntity
  8
0
  6
Continuous
 62
     7
370
    15
100
AcDbLine
 10
239.4677435964
 20
167.8720863255
 30
0.0
 11
239.4677435964
 21
104.3720863255
 31
0.0
  0
LINE
  5
133
330
1F
100
AcDbEntity
  8
0
  6
Continuous
 62
     7
370
    15
100
AcDbLine
 10
242.7802215292
 20
166.6850555194
 30
0.0
 11
242.7802215294
 21
136.1220863255
 31
0.0
  0
LINE
  5
134
330
1F
100
AcDbEntity
  8
0
  6
Continuous
 62
     7
370
    15
100
AcDbLine
 10
242.7802215294
 20
136.1220863198
 30
0.0
 11
242.7802215293
 21
105.5924188383
 31
0.0
  0
LINE
  5
135
330
1F
100
AcDbEntity
  8
0
  6
Continuous
 62
     7
370
    15
100
AcDbLine
 10
229.2115923797
 20
105.5924188383
 30
0.0
 11
229.2115923794
 21
136.1220863198
 31
0.0
  0
LINE
  5
136
330
1F
100
AcDbEntity
  8
0
  6
Continuous
 62
     7
370
    15
100
AcDbLine
 10
229.2115923794
 20
136.1220863255
 30
0.0
 11
229.2115923797
 21
166.6850555194
 31
0.0
  0
LINE
  5
137
330
1F
100
AcDbEntity
  8
0
  6
Continuous
 62
     7
370
    15
100
AcDbLine
 10
232.4240703124
 20
104.3720863255
 30
0.0
 11
232.4240703124
 21
167.8720863255
 31
0.0
  0
SPLINE
  5
138
330
1F
100
AcDbEntity
  8
0
  6
Continuous
 62
     7
370
    15
100
AcDbSpline
210
0.0
220
0.0
230
1.0
 70
    24
 71
     3
 72
    10
 73
     6
 74
     0
 42
0.000000001
 43
0.00000001
 40
0.0
 40
0.0
 40
0.0
 40
0.0
 40
0.5
 40
0.5
 40
1.0
 40
1.0
 40
1.0
 40
1.0
 10
228.9287496672241
 20
136.1220863254544
 30
0.0
 10
228.9648294070455
 20
136.1220863254544
 30
0.0
 10
229.0095133890535
 20
136.1220863254544
 30
0.0
 10
229.1075246235582
 20
136.1220863254544
 30
0.0
 10
229.1605679215579
 20
136.1220863254544
 30
0.0
 10
229.2115923794016
 20
136.1220863254544
 30
0.0
  0
LINE
  5
139
330
1F
100
AcDbEntity
  8
0
  6
Continuous
 62
     7
370
    15
100
AcDbLine
 10
228.9287496667
 20
166.5900200351
 30
0.0
 11
228.9287496664
 21
136.122086319
 31
0.0
  0
SPLINE
  5
13A
330
1F
100
AcDbEntity
  8
0
  6
Continuous
 62
     7
370
    15
100
AcDbSpline
210
0.0
220
0.0
230
1.0
 70
     8
 71
     3
 72
     8
 73
     4
 74
     0
 42
0.000000001
 43
0.00000001
 40
0.0
 40
0.0
 40
0.0
 40
0.0
 40
1.0
 40
1.0
 40
1.0
 40
1.0
 10
229.2115923801052
 20
166.6850555192758
 30
0.0
 10
229.1030865934001
 20
166.6850555196014
 30
0.0
 10
228.9999148783818
 20
166.6477815349272
 30
0.0
 10
228.9287496667349
 20
166.5900200350532
 30
0.0
  0
SPLINE
  5
13B
330
1F
100
AcDbEntity
  8
0
  6
Continuous
 62
     7
370
    15
100
AcDbSpline
210
0.0
220
0.0
230
1.0
 70
     8
 71
     3
 72
    10
 73
     6
 74
     0
 42
0.000000001
 43
0.00000001
 40
0.0
 40
0.0
 40
0.0
 40
0.0
 40
0.5
 40
0.5
 40
1.0
 40
1.0
 40
1.0
 40
1.0
 10
228.9287496679277
 20
105.6744170253375
 30
0.0
 10
228.9619342984815
 20
105.6511513936342
 30
0.0
 10
229.0026608468481
 20
105.6307852869485
 30
0.0
 10
229.0989527018076
 20
105.6012211861748
 30
0.0
 10
229.1545187710439
 20
105.59241883795
 30
0.0
 10
229.2115923799371
 20
105.592418838142
 30
0.0
  0
LINE
  5
13C
330
1F
100
AcDbEntity
  8
0
  6
Continuous
 62
     7
370
    15
100
AcDbLine
 10
228.9287496664
 20
136.1220863125
 30
0.0
 11
228.9287496672
 21
105.6744170259
 31
0.0
  0
LINE
  5
13D
330
1F
100
AcDbEntity
  8
0
  6
Continuous
 62
     7
370
    15
100
AcDbLine
 10
243.0630642424
 20
136.1220863198
 30
0.0
 11
243.0630642428
 21
166.5900200344
 31
0.0
  0
SPLINE
  5
13E
330
1F
100
AcDbEntity
  8
0
  6
Continuous
 62
     7
370
    15
100
AcDbSpline
210
0.0
220
0.0
230
1.0
 70
    24
 71
     3
 72
    10
 73
     6
 74
     0
 42
0.000000001
 43
0.00000001
 40
0.0
 40
0.0
 40
0.0
 40
0.0
 40
0.5
 40
0.5
 40
1.0
 40
1.0
 40
1.0
 40
1.0
 10
242.7802215293497
 20
136.1220863254544
 30
0.0
 10
242.8312459872301
 20
136.1220863254544
 30
0.0
 10
242.8842892852693
 20
136.1220863254544
 30
0.0
 10
242.9823005198328
 20
136.1220863254544
 30
0.0
 10
243.0269845018591
 20
136.1220863254544
 30
0.0
 10
243.0630642416828
 20
136.1220863254544
 30
0.0
  0
SPLINE
  5
13F
330
1F
100
AcDbEntity
  8
0
  6
Continuous
 62
     7
370
    15
100
AcDbSpline
210
0.0
220
0.0
230
1.0
 70
     8
 71
     3
 72
     8
 73
     4
 74
     0
 42
0.000000001
 43
0.00000001
 40
0.0
 40
0.0
 40
0.0
 40
0.0
 40
1.0
 40
1.0
 40
1.0
 40
1.0
 10
243.0630642432906
 20
166.590020034019
 30
0.0
 10
242.9919005192438
 20
166.6477803269982
 30
0.0
 10
242.8887303584769
 20
166.6850555195225
 30
0.0
 10
242.7802215290046
 20
166.6850555192758
 30
0.0
  0
LINE
  5
140
330
1F
100
AcDbEntity
  8
0
  6
Continuous
 62
     7
370
    15
100
AcDbLine
 10
243.0630642425
 20
105.6744170244
 30
0.0
 11
243.0630642424
 21
136.1220863198
 31
0.0
  0
SPLINE
  5
141
330
1F
100
AcDbEntity
  8
0
  6
Continuous
 62
     7
370
    15
100
AcDbSpline
210
0.0
220
0.0
230
1.0
 70
     8
 71
     3
 72
    10
 73
     6
 74
     0
 42
0.000000001
 43
0.00000001
 40
0.0
 40
0.0
 40
0.0
 40
0.0
 40
0.5
 40
0.5
 40
1.0
 40
1.0
 40
1.0
 40
1.0
 10
242.7802215292916
 20
105.592418838142
 30
0.0
 10
242.8372888110349
 20
105.5924188379976
 30
0.0
 10
242.8927344587801
 20
105.6011886485651
 30
0.0
 10
242.9891639142495
 20
105.6307822491921
 30
0.0
 10
243.0298746907158
 20
105.6511479442659
 30
0.0
 10
243.0630642425621
 20
105.674417026558
 30
0.0
  0
LINE
  5
142
330
1F
100
AcDbEntity
  8
0
  6
Continuous
 62
     7
370
    15
100
AcDbLine
 10
237.8459069544
 20
107.1811897915
 30
0.0
 11
237.8459069544
 21
165.0629828595
 31
0.0
  0
LINE
  5
143
330
1F
100
AcDbEntity
  8
0
  6
Continuous
 62
     7
370
    15
100
AcDbLine
 10
234.0459069544
 20
136.1220863255
 30
0.0
 11
234.0459069544
 21
107.1811897915
 31
0.0
  0
LINE
  5
144
330
1F
100
AcDbEntity
  8
0
  6
Continuous
 62
     7
370
    15
100
AcDbLine
 10
234.0459069544
 20
165.0629828595
 30
0.0
 11
234.0459069544
 21
136.1220863255
 31
0.0
  0
LINE
  5
145
330
1F
100
AcDbEntity
  8
0
  6
Continuous
 62
     7
370
    15
100
AcDbLine
 10
228.1630642397
 20
106.4867117598
 30
0.0
 11
228.1630642416
 21
136.1220863255
 31
0.0
  0
LINE
  5
146
330
1F
100
AcDbEntity
  8
0
  6
Continuous
 62
     7
370
    15
100
AcDbLine
 10
228.1630642416
 20
136.1220863255
 30
0.0
 11
228.163064241
 21
165.7574608918
 31
0.0
  0
SPLINE
  5
147
330
1F
100
AcDbEntity
  8
0
  6
Continuous
 62
     7
370
    15
100
AcDbSpline
210
0.0
220
0.0
230
1.0
 70
     8
 71
     3
 72
     9
 73
     5
 74
     0
 42
0.000000001
 43
0.00000001
 40
0.0
 40
0.0
 40
0.0
 40
0.0
 40
0.498780347075351
 40
1.0
 40
1.0
 40
1.0
 40
1.0
 10
228.1630642404539
 20
165.7574608917669
 30
0.0
 10
228.231621784451
 20
165.8486270824794
 30
0.0
 10
228.3690721559401
 20
166.0314053159183
 30
0.0
 10
228.5074025751848
 20
166.2128508581365
 30
0.0
 10
228.5767364999075
 20
166.3037949298319
 30
0.0
  0
SPLINE
  5
148
330
1F
100
AcDbEntity
  8
0
  6
Continuous
 62
     7
370
    15
100
AcDbSpline
210
0.0
220
0.0
230
1.0
 70
     8
 71
     3
 72
     8
 73
     4
 74
     0
 42
0.000000001
 43
0.00000001
 40
0.0
 40
0.0
 40
0.0
 40
0.0
 40
0.000536435349708
 40
0.000536435349708
 40
0.000536435349708
 40
0.000536435349708
 10
228.5767365048871
 20
166.3037949328151
 30
0.0
 10
228.6939529261759
 20
166.3992778223929
 30
0.0
 10
228.8112922757039
 20
166.4946853217627
 30
0.0
 10
228.9287496666522
 20
166.5900200351038
 30
0.0
  0
LINE
  5
149
330
1F
100
AcDbEntity
  8
0
  6
Continuous
 62
     7
370
    15
100
AcDbLine
 10
228.9287496664
 20
105.6744170232
 30
0.0
 11
228.6065229777
 21
105.9014201158
 31
0.0
  0
SPLINE
  5
14A
330
1F
100
AcDbEntity
  8
0
  6
Continuous
 62
     7
370
    15
100
AcDbSpline
210
0.0
220
0.0
230
1.0
 70
     8
 71
     3
 72
     9
 73
     5
 74
     0
 42
0.000000001
 43
0.00000001
 40
0.0
 40
0.0
 40
0.0
 40
0.0
 40
0.5013065793165208
 40
0.9999999999999999
 40
0.9999999999999999
 40
0.9999999999999999
 40
0.9999999999999999
 10
228.6065229707174
 20
105.9014201247492
 30
0.0
 10
228.5321672731699
 20
105.9988406113189
 30
0.0
 10
228.3838434716973
 20
106.1931737611103
 30
0.0
 10
228.236528997064
 20
106.3890363675185
 30
0.0
 10
228.1630642377929
 20
106.4867117606923
 30
0.0
  0
SPLINE
  5
14B
330
1F
100
AcDbEntity
  8
0
  6
Continuous
 62
     7
370
    15
100
AcDbSpline
210
0.0
220
0.0
230
1.0
 70
     8
 71
     3
 72
     8
 73
     4
 74
     0
 42
0.000000001
 43
0.00000001
 40
0.0
 40
0.0
 40
0.0
 40
0.0
 40
0.0004729523689506
 40
0.0004729523689506
 40
0.0004729523689506
 40
0.0004729523689506
 10
243.8287496668246
 20
106.3231115280878
 30
0.0
 10
243.7192535156359
 20
106.2096903468553
 30
0.0
 10
243.6097353576246
 20
106.0962904070214
 30
0.0
 10
243.5001959155552
 20
105.9829110345215
 30
0.0
  0
SPLINE
  5
14C
330
1F
100
AcDbEntity
  8
0
  6
Continuous
 62
     7
370
    15
100
AcDbSpline
210
0.0
220
0.0
230
1.0
 70
     8
 71
     3
 72
     9
 73
     5
 74
     0
 42
0.000000001
 43
0.00000001
 40
0.0
 40
0.0
 40
0.0
 40
0.0
 40
0.5019268048761971
 40
0.9999999999999999
 40
0.9999999999999999
 40
0.9999999999999999
 40
0.9999999999999999
 10
243.0630642416641
 20
105.6744170257989
 30
0.0
 10
243.1364411257745
 20
105.7259438834259
 30
0.0
 10
243.2826315332155
 20
105.8286019943823
 30
0.0
 10
243.4278610078242
 20
105.93160700201
 30
0.0
 10
243.5001959162687
 20
105.9829110352729
 30
0.0
  0
LINE
  5
14D
330
1F
100
AcDbEntity
  8
0
  6
Continuous
 62
     7
370
    15
100
AcDbLine
 10
243.0630642424
 20
166.5900200302
 30
0.0
 11
243.6225269228
 21
166.1346244777
 31
0.0
  0
LINE
  5
14E
330
1F
100
AcDbEntity
  8
0
  6
Continuous
 62
     7
370
    15
100
AcDbLine
 10
243.6225269223
 20
166.1346244811
 30
0.0
 11
243.8287496677
 21
165.9210611226
 31
0.0
  0
LINE
  5
14F
330
1F
100
AcDbEntity
  8
0
  6
Continuous
 62
     7
370
    15
100
AcDbLine
 10
243.8287496674
 20
165.9210611226
 30
0.0
 11
243.8287496671
 21
136.1220863255
 31
0.0
  0
LINE
  5
150
330
1F
100
AcDbEntity
  8
0
  6
Continuous
 62
     7
370
    15
100
AcDbLine
 10
243.8287496671
 20
136.1220863255
 30
0.0
 11
243.8287496671
 21
106.323111528
 31
0.0
  0
SPLINE
  5
151
330
1F
100
AcDbEntity
  8
0
  6
Continuous
 62
     7
370
    15
100
AcDbSpline
210
0.0
220
0.0
230
1.0
 70
    24
 71
     3
 72
    31
 73
    27
 74
     0
 42
0.000000001
 43
0.00000001
 40
0.0
 40
0.0
 40
0.0
 40
0.0
 40
0.0132823932773856
 40
0.026551203816842
 40
0.0398103956624777
 40
0.0530639414890587
 40
0.0663158190490774
 40
0.0795700075970307
 40
0.0928304843069458
 40
0.1061012206992577
 40
0.11938617909305
 40
0.1814759386760654
 40
0.2435789296667077
 40
0.3073816230332527
 40
0.3711979128662651
 40
0.5004548484509089
 40
0.629649279866097
 40
0.6933605859139234
 40
0.7570854689509972
 40
0.8190310932947362
 40
0.8809899183241852
 40
0.904812838169967
 40
0.9286023320350317
 40
0.9523813656577593
 40
0.9761729350680175
 40
1.0
 40
1.0
 40
1.0
 40
1.0
 10
243.9459069543756
 20
165.6279806189284
 30
0.0
 10
243.9459069543756
 20
165.5806623457597
 30
0.0
 10
243.9459069543756
 20
165.4860741876676
 30
0.0
 10
243.9459069543756
 20
165.3331202094304
 30
0.0
 10
243.9459069543756
 20
165.1721693378331
 30
0.0
 10
243.9459069543756
 20
165.0024220111698
 30
0.0
 10
243.9459069543756
 20
164.8240924129032
 30
0.0
 10
243.9459069543756
 20
164.6371228827919
 30
0.0
 10
243.9459069543757
 20
164.4415302762485
 30
0.0
 10
243.9459069543756
 20
164.2373051698583
 30
0.0
 10
243.9459069543756
 20
163.7639601913958
 30
0.0
 10
243.9459069543756
 20
162.947884230607
 30
0.0
 10
243.9459069543756
 20
161.6538719110177
 30
0.0
 10
243.9459069543756
 20
160.1756856197449
 30
0.0
 10
243.9459069543757
 20
157.9506168065455
 30
0.0
 10
243.9459069543756
 20
154.7601494158842
 30
0.0
 10
243.9459069543756
 20
151.1298568200106
 30
0.0
 10
243.9459069543756
 20
148.0428063594956
 30
0.0
 10
243.9459069543757
 20
145.6822987880046
 30
0.0
 10
243.9459069543756
 20
143.2805211360596
 30
0.0
 10
243.9459069543756
 20
141.3518495277531
 30
0.0
 10
243.9459069543756
 20
139.909404399114
 30
0.0
 10
243.9459069543756
 20
138.9658643383983
 30
0.0
 10
243.9459069543756
 20
138.0200093044573
 30
0.0
 10
243.9459069543757
 20
137.0718218778312
 30
0.0
 10
243.9459069543756
 20
136.4388221248737
 30
0.0
 10
243.9459069543756
 20
136.1220863254544
 30
0.0
  0
SPLINE
  5
152
330
1F
100
AcDbEntity
  8
0
  6
Continuous
 62
     7
370
    15
100
AcDbSpline
210
0.0
220
0.0
230
1.0
 70
    24
 71
     3
 72
    10
 73
     6
 74
     0
 42
0.000000001
 43
0.00000001
 40
0.0
 40
0.0
 40
0.0
 40
0.0
 40
0.5
 40
0.5
 40
1.0
 40
1.0
 40
1.0
 40
1.0
 10
243.8287496671184
 20
136.1220863254544
 30
0.0
 10
243.8648294069457
 20
136.1220863254544
 30
0.0
 10
243.8951599761102
 20
136.1220863254544
 30
0.0
 10
243.9357575587854
 20
136.1220863254544
 30
0.0
 10
243.945906954483
 20
136.1220863254544
 30
0.0
 10
243.9459069543938
 20
136.1220863254544
 30
0.0
  0
SPLINE
  5
153
330
1F
100
AcDbEntity
  8
0
  6
Continuous
 62
     7
370
    15
100
AcDbSpline
210
0.0
220
0.0
230
1.0
 70
     8
 71
     3
 72
     8
 73
     4
 74
     0
 42
0.000000001
 43
0.00000001
 40
0.0
 40
0.0
 40
0.0
 40
0.0
 40
1.0
 40
1.0
 40
1.0
 40
1.0
 10
243.9459069543938
 20
165.6279806127348
 30
0.0
 10
243.9459069561551
 20
165.736495573033
 30
0.0
 10
243.9041454167346
 20
165.8429627154426
 30
0.0
 10
243.828749667644
 20
165.9210611225051
 30
0.0
  0
SPLINE
  5
154
330
1F
100
AcDbEntity
  8
0
  6
Continuous
 62
     7
370
    15
100
AcDbSpline
210
0.0
220
0.0
230
1.0
 70
    24
 71
     3
 72
    31
 73
    27
 74
     0
 42
0.000000001
 43
0.00000001
 40
0.0
 40
0.0
 40
0.0
 40
0.0
 40
0.01324079652309
 40
0.0264681393850173
 40
0.0396859556326916
 40
0.0528981808077628
 40
0.0661087554487642
 40
0.0793216215709709
 40
0.0925407191396565
 40
0.1057699825525114
 40
0.1190133371468792
 40
0.1809589626463297
 40
0.2429177888329158
 40
0.3066290963320342
 40
0.3703539808216763
 40
0.4995484162088853
 40
0.6288053557674718
 40
0.6926080515837287
 40
0.7564243438652541
 40
0.8185141060944454
 40
0.8806170997270959
 40
0.9045147944753773
 40
0.9283787407947773
 40
0.9522321211361716
 40
0.9760981487404895
 40
0.9999999999999999
 40
0.9999999999999999
 40
0.9999999999999999
 40
0.9999999999999999
 10
243.9459069543756
 20
136.1220863254544
 30
0.0
 10
243.9459069543756
 20
135.9460798554934
 30
0.0
 10
243.9459069543757
 20
135.5942457515956
 30
0.0
 10
243.9459069543756
 20
135.0668666273506
 30
0.0
 10
243.9459069543756
 20
134.5401800436446
 30
0.0
 10
243.9459069543756
 20
134.0141860851884
 30
0.0
 10
243.9459069543757
 20
133.4888850408912
 30
0.0
 10
243.9459069543756
 20
132.9642765133118
 30
0.0
 10
243.9459069543757
 20
132.4403626450781
 30
0.0
 10
243.9459069543757
 20
131.9171360892109
 30
0.0
 10
243.9459069543756
 20
130.7544153894186
 30
0.0
 10
243.9459069543757
 20
128.9638069795618
 30
0.0
 10
243.9459069543756
 20
126.5622163395593
 30
0.0
 10
243.9459069543756
 20
124.2015328107722
 30
0.0
 10
243.9459069543756
 20
121.1144689532614
 30
0.0
 10
243.9459069543756
 20
117.4840229927678
 30
0.0
 10
243.9459069543756
 20
114.2936910334013
 30
0.0
 10
243.9459069543757
 20
112.0685982329348
 30
0.0
 10
243.9459069543756
 20
110.5905004138737
 30
0.0
 10
243.9459069543757
 20
109.296362881729
 30
0.0
 10
243.9459069543757
 20
108.4173111410359
 30
0.0
 10
243.9459069543756
 20
107.8398232027349
 30
0.0
 10
243.9459069543757
 20
107.4906350540216
 30
0.0
 10
243.9459069543756
 20
107.1699496018003
 30
0.0
 10
243.9459069543757
 20
106.8751718612436
 30
0.0
 10
243.9459069543756
 20
106.7025617915188
 30
0.0
 10
243.9459069543757
 20
106.6161920319526
 30
0.0
  0
SPLINE
  5
155
330
1F
100
AcDbEntity
  8
0
  6
Continuous
 62
     7
370
    15
100
AcDbSpline
210
0.0
220
0.0
230
1.0
 70
     8
 71
     3
 72
     8
 73
     4
 74
     0
 42
0.000000001
 43
0.00000001
 40
0.0
 40
0.0
 40
0.0
 40
0.0
 40
1.0
 40
1.0
 40
1.0
 40
1.0
 10
243.8287496670908
 20
106.3231115278308
 30
0.0
 10
243.9041458877399
 20
106.40121042305
 30
0.0
 10
243.9459069562249
 20
106.5076780741798
 30
0.0
 10
243.9459069543938
 20
106.6161920384506
 30
0.0
  0
SPLINE
  5
156
330
1F
100
AcDbEntity
  8
0
  6
Continuous
 62
     7
370
    15
100
AcDbSpline
210
0.0
220
0.0
230
1.0
 70
    24
 71
     3
 72
    10
 73
     6
 74
     0
 42
0.000000001
 43
0.00000001
 40
0.0
 40
0.0
 40
0.0
 40
0.0
 40
0.5
 40
0.5
 40
1.0
 40
1.0
 40
1.0
 40
1.0
 10
228.0459069543575
 20
136.1220863254544
 30
0.0
 10
228.0459069542463
 20
136.1220863254544
 30
0.0
 10
228.0560563499312
 20
136.1220863254544
 30
0.0
 10
228.0966539326073
 20
136.1220863254544
 30
0.0
 10
228.1269845017854
 20
136.1220863254544
 30
0.0
 10
228.1630642416328
 20
136.1220863254544
 30
0.0
  0
SPLINE
  5
157
330
1F
100
AcDbEntity
  8
0
  6
Continuous
 62
     7
370
    15
100
AcDbSpline
210
0.0
220
0.0
230
1.0
 70
    24
 71
     3
 72
    31
 73
    27
 74
     0
 42
0.000000001
 43
0.00000001
 40
0.0
 40
0.0
 40
0.0
 40
0.0
 40
0.0132559966349189
 40
0.0264989966081602
 40
0.0397327988291494
 40
0.0529612101314919
 40
0.0661880420034987
 40
0.0794171072986517
 40
0.0926522169401775
 40
0.1058971766339516
 40
0.1191557836038749
 40
0.181094754453264
 40
0.2430471871464789
 40
0.306695881482009
 40
0.3703584092889373
 40
0.4993830193529282
 40
0.6284926302409563
 40
0.6922657259813465
 40
0.7560526822310297
 40
0.8181882638014923
 40
0.8803373499539993
 40
0.9042902683353782
 40
0.9282104830345619
 40
0.952120495510265
 40
0.9760428360099883
 40
1.0
 40
1.0
 40
1.0
 40
1.0
 10
228.0459069543757
 20
136.1220863254544
 30
0.0
 10
228.0459069543757
 20
136.2950823411359
 30
0.0
 10
228.0459069543757
 20
136.6409047609074
 30
0.0
 10
228.0459069543757
 20
137.1592853912979
 30
0.0
 10
228.0459069543757
 20
137.6770089780242
 30
0.0
 10
228.0459069543757
 20
138.1940754445205
 30
0.0
 10
228.0459069543757
 20
138.7104845213785
 30
0.0
 10
228.0459069543757
 20
139.2262365895077
 30
0.0
 10
228.0459069543757
 20
139.7413296223695
 30
0.0
 10
228.0459069543757
 20
140.2557705870766
 30
0.0
 10
228.0459069543757
 20
141.3980251872599
 30
0.0
 10
228.0459069543757
 20
143.1571016253416
 30
0.0
 10
228.0459069543757
 20
145.5171076012948
 30
0.0
 10
228.0459069543757
 20
147.8385377570848
 30
0.0
 10
228.0459069543757
 20
150.8770963630051
 30
0.0
 10
228.0459069543757
 20
154.459936399802
 30
0.0
 10
228.0459069543757
 20
157.6268082014961
 30
0.0
 10
228.0459069543757
 20
159.8503100621015
 30
0.0
 10
228.0459069543757
 20
161.3366691163898
 30
0.0
 10
228.0459069543757
 20
162.6476944533106
 30
0.0
 10
228.0459069543757
 20
163.5471082386507
 30
0.0
 10
228.0459069543757
 20
164.1431937140811
 30
0.0
 10
228.0459069543757
 20
164.5059645952112
 30
0.0
 10
228.0459069543757
 20
164.8413660230287
 30
0.0
 10
228.0459069543757
 20
165.1518945202605
 30
0.0
 10
228.0459069543757
 20
165.3359341149816
 30
0.0
 10
228.0459069543757
 20
165.4280208397374
 30
0.0
  0
SPLINE
  5
158
330
1F
100
AcDbEntity
  8
0
  6
Continuous
 62
     7
370
    15
100
AcDbSpline
210
0.0
220
0.0
230
1.0
 70
     8
 71
     3
 72
    10
 73
     6
 74
     0
 42
0.000000001
 43
0.00000001
 40
0.0
 40
0.0
 40
0.0
 40
0.0
 40
0.5
 40
0.5
 40
1.0
 40
1.0
 40
1.0
 40
1.0
 10
228.1630642440038
 20
165.7574608950003
 30
0.0
 10
228.1304096183408
 20
165.7139366365872
 30
0.0
 10
228.1024285011557
 20
165.6653745295009
 30
0.0
 10
228.0597822949714
 20
165.5538962189712
 30
0.0
 10
228.0459069530964
 20
165.4919249286593
 30
0.0
 10
228.0459069543591
 20
165.4280208363681
 30
0.0
  0
SPLINE
  5
159
330
1F
100
AcDbEntity
  8
0
  6
Continuous
 62
     7
370
    15
100
AcDbSpline
210
0.0
220
0.0
230
1.0
 70
     8
 71
     3
 72
    10
 73
     6
 74
     0
 42
0.000000001
 43
0.00000001
 40
0.0
 40
0.0
 40
0.0
 40
0.0
 40
0.5
 40
0.5
 40
1.0
 40
1.0
 40
1.0
 40
1.0
 10
228.1630642434166
 20
106.4867117566913
 30
0.0
 10
228.1304096179407
 20
106.5302360149973
 30
0.0
 10
228.1024285006567
 20
106.5787981224445
 30
0.0
 10
228.0597822948075
 20
106.6902764326337
 30
0.0
 10
228.0459069530691
 20
106.7522477227036
 30
0.0
 10
228.0459069543591
 20
106.8161518147269
 30
0.0
  0
SPLINE
  5
15A
330
1F
100
AcDbEntity
  8
0
  6
Continuous
 62
     7
370
    15
100
AcDbSpline
210
0.0
220
0.0
230
1.0
 70
    24
 71
     3
 72
    31
 73
    27
 74
     0
 42
0.000000001
 43
0.00000001
 40
0.0
 40
0.0
 40
0.0
 40
0.0
 40
0.0133128930162584
 40
0.0266126186434238
 40
0.0399030247502073
 40
0.0531879673032782
 40
0.0664713070272858
 40
0.0797569060442002
 40
0.0930486245065691
 40
0.1063503172393517
 40
0.1196658304048915
 40
0.1818014087549293
 40
0.2439504916860299
 40
0.3077235843799929
 40
0.3715105375763663
 40
0.5006201432131341
 40
0.6296447480293218
 40
0.6932934402594029
 40
0.7569559659581583
 40
0.8188949349972185
 40
0.8808473658849603
 40
0.9046980020604894
 40
0.9285163609918906
 40
0.9523246573931505
 40
0.9761451341308867
 40
1.0
 40
1.0
 40
1.0
 40
1.0
 10
228.0459069543757
 20
106.8161518112067
 30
0.0
 10
228.0459069543757
 20
106.8666718306443
 30
0.0
 10
228.0459069543757
 20
106.9676619016612
 30
0.0
 10
228.0459069543757
 20
107.1297895456029
 30
0.0
 10
228.0459069543757
 20
107.299595759128
 30
0.0
 10
228.0459069543757
 20
107.4778497057289
 30
0.0
 10
228.0459069543757
 20
107.6643453349535
 30
0.0
 10
228.0459069543757
 20
107.8591381225329
 30
0.0
 10
228.0459069543757
 20
108.0622118314588
 30
0.0
 10
228.0459069543757
 20
108.2735756067195
 30
0.0
 10
228.0459069543757
 20
108.7615071780491
 30
0.0
 10
228.0459069543757
 20
109.5964003788643
 30
0.0
 10
228.0459069543757
 20
110.907298155351
 30
0.0
 10
228.0459069543757
 20
112.3937488579944
 30
0.0
 10
228.0459069543757
 20
114.6172275399756
 30
0.0
 10
228.0459069543757
 20
117.7842364783008
 30
0.0
 10
228.0459069543757
 20
121.3669221508849
 30
0.0
 10
228.0459069543757
 20
124.4054678149097
 30
0.0
 10
228.0459069543757
 20
126.7267219384656
 30
0.0
 10
228.0459069543757
 20
129.0869143495027
 30
0.0
 10
228.0459069543757
 20
130.9817827180572
 30
0.0
 10
228.0459069543757
 20
132.399045795475
 30
0.0
 10
228.0459069543757
 20
133.3266789418561
 30
0.0
 10
228.0459069543757
 20
134.2565126901756
 30
0.0
 10
228.0459069543757
 20
135.1885636253774
 30
0.0
 10
228.0459069543757
 20
135.8107624908036
 30
0.0
 10
228.0459069543757
 20
136.1220863254544
 30
0.0
  0
LINE
  5
15B
330
1F
100
AcDbEntity
  8
0
  6
Continuous
 62
     7
370
    15
100
AcDbLine
 10
224.8459069544
 20
136.1220863255
 30
0.0
 11
224.8459069544
 21
158.3470863255
 31
0.0
  0
LINE
  5
15C
330
1F
100
AcDbEntity
  8
0
  6
Continuous
 62
     7
370
    15
100
AcDbLine
 10
224.8459069544
 20
113.8970863255
 30
0.0
 11
224.8459069544
 21
136.1220863255
 31
0.0
  0
LINE
  5
15D
330
1F
100
AcDbEntity
  8
0
  6
Continuous
 62
     7
370
    15
100
AcDbLine
 10
225.3284210114
 20
136.1220863255
 30
0.0
 11
225.3284210114
 21
158.1220863255
 31
0.0
  0
LINE
  5
15E
330
1F
100
AcDbEntity
  8
0
  6
Continuous
 62
     7
370
    15
100
AcDbLine
 10
225.3284210114
 20
114.1220863255
 30
0.0
 11
225.3284210114
 21
136.1220863255
 31
0.0
  0
SPLINE
  5
15F
330
1F
100
AcDbEntity
  8
0
  6
Continuous
 62
     7
370
    15
100
AcDbSpline
210
0.0
220
0.0
230
1.0
 70
    24
 71
     3
 72
    14
 73
    10
 74
     0
 42
0.000000001
 43
0.00000001
 40
0.0
 40
0.0
 40
0.0
 40
0.0
 40
0.25
 40
0.25
 40
0.5
 40
0.5
 40
0.75
 40
0.75
 40
1.0
 40
1.0
 40
1.0
 40
1.0
 10
243.9459069542534
 20
136.1220863254544
 30
0.0
 10
243.9459069544612
 20
136.1220863254544
 30
0.0
 10
244.0103431710815
 20
136.1220863254544
 30
0.0
 10
244.3027409320497
 20
136.1220863254544
 30
0.0
 10
244.5316933925319
 20
136.1220863254544
 30
0.0
 10
245.117479830102
 20
136.1220863254544
 30
0.0
 10
245.4723319749164
 20
136.1220863254544
 30
0.0
 10
246.2109136770131
 20
136.1220863254544
 30
0.0
 10
246.5923535638463
 20
136.1220863254544
 30
0.0
 10
246.9459069543756
 20
136.1220863254544
 30
0.0
  0
SPLINE
  5
160
330
1F
100
AcDbEntity
  8
0
  6
Continuous
 62
     7
370
    15
100
AcDbSpline
210
0.0
220
0.0
230
1.0
 70
    24
 71
     3
 72
    14
 73
    10
 74
     0
 42
0.000000001
 43
0.00000001
 40
0.0
 40
0.0
 40
0.0
 40
0.0
 40
0.25
 40
0.25
 40
0.5
 40
0.5
 40
0.75
 40
0.75
 40
1.0
 40
1.0
 40
1.0
 40
1.0
 10
156.4459069546608
 20
136.1220863254544
 30
0.0
 10
156.4459069546527
 20
136.1220863254544
 30
0.0
 10
156.4642111365079
 20
136.1220863254544
 30
0.0
 10
156.5453170606326
 20
136.1220863254544
 30
0.0
 10
156.6083011579279
 20
136.1220863254544
 30
0.0
 10
156.7706953613052
 20
136.1220863254544
 30
0.0
 10
156.8697407573379
 20
136.1220863254544
 30
0.0
 10
157.0815017433923
 20
136.1220863254544
 30
0.0
 10
157.1937232777493
 20
136.1220863254544
 30
0.0
 10
157.3015987273414
 20
136.1220863254544
 30
0.0
  0
SPLINE
  5
161
330
1F
100
AcDbEntity
  8
0
  6
Continuous
 62
     7
370
    15
100
AcDbSpline
210
0.0
220
0.0
230
1.0
 70
    24
 71
     3
 72
    22
 73
    18
 74
     0
 42
0.000000001
 43
0.00000001
 40
0.0
 40
0.0
 40
0.0
 40
0.0
 40
0.1250000000000001
 40
0.1250000000000001
 40
0.2500000000000002
 40
0.2500000000000002
 40
0.3750000000000003
 40
0.3750000000000003
 40
0.5000000000000002
 40
0.5000000000000002
 40
0.6250000000000002
 40
0.6250000000000002
 40
0.7500000000000002
 40
0.7500000000000002
 40
0.8750000000000001
 40
0.8750000000000001
 40
1.0
 40
1.0
 40
1.0
 40
1.0
 10
156.4459069546608
 20
147.5072489150089
 30
0.0
 10
156.4459069546608
 20
147.5072489149988
 30
0.0
 10
156.4459069546608
 20
147.3868850659169
 30
0.0
 10
156.4459069546608
 20
146.9269873739227
 30
0.0
 10
156.4459069546608
 20
146.5880316355378
 30
0.0
 10
156.4459069546608
 20
145.7476044086214
 30
0.0
 10
156.4459069546608
 20
145.2468807371171
 30
0.0
 10
156.4459069546608
 20
144.1530163637174
 30
0.0
 10
156.4459069546608
 20
143.5603925505883
 30
0.0
 10
156.4459069546608
 20
142.3459752077077
 30
0.0
 10
156.4459069546608
 20
141.7243548167591
 30
0.0
 10
156.4459069546608
 20
140.4978254968461
 30
0.0
 10
156.4459069546609
 20
139.8928521750925
 30
0.0
 10
156.4459069546608
 20
138.7270115259293
 30
0.0
 10
156.4459069546608
 20
138.1659885659827
 30
0.0
 10
156.4459069546608
 20
137.1007936219589
 30
0.0
 10
156.4459069546608
 20
136.5964681000166
 30
0.0
 10
156.4459069546608
 20
136.1220863254544
 30
0.0
  0
SPLINE
  5
162
330
1F
100
AcDbEntity
  8
0
  6
Continuous
 62
     7
370
    15
100
AcDbSpline
210
0.0
220
0.0
230
1.0
 70
    24
 71
     3
 72
    22
 73
    18
 74
     0
 42
0.000000001
 43
0.00000001
 40
0.0
 40
0.0
 40
0.0
 40
0.0
 40
0.125
 40
0.125
 40
0.25
 40
0.25
 40
0.375
 40
0.375
 40
0.5
 40
0.5
 40
0.625
 40
0.625
 40
0.75
 40
0.75
 40
0.875
 40
0.875
 40
1.0
 40
1.0
 40
1.0
 40
1.0
 10
156.4459069546608
 20
136.1220863254544
 30
0.0
 10
156.4459069546608
 20
135.6477045508871
 30
0.0
 10
156.4459069546608
 20
135.1433790289392
 30
0.0
 10
156.4459069546608
 20
134.0781840849027
 30
0.0
 10
156.4459069546608
 20
133.5171611249492
 30
0.0
 10
156.4459069546608
 20
132.3513204757716
 30
0.0
 10
156.4459069546608
 20
131.7463471540105
 30
0.0
 10
156.4459069546608
 20
130.5198178340834
 30
0.0
 10
156.4459069546608
 20
129.8981974431281
 30
0.0
 10
156.4459069546608
 20
128.6837801002371
 30
0.0
 10
156.4459069546608
 20
128.0911562871043
 30
0.0
 10
156.4459069546608
 20
126.9972919137028
 30
0.0
 10
156.4459069546608
 20
126.4965682422005
 30
0.0
 10
156.4459069546608
 20
125.6561410152957
 30
0.0
 10
156.4459069546608
 20
125.3171852769205
 30
0.0
 10
156.4459069546608
 20
124.8572875849539
 30
0.0
 10
156.4459069546608
 20
124.7369237358897
 30
0.0
 10
156.4459069546608
 20
124.7369237358999
 30
0.0
  0
LINE
  5
163
330
1F
100
AcDbEntity
  8
0
  6
Continuous
 62
     7
370
    15
100
AcDbLine
 10
271.2459069544
 20
136.1220863255
 30
0.0
 11
271.2459069544
 21
147.1220863255
 31
0.0
  0
LINE
  5
164
330
1F
100
AcDbEntity
  8
0
  6
Continuous
 62
     7
370
    15
100
AcDbLine
 10
271.2459069544
 20
125.1220863255
 30
0.0
 11
271.2459069544
 21
136.1220863255
 31
0.0
  0
LINE
  5
165
330
1F
100
AcDbEntity
  8
0
  6
Continuous
 62
     7
370
    15
100
AcDbLine
 10
294.8459069543
 20
136.1220863255
 30
0.0
 11
294.8459069543
 21
146.7220863251
 31
0.0
  0
LINE
  5
166
330
1F
100
AcDbEntity
  8
0
  6
Continuous
 62
     7
370
    15
100
AcDbLine
 10
294.8459069543
 20
125.5220863258
 30
0.0
 11
294.8459069543
 21
136.1220863255
 31
0.0
  0
LINE
  5
167
330
1F
100
AcDbEntity
  8
0
  6
Continuous
 62
     7
370
    15
100
AcDbLine
 10
277.7459069544
 20
147.1220863255
 30
0.0
 11
277.7459069544
 21
125.1220863255
 31
0.0
  0
LINE
  5
168
330
1F
100
AcDbEntity
  8
0
  6
Continuous
 62
     7
370
    15
100
AcDbLine
 10
277.3459069544
 20
125.5220863255
 30
0.0
 11
277.3459069544
 21
146.7220863255
 31
0.0
  0
LINE
  5
169
330
1F
100
AcDbEntity
  8
0
  6
Continuous
 62
     7
370
    15
100
AcDbLine
 10
272.9615124904
 20
136.1220863255
 30
0.0
 11
272.9615124904
 21
146.3220863255
 31
0.0
  0
LINE
  5
16A
330
1F
100
AcDbEntity
  8
0
  6
Continuous
 62
     7
370
    15
100
AcDbLine
 10
272.9615124904
 20
125.9220863255
 30
0.0
 11
272.9615124904
 21
136.1220863255
 31
0.0
  0
LINE
  5
16B
330
1F
100
AcDbEntity
  8
0
  6
Continuous
 62
     7
370
    15
100
AcDbLine
 10
228.0459069544
 20
165.4280208357
 30
0.0
 11
228.0459069544
 21
166.7064008944
 31
0.0
  0
LINE
  5
16C
330
1F
100
AcDbEntity
  8
0
  6
Continuous
 62
     7
370
    15
100
AcDbLine
 10
228.0459069544
 20
105.5377717565
 30
0.0
 11
228.0459069544
 21
106.8161518138
 31
0.0
  0
LINE
  5
16D
330
1F
100
AcDbEntity
  8
0
  6
Continuous
 62
     7
370
    15
100
AcDbLine
 10
243.9459069544
 20
105.5377717565
 30
0.0
 11
243.9459069544
 21
106.6161920367
 31
0.0
  0
LINE
  5
16E
330
1F
100
AcDbEntity
  8
0
  6
Continuous
 62
     7
370
    15
100
AcDbLine
 10
243.9459069544
 20
165.6279806182
 30
0.0
 11
243.9459069544
 21
166.7064008944
 31
0.0
  0
LINE
  5
16F
330
1F
100
AcDbEntity
  8
0
  6
Continuous
 62
     8
370
    15
100
AcDbLine
 10
242.7802215294
 20
104.3720863255
 30
0.0
 11
242.7802215294
 21
105.5924188381
 31
0.0
  0
LINE
  5
170
330
1F
100
AcDbEntity
  8
0
  6
Continuous
 62
     8
370
    15
100
AcDbLine
 10
242.7802215294
 20
166.6850555196
 30
0.0
 11
242.7802215294
 21
167.8720863255
 31
0.0
  0
LINE
  5
171
330
1F
100
AcDbEntity
  8
0
  6
Continuous
 62
     8
370
    15
100
AcDbLine
 10
229.2115923794
 20
104.3720863255
 30
0.0
 11
229.2115923794
 21
105.5924188381
 31
0.0
  0
LINE
  5
172
330
1F
100
AcDbEntity
  8
0
  6
Continuous
 62
     8
370
    15
100
AcDbLine
 10
229.2115923794
 20
166.6850555196
 30
0.0
 11
229.2115923794
 21
167.8720863255
 31
0.0
  0
LINE
  5
173
330
1F
100
AcDbEntity
  8
0
  6
Continuous
 62
     8
370
    15
100
AcDbLine
 10
227.6459069543
 20
136.1220863255
 30
0.0
 11
227.6459069543
 21
158.1220863256
 31
0.0
  0
LINE
  5
174
330
1F
100
AcDbEntity
  8
0
  6
Continuous
 62
     8
370
    15
100
AcDbLine
 10
227.6459069543
 20
114.1220863253
 30
0.0
 11
227.6459069543
 21
136.1220863255
 31
0.0
  0
LINE
  5
175
330
1F
100
AcDbEntity
  8
0
  6
Continuous
 62
     8
370
    15
100
AcDbLine
 10
157.3015987274
 20
136.1220863204
 30
0.0
 11
157.3015987274
 21
148.4967817015
 31
0.0
  0
LINE
  5
176
330
1F
100
AcDbEntity
  8
0
  6
Continuous
 62
     8
370
    15
100
AcDbLine
 10
157.3015987274
 20
123.7473909495
 30
0.0
 11
157.3015987274
 21
136.1220863204
 31
0.0
  0
LINE
  5
177
330
1F
100
AcDbEntity
  8
0
  6
Continuous
 62
     8
370
    15
100
AcDbLine
 10
246.9459069544
 20
136.1220863255
 30
0.0
 11
246.9459069544
 21
147.1220863255
 31
0.0
  0
LINE
  5
178
330
1F
100
AcDbEntity
  8
0
  6
Continuous
 62
     8
370
    15
100
AcDbLine
 10
246.9459069544
 20
125.1220864019
 30
0.0
 11
246.9459069544
 21
136.1220863235
 31
0.0
  0
LINE
  5
179
330
1F
100
AcDbEntity
  8
0
  6
Continuous
 62
     8
370
    15
100
AcDbLine
 10
294.4459069544
 20
136.1220863255
 30
0.0
 11
294.4459069544
 21
125.1220863255
 31
0.0
  0
LINE
  5
17A
330
1F
100
AcDbEntity
  8
0
  6
Continuous
 62
     8
370
    15
100
AcDbLine
 10
294.4459069544
 20
147.1220863254
 30
0.0
 11
294.4459069544
 21
136.1220863255
 31
0.0
  0
LINE
  5
17B
330
1F
100
AcDbEntity
  8
0
  6
Continuous
 62
     8
370
    15
100
AcDbLine
 10
228.1630642416
 20
165.7574608918
 30
0.0
 11
228.1630642416
 21
166.9892436126
 31
0.0
  0
LINE
  5
17C
330
1F
100
AcDbEntity
  8
0
  6
Continuous
 62
     8
370
    15
100
AcDbLine
 10
228.1630642416
 20
105.2549290383
 30
0.0
 11
228.1630642416
 21
106.4867117591
 31
0.0
  0
LINE
  5
17D
330
1F
100
AcDbEntity
  8
0
  6
Continuous
 62
     8
370
    15
100
AcDbLine
 10
228.9287496667
 20
104.4892436132
 30
0.0
 11
228.9287496667
 21
105.6744170262
 31
0.0
  0
LINE
  5
17E
330
1F
100
AcDbEntity
  8
0
  6
Continuous
 62
     8
370
    15
100
AcDbLine
 10
243.0630642422
 20
104.4892436133
 30
0.0
 11
243.0630642422
 21
105.6744170263
 31
0.0
  0
LINE
  5
17F
330
1F
100
AcDbEntity
  8
0
  6
Continuous
 62
     8
370
    15
100
AcDbLine
 10
228.9287496667
 20
166.5900200351
 30
0.0
 11
228.9287496667
 21
167.7549290377
 31
0.0
  0
LINE
  5
180
330
1F
100
AcDbEntity
  8
0
  6
Continuous
 62
     8
370
    15
100
AcDbLine
 10
243.0630642422
 20
166.5900200349
 30
0.0
 11
243.0630642422
 21
167.7549290376
 31
0.0
  0
LINE
  5
181
330
1F
100
AcDbEntity
  8
0
  6
Continuous
 62
     8
370
    15
100
AcDbLine
 10
243.8287496671
 20
105.2549290383
 30
0.0
 11
243.8287496671
 21
106.3231115278
 31
0.0
  0
LINE
  5
182
330
1F
100
AcDbEntity
  8
0
  6
Continuous
 62
     8
370
    15
100
AcDbLine
 10
243.8287496671
 20
165.9210611231
 30
0.0
 11
243.8287496671
 21
166.9892436126
 31
0.0
  0
DIMENSION
  5
183
330
1F
100
AcDbEntity
  8
DIM
100
AcDbDimension
  2
_D
 10
150.066117914
 20
104.3720863255
 30
0.0
 11
150.066117914
 21
136.1220863255
 31
0.0
 70
   160
  1
%%c<>
 71
     2
 42
-1.0
  3
SLDDIMSTYLE0
100
AcDbAlignedDimension
 13
229.2115923794
 23
167.8720863255
 33
0.0
 14
229.2115923794
 24
104.3720863255
 34
0.0
 50
90.0
100
AcDbRotatedDimension
  0
DIMENSION
  5
18F
330
1F
100
AcDbEntity
  8
DIM
100
AcDbDimension
  2
_D_1
 10
303.0378211063
 20
125.1220863255
 30
0.0
 11
303.0378211063
 21
136.1220863255
 31
0.0
 70
   160
  1
%%c<>
 71
     2
 42
-1.0
  3
SLDDIMSTYLE1
100
AcDbAlignedDimension
 13
294.4459069544
 23
147.1220863255
 33
0.0
 14
294.4459069544
 24
125.1220863255
 34
0.0
 50
90.0
100
AcDbRotatedDimension
  0
DIMENSION
  5
19D
330
1F
100
AcDbEntity
  8
DIM
100
AcDbDimension
  2
_D_2
 10
224.8459069544
 20
94.3120566526
 30
0.0
 11
259.8459069543
 21
94.3120566526
 31
0.0
 70
   160
  1
<>
 71
     2
 42
-1.0
  3
SLDDIMSTYLE2
100
AcDbAlignedDimension
 13
294.8459069543
 23
125.5220863258
 33
0.0
 14
224.8459069544
 24
113.8970863255
 34
0.0
100
AcDbRotatedDimension
  0
DIMENSION
  5
1A8
330
1F
100
AcDbEntity
  8
DIM
100
AcDbDimension
  2
_D_3
 10
156.4459069545
 20
86.6082833162
 30
0.0
 11
225.6459069544
 21
86.6082833162
 31
0.0
 70
   160
  1
<>
 71
     2
 42
-1.0
  3
SLDDIMSTYLE0
100
AcDbAlignedDimension
 13
294.8459069543
 23
125.5220863258
 33
0.0
 14
156.4459069545
 24
136.1220863255
 34
0.0
100
AcDbRotatedDimension
  0
LINE
  5
1B2
330
1F
100
AcDbEntity
  8
DIM
  6
CENTERX2
 48
1.6
370
     0
100
AcDbLine
 10
153.073839137
 20
136.1220863255
 30
0.0
 11
297.3741512475
 21
136.1220863255
 31
0.0
  0
ENDSEC
  0
SECTION
  2
OBJECTS
  0
DICTIONARY
  5
C
330
0
100
AcDbDictionary
281
     1
  3
ACAD_GROUP
350
D
  3
ACAD_LAYOUT
350
1A
  3
ACAD_MLINESTYLE
350
17
  3
ACAD_PLOTSETTINGS
350
19
  3
ACAD_PLOTSTYLENAME
350
E
  3
ACAD_SCALELIST
350
47
  0
DICTIONARY
  5
D
102
{ACAD_REACTORS
330
C
102
}
330
C
100
AcDbDictionary
281
     1
  0
DICTIONARY
  5
1A
102
{ACAD_REACTORS
330
C
102
}
330
C
100
AcDbDictionary
281
     1
  3
Layout1
350
1E
  3
Layout2
350
26
  3
Model
350
22
  0
DICTIONARY
  5
17
102
{ACAD_REACTORS
330
C
102
}
330
C
100
AcDbDictionary
281
     1
  3
Standard
350
18
  0
DICTIONARY
  5
19
102
{ACAD_REACTORS
330
C
102
}
330
C
100
AcDbDictionary
281
     1
  0
ACDBDICTIONARYWDFLT
  5
E
102
{ACAD_REACTORS
330
C
102
}
330
C
100
AcDbDictionary
281
     1
  3
Normal
350
F
100
AcDbDictionaryWithDefault
340
F
  0
DICTIONARY
  5
47
102
{ACAD_REACTORS
330
C
102
}
330
C
100
AcDbDictionary
281
     1
  3
A0
350
48
  3
A1
350
49
  3
A2
350
4A
  3
A3
350
4B
  3
A4
350
4C
  3
A5
350
4D
  3
A6
350
4E
  3
A7
350
4F
  3
A8
350
50
  3
A9
350
51
  3
B0
350
52
  3
B1
350
53
  3
B2
350
54
  3
B3
350
55
  3
B4
350
56
  3
B5
350
57
  3
B6
350
58
  3
B7
350
59
  3
B8
350
5A
  3
B9
350
5B
  3
C0
350
5C
  3
C1
350
5D
  3
C2
350
5E
  3
C3
350
5F
  3
C4
350
60
  3
C5
350
61
  3
C6
350
62
  3
C7
350
63
  3
C8
350
64
  3
C9
350
65
  3
D0
350
66
  3
D1
350
67
  3
D2
350
68
  0
LAYOUT
  5
1E
102
{ACAD_REACTORS
330
1A
102
}
330
1A
100
AcDbPlotSettings
  1

  2
none_device
  4

  6

 40
0.0
 41
0.0
 42
0.0
 43
0.0
 44
0.0
 45
0.0
 46
0.0
 47
0.0
 48
0.0
 49
0.0
140
0.0
141
0.0
142
1.0
143
1.0
 70
   688
 72
     1
 73
     0
 74
     5
  7

 75
    16
147
1.0
148
0.0
149
0.0
100
AcDbLayout
  1
Layout1
 70
     1
 71
     1
 10
0.0
 20
0.0
 11
420.0
 21
297.0
 12
0.0
 22
0.0
 32
0.0
 14
1.0000000000E+20
 24
1.0000000000E+20
 34
1.0000000000E+20
 15
-1.0000000000E+20
 25
-1.0000000000E+20
 35
-1.0000000000E+20
146
0.0
 13
0.0
 23
0.0
 33
0.0
 16
1.0
 26
0.0
 36
0.0
 17
0.0
 27
1.0
 37
0.0
 76
     0
330
1B
  0
LAYOUT
  5
26
102
{ACAD_REACTORS
330
1A
102
}
330
1A
100
AcDbPlotSettings
  1

  2
none_device
  4

  6

 40
0.0
 41
0.0
 42
0.0
 43
0.0
 44
0.0
 45
0.0
 46
0.0
 47
0.0
 48
0.0
 49
0.0
140
0.0
141
0.0
142
1.0
143
1.0
 70
   688
 72
     1
 73
     0
 74
     5
  7

 75
    16
147
1.0
148
0.0
149
0.0
100
AcDbLayout
  1
Layout2
 70
     1
 71
     2
 10
0.0
 20
0.0
 11
0.0
 21
0.0
 12
0.0
 22
0.0
 32
0.0
 14
0.0
 24
0.0
 34
0.0
 15
0.0
 25
0.0
 35
0.0
146
0.0
 13
0.0
 23
0.0
 33
0.0
 16
1.0
 26
0.0
 36
0.0
 17
0.0
 27
1.0
 37
0.0
 76
     0
330
23
  0
LAYOUT
  5
22
102
{ACAD_REACTORS
330
1A
102
}
330
1A
100
AcDbPlotSettings
  1

  2
none_device
  4
Letter_(8.50_x_11.00_Inches)
  6

 40
6.35
 41
6.35
 42
6.35000508
 43
6.35000508
 44
215.9
 45
279.4
 46
0.0
 47
0.0
 48
0.0
 49
0.0
140
0.0
141
0.0
142
1.0
143
1.0
 70
  1712
 72
     1
 73
     0
 74
     0
  7

 75
     0
147
1.0
148
0.0
149
0.0
100
AcDbLayout
  1
Model
 70
     1
 71
     0
 10
0.0
 20
0.0
 11
371.25
 21
262.5
 12
0.0
 22
0.0
 32
0.0
 14
0.0
 24
0.0
 34
0.0
 15
371.25
 25
262.5
 35
0.0
146
0.0
 13
0.0
 23
0.0
 33
0.0
 16
1.0
 26
0.0
 36
0.0
 17
0.0
 27
1.0
 37
0.0
 76
     0
330
1F
331
29
  0
MLINESTYLE
  5
18
102
{ACAD_REACTORS
330
17
102
}
330
17
100
AcDbMlineStyle
  2
Standard
 70
     0
  3

 62
   256
 51
90.0
 52
90.0
 71
     2
 49
0.5
 62
   256
  6
BYLAYER
 49
-0.5
 62
   256
  6
BYLAYER
  0
ACDBPLACEHOLDER
  5
F
102
{ACAD_REACTORS
330
E
102
}
330
E
  0
SCALE
  5
48
102
{ACAD_REACTORS
330
47
102
}
330
47
100
AcDbScale
 70
     0
300
1:1
140
1.0
141
1.0
290
     1
  0
SCALE
  5
49
102
{ACAD_REACTORS
330
47
102
}
330
47
100
AcDbScale
 70
     0
300
1:2
140
1.0
141
2.0
290
     0
  0
SCALE
  5
4A
102
{ACAD_REACTORS
330
47
102
}
330
47
100
AcDbScale
 70
     0
300
1:4
140
1.0
141
4.0
290
     0
  0
SCALE
  5
4B
102
{ACAD_REACTORS
330
47
102
}
330
47
100
AcDbScale
 70
     0
300
1:5
140
1.0
141
5.0
290
     0
  0
SCALE
  5
4C
102
{ACAD_REACTORS
330
47
102
}
330
47
100
AcDbScale
 70
     0
300
1:8
140
1.0
141
8.0
290
     0
  0
SCALE
  5
4D
102
{ACAD_REACTORS
330
47
102
}
330
47
100
AcDbScale
 70
     0
300
1:10
140
1.0
141
10.0
290
     0
  0
SCALE
  5
4E
102
{ACAD_REACTORS
330
47
102
}
330
47
100
AcDbScale
 70
     0
300
1:16
140
1.0
141
16.0
290
     0
  0
SCALE
  5
4F
102
{ACAD_REACTORS
330
47
102
}
330
47
100
AcDbScale
 70
     0
300
1:20
140
1.0
141
20.0
290
     0
  0
SCALE
  5
50
102
{ACAD_REACTORS
330
47
102
}
330
47
100
AcDbScale
 70
     0
300
1:30
140
1.0
141
30.0
290
     0
  0
SCALE
  5
51
102
{ACAD_REACTORS
330
47
102
}
330
47
100
AcDbScale
 70
     0
300
1:40
140
1.0
141
40.0
290
     0
  0
SCALE
  5
52
102
{ACAD_REACTORS
330
47
102
}
330
47
100
AcDbScale
 70
     0
300
1:50
140
1.0
141
50.0
290
     0
  0
SCALE
  5
53
102
{ACAD_REACTORS
330
47
102
}
330
47
100
AcDbScale
 70
     0
300
1:100
140
1.0
141
100.0
290
     0
  0
SCALE
  5
54
102
{ACAD_REACTORS
330
47
102
}
330
47
100
AcDbScale
 70
     0
300
2:1
140
2.0
141
1.0
290
     0
  0
SCALE
  5
55
102
{ACAD_REACTORS
330
47
102
}
330
47
100
AcDbScale
 70
     0
300
4:1
140
4.0
141
1.0
290
     0
  0
SCALE
  5
56
102
{ACAD_REACTORS
330
47
102
}
330
47
100
AcDbScale
 70
     0
300
8:1
140
8.0
141
1.0
290
     0
  0
SCALE
  5
57
102
{ACAD_REACTORS
330
47
102
}
330
47
100
AcDbScale
 70
     0
300
10:1
140
10.0
141
1.0
290
     0
  0
SCALE
  5
58
102
{ACAD_REACTORS
330
47
102
}
330
47
100
AcDbScale
 70
     0
300
100:1
140
100.0
141
1.0
290
     0
  0
SCALE
  5
59
102
{ACAD_REACTORS
330
47
102
}
330
47
100
AcDbScale
 70
     0
300
1/128" = 1'-0"
140
0.0078125
141
12.0
290
     0
  0
SCALE
  5
5A
102
{ACAD_REACTORS
330
47
102
}
330
47
100
AcDbScale
 70
     0
300
1/64" = 1'-0"
140
0.015625
141
12.0
290
     0
  0
SCALE
  5
5B
102
{ACAD_REACTORS
330
47
102
}
330
47
100
AcDbScale
 70
     0
300
1/32" = 1'-0"
140
0.03125
141
12.0
290
     0
  0
SCALE
  5
5C
102
{ACAD_REACTORS
330
47
102
}
330
47
100
AcDbScale
 70
     0
300
1/16" = 1'-0"
140
0.0625
141
12.0
290
     0
  0
SCALE
  5
5D
102
{ACAD_REACTORS
330
47
102
}
330
47
100
AcDbScale
 70
     0
300
3/32" = 1'-0"
140
0.09375
141
12.0
290
     0
  0
SCALE
  5
5E
102
{ACAD_REACTORS
330
47
102
}
330
47
100
AcDbScale
 70
     0
300
1/8" = 1'-0"
140
0.125
141
12.0
290
     0
  0
SCALE
  5
5F
102
{ACAD_REACTORS
330
47
102
}
330
47
100
AcDbScale
 70
     0
300
3/16" = 1'-0"
140
0.1875
141
12.0
290
     0
  0
SCALE
  5
60
102
{ACAD_REACTORS
330
47
102
}
330
47
100
AcDbScale
 70
     0
300
1/4" = 1'-0"
140
0.25
141
12.0
290
     0
  0
SCALE
  5
61
102
{ACAD_REACTORS
330
47
102
}
330
47
100
AcDbScale
 70
     0
300
3/8" = 1'-0"
140
0.375
141
12.0
290
     0
  0
SCALE
  5
62
102
{ACAD_REACTORS
330
47
102
}
330
47
100
AcDbScale
 70
     0
300
1/2" = 1'-0"
140
0.5
141
12.0
290
     0
  0
SCALE
  5
63
102
{ACAD_REACTORS
330
47
102
}
330
47
100
AcDbScale
 70
     0
300
3/4" = 1'-0"
140
0.75
141
12.0
290
     0
  0
SCALE
  5
64
102
{ACAD_REACTORS
330
47
102
}
330
47
100
AcDbScale
 70
     0
300
1" = 1'-0"
140
1.0
141
12.0
290
     0
  0
SCALE
  5
65
102
{ACAD_REACTORS
330
47
102
}
330
47
100
AcDbScale
 70
     0
300
1-1/2" = 1'-0"
140
1.5
141
12.0
290
     0
  0
SCALE
  5
66
102
{ACAD_REACTORS
330
47
102
}
330
47
100
AcDbScale
 70
     0
300
3" = 1'-0"
140
3.0
141
12.0
290
     0
  0
SCALE
  5
67
102
{ACAD_REACTORS
330
47
102
}
330
47
100
AcDbScale
 70
     0
300
6" = 1'-0"
140
6.0
141
12.0
290
     0
  0
SCALE
  5
68
102
{ACAD_REACTORS
330
47
102
}
330
47
100
AcDbScale
 70
     0
300
1'-0" = 1'-0"
140
12.0
141
12.0
290
     0
  0
ENDSEC
  0
EOF
