  0
SECTION
  2
HEADER
  9
$ACADVER
  1
AC1015
  9
$ACADMAINTVER
 70
     6
  9
$DWGCODEPAGE
  3
ANSI_1252
  9
$INSBASE
 10
0.0
 20
0.0
 30
0.0
  9
$EXTMIN
 10
0.0
 20
0.0
 30
0.0
  9
$EXTMAX
 10
371.25
 20
262.5
 30
0.0
  9
$LIMMIN
 10
0.0
 20
0.0
  9
$LIMMAX
 10
371.25
 20
262.5
  9
$ORTHOMODE
 70
     0
  9
$REGENMODE
 70
     1
  9
$FILLMODE
 70
     1
  9
$QTEXTMODE
 70
     0
  9
$MIRRTEXT
 70
     1
  9
$LTSCALE
 40
1.25
  9
$ATTMODE
 70
     1
  9
$TEXTSIZE
 40
4.8506944444
  9
$TRACEWID
 40
1.0
  9
$TEXTSTYLE
  7
Standard
  9
$CLAYER
  8
0
  9
$CELTYPE
  6
ByLayer
  9
$CECOLOR
 62
   256
  9
$CELTSCALE
 40
1.0
  9
$DISPSILH
 70
     0
  9
$DIMSCALE
 40
1.0
  9
$DIMASZ
 40
4.1275
  9
$DIMEXO
 40
1.25
  9
$DIMDLI
 40
3.75
  9
$DIMRND
 40
0.0
  9
$DIMDLE
 40
0.0
  9
$DIMEXE
 40
1.25
  9
$DIMTP
 40
0.0
  9
$DIMTM
 40
0.0
  9
$DIMTXT
 40
4.8506944444
  9
$DIMCEN
 40
2.5
  9
$DIMTSZ
 40
0.0
  9
$DIMTOL
 70
     0
  9
$DIMLIM
 70
     0
  9
$DIMTIH
 70
     1
  9
$DIMTOH
 70
     1
  9
$DIMSE1
 70
     0
  9
$DIMSE2
 70
     0
  9
$DIMTAD
 70
     1
  9
$DIMZIN
 70
     0
  9
$DIMBLK
  1

  9
$DIMASO
 70
     1
  9
$DIMSHO
 70
     1
  9
$DIMPOST
  1

  9
$DIMAPOST
  1

  9
$DIMALT
 70
     0
  9
$DIMALTD
 70
     3
  9
$DIMALTF
 40
0.0393700787
  9
$DIMLFAC
 40
1.0
  9
$DIMTOFL
 70
     1
  9
$DIMTVP
 40
0.0
  9
$DIMTIX
 70
     0
  9
$DIMSOXD
 70
     0
  9
$DIMSAH
 70
     0
  9
$DIMBLK1
  1

  9
$DIMBLK2
  1

  9
$DIMSTYLE
  2
ISO-25
  9
$DIMCLRD
 70
     0
  9
$DIMCLRE
 70
     0
  9
$DIMCLRT
 70
     0
  9
$DIMTFAC
 40
1.0
  9
$DIMGAP
 40
1.905
  9
$DIMJUST
 70
     0
  9
$DIMSD1
 70
     0
  9
$DIMSD2
 70
     0
  9
$DIMTOLJ
 70
     0
  9
$DIMTZIN
 70
     0
  9
$DIMALTZ
 70
     0
  9
$DIMALTTZ
 70
     0
  9
$DIMUPT
 70
     0
  9
$DIMDEC
 70
     2
  9
$DIMTDEC
 70
     2
  9
$DIMALTU
 70
     2
  9
$DIMALTTD
 70
     3
  9
$DIMTXSTY
  7
Standard
  9
$DIMAUNIT
 70
     0
  9
$DIMADEC
 70
     2
  9
$DIMALTRND
 40
0.0
  9
$DIMAZIN
 70
     0
  9
$DIMDSEP
 70
    44
  9
$DIMATFIT
 70
     3
  9
$DIMFRAC
 70
     0
  9
$DIMLDRBLK
  1

  9
$DIMLUNIT
 70
     2
  9
$DIMLWD
 70
    -2
  9
$DIMLWE
 70
    -2
  9
$DIMTMOVE
 70
     0
  9
$LUNITS
 70
     2
  9
$LUPREC
 70
     2
  9
$SKETCHINC
 40
1.0
  9
$FILLETRAD
 40
10.0
  9
$AUNITS
 70
     1
  9
$AUPREC
 70
     2
  9
$MENU
  1
.
  9
$ELEVATION
 40
0.0
  9
$PELEVATION
 40
0.0
  9
$THICKNESS
 40
0.0
  9
$LIMCHECK
 70
     0
  9
$CHAMFERA
 40
0.0
  9
$CHAMFERB
 40
0.0
  9
$CHAMFERC
 40
0.0
  9
$CHAMFERD
 40
0.0
  9
$SKPOLY
 70
     0
  9
$TDCREATE
 40
2458601.411727512
  9
$TDUCREATE
 40
2458601.182560845
  9
$TDUPDATE
 40
2458601.411728438
  9
$TDUUPDATE
 40
2458601.182561771
  9
$TDINDWG
 40
0.0000000116
  9
$TDUSRTIMER
 40
0.0000000116
  9
$USRTIMER
 70
     1
  9
$ANGBASE
 50
0.0
  9
$ANGDIR
 70
     0
  9
$PDMODE
 70
     0
  9
$PDSIZE
 40
-1.0
  9
$PLINEWID
 40
0.0
  9
$SPLFRAME
 70
     0
  9
$SPLINETYPE
 70
     6
  9
$SPLINESEGS
 70
     8
  9
$HANDSEED
  5
1AF
  9
$SURFTAB1
 70
     6
  9
$SURFTAB2
 70
     6
  9
$SURFTYPE
 70
     6
  9
$SURFU
 70
     6
  9
$SURFV
 70
     6
  9
$UCSBASE
  2

  9
$UCSNAME
  2

  9
$UCSORG
 10
0.0
 20
0.0
 30
0.0
  9
$UCSXDIR
 10
1.0
 20
0.0
 30
0.0
  9
$UCSYDIR
 10
0.0
 20
1.0
 30
0.0
  9
$UCSORTHOREF
  2

  9
$UCSORTHOVIEW
 70
     0
  9
$UCSORGTOP
 10
0.0
 20
0.0
 30
0.0
  9
$UCSORGBOTTOM
 10
0.0
 20
0.0
 30
0.0
  9
$UCSORGLEFT
 10
0.0
 20
0.0
 30
0.0
  9
$UCSORGRIGHT
 10
0.0
 20
0.0
 30
0.0
  9
$UCSORGFRONT
 10
0.0
 20
0.0
 30
0.0
  9
$UCSORGBACK
 10
0.0
 20
0.0
 30
0.0
  9
$PUCSBASE
  2

  9
$PUCSNAME
  2

  9
$PUCSORG
 10
0.0
 20
0.0
 30
0.0
  9
$PUCSXDIR
 10
1.0
 20
0.0
 30
0.0
  9
$PUCSYDIR
 10
0.0
 20
1.0
 30
0.0
  9
$PUCSORTHOREF
  2

  9
$PUCSORTHOVIEW
 70
     0
  9
$PUCSORGTOP
 10
0.0
 20
0.0
 30
0.0
  9
$PUCSORGBOTTOM
 10
0.0
 20
0.0
 30
0.0
  9
$PUCSORGLEFT
 10
0.0
 20
0.0
 30
0.0
  9
$PUCSORGRIGHT
 10
0.0
 20
0.0
 30
0.0
  9
$PUCSORGFRONT
 10
0.0
 20
0.0
 30
0.0
  9
$PUCSORGBACK
 10
0.0
 20
0.0
 30
0.0
  9
$USERI1
 70
     0
  9
$USERI2
 70
     0
  9
$USERI3
 70
     0
  9
$USERI4
 70
     0
  9
$USERI5
 70
     0
  9
$USERR1
 40
0.0
  9
$USERR2
 40
0.0
  9
$USERR3
 40
0.0
  9
$USERR4
 40
0.0
  9
$USERR5
 40
0.0
  9
$WORLDVIEW
 70
     1
  9
$SHADEDGE
 70
     3
  9
$SHADEDIF
 70
    70
  9
$TILEMODE
 70
     1
  9
$MAXACTVP
 70
    64
  9
$PINSBASE
 10
0.0
 20
0.0
 30
0.0
  9
$PLIMCHECK
 70
     0
  9
$PEXTMIN
 10
1.0000000000E+20
 20
1.0000000000E+20
 30
1.0000000000E+20
  9
$PEXTMAX
 10
-1.0000000000E+20
 20
-1.0000000000E+20
 30
-1.0000000000E+20
  9
$PLIMMIN
 10
0.0
 20
0.0
  9
$PLIMMAX
 10
420.0
 20
297.0
  9
$UNITMODE
 70
     0
  9
$VISRETAIN
 70
     1
  9
$PLINEGEN
 70
     0
  9
$PSLTSCALE
 70
     1
  9
$TREEDEPTH
 70
  3020
  9
$CMLSTYLE
  2
Standard
  9
$CMLJUST
 70
     0
  9
$CMLSCALE
 40
20.0
  9
$PROXYGRAPHICS
 70
     1
  9
$MEASUREMENT
 70
     1
  9
$CELWEIGHT
370
    -1
  9
$ENDCAPS
280
     0
  9
$JOINSTYLE
280
     0
  9
$LWDISPLAY
290
     1
  9
$INSUNITS
 70
     4
  9
$HYPERLINKBASE
  1

  9
$STYLESHEET
  1

  9
$XEDIT
290
     1
  9
$CEPSNTYPE
380
     0
  9
$PSTYLEMODE
290
     1
  9
$FINGERPRINTGUID
  2
{904400FE-D800-4EDE-AAFF-2BAD0285A8D3}
  9
$VERSIONGUID
  2
{FAEB1C32-E019-11D5-929B-00C0DF256EC4}
  9
$EXTNAMES
290
     1
  9
$PSVPSCALE
 40
0.0
  9
$OLESTARTUP
290
     0
  0
ENDSEC
  0
SECTION
  2
CLASSES
  0
CLASS
  1
ACDBDICTIONARYWDFLT
  2
AcDbDictionaryWithDefault
  3
ObjectDBX Classes
 90
        0
280
     0
281
     0
  0
CLASS
  1
VISUALSTYLE
  2
AcDbVisualStyle
  3
ObjectDBX Classes
 90
     4095
280
     0
281
     0
  0
CLASS
  1
MATERIAL
  2
AcDbMaterial
  3
ObjectDBX Classes
 90
     1153
280
     0
281
     0
  0
CLASS
  1
SCALE
  2
AcDbScale
  3
ObjectDBX Classes
 90
     1153
280
     0
281
     0
  0
CLASS
  1
SUN
  2
AcDbSun
  3
SCENEOE
 90
     1153
280
     0
281
     0
  0
CLASS
  1
ACDBPLACEHOLDER
  2
AcDbPlaceHolder
  3
ObjectDBX Classes
 90
        0
280
     0
281
     0
  0
CLASS
  1
LAYOUT
  2
AcDbLayout
  3
ObjectDBX Classes
 90
        0
280
     0
281
     0
  0
ENDSEC
  0
SECTION
  2
TABLES
  0
TABLE
  2
VPORT
  5
8
330
0
100
AcDbSymbolTable
 70
     1
  0
VPORT
  5
29
330
8
100
AcDbSymbolTableRecord
100
AcDbViewportTableRecord
  2
*Active
 70
     0
 10
0.0
 20
0.0
 11
1.0
 21
1.0
 12
185.625
 22
131.25
 13
0.0
 23
0.0
 14
10.0
 24
10.0
 15
10.0
 25
10.0
 16
0.0
 26
0.0
 36
1.0
 17
0.0
 27
0.0
 37
0.0
 40
262.5
 41
1.4142857143
 42
50.0
 43
0.0
 44
0.0
 50
0.0
 51
0.0
 71
     0
 72
  2000
 73
     1
 74
     3
 75
     0
 76
     0
 77
     0
 78
     0
281
     0
 65
     1
110
0.0
120
0.0
130
0.0
111
1.0
121
0.0
131
0.0
112
0.0
122
1.0
132
0.0
 79
     0
146
0.0
  0
ENDTAB
  0
TABLE
  2
LTYPE
  5
5
330
0
100
AcDbSymbolTable
 70
     6
  0
LTYPE
  5
14
330
5
100
AcDbSymbolTableRecord
100
AcDbLinetypeTableRecord
  2
ByBlock
 70
     0
  3

 72
    65
 73
     0
 40
0.0
  0
LTYPE
  5
15
330
5
100
AcDbSymbolTableRecord
100
AcDbLinetypeTableRecord
  2
ByLayer
 70
     0
  3

 72
    65
 73
     0
 40
0.0
  0
LTYPE
  5
16
330
5
100
AcDbSymbolTableRecord
100
AcDbLinetypeTableRecord
  2
Continuous
 70
     0
  3
Solid line
 72
    65
 73
     0
 40
0.0
  0
LTYPE
  5
6A
330
5
100
AcDbSymbolTableRecord
100
AcDbLinetypeTableRecord
  2
HIDDEN
 70
     0
  3
Hidden __ __ __ __ __ __ __ __ __ __ __ __ __ __
 72
    65
 73
     2
 40
1.905
 49
1.27
 74
     0
 49
-0.635
 74
     0
  0
LTYPE
  5
6B
330
5
100
AcDbSymbolTableRecord
100
AcDbLinetypeTableRecord
  2
PHANTOM
 70
     0
  3
Phantom ______  __  __  ______  __  __  ______
 72
    65
 73
     6
 40
12.7
 49
6.35
 74
     0
 49
-1.27
 74
     0
 49
1.27
 74
     0
 49
-1.27
 74
     0
 49
1.27
 74
     0
 49
-1.27
 74
     0
  0
LTYPE
  5
6C
330
5
100
AcDbSymbolTableRecord
100
AcDbLinetypeTableRecord
  2
CENTER
 70
     0
  3
Center ____ _ ____ _ ____ _ ____ _ ____ _ ____
 72
    65
 73
     4
 40
10.16
 49
6.35
 74
     0
 49
-1.27
 74
     0
 49
1.27
 74
     0
 49
-1.27
 74
     0
  0
LTYPE
  5
6D
330
5
100
AcDbSymbolTableRecord
100
AcDbLinetypeTableRecord
  2
CENTERX2
 70
     0
  3
Center (2x) ________  __  ________  __  _____
 72
    65
 73
     4
 40
20.32
 49
12.7
 74
     0
 49
-2.54
 74
     0
 49
2.54
 74
     0
 49
-2.54
 74
     0
  0
LTYPE
  5
6E
330
5
100
AcDbSymbolTableRecord
100
AcDbLinetypeTableRecord
  2
DOT2
 70
     0
  3
Dot (.5x) ........................................
 72
    65
 73
     2
 40
0.635
 49
0.0
 74
     0
 49
-0.635
 74
     0
  0
ENDTAB
  0
TABLE
  2
LAYER
  5
2
330
0
100
AcDbSymbolTable
 70
     8
  0
LAYER
  5
10
330
2
100
AcDbSymbolTableRecord
100
AcDbLayerTableRecord
  2
0
 70
     0
 62
     7
  6
Continuous
370
    -3
390
F
  0
LAYER
  5
6F
330
2
100
AcDbSymbolTableRecord
100
AcDbLayerTableRecord
  2
FORMAT
 70
     0
 62
     7
  6
Continuous
370
    -3
390
F
  0
LAYER
  5
70
330
2
100
AcDbSymbolTableRecord
100
AcDbLayerTableRecord
  2
SLD-0
 70
     0
 62
     2
  6
Continuous
370
    -3
390
F
  0
LAYER
  5
71
330
2
100
AcDbSymbolTableRecord
100
AcDbLayerTableRecord
  2
DIM
 70
     0
 62
   179
  6
Continuous
370
    -3
390
F
  0
LAYER
  5
72
330
2
100
AcDbSymbolTableRecord
100
AcDbLayerTableRecord
  2
SLD-DEFPOINTS
 70
     0
 62
   179
  6
Continuous
370
    -3
390
F
  0
LAYER
  5
73
330
2
100
AcDbSymbolTableRecord
100
AcDbLayerTableRecord
  2
HAT
 70
     0
 62
   135
  6
Continuous
370
    -3
390
F
  0
LAYER
  5
74
330
2
100
AcDbSymbolTableRecord
100
AcDbLayerTableRecord
  2
JOB
 70
     0
 62
   201
  6
Continuous
370
    -3
390
F
  0
LAYER
  5
75
330
2
100
AcDbSymbolTableRecord
100
AcDbLayerTableRecord
  2
INSPECTION_REPORT
 70
     0
 62
   255
  6
Continuous
370
    -3
390
F
  0
ENDTAB
  0
TABLE
  2
STYLE
  5
3
330
0
100
AcDbSymbolTable
 70
     4
  0
STYLE
  5
11
330
3
100
AcDbSymbolTableRecord
100
AcDbTextStyleTableRecord
  2
Standard
 70
     0
 40
0.0
 41
1.0
 50
0.0
 71
     0
 42
4.8506944444
  3
txt
  4

  0
STYLE
  5
96
330
3
100
AcDbSymbolTableRecord
100
AcDbTextStyleTableRecord
  2
SLDTEXTSTYLE0
 70
     0
 40
0.0
 41
0.7
 50
0.0
 71
     0
 42
4.8506944444
  3
TXT
  4

  0
STYLE
  5
98
330
3
100
AcDbSymbolTableRecord
100
AcDbTextStyleTableRecord
  2
SLDTEXTSTYLE1
 70
     0
 40
0.0
 41
0.75
 50
0.0
 71
     0
 42
4.8506944444
  3
TXT
  4

  0
STYLE
  5
AB
330
3
100
AcDbSymbolTableRecord
100
AcDbTextStyleTableRecord
  2
SLDTEXTSTYLE2
 70
     0
 40
0.0
 41
0.6875
 50
0.0
 71
     0
 42
4.8506944444
  3
TXT
  4

  0
ENDTAB
  0
TABLE
  2
VIEW
  5
6
330
0
100
AcDbSymbolTable
 70
     0
  0
ENDTAB
  0
TABLE
  2
UCS
  5
7
330
0
100
AcDbSymbolTable
 70
     0
  0
ENDTAB
  0
TABLE
  2
APPID
  5
9
330
0
100
AcDbSymbolTable
 70
     1
  0
APPID
  5
12
330
9
100
AcDbSymbolTableRecord
100
AcDbRegAppTableRecord
  2
ACAD
 70
     0
  0
ENDTAB
  0
TABLE
  2
DIMSTYLE
  5
A
330
0
100
AcDbSymbolTable
 70
     4
100
AcDbDimStyleTable
  0
DIMSTYLE
105
27
330
A
100
AcDbSymbolTableRecord
100
AcDbDimStyleTableRecord
  2
ISO-25
 70
     0
 41
2.5
 42
0.625
 43
3.75
 44
1.25
 73
     0
 74
     0
 77
     1
 78
     8
140
2.5
141
2.5
143
0.0393700787
147
0.625
171
     3
172
     1
178
     0
271
     2
272
     2
274
     3
278
    44
283
     0
284
     8
340
11
  0
DIMSTYLE
105
180
102
{ACAD_REACTORS
330
17F
102
}
330
A
100
AcDbSymbolTableRecord
100
AcDbDimStyleTableRecord
  2
SLDDIMSTYLE0
 70
     0
 41
4.1275
 44
0.0
 45
0.000000001
 73
     0
 74
     0
 77
     1
 78
    12
 79
     3
140
3.6380208333
147
0.9095052083
173
     1
178
     0
271
     2
272
     2
276
     2
284
    12
340
96
  0
DIMSTYLE
105
18B
102
{ACAD_REACTORS
330
18A
330
1A3
102
}
330
A
100
AcDbSymbolTableRecord
100
AcDbDimStyleTableRecord
  2
SLDDIMSTYLE1
 70
     0
 41
4.1275
 44
0.0
 45
0.000000001
 73
     0
 74
     0
 77
     1
 78
     4
 79
     1
140
3.6380208333
147
0.9095052083
173
     1
178
     0
271
     2
272
     2
276
     2
284
    12
340
96
  0
DIMSTYLE
105
196
102
{ACAD_REACTORS
330
195
102
}
330
A
100
AcDbSymbolTableRecord
100
AcDbDimStyleTableRecord
  2
SLDDIMSTYLE2
 70
     0
 41
4.1275
 44
0.0
 45
0.000000001
 73
     0
 74
     0
 77
     1
 78
    12
 79
     3
140
3.6380208333
147
0.9095052083
172
     1
173
     1
178
     0
271
     2
272
     2
276
     2
284
    12
289
     0
340
96
  0
ENDTAB
  0
TABLE
  2
BLOCK_RECORD
  5
1
330
0
100
AcDbSymbolTable
 70
     6
  0
BLOCK_RECORD
  5
1F
330
1
100
AcDbSymbolTableRecord
100
AcDbBlockTableRecord
  2
*Model_Space
340
22
  0
BLOCK_RECORD
  5
1B
330
1
100
AcDbSymbolTableRecord
100
AcDbBlockTableRecord
  2
*Paper_Space
340
1E
  0
BLOCK_RECORD
  5
23
330
1
100
AcDbSymbolTableRecord
100
AcDbBlockTableRecord
  2
*Paper_Space0
340
26
  0
BLOCK_RECORD
  5
F8
330
1
100
AcDbSymbolTableRecord
100
AcDbBlockTableRecord
  2
SW_CENTERMARKSYMBOL_0
340
0
102
{BLKREFS
331
103
102
}
  0
BLOCK_RECORD
  5
181
330
1
100
AcDbSymbolTableRecord
100
AcDbBlockTableRecord
  2
_D
340
0
  0
BLOCK_RECORD
  5
18C
330
1
100
AcDbSymbolTableRecord
100
AcDbBlockTableRecord
  2
_D_1
340
0
  0
BLOCK_RECORD
  5
197
330
1
100
AcDbSymbolTableRecord
100
AcDbBlockTableRecord
  2
_D_2
340
0
  0
BLOCK_RECORD
  5
1A4
330
1
100
AcDbSymbolTableRecord
100
AcDbBlockTableRecord
  2
_D_3
340
0
  0
ENDTAB
  0
ENDSEC
  0
SECTION
  2
BLOCKS
  0
BLOCK
  5
20
330
1F
100
AcDbEntity
  8
0
100
AcDbBlockBegin
  2
*Model_Space
 70
     0
 10
0.0
 20
0.0
 30
0.0
  3
*Model_Space
  1
*Model_Space
  0
ENDBLK
  5
21
330
1F
100
AcDbEntity
  8
0
100
AcDbBlockEnd
  0
BLOCK
  5
1C
330
1B
100
AcDbEntity
 67
     1
  8
0
100
AcDbBlockBegin
  2
*Paper_Space
 70
     0
 10
0.0
 20
0.0
 30
0.0
  3
*Paper_Space
  1
*Paper_Space
  0
ENDBLK
  5
1D
330
1B
100
AcDbEntity
 67
     1
  8
0
100
AcDbBlockEnd
  0
BLOCK
  5
24
330
23
100
AcDbEntity
  8
0
100
AcDbBlockBegin
  2
*Paper_Space0
 70
     0
 10
0.0
 20
0.0
 30
0.0
  3
*Paper_Space0
  1
*Paper_Space0
  0
ENDBLK
  5
25
330
23
100
AcDbEntity
  8
0
100
AcDbBlockEnd
  0
BLOCK
  5
F9
330
F8
100
AcDbEntity
  8
0
100
AcDbBlockBegin
  2
SW_CENTERMARKSYMBOL_0
 70
     0
 10
0.0
 20
0.0
 30
0.0
  3
SW_CENTERMARKSYMBOL_0
  1
SW_CENTERMARKSYMBOL_0
  0
LINE
  5
FB
330
F8
100
AcDbEntity
  8
DIM
 62
     0
100
AcDbLine
 10
0.0
 20
0.0
 30
0.0
 11
0.0
 21
2.5
 31
0.0
  0
LINE
  5
FC
330
F8
100
AcDbEntity
  8
DIM
 62
     0
100
AcDbLine
 10
0.0
 20
0.0
 30
0.0
 11
-2.5
 21
0.0
 31
0.0
  0
LINE
  5
FD
330
F8
100
AcDbEntity
  8
DIM
 62
     0
100
AcDbLine
 10
0.0
 20
0.0
 30
0.0
 11
0.0
 21
-2.5
 31
0.0
  0
LINE
  5
FE
330
F8
100
AcDbEntity
  8
DIM
 62
     0
100
AcDbLine
 10
0.0
 20
0.0
 30
0.0
 11
2.5
 21
0.0
 31
0.0
  0
LINE
  5
FF
330
F8
100
AcDbEntity
  8
DIM
 62
     0
100
AcDbLine
 10
0.0
 20
5.0
 30
0.0
 11
0.0
 21
34.25
 31
0.0
  0
LINE
  5
100
330
F8
100
AcDbEntity
  8
DIM
 62
     0
100
AcDbLine
 10
-5.0
 20
0.0
 30
0.0
 11
-34.25
 21
0.0
 31
0.0
  0
LINE
  5
101
330
F8
100
AcDbEntity
  8
DIM
 62
     0
100
AcDbLine
 10
0.0
 20
-5.0
 30
0.0
 11
0.0
 21
-34.25
 31
0.0
  0
LINE
  5
102
330
F8
100
AcDbEntity
  8
DIM
 62
     0
100
AcDbLine
 10
5.0
 20
0.0
 30
0.0
 11
34.25
 21
0.0
 31
0.0
  0
ENDBLK
  5
FA
330
F8
100
AcDbEntity
  8
0
100
AcDbBlockEnd
  0
BLOCK
  5
182
330
181
100
AcDbEntity
  8
0
100
AcDbBlockBegin
  2
_D
 70
     0
 10
0.0
 20
0.0
 30
0.0
  3
_D
  1
_D
  0
SOLID
  5
184
330
181
100
AcDbEntity
  8
DIM
100
AcDbTrace
 10
208.080369602
 20
98.6685883898
 30
0.0
 11
212.207869602
 21
98.0335883898
 31
0.0
 12
212.207869602
 22
99.3035883898
 32
0.0
 13
212.207869602
 23
99.3035883898
 33
0.0
  0
SOLID
  5
185
330
181
100
AcDbEntity
  8
DIM
100
AcDbTrace
 10
308.0803696019
 20
98.6685883898
 30
0.0
 11
303.9528696019
 21
99.3035883898
 31
0.0
 12
303.9528696019
 22
98.0335883898
 32
0.0
 13
303.9528696019
 23
98.0335883898
 33
0.0
  0
LINE
  5
186
330
181
100
AcDbEntity
  8
DIM
100
AcDbLine
 10
208.080369602
 20
112.6470863255
 30
0.0
 11
208.080369602
 21
97.4185883898
 31
0.0
  0
LINE
  5
187
330
181
100
AcDbEntity
  8
DIM
100
AcDbLine
 10
308.0803696019
 20
124.2720863258
 30
0.0
 11
308.0803696019
 21
97.4185883898
 31
0.0
  0
LINE
  5
188
330
181
100
AcDbEntity
  8
DIM
100
AcDbLine
 10
208.080369602
 20
98.6685883898
 30
0.0
 11
308.0803696019
 21
98.6685883898
 31
0.0
  0
MTEXT
  5
189
330
181
100
AcDbEntity
  8
DIM
100
AcDbMText
 10
254.3918205611
 20
103.3582439737
 30
0.0
 40
3.6380208333
 41
0.0
 71
     1
 72
     1
  1
100
  7
SLDTEXTSTYLE0
 73
     1
 44
1.0
  0
ENDBLK
  5
183
330
181
100
AcDbEntity
  8
0
100
AcDbBlockEnd
  0
BLOCK
  5
18D
330
18C
100
AcDbEntity
  8
0
100
AcDbBlockBegin
  2
_D_1
 70
     0
 10
0.0
 20
0.0
 30
0.0
  3
_D_1
  1
_D_1
  0
SOLID
  5
18F
330
18C
100
AcDbEntity
  8
DIM
100
AcDbTrace
 10
139.6803696021
 20
91.8720863254
 30
0.0
 11
143.8078696021
 21
91.2370863254
 31
0.0
 12
143.8078696021
 22
92.5070863254
 32
0.0
 13
143.8078696021
 23
92.5070863254
 33
0.0
  0
SOLID
  5
190
330
18C
100
AcDbEntity
  8
DIM
100
AcDbTrace
 10
308.0803696019
 20
91.8720863254
 30
0.0
 11
303.9528696019
 21
92.5070863254
 31
0.0
 12
303.9528696019
 22
91.2370863254
 32
0.0
 13
303.9528696019
 23
91.2370863254
 33
0.0
  0
LINE
  5
191
330
18C
100
AcDbEntity
  8
DIM
100
AcDbLine
 10
139.6803696021
 20
134.8720863255
 30
0.0
 11
139.6803696021
 21
90.6220863254
 31
0.0
  0
LINE
  5
192
330
18C
100
AcDbEntity
  8
DIM
100
AcDbLine
 10
308.0803696019
 20
124.2720863258
 30
0.0
 11
308.0803696019
 21
90.6220863254
 31
0.0
  0
LINE
  5
193
330
18C
100
AcDbEntity
  8
DIM
100
AcDbLine
 10
139.6803696021
 20
91.8720863254
 30
0.0
 11
308.0803696019
 21
91.8720863254
 31
0.0
  0
MTEXT
  5
194
330
18C
100
AcDbEntity
  8
DIM
100
AcDbMText
 10
217.0860285771
 20
96.5617419093
 30
0.0
 40
3.6380208333
 41
0.0
 71
     1
 72
     1
  1
168.40
  7
SLDTEXTSTYLE0
 73
     1
 44
1.0
  0
ENDBLK
  5
18E
330
18C
100
AcDbEntity
  8
0
100
AcDbBlockEnd
  0
BLOCK
  5
198
330
197
100
AcDbEntity
  8
0
100
AcDbBlockBegin
  2
_D_2
 70
     0
 10
0.0
 20
0.0
 30
0.0
  3
_D_2
  1
_D_2
  0
SOLID
  5
19A
330
197
100
AcDbEntity
  8
DIM
100
AcDbTrace
 10
317.2736467598
 20
147.1220863255
 30
0.0
 11
317.9086467598
 21
151.2495863255
 31
0.0
 12
316.6386467598
 22
151.2495863255
 32
0.0
 13
316.6386467598
 23
151.2495863255
 33
0.0
  0
SOLID
  5
19B
330
197
100
AcDbEntity
  8
DIM
100
AcDbTrace
 10
317.2736467598
 20
125.1220863255
 30
0.0
 11
316.6386467598
 21
120.9945863255
 31
0.0
 12
317.9086467598
 22
120.9945863255
 32
0.0
 13
317.9086467598
 23
120.9945863255
 33
0.0
  0
LINE
  5
19C
330
197
100
AcDbEntity
  8
DIM
100
AcDbLine
 10
308.930369602
 20
147.1220863255
 30
0.0
 11
318.5236467598
 21
147.1220863255
 31
0.0
  0
LINE
  5
19D
330
197
100
AcDbEntity
  8
DIM
100
AcDbLine
 10
308.930369602
 20
125.1220863255
 30
0.0
 11
318.5236467598
 21
125.1220863255
 31
0.0
  0
LINE
  5
19E
330
197
100
AcDbEntity
  8
DIM
100
AcDbLine
 10
317.2736467598
 20
147.1220863255
 30
0.0
 11
317.2736467598
 21
155.0595863255
 31
0.0
  0
LINE
  5
19F
330
197
100
AcDbEntity
  8
DIM
100
AcDbLine
 10
317.2736467598
 20
147.1220863255
 30
0.0
 11
317.2736467598
 21
125.1220863255
 31
0.0
  0
LINE
  5
1A0
330
197
100
AcDbEntity
  8
DIM
100
AcDbLine
 10
317.2736467598
 20
125.1220863255
 30
0.0
 11
317.2736467598
 21
117.1845863255
 31
0.0
  0
MTEXT
  5
1A1
330
197
100
AcDbEntity
  8
DIM
100
AcDbMText
 10
312.5839911759
 20
130.8501561943
 30
0.0
 40
3.6380208333
 41
0.0
 71
     1
 72
     1
  1
%%c
  7
SLDTEXTSTYLE0
 11
-7.932373437343760E-15
 21
1.0
 31
0.0
 73
     1
 44
1.0
  0
MTEXT
  5
1A2
330
197
100
AcDbEntity
  8
DIM
100
AcDbMText
 10
312.5839911759
 20
136.4759510688
 30
0.0
 40
3.6380208333
 41
0.0
 71
     1
 72
     1
  1
22
  7
SLDTEXTSTYLE0
 11
-7.932373437343760E-15
 21
1.0
 31
0.0
 73
     1
 44
1.0
  0
ENDBLK
  5
199
330
197
100
AcDbEntity
  8
0
100
AcDbBlockEnd
  0
BLOCK
  5
1A5
330
1A4
100
AcDbEntity
  8
0
100
AcDbBlockBegin
  2
_D_3
 70
     0
 10
0.0
 20
0.0
 30
0.0
  3
_D_3
  1
_D_3
  0
SOLID
  5
1A7
330
1A4
100
AcDbEntity
  8
DIM
100
AcDbTrace
 10
134.9353330336
 20
167.8720863255
 30
0.0
 11
134.3003330336
 21
163.7445863255
 31
0.0
 12
135.5703330336
 22
163.7445863255
 32
0.0
 13
135.5703330336
 23
163.7445863255
 33
0.0
  0
SOLID
  5
1A8
330
1A4
100
AcDbEntity
  8
DIM
100
AcDbTrace
 10
134.9353330336
 20
104.3720863255
 30
0.0
 11
135.5703330336
 21
108.4995863255
 31
0.0
 12
134.3003330336
 22
108.4995863255
 32
0.0
 13
134.3003330336
 23
108.4995863255
 33
0.0
  0
LINE
  5
1A9
330
1A4
100
AcDbEntity
  8
DIM
100
AcDbLine
 10
211.196055027
 20
167.8720863255
 30
0.0
 11
133.6853330336
 21
167.8720863255
 31
0.0
  0
LINE
  5
1AA
330
1A4
100
AcDbEntity
  8
DIM
100
AcDbLine
 10
211.196055027
 20
104.3720863255
 30
0.0
 11
133.6853330336
 21
104.3720863255
 31
0.0
  0
LINE
  5
1AB
330
1A4
100
AcDbEntity
  8
DIM
100
AcDbLine
 10
134.9353330336
 20
167.8720863255
 30
0.0
 11
134.9353330336
 21
104.3720863255
 31
0.0
  0
MTEXT
  5
1AC
330
1A4
100
AcDbEntity
  8
DIM
100
AcDbMText
 10
130.2456774497
 20
127.7443642102
 30
0.0
 40
3.6380208333
 41
0.0
 71
     1
 72
     1
  1
%%c
  7
SLDTEXTSTYLE0
 11
-7.044195017643634E-15
 21
1.0
 31
0.0
 73
     1
 44
1.0
  0
MTEXT
  5
1AD
330
1A4
100
AcDbEntity
  8
DIM
100
AcDbMText
 10
130.2456774497
 20
133.3701590847
 30
0.0
 40
3.6380208333
 41
0.0
 71
     1
 72
     1
  1
63.50
  7
SLDTEXTSTYLE0
 11
-7.044195017643634E-15
 21
1.0
 31
0.0
 73
     1
 44
1.0
  0
ENDBLK
  5
1A6
330
1A4
100
AcDbEntity
  8
0
100
AcDbBlockEnd
  0
ENDSEC
  0
SECTION
  2
ENTITIES
  0
LINE
  5
76
330
1F
100
AcDbEntity
  8
DIM
100
AcDbLine
 10
130.8805308612
 20
12.2387393211
 30
0.0
 11
130.8805308612
 21
5.9887393211
 31
0.0
  0
LINE
  5
77
330
1F
100
AcDbEntity
  8
DIM
100
AcDbLine
 10
318.0870021191
 20
12.2387393211
 30
0.0
 11
318.0870021191
 21
5.9887393211
 31
0.0
  0
LINE
  5
78
330
1F
100
AcDbEntity
  8
DIM
100
AcDbLine
 10
296.8146374145
 20
12.2387393211
 30
0.0
 11
296.8146374145
 21
5.9887393211
 31
0.0
  0
LINE
  5
79
330
1F
100
AcDbEntity
  8
DIM
100
AcDbLine
 10
348.6305308612
 20
5.9887393211
 30
0.0
 11
348.6305308612
 21
12.2387393211
 31
0.0
  0
LINE
  5
7A
330
1F
100
AcDbEntity
  8
DIM
100
AcDbLine
 10
140.6305308612
 20
12.2387393211
 30
0.0
 11
140.6305308612
 21
5.9887393211
 31
0.0
  0
LINE
  5
7B
330
1F
100
AcDbEntity
  8
DIM
100
AcDbLine
 10
164.6192214035
 20
12.2387393211
 30
0.0
 11
164.6192214035
 21
5.9887393211
 31
0.0
  0
LINE
  5
7C
330
1F
100
AcDbEntity
  8
DIM
100
AcDbLine
 10
364.8805308612
 20
5.9887393211
 30
0.0
 11
364.8805308612
 21
96.3012393211
 31
0.0
  0
LINE
  5
7D
330
1F
100
AcDbEntity
  8
DIM
100
AcDbLine
 10
357.2737558684
 20
75.0512393211
 30
0.0
 11
364.8805308612
 21
75.0512393211
 31
0.0
  0
LINE
  5
7E
330
1F
100
AcDbEntity
  8
DIM
100
AcDbLine
 10
186.3791885657
 20
11.3012393211
 30
0.0
 11
186.3791885657
 21
5.9887393211
 31
0.0
  0
LINE
  5
7F
330
1F
100
AcDbEntity
  8
DIM
100
AcDbLine
 10
245.9549364505
 20
12.2387393211
 30
0.0
 11
245.9549364505
 21
5.9887393211
 31
0.0
  0
LINE
  5
80
330
1F
100
AcDbEntity
  8
DIM
100
AcDbLine
 10
186.3791885657
 20
12.2387393211
 30
0.0
 11
186.3791885657
 21
11.3012393211
 31
0.0
  0
LINE
  5
81
330
1F
100
AcDbEntity
  8
DIM
100
AcDbLine
 10
358.6305308612
 20
21.9261493211
 30
0.0
 11
364.8805308612
 21
21.9261493211
 31
0.0
  0
LINE
  5
82
330
1F
100
AcDbEntity
  8
DIM
100
AcDbLine
 10
358.6305308612
 20
249.7387393211
 30
0.0
 11
12.3805308612
 21
249.7387393211
 31
0.0
  0
LINE
  5
83
330
1F
100
AcDbEntity
  8
DIM
100
AcDbLine
 10
364.8805308612
 20
255.9887393211
 30
0.0
 11
6.1305308612
 21
255.9887393211
 31
0.0
  0
LINE
  5
84
330
1F
100
AcDbEntity
  8
DIM
100
AcDbLine
 10
12.3805308612
 20
249.7387393211
 30
0.0
 11
12.3805308612
 21
12.2387393211
 31
0.0
  0
LINE
  5
85
330
1F
100
AcDbEntity
  8
DIM
100
AcDbLine
 10
6.1305308612
 20
255.9887393211
 30
0.0
 11
6.1305308612
 21
5.9887393211
 31
0.0
  0
LINE
  5
86
330
1F
100
AcDbEntity
  8
DIM
100
AcDbLine
 10
12.3805308612
 20
68.4887393211
 30
0.0
 11
6.1305308612
 21
68.4887393211
 31
0.0
  0
LINE
  5
87
330
1F
100
AcDbEntity
  8
DIM
100
AcDbLine
 10
6.1305308612
 20
130.9887393211
 30
0.0
 11
12.3805308612
 21
130.9887393211
 31
0.0
  0
LINE
  5
88
330
1F
100
AcDbEntity
  8
DIM
100
AcDbLine
 10
6.1305308612
 20
5.9887393211
 30
0.0
 11
364.8805308612
 21
5.9887393211
 31
0.0
  0
LINE
  5
89
330
1F
100
AcDbEntity
  8
DIM
100
AcDbLine
 10
12.3805308612
 20
12.2387393211
 30
0.0
 11
364.8805308612
 21
12.2387393211
 31
0.0
  0
LINE
  5
8A
330
1F
100
AcDbEntity
  8
DIM
100
AcDbLine
 10
60.5055308612
 20
5.9887393211
 30
0.0
 11
60.5055308612
 21
12.2387393211
 31
0.0
  0
LINE
  5
8B
330
1F
100
AcDbEntity
  8
DIM
100
AcDbLine
 10
123.0055308612
 20
12.2387393211
 30
0.0
 11
123.0055308612
 21
5.9887393211
 31
0.0
  0
LINE
  5
8C
330
1F
100
AcDbEntity
  8
DIM
100
AcDbLine
 10
12.3805308612
 20
193.4887393211
 30
0.0
 11
6.1305308612
 21
193.4887393211
 31
0.0
  0
LINE
  5
8D
330
1F
100
AcDbEntity
  8
DIM
100
AcDbLine
 10
60.5055308612
 20
249.7387393211
 30
0.0
 11
60.5055308612
 21
255.9887393211
 31
0.0
  0
LINE
  5
8E
330
1F
100
AcDbEntity
  8
DIM
100
AcDbLine
 10
123.0055308612
 20
255.9887393211
 30
0.0
 11
123.0055308612
 21
249.7387393211
 31
0.0
  0
LINE
  5
8F
330
1F
100
AcDbEntity
  8
DIM
100
AcDbLine
 10
185.5055308612
 20
255.9887393211
 30
0.0
 11
185.5055308612
 21
249.7387393211
 31
0.0
  0
LINE
  5
90
330
1F
100
AcDbEntity
  8
DIM
100
AcDbLine
 10
358.6305308612
 20
12.2387393211
 30
0.0
 11
358.6305308612
 21
249.7387393211
 31
0.0
  0
LINE
  5
91
330
1F
100
AcDbEntity
  8
DIM
100
AcDbLine
 10
364.8805308612
 20
96.3012393211
 30
0.0
 11
364.8805308612
 21
255.9887393211
 31
0.0
  0
LINE
  5
92
330
1F
100
AcDbEntity
  8
DIM
100
AcDbLine
 10
364.8805308612
 20
130.9887393211
 30
0.0
 11
358.6305308612
 21
130.9887393211
 31
0.0
  0
LINE
  5
93
330
1F
100
AcDbEntity
  8
DIM
100
AcDbLine
 10
248.0055308612
 20
255.9887393211
 30
0.0
 11
248.0055308612
 21
249.7387393211
 31
0.0
  0
LINE
  5
94
330
1F
100
AcDbEntity
  8
DIM
100
AcDbLine
 10
310.5055308612
 20
249.7387393211
 30
0.0
 11
310.5055308612
 21
255.9887393211
 31
0.0
  0
LINE
  5
95
330
1F
100
AcDbEntity
  8
DIM
100
AcDbLine
 10
358.6305308612
 20
193.4887393211
 30
0.0
 11
364.8805308612
 21
193.4887393211
 31
0.0
  0
MTEXT
  5
97
330
1F
100
AcDbEntity
  8
DIM
100
AcDbMText
 10
16.5759429274
 20
242.6535727172
 30
0.0
 40
5.2916666667
 41
0.0
 71
     1
 72
     1
  1
SK 40 ER16 100 AD+B/2.5G 25000 SL
  7
SLDTEXTSTYLE0
 73
     1
 44
1.0
  0
MTEXT
  5
99
330
1F
100
AcDbEntity
  8
DIM
 62
     7
100
AcDbMText
 10
247.1659733083
 20
9.7524394079
 30
0.0
 40
1.87325
 41
0.0
 71
     1
 72
     1
  1
WEIGHT:
  7
SLDTEXTSTYLE1
 73
     1
 44
1.0
  0
MTEXT
  5
9A
330
1F
100
AcDbEntity
  8
DIM
 62
     7
100
AcDbMText
 10
360.7463459435
 20
102.4257668853
 30
0.0
 40
2.3151041667
 41
0.0
 71
     1
 72
     1
  1
C
  7
SLDTEXTSTYLE1
 73
     1
 44
1.0
  0
MTEXT
  5
9B
330
1F
100
AcDbEntity
  8
DIM
 62
     7
100
AcDbMText
 10
353.8044757743
 20
18.5674774795
 30
0.0
 40
3.6380208333
 41
0.0
 71
     1
 72
     1
  1
A4
  7
SLDTEXTSTYLE1
 73
     1
 44
1.0
  0
MTEXT
  5
9C
330
1F
100
AcDbEntity
  8
DIM
 62
     7
100
AcDbMText
 10
340.7138691946
 20
254.3237598255
 30
0.0
 40
2.3151041667
 41
0.0
 71
     1
 72
     1
  1
6
  7
SLDTEXTSTYLE1
 73
     1
 44
1.0
  0
MTEXT
  5
9D
330
1F
100
AcDbEntity
  8
DIM
 62
     7
100
AcDbMText
 10
278.2138691946
 20
254.3237598255
 30
0.0
 40
2.3151041667
 41
0.0
 71
     1
 72
     1
  1
5
  7
SLDTEXTSTYLE1
 73
     1
 44
1.0
  0
MTEXT
  5
9E
330
1F
100
AcDbEntity
  8
DIM
 62
     7
100
AcDbMText
 10
360.7138741946
 20
226.1987598255
 30
0.0
 40
2.3151041667
 41
0.0
 71
     1
 72
     1
  1
A
  7
SLDTEXTSTYLE1
 73
     1
 44
1.0
  0
MTEXT
  5
9F
330
1F
100
AcDbEntity
  8
DIM
 62
     7
100
AcDbMText
 10
360.7138741946
 20
163.6987598255
 30
0.0
 40
2.3151041667
 41
0.0
 71
     1
 72
     1
  1
B
  7
SLDTEXTSTYLE1
 73
     1
 44
1.0
  0
MTEXT
  5
A0
330
1F
100
AcDbEntity
  8
DIM
 62
     7
100
AcDbMText
 10
215.7138691946
 20
254.3237598255
 30
0.0
 40
2.3151041667
 41
0.0
 71
     1
 72
     1
  1
4
  7
SLDTEXTSTYLE1
 73
     1
 44
1.0
  0
MTEXT
  5
A1
330
1F
100
AcDbEntity
  8
DIM
 62
     7
100
AcDbMText
 10
28.7347025279
 20
254.3237598255
 30
0.0
 40
2.3151041667
 41
0.0
 71
     1
 72
     1
  1
1
  7
SLDTEXTSTYLE1
 73
     1
 44
1.0
  0
MTEXT
  5
A2
330
1F
100
AcDbEntity
  8
DIM
 62
     7
100
AcDbMText
 10
90.7138691946
 20
254.3237598255
 30
0.0
 40
2.3151041667
 41
0.0
 71
     1
 72
     1
  1
2
  7
SLDTEXTSTYLE1
 73
     1
 44
1.0
  0
MTEXT
  5
A3
330
1F
100
AcDbEntity
  8
DIM
 62
     7
100
AcDbMText
 10
153.2138691946
 20
254.3237598255
 30
0.0
 40
2.3151041667
 41
0.0
 71
     1
 72
     1
  1
3
  7
SLDTEXTSTYLE1
 73
     1
 44
1.0
  0
MTEXT
  5
A4
330
1F
100
AcDbEntity
  8
DIM
 62
     7
100
AcDbMText
 10
8.2138641946
 20
226.1987598255
 30
0.0
 40
2.3151041667
 41
0.0
 71
     1
 72
     1
  1
A
  7
SLDTEXTSTYLE1
 73
     1
 44
1.0
  0
MTEXT
  5
A5
330
1F
100
AcDbEntity
  8
DIM
 62
     7
100
AcDbMText
 10
90.7138691946
 20
10.5737598255
 30
0.0
 40
2.3151041667
 41
0.0
 71
     1
 72
     1
  1
2
  7
SLDTEXTSTYLE1
 73
     1
 44
1.0
  0
MTEXT
  5
A6
330
1F
100
AcDbEntity
  8
DIM
 62
     7
100
AcDbMText
 10
28.7347025279
 20
10.5737598255
 30
0.0
 40
2.3151041667
 41
0.0
 71
     1
 72
     1
  1
1
  7
SLDTEXTSTYLE1
 73
     1
 44
1.0
  0
MTEXT
  5
A7
330
1F
100
AcDbEntity
  8
DIM
 62
     7
100
AcDbMText
 10
8.2138641946
 20
38.6987598255
 30
0.0
 40
2.3151041667
 41
0.0
 71
     1
 72
     1
  1
D
  7
SLDTEXTSTYLE1
 73
     1
 44
1.0
  0
MTEXT
  5
A8
330
1F
100
AcDbEntity
  8
DIM
 62
     7
100
AcDbMText
 10
8.2138641946
 20
101.1987598255
 30
0.0
 40
2.3151041667
 41
0.0
 71
     1
 72
     1
  1
C
  7
SLDTEXTSTYLE1
 73
     1
 44
1.0
  0
MTEXT
  5
A9
330
1F
100
AcDbEntity
  8
DIM
 62
     7
100
AcDbMText
 10
8.2138641946
 20
163.6987598255
 30
0.0
 40
2.3151041667
 41
0.0
 71
     1
 72
     1
  1
B
  7
SLDTEXTSTYLE1
 73
     1
 44
1.0
  0
MTEXT
  5
AA
330
1F
100
AcDbEntity
  8
DIM
 62
     7
100
AcDbMText
 10
360.7463459435
 20
102.4257668853
 30
0.0
 40
2.3151041667
 41
0.0
 71
     1
 72
     1
  1
C
  7
SLDTEXTSTYLE1
 73
     1
 44
1.0
  0
MTEXT
  5
AC
330
1F
100
AcDbEntity
  8
DIM
 62
     7
100
AcDbMText
 10
320.6567072656
 20
9.6138484142
 30
0.0
 40
1.875
 41
0.0
 71
     1
 72
     1
  1
SHEET 1 OF 1
  7
SLDTEXTSTYLE2
 73
     1
 44
1.0
  0
MTEXT
  5
AD
330
1F
100
AcDbEntity
  8
DIM
 62
     7
100
AcDbMText
 10
187.9647254793
 20
9.8167093546
 30
0.0
 40
1.875
 41
0.0
 71
     1
 72
     1
  1
MATERIAL:
  7
SLDTEXTSTYLE1
 73
     1
 44
1.0
  0
MTEXT
  5
AE
330
1F
100
AcDbEntity
  8
DIM
 62
     7
100
AcDbMText
 10
340.7138691946
 20
254.3237598255
 30
0.0
 40
2.3151041667
 41
0.0
 71
     1
 72
     1
  1
6
  7
SLDTEXTSTYLE1
 73
     1
 44
1.0
  0
MTEXT
  5
AF
330
1F
100
AcDbEntity
  8
DIM
 62
     7
100
AcDbMText
 10
278.2138691946
 20
254.3237598255
 30
0.0
 40
2.3151041667
 41
0.0
 71
     1
 72
     1
  1
5
  7
SLDTEXTSTYLE1
 73
     1
 44
1.0
  0
MTEXT
  5
B0
330
1F
100
AcDbEntity
  8
DIM
 62
     7
100
AcDbMText
 10
360.7138741946
 20
226.1987598255
 30
0.0
 40
2.3151041667
 41
0.0
 71
     1
 72
     1
  1
A
  7
SLDTEXTSTYLE1
 73
     1
 44
1.0
  0
MTEXT
  5
B1
330
1F
100
AcDbEntity
  8
DIM
 62
     7
100
AcDbMText
 10
360.7138741946
 20
163.6987598255
 30
0.0
 40
2.3151041667
 41
0.0
 71
     1
 72
     1
  1
B
  7
SLDTEXTSTYLE1
 73
     1
 44
1.0
  0
MTEXT
  5
B2
330
1F
100
AcDbEntity
  8
DIM
 62
     7
100
AcDbMText
 10
215.7138691946
 20
254.3237598255
 30
0.0
 40
2.3151041667
 41
0.0
 71
     1
 72
     1
  1
4
  7
SLDTEXTSTYLE1
 73
     1
 44
1.0
  0
MTEXT
  5
B3
330
1F
100
AcDbEntity
  8
DIM
 62
     7
100
AcDbMText
 10
28.7347025279
 20
254.3237598255
 30
0.0
 40
2.3151041667
 41
0.0
 71
     1
 72
     1
  1
1
  7
SLDTEXTSTYLE1
 73
     1
 44
1.0
  0
MTEXT
  5
B4
330
1F
100
AcDbEntity
  8
DIM
 62
     7
100
AcDbMText
 10
90.7138691946
 20
254.3237598255
 30
0.0
 40
2.3151041667
 41
0.0
 71
     1
 72
     1
  1
2
  7
SLDTEXTSTYLE1
 73
     1
 44
1.0
  0
MTEXT
  5
B5
330
1F
100
AcDbEntity
  8
DIM
 62
     7
100
AcDbMText
 10
153.2138691946
 20
254.3237598255
 30
0.0
 40
2.3151041667
 41
0.0
 71
     1
 72
     1
  1
3
  7
SLDTEXTSTYLE1
 73
     1
 44
1.0
  0
MTEXT
  5
B6
330
1F
100
AcDbEntity
  8
DIM
 62
     7
100
AcDbMText
 10
8.2138641946
 20
226.1987598255
 30
0.0
 40
2.3151041667
 41
0.0
 71
     1
 72
     1
  1
A
  7
SLDTEXTSTYLE1
 73
     1
 44
1.0
  0
MTEXT
  5
B7
330
1F
100
AcDbEntity
  8
DIM
 62
     7
100
AcDbMText
 10
90.7138691946
 20
10.5737598255
 30
0.0
 40
2.3151041667
 41
0.0
 71
     1
 72
     1
  1
2
  7
SLDTEXTSTYLE1
 73
     1
 44
1.0
  0
MTEXT
  5
B8
330
1F
100
AcDbEntity
  8
DIM
 62
     7
100
AcDbMText
 10
28.7347025279
 20
10.5737598255
 30
0.0
 40
2.3151041667
 41
0.0
 71
     1
 72
     1
  1
1
  7
SLDTEXTSTYLE1
 73
     1
 44
1.0
  0
MTEXT
  5
B9
330
1F
100
AcDbEntity
  8
DIM
 62
     7
100
AcDbMText
 10
8.2138641946
 20
38.6987598255
 30
0.0
 40
2.3151041667
 41
0.0
 71
     1
 72
     1
  1
D
  7
SLDTEXTSTYLE1
 73
     1
 44
1.0
  0
MTEXT
  5
BA
330
1F
100
AcDbEntity
  8
DIM
 62
     7
100
AcDbMText
 10
8.2138641946
 20
101.1987598255
 30
0.0
 40
2.3151041667
 41
0.0
 71
     1
 72
     1
  1
C
  7
SLDTEXTSTYLE1
 73
     1
 44
1.0
  0
MTEXT
  5
BB
330
1F
100
AcDbEntity
  8
DIM
 62
     7
100
AcDbMText
 10
8.2138641946
 20
163.6987598255
 30
0.0
 40
2.3151041667
 41
0.0
 71
     1
 72
     1
  1
B
  7
SLDTEXTSTYLE1
 73
     1
 44
1.0
  0
SPLINE
  5
BC
330
1F
100
AcDbEntity
  8
0
  6
Continuous
 62
     7
370
    15
100
AcDbSpline
210
0.0
220
0.0
230
1.0
 70
     8
 71
     3
 72
    38
 73
    34
 74
     0
 42
0.000000001
 43
0.00000001
 40
0.0
 40
0.0
 40
0.0
 40
0.0
 40
0.0624999999999999
 40
0.0624999999999999
 40
0.1249999999999999
 40
0.1249999999999999
 40
0.1874999999999999
 40
0.1874999999999999
 40
0.25
 40
0.25
 40
0.3125
 40
0.3125
 40
0.375
 40
0.375
 40
0.4375
 40
0.4375
 40
0.5
 40
0.5
 40
0.5625
 40
0.5625
 40
0.625
 40
0.625
 40
0.6875
 40
0.6875
 40
0.75
 40
0.75
 40
0.8125
 40
0.8125
 40
0.875
 40
0.875
 40
0.9375
 40
0.9375
 40
1.0
 40
1.0
 40
1.0
 40
1.0
 10
88.26896576278581
 20
136.1220863254544
 30
0.0
 10
88.26896576278581
 20
135.6477045508896
 30
0.0
 10
88.23954213012446
 20
135.1433790289446
 30
0.0
 10
88.09688209297853
 20
134.0781840849144
 30
0.0
 10
87.98357768720957
 20
133.5171611249644
 30
0.0
 10
87.64354083120388
 20
132.351320475794
 30
0.0
 10
87.41662370805031
 20
131.7463471540366
 30
0.0
 10
86.8186906645934
 20
130.5198178341166
 30
0.0
 10
86.44733974846952
 20
129.8981974431646
 30
0.0
 10
85.53652674131138
 20
128.6837801002788
 30
0.0
 10
84.99663060930824
 20
128.0911562871479
 30
0.0
 10
83.74324434812858
 20
126.9972919137473
 30
0.0
 10
83.02942727005082
 20
126.496568242244
 30
0.0
 10
81.45362621960419
 20
125.6561410153334
 30
0.0
 10
80.5917283148759
 20
125.3171852769533
 30
0.0
 10
78.78088115271532
 20
124.8572875849729
 30
0.0
 10
77.83256672243208
 20
124.7369237358999
 30
0.0
 10
75.93503962418595
 20
124.7369237358999
 30
0.0
 10
74.9867251939027
 20
124.8572875849729
 30
0.0
 10
73.17587803174213
 20
125.3171852769533
 30
0.0
 10
72.31398012701382
 20
125.6561410153334
 30
0.0
 10
70.7381790765672
 20
126.496568242244
 30
0.0
 10
70.02436199848944
 20
126.9972919137473
 30
0.0
 10
68.77097573730978
 20
128.0911562871479
 30
0.0
 10
68.23107960530665
 20
128.6837801002788
 30
0.0
 10
67.3202665981485
 20
129.8981974431646
 30
0.0
 10
66.94891568202462
 20
130.5198178341166
 30
0.0
 10
66.3509826385677
 20
131.7463471540366
 30
0.0
 10
66.12406551541415
 20
132.351320475794
 30
0.0
 10
65.78402865940843
 20
133.5171611249644
 30
0.0
 10
65.67072425363948
 20
134.0781840849144
 30
0.0
 10
65.52806421649356
 20
135.1433790289446
 30
0.0
 10
65.49864058383221
 20
135.6477045508896
 30
0.0
 10
65.49864058383221
 20
136.1220863254544
 30
0.0
  0
SPLINE
  5
BD
330
1F
100
AcDbEntity
  8
0
  6
Continuous
 62
     7
370
    15
100
AcDbSpline
210
0.0
220
0.0
230
1.0
 70
     8
 71
     3
 72
    38
 73
    34
 74
     0
 42
0.000000001
 43
0.00000001
 40
0.0
 40
0.0
 40
0.0
 40
0.0
 40
0.0625
 40
0.0625
 40
0.125
 40
0.125
 40
0.1875
 40
0.1875
 40
0.25
 40
0.25
 40
0.3125
 40
0.3125
 40
0.375
 40
0.375
 40
0.4375
 40
0.4375
 40
0.5
 40
0.5
 40
0.5625
 40
0.5625
 40
0.625
 40
0.625
 40
0.6875
 40
0.6875
 40
0.75
 40
0.75
 40
0.8125
 40
0.8125
 40
0.875
 40
0.875
 40
0.9375
 40
0.9375
 40
1.0
 40
1.0
 40
1.0
 40
1.0
 10
65.49864058383221
 20
136.1220863254544
 30
0.0
 10
65.49864058383221
 20
136.5964681000192
 30
0.0
 10
65.52806421649356
 20
137.1007936219643
 30
0.0
 10
65.67072425363948
 20
138.1659885659944
 30
0.0
 10
65.78402865940843
 20
138.7270115259445
 30
0.0
 10
66.12406551541413
 20
139.8928521751149
 30
0.0
 10
66.3509826385677
 20
140.4978254968722
 30
0.0
 10
66.94891568202462
 20
141.7243548167923
 30
0.0
 10
67.32026659814849
 20
142.3459752077442
 30
0.0
 10
68.23107960530663
 20
143.56039255063
 30
0.0
 10
68.77097573730978
 20
144.1530163637609
 30
0.0
 10
70.02436199848944
 20
145.2468807371616
 30
0.0
 10
70.7381790765672
 20
145.7476044086649
 30
0.0
 10
72.31398012701382
 20
146.5880316355755
 30
0.0
 10
73.17587803174213
 20
146.9269873739555
 30
0.0
 10
74.9867251939027
 20
147.386885065936
 30
0.0
 10
75.93503962418595
 20
147.5072489150089
 30
0.0
 10
77.83256672243208
 20
147.5072489150089
 30
0.0
 10
78.78088115271532
 20
147.386885065936
 30
0.0
 10
80.5917283148759
 20
146.9269873739555
 30
0.0
 10
81.4536262196042
 20
146.5880316355755
 30
0.0
 10
83.02942727005082
 20
145.7476044086649
 30
0.0
 10
83.74324434812858
 20
145.2468807371616
 30
0.0
 10
84.99663060930824
 20
144.1530163637609
 30
0.0
 10
85.53652674131138
 20
143.56039255063
 30
0.0
 10
86.44733974846952
 20
142.3459752077442
 30
0.0
 10
86.8186906645934
 20
141.7243548167923
 30
0.0
 10
87.41662370805034
 20
140.4978254968722
 30
0.0
 10
87.6435408312039
 20
139.8928521751149
 30
0.0
 10
87.9835776872096
 20
138.7270115259445
 30
0.0
 10
88.09688209297853
 20
138.1659885659944
 30
0.0
 10
88.23954213012446
 20
137.1007936219643
 30
0.0
 10
88.26896576278581
 20
136.5964681000192
 30
0.0
 10
88.26896576278581
 20
136.1220863254544
 30
0.0
  0
SPLINE
  5
BE
330
1F
100
AcDbEntity
  8
0
  6
Continuous
 62
     7
370
    15
100
AcDbSpline
210
0.0
220
0.0
230
1.0
 70
    24
 71
     3
 72
    14
 73
    10
 74
     0
 42
0.000000001
 43
0.00000001
 40
0.0
 40
0.0
 40
0.0
 40
0.0
 40
0.25
 40
0.25
 40
0.5
 40
0.5
 40
0.75
 40
0.75
 40
1.0
 40
1.0
 40
1.0
 40
1.0
 10
65.49864058379312
 20
136.1220863254544
 30
0.0
 10
65.38962403485225
 20
136.1220863254544
 30
0.0
 10
65.27354604343152
 20
136.1220863254544
 30
0.0
 10
65.04771700456408
 20
136.1220863254544
 30
0.0
 10
64.93843864517831
 20
136.1220863254544
 30
0.0
 10
64.75064393480154
 20
136.1220863254544
 30
0.0
 10
64.6725493391247
 20
136.1220863254544
 30
0.0
 10
64.55970337965803
 20
136.1220863254544
 30
0.0
 10
64.52483978236837
 20
136.1220863254544
 30
0.0
 10
64.50910779743374
 20
136.1220863254544
 30
0.0
  0
ARC
  5
BF
330
1F
100
AcDbEntity
  8
0
  6
Continuous
 62
     7
370
    15
100
AcDbCircle
 10
76.8838031733
 20
136.1220863255
 30
0.0
 40
12.37469537600001
100
AcDbArc
 50
359.9999999765
 51
180.0
  0
SPLINE
  5
C0
330
1F
100
AcDbEntity
  8
0
  6
Continuous
 62
     7
370
    15
100
AcDbSpline
210
0.0
220
0.0
230
1.0
 70
    24
 71
     3
 72
    14
 73
    10
 74
     0
 42
0.000000001
 43
0.00000001
 40
0.0
 40
0.0
 40
0.0
 40
0.0
 40
0.25
 40
0.25
 40
0.5
 40
0.5
 40
0.75
 40
0.75
 40
1.0
 40
1.0
 40
1.0
 40
1.0
 10
88.26896576282489
 20
136.1220863254544
 30
0.0
 10
88.37798231176136
 20
136.1220863254544
 30
0.0
 10
88.49406030317704
 20
136.1220863254544
 30
0.0
 10
88.7198893420359
 20
136.1220863254544
 30
0.0
 10
88.82916770141821
 20
136.1220863254544
 30
0.0
 10
89.01696241179228
 20
136.1220863254544
 30
0.0
 10
89.0950570074699
 20
136.1220863254544
 30
0.0
 10
89.20790296694219
 20
136.1220863254544
 30
0.0
 10
89.24276656423659
 20
136.1220863254544
 30
0.0
 10
89.25849854917661
 20
136.1220863254544
 30
0.0
  0
ARC
  5
C1
330
1F
100
AcDbEntity
  8
0
  6
Continuous
 62
     7
370
    15
100
AcDbCircle
 10
76.8838031733
 20
136.1220863255
 30
0.0
 40
12.37469537600001
100
AcDbArc
 50
180.0000000103
 51
359.9999999765
  0
CIRCLE
  5
C2
330
1F
100
AcDbEntity
  8
0
  6
Continuous
 62
     7
370
    15
100
AcDbCircle
 10
76.8838031733
 20
136.1220863255
 30
0.0
 40
22.22500000000001
  0
CIRCLE
  5
C3
330
1F
100
AcDbEntity
  8
0
  6
Continuous
 62
     7
370
    15
100
AcDbCircle
 10
76.8838031733
 20
136.1220863255
 30
0.0
 40
22.39999999969785
  0
ARC
  5
C4
330
1F
100
AcDbEntity
  8
0
  6
Continuous
 62
     7
370
    15
100
AcDbCircle
 10
76.8838031733
 20
136.1220863255
 30
0.0
 40
30.8671572871336
100
AcDbArc
 50
253.7590550445
 51
286.2409449555
  0
SPLINE
  5
C5
330
1F
100
AcDbEntity
  8
0
  6
Continuous
 62
     7
370
    15
100
AcDbSpline
210
0.0
220
0.0
230
1.0
 70
     8
 71
     3
 72
    10
 73
     6
 74
     0
 42
0.000000001
 43
0.00000001
 40
0.0
 40
0.0
 40
0.0
 40
0.0
 40
0.5
 40
0.5
 40
1.0
 40
1.0
 40
1.0
 40
1.0
 10
68.2509604624583
 20
106.4867117561919
 30
0.0
 10
68.21830583684068
 20
106.5302360146438
 30
0.0
 10
68.19032472178536
 20
106.5787981176613
 30
0.0
 10
68.14767851497092
 20
106.6902764274706
 30
0.0
 10
68.13380317261272
 20
106.752247717578
 30
0.0
 10
68.13380317328605
 20
106.8161518098484
 30
0.0
  0
ARC
  5
C6
330
1F
100
AcDbEntity
  8
0
  6
Continuous
 62
     7
370
    15
100
AcDbCircle
 10
76.8838031733
 20
136.1220863255
 30
0.0
 40
30.58431456895076
100
AcDbArc
 50
253.3757249646
 51
286.6242750409
  0
SPLINE
  5
C7
330
1F
100
AcDbEntity
  8
0
  6
Continuous
 62
     7
370
    15
100
AcDbSpline
210
0.0
220
0.0
230
1.0
 70
     8
 71
     3
 72
    10
 73
     6
 74
     0
 42
0.000000001
 43
0.00000001
 40
0.0
 40
0.0
 40
0.0
 40
0.0
 40
0.5
 40
0.5
 40
1.0
 40
1.0
 40
1.0
 40
1.0
 10
85.51664588426807
 20
106.4867117566913
 30
0.0
 10
85.54930050974397
 20
106.5302360149973
 30
0.0
 10
85.57728162702793
 20
106.5787981224445
 30
0.0
 10
85.61992783287717
 20
106.6902764326337
 30
0.0
 10
85.63380317462203
 20
106.7522477227036
 30
0.0
 10
85.63380317333198
 20
106.8161518147269
 30
0.0
  0
ARC
  5
C8
330
1F
100
AcDbEntity
  8
0
  6
Continuous
 62
     7
370
    15
100
AcDbCircle
 10
76.8838031733
 20
136.1220863255
 30
0.0
 40
30.86715728713356
100
AcDbArc
 50
73.7590550445
 51
106.2409449555
  0
SPLINE
  5
C9
330
1F
100
AcDbEntity
  8
0
  6
Continuous
 62
     7
370
    15
100
AcDbSpline
210
0.0
220
0.0
230
1.0
 70
     8
 71
     3
 72
    10
 73
     6
 74
     0
 42
0.000000001
 43
0.00000001
 40
0.0
 40
0.0
 40
0.0
 40
0.0
 40
0.5
 40
0.5
 40
1.0
 40
1.0
 40
1.0
 40
1.0
 10
85.51664588368081
 20
165.7574608950003
 30
0.0
 10
85.54930050934388
 20
165.7139366365872
 30
0.0
 10
85.577281626529
 20
165.6653745295009
 30
0.0
 10
85.61992783271329
 20
165.5538962189712
 30
0.0
 10
85.63380317459473
 20
165.4919249286593
 30
0.0
 10
85.63380317333198
 20
165.4280208363681
 30
0.0
  0
ARC
  5
CA
330
1F
100
AcDbEntity
  8
0
  6
Continuous
 62
     7
370
    15
100
AcDbCircle
 10
76.8838031733
 20
136.1220863255
 30
0.0
 40
30.58431456895075
100
AcDbArc
 50
73.3757249499
 51
106.6242750409
  0
SPLINE
  5
CB
330
1F
100
AcDbEntity
  8
0
  6
Continuous
 62
     7
370
    15
100
AcDbSpline
210
0.0
220
0.0
230
1.0
 70
     8
 71
     3
 72
    10
 73
     6
 74
     0
 42
0.000000001
 43
0.00000001
 40
0.0
 40
0.0
 40
0.0
 40
0.0
 40
0.5
 40
0.5
 40
1.0
 40
1.0
 40
1.0
 40
1.0
 10
68.25096045963609
 20
165.757460891016
 30
0.0
 10
68.21830583428194
 20
165.7139366322454
 30
0.0
 10
68.19032471960541
 20
165.6653745288833
 30
0.0
 10
68.14767851372982
 20
165.5538962184704
 30
0.0
 10
68.13380317192937
 20
165.49192492814
 30
0.0
 10
68.13380317328601
 20
165.4280208359266
 30
0.0
  0
ARC
  5
CC
330
1F
100
AcDbEntity
  8
0
  6
Continuous
 62
     7
370
    15
100
AcDbCircle
 10
76.8838031733
 20
136.1220863255
 30
0.0
 40
30.86715728713359
100
AcDbArc
 50
216.8228239932
 51
233.1771760068
  0
SPLINE
  5
CD
330
1F
100
AcDbEntity
  8
0
  6
Continuous
 62
     7
370
    15
100
AcDbSpline
210
0.0
220
0.0
230
1.0
 70
    24
 71
     3
 72
     8
 73
     4
 74
     0
 42
0.000000001
 43
0.00000001
 40
0.0
 40
0.0
 40
0.0
 40
0.0
 40
1.0
 40
1.0
 40
1.0
 40
1.0
 10
52.17486958602217
 20
117.6220863254544
 30
0.0
 10
52.27503852648252
 20
117.6220863254544
 30
0.0
 10
52.40127646313831
 20
117.6220863254544
 30
0.0
 10
52.52912604692276
 20
117.6220863254544
 30
0.0
  0
ARC
  5
CE
330
1F
100
AcDbEntity
  8
0
  6
Continuous
 62
     7
370
    15
100
AcDbCircle
 10
76.8838031733
 20
136.1220863255
 30
0.0
 40
30.58431456895076
100
AcDbArc
 50
217.2205832067
 51
232.7794167933
  0
SPLINE
  5
CF
330
1F
100
AcDbEntity
  8
0
  6
Continuous
 62
     7
370
    15
100
AcDbSpline
210
0.0
220
0.0
230
1.0
 70
    24
 71
     3
 72
     8
 73
     4
 74
     0
 42
0.000000001
 43
0.00000001
 40
0.0
 40
0.0
 40
0.0
 40
0.0
 40
1.0
 40
1.0
 40
1.0
 40
1.0
 10
58.38380317330901
 20
111.7674091981437
 30
0.0
 10
58.38380317330901
 20
111.6396185382688
 30
0.0
 10
58.38380317330901
 20
111.51321841096
 30
0.0
 10
58.38380317330901
 20
111.4131527386787
 30
0.0
  0
SPLINE
  5
D0
330
1F
100
AcDbEntity
  8
0
  6
Continuous
 62
     7
370
    15
100
AcDbSpline
210
0.0
220
0.0
230
1.0
 70
     8
 71
     3
 72
    31
 73
    27
 74
     0
 42
0.000000001
 43
0.00000001
 40
0.0
 40
0.0
 40
0.0
 40
0.0
 40
0.0132559966349189
 40
0.0264989966081602
 40
0.0397327988291494
 40
0.0529612101314919
 40
0.0661880420034987
 40
0.0794171072986517
 40
0.0926522169401775
 40
0.1058971766339516
 40
0.1191557836038749
 40
0.181094754453264
 40
0.2430471871464789
 40
0.306695881482009
 40
0.3703584092889373
 40
0.4993830193529282
 40
0.6284926302409563
 40
0.6922657259813465
 40
0.7560526822310297
 40
0.8181882638014923
 40
0.8803373499539993
 40
0.9042902683353782
 40
0.9282104830345619
 40
0.952120495510265
 40
0.9760428360099883
 40
1.0
 40
1.0
 40
1.0
 40
1.0
 10
107.4681177482883
 20
136.1220863254544
 30
0.0
 10
107.4672750337204
 20
136.2950823411359
 30
0.0
 10
107.4655904308127
 20
136.6409047609074
 30
0.0
 10
107.4519451826708
 20
137.1592853912979
 30
0.0
 10
107.4301574291456
 20
137.6770089780242
 30
0.0
 10
107.3994312265771
 20
138.1940754445205
 30
0.0
 10
107.3599797135446
 20
138.7104845213785
 30
0.0
 10
107.31174559892
 20
139.2262365895077
 30
0.0
 10
107.2547450709913
 20
139.7413296223695
 30
0.0
 10
107.1889707753035
 20
140.2557705870766
 30
0.0
 10
107.023256863388
 20
141.3980251872599
 30
0.0
 10
106.6813034447769
 20
143.1571016253416
 30
0.0
 10
106.0238673270538
 20
145.5171076012948
 30
0.0
 10
105.1718959048453
 20
147.8385377570848
 30
0.0
 10
103.7653425048389
 20
150.8770963630051
 30
0.0
 10
101.5356873679852
 20
154.459936399802
 30
0.0
 10
98.74435868662927
 20
157.6268082014961
 30
0.0
 10
96.23505995110523
 20
159.8503100621015
 30
0.0
 10
94.25172762938772
 20
161.3366691163898
 30
0.0
 10
92.17391417732271
 20
162.6476944533106
 30
0.0
 10
90.45858285064115
 20
163.5471082386507
 30
0.0
 10
89.15218372740497
 20
164.1431937140811
 30
0.0
 10
88.28830352949046
 20
164.5059645952112
 30
0.0
 10
87.41392563019245
 20
164.8413660230287
 30
0.0
 10
86.52977796064596
 20
165.1518945202605
 30
0.0
 10
85.93260622280596
 20
165.3359341149816
 30
0.0
 10
85.63380318785181
 20
165.4280208397374
 30
0.0
  0
SPLINE
  5
D1
330
1F
100
AcDbEntity
  8
0
  6
Continuous
 62
     7
370
    15
100
AcDbSpline
210
0.0
220
0.0
230
1.0
 70
     8
 71
     3
 72
    31
 73
    27
 74
     0
 42
0.000000001
 43
0.00000001
 40
0.0
 40
0.0
 40
0.0
 40
0.0
 40
0.0133128930162584
 40
0.0266126186434238
 40
0.0399030247502073
 40
0.0531879673032782
 40
0.0664713070272858
 40
0.0797569060442002
 40
0.0930486245065691
 40
0.1063503172393517
 40
0.1196658304048915
 40
0.1818014087549293
 40
0.2439504916860299
 40
0.3077235843799929
 40
0.3715105375763663
 40
0.5006201432131341
 40
0.6296447480293218
 40
0.6932934402594029
 40
0.7569559659581583
 40
0.8188949349972185
 40
0.8808473658849603
 40
0.9046980020604894
 40
0.9285163609918906
 40
0.9523246573931505
 40
0.9761451341308867
 40
1.0
 40
1.0
 40
1.0
 40
1.0
 10
85.63380318784128
 20
106.8161518112067
 30
0.0
 10
85.80003657064884
 20
106.8666718306443
 30
0.0
 10
86.13233891973711
 20
106.9676619016612
 30
0.0
 10
86.6272416485042
 20
107.1297895456029
 30
0.0
 10
87.11915708403947
 20
107.299595759128
 30
0.0
 10
87.60785549182376
 20
107.4778497057289
 30
0.0
 10
88.09339810751403
 20
107.6643453349535
 30
0.0
 10
88.57576876792083
 20
107.8591381225329
 30
0.0
 10
89.05497018154324
 20
108.0622118314588
 30
0.0
 10
89.5310069670396
 20
108.2735756067195
 30
0.0
 10
90.5814796578195
 20
108.7615071780491
 30
0.0
 10
92.17377354154983
 20
109.5964003788643
 30
0.0
 10
94.25143005378555
 20
110.907298155351
 30
0.0
 10
96.23491931753811
 20
112.3937488579944
 30
0.0
 10
98.74423852586705
 20
114.6172275399756
 30
0.0
 10
101.535687549826
 20
117.7842364783008
 30
0.0
 10
103.7652460936484
 20
121.3669221508849
 30
0.0
 10
105.1718275611288
 20
124.4054678149097
 30
0.0
 10
106.0237563353217
 20
126.7267219384656
 30
0.0
 10
106.6812693677808
 20
129.0869143495027
 30
0.0
 10
107.0496269743003
 20
130.9817827180572
 30
0.0
 10
107.2454903798302
 20
132.399045795475
 30
0.0
 10
107.3450932774632
 20
133.3266789418561
 30
0.0
 10
107.4157158050582
 20
134.2565126901756
 30
0.0
 10
107.4599363348517
 20
135.1885636253774
 30
0.0
 10
107.4653892993425
 20
135.8107624908036
 30
0.0
 10
107.4681177482514
 20
136.1220863254544
 30
0.0
  0
SPLINE
  5
D2
330
1F
100
AcDbEntity
  8
0
  6
Continuous
 62
     7
370
    15
100
AcDbSpline
210
0.0
220
0.0
230
1.0
 70
     8
 71
     3
 72
    19
 73
    15
 74
     0
 42
0.000000001
 43
0.00000001
 40
0.0
 40
0.0
 40
0.0
 40
0.0
 40
0.049898326359839
 40
0.0997762390400176
 40
0.1496497875438987
 40
0.1995350255870841
 40
0.249447995605912
 40
0.3746647806075449
 40
0.4999273868530857
 40
0.6251631702822329
 40
0.7504447819000601
 40
0.8336320953484949
 40
0.9167923453893622
 40
0.9999999999999999
 40
0.9999999999999999
 40
0.9999999999999999
 40
0.9999999999999999
 10
58.38380317143055
 20
111.7674091983452
 30
0.0
 10
58.52998655057761
 20
111.6575542878877
 30
0.0
 10
58.82229350444759
 20
111.4378894092205
 30
0.0
 10
59.26811170131703
 20
111.118457631919
 30
0.0
 10
59.71913114284787
 20
110.8065368151347
 30
0.0
 10
60.17589596975809
 20
110.5028380851896
 30
0.0
 10
60.87060480134618
 20
110.0585859374107
 30
0.0
 10
61.81655678313312
 20
109.4948040719726
 30
0.0
 10
63.0302158176324
 20
108.8436982283938
 30
0.0
 10
64.27215134926654
 20
108.2477537973852
 30
0.0
 10
65.39773380115844
 20
107.768574347428
 30
0.0
 10
66.39630994055432
 20
107.3875519965019
 30
0.0
 10
67.25967239014139
 20
107.0853704482615
 30
0.0
 10
67.84237089812868
 20
106.9059083996286
 30
0.0
 10
68.13380316865165
 20
106.8161518075165
 30
0.0
  0
SPLINE
  5
D3
330
1F
100
AcDbEntity
  8
0
  6
Continuous
 62
     7
370
    15
100
AcDbSpline
210
0.0
220
0.0
230
1.0
 70
     8
 71
     3
 72
    34
 73
    30
 74
     0
 42
0.000000001
 43
0.00000001
 40
0.0
 40
0.0
 40
0.0
 40
0.0
 40
0.0091332024637246
 40
0.0182612433735732
 40
0.0273869560692221
 40
0.0365131760588104
 40
0.0456427383778029
 40
0.0547784749500532
 40
0.0835461555907233
 40
0.1123228157747314
 40
0.1423937441782167
 40
0.1724736920987865
 40
0.23495273877644
 40
0.2994478819463337
 40
0.3655379407129442
 40
0.4327295637688299
 40
0.5004764062567953
 40
0.568204418590846
 40
0.6353405018135823
 40
0.7013410455269796
 40
0.765716890733637
 40
0.8280520419345111
 40
0.8580414660304878
 40
0.8880398851909563
 40
0.9167194313852449
 40
0.9454079297705411
 40
0.9636070100697356
 40
0.9817968780876327
 40
0.9999999999999999
 40
0.9999999999999999
 40
0.9999999999999999
 40
0.9999999999999999
 10
68.13380315270022
 20
165.4280208381363
 30
0.0
 10
67.96192653564471
 20
165.3757514741917
 30
0.0
 10
67.61827043618308
 20
165.2712422859016
 30
0.0
 10
67.10647857588108
 20
165.1030330120846
 30
0.0
 10
66.59765712824202
 20
164.9265223126366
 30
0.0
 10
66.09205378233473
 20
164.7408854892051
 30
0.0
 10
65.58959885137014
 20
164.546340151284
 30
0.0
 10
64.73289190080953
 20
164.1971547422049
 30
0.0
 10
63.53652662060778
 20
163.6578173214754
 30
0.0
 10
62.00653806713078
 20
162.8628964579893
 30
0.0
 10
60.50164029836709
 20
161.9693312427765
 30
0.0
 10
58.50178942374369
 20
160.6188325508653
 30
0.0
 10
56.09965059032319
 20
158.6635694761614
 30
0.0
 10
53.46322040731537
 20
155.9171206415399
 30
0.0
 10
51.13703774249127
 20
152.7858430762959
 30
0.0
 10
49.20042141141879
 20
149.3257397914822
 30
0.0
 10
47.717599494251
 20
145.6132038730269
 30
0.0
 10
46.73187829189419
 20
141.7400619310839
 30
0.0
 10
46.26143612802582
 20
137.8061439570054
 30
0.0
 10
46.29849063687647
 20
133.9107904932594
 30
0.0
 10
46.81122605207056
 20
130.145466318764
 30
0.0
 10
47.59886592134816
 20
127.1572298788682
 30
0.0
 10
48.41687775867301
 20
124.893393432769
 30
0.0
 10
49.10398223493134
 20
123.2892873308026
 30
0.0
 10
49.86916334279439
 20
121.7496838911704
 30
0.0
 10
50.60361455763123
 20
120.4564859349288
 30
0.0
 10
51.28612463344258
 20
119.3733827798566
 30
0.0
 10
51.88817379611706
 20
118.4838346817828
 30
0.0
 10
52.31542342244424
 20
117.9094055196023
 30
0.0
 10
52.52912603522626
 20
117.6220863383746
 30
0.0
  0
ARC
  5
D4
330
1F
100
AcDbEntity
  8
0
  6
Continuous
 62
     7
370
    15
100
AcDbCircle
 10
76.883803174
 20
136.1220863251
 30
0.0
 40
30.86715729090358
100
AcDbArc
 50
106.2409449512
 51
216.8228239872
  0
SPLINE
  5
D5
330
1F
100
AcDbEntity
  8
0
  6
Continuous
 62
     7
370
    15
100
AcDbSpline
210
0.0
220
0.0
230
1.0
 70
    24
 71
     3
 72
    10
 73
     6
 74
     0
 42
0.000000001
 43
0.00000001
 40
0.0
 40
0.0
 40
0.0
 40
0.0
 40
0.5
 40
0.5
 40
1.0
 40
1.0
 40
1.0
 40
1.0
 10
107.4681177482831
 20
136.1220863254544
 30
0.0
 10
107.5191422061268
 20
136.1220863254544
 30
0.0
 10
107.5721855041265
 20
136.1220863254544
 30
0.0
 10
107.6701967386312
 20
136.1220863254544
 30
0.0
 10
107.7148807206391
 20
136.1220863254544
 30
0.0
 10
107.7509604604606
 20
136.1220863254544
 30
0.0
  0
ARC
  5
D6
330
1F
100
AcDbEntity
  8
0
  6
Continuous
 62
     7
370
    15
100
AcDbCircle
 10
76.883803173
 20
136.1220863255
 30
0.0
 40
30.86715728734562
100
AcDbArc
 50
286.2409449597
 51
0.0
  0
ARC
  5
D7
330
1F
100
AcDbEntity
  8
0
  6
Continuous
 62
     7
370
    15
100
AcDbCircle
 10
76.883803173
 20
136.1220863255
 30
0.0
 40
30.86715728744035
100
AcDbArc
 50
0.0
 51
73.759055043
  0
ARC
  5
D8
330
1F
100
AcDbEntity
  8
0
  6
Continuous
 62
     7
370
    15
100
AcDbCircle
 10
76.8838031723
 20
136.1220863259
 30
0.0
 40
30.86715728740664
100
AcDbArc
 50
233.177176009
 51
253.759055057
  0
SPLINE
  5
D9
330
1F
100
AcDbEntity
  8
0
  6
Continuous
 62
     7
370
    15
100
AcDbSpline
210
0.0
220
0.0
230
1.0
 70
     8
 71
     3
 72
     8
 73
     4
 74
     0
 42
0.000000001
 43
0.00000001
 40
0.0
 40
0.0
 40
0.0
 40
0.0
 40
0.0005364353529605
 40
0.0005364353529605
 40
0.0005364353529605
 40
0.0005364353529605
 10
68.6646327239464
 20
105.9403777180503
 30
0.0
 10
68.56914983378815
 20
105.844894827892
 30
0.0
 10
68.47374233328372
 20
105.7494873294291
 30
0.0
 10
68.37840761936476
 20
105.6541526155102
 30
0.0
  0
SPLINE
  5
DA
330
1F
100
AcDbEntity
  8
0
  6
Continuous
 62
     7
370
    15
100
AcDbSpline
210
0.0
220
0.0
230
1.0
 70
     8
 71
     3
 72
     9
 73
     5
 74
     0
 42
0.000000001
 43
0.00000001
 40
0.0
 40
0.0
 40
0.0
 40
0.0
 40
0.4987803470753149
 40
1.0
 40
1.0
 40
1.0
 40
1.0
 10
68.2509604681267
 20
106.4867117540503
 30
0.0
 10
68.31951801215057
 20
106.3955455633783
 30
0.0
 10
68.45696838369362
 20
106.2127673300205
 30
0.0
 10
68.59529880299178
 20
106.0313217878838
 30
0.0
 10
68.66463272774132
 20
105.9403777162294
 30
0.0
  0
SPLINE
  5
DB
330
1F
100
AcDbEntity
  8
0
  6
Continuous
 62
     7
370
    15
100
AcDbSpline
210
0.0
220
0.0
230
1.0
 70
     8
 71
     3
 72
     9
 73
     5
 74
     0
 42
0.000000001
 43
0.00000001
 40
0.0
 40
0.0
 40
0.0
 40
0.0
 40
0.5013065793165208
 40
0.9999999999999999
 40
0.9999999999999999
 40
0.9999999999999999
 40
0.9999999999999999
 10
85.0731871569673
 20
105.9014201247492
 30
0.0
 10
85.14754285451473
 20
105.9988406113189
 30
0.0
 10
85.29586665598731
 20
106.1931737611103
 30
0.0
 10
85.44318113062067
 20
106.3890363675185
 30
0.0
 10
85.51664588989178
 20
106.4867117606923
 30
0.0
  0
LINE
  5
DC
330
1F
100
AcDbEntity
  8
0
  6
Continuous
 62
     7
370
    15
100
AcDbLine
 10
85.4614585867
 20
105.6744170232
 30
0.0
 11
85.0731871587
 21
105.9014201158
 31
0.0
  0
ARC
  5
DD
330
1F
100
AcDbEntity
  8
0
  6
Continuous
 62
     7
370
    15
100
AcDbCircle
 10
76.8838031733
 20
136.1220863255
 30
0.0
 40
31.63284271224763
100
AcDbArc
 50
254.4024500297
 51
285.7334817367
  0
SPLINE
  5
DE
330
1F
100
AcDbEntity
  8
0
  6
Continuous
 62
     7
370
    15
100
AcDbSpline
210
0.0
220
0.0
230
1.0
 70
     8
 71
     3
 72
     9
 73
     5
 74
     0
 42
0.000000001
 43
0.00000001
 40
0.0
 40
0.0
 40
0.0
 40
0.0
 40
0.498780347075351
 40
1.0
 40
1.0
 40
1.0
 40
1.0
 10
85.5166458872307
 20
165.7574608917669
 30
0.0
 10
85.4480883432337
 20
165.8486270824794
 30
0.0
 10
85.31063797174454
 20
166.0314053159183
 30
0.0
 10
85.1723075524999
 20
166.2128508581365
 30
0.0
 10
85.10297362777717
 20
166.3037949298319
 30
0.0
  0
SPLINE
  5
DF
330
1F
100
AcDbEntity
  8
0
  6
Continuous
 62
     7
370
    15
100
AcDbSpline
210
0.0
220
0.0
230
1.0
 70
    24
 71
     3
 72
     8
 73
     4
 74
     0
 42
0.000000001
 43
0.00000001
 40
0.0
 40
0.0
 40
0.0
 40
0.0
 40
0.000536435349708
 40
0.000536435349708
 40
0.000536435349708
 40
0.000536435349708
 10
85.10297362466966
 20
166.3037949328151
 30
0.0
 10
85.19845651424752
 20
166.3992778223929
 30
0.0
 10
85.29386401361735
 20
166.4946853217627
 30
0.0
 10
85.38919872695841
 20
166.5900200351038
 30
0.0
  0
ARC
  5
E0
330
1F
100
AcDbEntity
  8
0
  6
Continuous
 62
     7
370
    15
100
AcDbCircle
 10
76.8838031733
 20
136.1220863255
 30
0.0
 40
31.63284271224548
100
AcDbArc
 50
359.9999999882
 51
74.4024500297
  0
ARC
  5
E1
330
1F
100
AcDbEntity
  8
0
  6
Continuous
 62
     7
370
    15
100
AcDbCircle
 10
76.8838031733
 20
136.1220863255
 30
0.0
 40
31.63284271276125
100
AcDbArc
 50
285.7334817376
 51
359.9999999765
  0
SPLINE
  5
E2
330
1F
100
AcDbEntity
  8
0
  6
Continuous
 62
     7
370
    15
100
AcDbSpline
210
0.0
220
0.0
230
1.0
 70
     8
 71
     3
 72
     9
 73
     5
 74
     0
 42
0.000000001
 43
0.00000001
 40
0.0
 40
0.0
 40
0.0
 40
0.0
 40
0.5013065560617223
 40
0.9999999999999999
 40
0.9999999999999999
 40
0.9999999999999999
 40
0.9999999999999999
 10
68.6944191985627
 20
166.3427525309897
 30
0.0
 10
68.62006350343016
 20
166.2453320505069
 30
0.0
 10
68.4717396998943
 20
166.0509989038429
 30
0.0
 10
68.324425227197
 20
165.8551362945001
 30
0.0
 10
68.25096046546564
 20
165.7574608953082
 30
0.0
  0
LINE
  5
E3
330
1F
100
AcDbEntity
  8
0
  6
Continuous
 62
     7
370
    15
100
AcDbLine
 10
68.3061477711
 20
166.5697556211
 30
0.0
 11
68.6944191991
 21
166.3427525286
 31
0.0
  0
ARC
  5
E4
330
1F
100
AcDbEntity
  8
0
  6
Continuous
 62
     7
370
    15
100
AcDbCircle
 10
76.8838031733
 20
136.1220863255
 30
0.0
 40
31.63284271224759
100
AcDbArc
 50
74.4024500297
 51
105.7334817367
  0
ARC
  5
E5
330
1F
100
AcDbEntity
  8
0
  6
Continuous
 62
     7
370
    15
100
AcDbCircle
 10
76.8838031764
 20
136.1220863323
 30
0.0
 40
31.63284272006281
100
AcDbArc
 50
234.2086512609
 51
254.4024500271
  0
SPLINE
  5
E6
330
1F
100
AcDbEntity
  8
0
  6
Continuous
 62
     7
370
    15
100
AcDbSpline
210
0.0
220
0.0
230
1.0
 70
    24
 71
     3
 72
     9
 73
     5
 74
     0
 42
0.000000001
 43
0.00000001
 40
0.0
 40
0.0
 40
0.0
 40
0.0
 40
0.5037136263313898
 40
1.0
 40
1.0
 40
1.0
 40
1.0
 10
58.38380317330901
 20
110.4630384544075
 30
0.0
 10
58.38380317330901
 20
110.622256205048
 30
0.0
 10
58.38380317330901
 20
110.9383440420996
 30
0.0
 10
58.38380317330901
 20
111.2556687904453
 30
0.0
 10
58.38380317330901
 20
111.413152739077
 30
0.0
  0
ARC
  5
E7
330
1F
100
AcDbEntity
  8
0
  6
Continuous
 62
     7
370
    15
100
AcDbCircle
 10
76.8838031733
 20
136.1220863255
 30
0.0
 40
31.63284271224762
100
AcDbArc
 50
215.7913487373
 51
234.2086512627
  0
SPLINE
  5
E8
330
1F
100
AcDbEntity
  8
0
  6
Continuous
 62
     7
370
    15
100
AcDbSpline
210
0.0
220
0.0
230
1.0
 70
    24
 71
     3
 72
     9
 73
     5
 74
     0
 42
0.000000001
 43
0.00000001
 40
0.0
 40
0.0
 40
0.0
 40
0.0
 40
0.4962863652118921
 40
1.0
 40
1.0
 40
1.0
 40
1.0
 10
52.17486957887076
 20
117.6220863254544
 30
0.0
 10
52.01738563473276
 20
117.6220863254544
 30
0.0
 10
51.7000608900347
 20
117.6220863254544
 30
0.0
 10
51.38397304934657
 20
117.6220863254544
 30
0.0
 10
51.22475529420122
 20
117.6220863254544
 30
0.0
  0
ARC
  5
E9
330
1F
100
AcDbEntity
  8
0
  6
Continuous
 62
     7
370
    15
100
AcDbCircle
 10
76.883803173
 20
136.1220863257
 30
0.0
 40
31.63284271225418
100
AcDbArc
 50
105.7334817317
 51
215.7913487379
  0
ARC
  5
EA
330
1F
100
AcDbEntity
  8
0
  6
Continuous
 62
     7
370
    15
100
AcDbCircle
 10
76.8838031733
 20
136.1220863255
 30
0.0
 40
31.75000000003622
100
AcDbArc
 50
215.6390613326
 51
234.3609386674
  0
SPLINE
  5
EB
330
1F
100
AcDbEntity
  8
0
  6
Continuous
 62
     7
370
    15
100
AcDbSpline
210
0.0
220
0.0
230
1.0
 70
    24
 71
     3
 72
     8
 73
     4
 74
     0
 42
0.000000001
 43
0.00000001
 40
0.0
 40
0.0
 40
0.0
 40
0.0
 40
1.0
 40
1.0
 40
1.0
 40
1.0
 10
51.08046036672773
 20
117.6220863254544
 30
0.0
 10
51.08046036617059
 20
117.6220863254544
 30
0.0
 10
51.13924542407399
 20
117.6220863254546
 30
0.0
 10
51.22475529272982
 20
117.6220863254546
 30
0.0
  0
SPLINE
  5
EC
330
1F
100
AcDbEntity
  8
0
  6
Continuous
 62
     7
370
    15
100
AcDbSpline
210
0.0
220
0.0
230
1.0
 70
    24
 71
     3
 72
     8
 73
     4
 74
     0
 42
0.000000001
 43
0.00000001
 40
0.0
 40
0.0
 40
0.0
 40
0.0
 40
1.0
 40
1.0
 40
1.0
 40
1.0
 10
58.38380317330901
 20
110.4630384469265
 30
0.0
 10
58.38380317330901
 20
110.3774248647639
 30
0.0
 10
58.38380317330959
 20
110.3187435182613
 30
0.0
 10
58.38380317330959
 20
110.318743519031
 30
0.0
  0
SPLINE
  5
ED
330
1F
100
AcDbEntity
  8
0
  6
Continuous
 62
     7
370
    15
100
AcDbSpline
210
0.0
220
0.0
230
1.0
 70
    24
 71
     3
 72
     8
 73
     4
 74
     0
 42
0.000000001
 43
0.00000001
 40
0.0
 40
0.0
 40
0.0
 40
0.0
 40
1.0
 40
1.0
 40
1.0
 40
1.0
 10
85.48423421113039
 20
166.6850555192758
 30
0.0
 10
85.48423421145597
 20
166.6850555196014
 30
0.0
 10
85.44696022678185
 20
166.6477815349272
 30
0.0
 10
85.3891987269078
 20
166.5900200350532
 30
0.0
  0
SPLINE
  5
EE
330
1F
100
AcDbEntity
  8
0
  6
Continuous
 62
     7
370
    15
100
AcDbSpline
210
0.0
220
0.0
230
1.0
 70
    24
 71
     3
 72
    10
 73
     6
 74
     0
 42
0.000000001
 43
0.00000001
 40
0.0
 40
0.0
 40
0.0
 40
0.0
 40
0.5
 40
0.5
 40
1.0
 40
1.0
 40
1.0
 40
1.0
 10
68.30614776524068
 20
166.5697556245624
 30
0.0
 10
68.26635368132308
 20
166.5930212564479
 30
0.0
 10
68.23151901323156
 20
166.613387363288
 30
0.0
 10
68.18095187960678
 20
166.6429514642949
 30
0.0
 10
68.16589613605443
 20
166.6517538126033
 30
0.0
 10
68.16589613616338
 20
166.6517538125396
 30
0.0
  0
ARC
  5
EF
330
1F
100
AcDbEntity
  8
0
  6
Continuous
 62
     7
370
    15
100
AcDbCircle
 10
76.8838031733
 20
136.1220863255
 30
0.0
 40
31.74999999977623
100
AcDbArc
 50
74.2833781211
 51
105.936971532
  0
SPLINE
  5
F0
330
1F
100
AcDbEntity
  8
0
  6
Continuous
 62
     7
370
    15
100
AcDbSpline
210
0.0
220
0.0
230
1.0
 70
    24
 71
     3
 72
     8
 73
     4
 74
     0
 42
0.000000001
 43
0.00000001
 40
0.0
 40
0.0
 40
0.0
 40
0.0
 40
1.0
 40
1.0
 40
1.0
 40
1.0
 10
68.28337213519141
 20
105.5591171313368
 30
0.0
 10
68.28337213523157
 20
105.559117131377
 30
0.0
 10
68.32064611973121
 20
105.5963911158766
 30
0.0
 10
68.37840761940058
 20
105.654152615546
 30
0.0
  0
SPLINE
  5
F1
330
1F
100
AcDbEntity
  8
0
  6
Continuous
 62
     7
370
    15
100
AcDbSpline
210
0.0
220
0.0
230
1.0
 70
    24
 71
     3
 72
    10
 73
     6
 74
     0
 42
0.000000001
 43
0.00000001
 40
0.0
 40
0.0
 40
0.0
 40
0.0
 40
0.5
 40
0.5
 40
1.0
 40
1.0
 40
1.0
 40
1.0
 10
85.46145858310311
 20
105.6744170253375
 30
0.0
 10
85.50125266670909
 20
105.6511513936342
 30
0.0
 10
85.53608733453662
 20
105.6307852869485
 30
0.0
 10
85.58665446776241
 20
105.6012211861748
 30
0.0
 10
85.60171021117173
 20
105.59241883795
 30
0.0
 10
85.60171021084345
 20
105.592418838142
 30
0.0
  0
ARC
  5
F2
330
1F
100
AcDbEntity
  8
0
  6
Continuous
 62
     7
370
    15
100
AcDbCircle
 10
76.8838031733
 20
136.1220863255
 30
0.0
 40
31.75000000003622
100
AcDbArc
 50
254.2833781209
 51
285.9369715327
  0
ARC
  5
F3
330
1F
100
AcDbEntity
  8
0
  6
Continuous
 62
     7
370
    15
100
AcDbCircle
 10
76.8838031733
 20
136.1220863255
 30
0.0
 40
31.75000000007486
100
AcDbArc
 50
105.936971532
 51
215.6390613325
  0
ARC
  5
F4
330
1F
100
AcDbEntity
  8
0
  6
Continuous
 62
     7
370
    15
100
AcDbCircle
 10
76.8838031733
 20
136.1220863255
 30
0.0
 40
31.75000000001055
100
AcDbArc
 50
234.3609386674
 51
254.283378121
  0
ARC
  5
F5
330
1F
100
AcDbEntity
  8
0
  6
Continuous
 62
     7
370
    15
100
AcDbCircle
 10
76.8838031733
 20
136.1220863255
 30
0.0
 40
31.75000000000001
100
AcDbArc
 50
0.0
 51
74.2833781211
  0
SPLINE
  5
F6
330
1F
100
AcDbEntity
  8
0
  6
Continuous
 62
     7
370
    15
100
AcDbSpline
210
0.0
220
0.0
230
1.0
 70
    24
 71
     3
 72
    10
 73
     6
 74
     0
 42
0.000000001
 43
0.00000001
 40
0.0
 40
0.0
 40
0.0
 40
0.0
 40
0.5
 40
0.5
 40
1.0
 40
1.0
 40
1.0
 40
1.0
 10
108.5166458860518
 20
136.1220863254544
 30
0.0
 10
108.5527256258993
 20
136.1220863254544
 30
0.0
 10
108.5830561950774
 20
136.1220863254544
 30
0.0
 10
108.6236537777534
 20
136.1220863254544
 30
0.0
 10
108.6338031734383
 20
136.1220863254544
 30
0.0
 10
108.6338031733272
 20
136.1220863254544
 30
0.0
  0
ARC
  5
F7
330
1F
100
AcDbEntity
  8
0
  6
Continuous
 62
     7
370
    15
100
AcDbCircle
 10
76.8838031733
 20
136.1220863255
 30
0.0
 40
31.75000000000001
100
AcDbArc
 50
285.9369715323
 51
359.9999999897
  0
INSERT
  5
103
330
1F
100
AcDbEntity
  8
DIM
100
AcDbBlockReference
  2
SW_CENTERMARKSYMBOL_0
 10
76.8838031733
 20
136.1220863255
 30
0.0
  0
LINE
  5
104
330
1F
100
AcDbEntity
  8
0
  6
Continuous
 62
     7
370
    15
100
AcDbLine
 10
222.702206244
 20
104.3720863255
 30
0.0
 11
226.014684177
 21
104.3720863255
 31
0.0
  0
LINE
  5
105
330
1F
100
AcDbEntity
  8
0
  6
Continuous
 62
     7
370
    15
100
AcDbLine
 10
226.014684177
 20
167.8720863255
 30
0.0
 11
222.702206244
 21
167.8720863255
 31
0.0
  0
LINE
  5
106
330
1F
100
AcDbEntity
  8
0
  6
Continuous
 62
     7
370
    15
100
AcDbLine
 10
212.446055027
 20
104.3720863255
 30
0.0
 11
215.65853296
 21
104.3720863255
 31
0.0
  0
LINE
  5
107
330
1F
100
AcDbEntity
  8
0
  6
Continuous
 62
     7
370
    15
100
AcDbLine
 10
215.65853296
 20
167.8720863255
 30
0.0
 11
212.446055027
 21
167.8720863255
 31
0.0
  0
LINE
  5
108
330
1F
100
AcDbEntity
  8
0
  6
Continuous
 62
     7
370
    15
100
AcDbLine
 10
222.702206244
 20
167.8720863255
 30
0.0
 11
221.080369602
 21
165.0629828595
 31
0.0
  0
LINE
  5
109
330
1F
100
AcDbEntity
  8
0
  6
Continuous
 62
     7
370
    15
100
AcDbLine
 10
221.080369602
 20
107.1811897915
 30
0.0
 11
222.702206244
 21
104.3720863255
 31
0.0
  0
LINE
  5
10A
330
1F
100
AcDbEntity
  8
0
  6
Continuous
 62
     7
370
    15
100
AcDbLine
 10
215.65853296
 20
104.3720863255
 30
0.0
 11
217.280369602
 21
107.1811897915
 31
0.0
  0
LINE
  5
10B
330
1F
100
AcDbEntity
  8
0
  6
Continuous
 62
     7
370
    15
100
AcDbLine
 10
217.280369602
 20
165.0629828595
 30
0.0
 11
215.65853296
 21
167.8720863255
 31
0.0
  0
LINE
  5
10C
330
1F
100
AcDbEntity
  8
0
  6
Continuous
 62
     7
370
    15
100
AcDbLine
 10
226.2975268898
 20
104.4892436133
 30
0.0
 11
227.0632123147
 21
105.2549290382
 31
0.0
  0
LINE
  5
10D
330
1F
100
AcDbEntity
  8
0
  6
Continuous
 62
     7
370
    15
100
AcDbLine
 10
227.0632123147
 20
166.9892436127
 30
0.0
 11
226.2975268898
 21
167.7549290377
 31
0.0
  0
LINE
  5
10E
330
1F
100
AcDbEntity
  8
0
  6
Continuous
 62
     7
370
    15
100
AcDbLine
 10
217.2803696054
 20
108.1220863255
 30
0.0
 11
221.0803696056
 21
108.1220863255
 31
0.0
  0
LINE
  5
10F
330
1F
100
AcDbEntity
  8
0
  6
Continuous
 62
     7
370
    15
100
AcDbLine
 10
221.0803696056
 20
164.1220863255
 30
0.0
 11
217.2803696054
 21
164.1220863255
 31
0.0
  0
ARC
  5
110
330
1F
100
AcDbEntity
  8
0
  6
Continuous
 62
     7
370
    15
100
AcDbCircle
 10
210.8803696016
 20
113.7220863251
 30
0.0
 40
0.400000000216707
100
AcDbArc
 50
0.000000045
 51
89.9999999705
  0
ARC
  5
111
330
1F
100
AcDbEntity
  8
0
  6
Continuous
 62
     7
370
    15
100
AcDbCircle
 10
210.8803696016
 20
158.5220863258
 30
0.0
 40
0.4000000002167212
100
AcDbArc
 50
270.0000000295
 51
359.999999955
  0
LINE
  5
112
330
1F
100
AcDbEntity
  8
0
  6
Continuous
 62
     7
370
    15
100
AcDbLine
 10
208.080369602
 20
158.3470863255
 30
0.0
 11
140.536061375
 21
148.4967817015
 31
0.0
  0
LINE
  5
113
330
1F
100
AcDbEntity
  8
0
  6
Continuous
 62
     7
370
    15
100
AcDbLine
 10
140.536061375
 20
123.7473909495
 30
0.0
 11
208.080369602
 21
113.8970863255
 31
0.0
  0
LINE
  5
114
330
1F
100
AcDbEntity
  8
0
  6
Continuous
 62
     7
370
    15
100
AcDbLine
 10
208.080369602
 20
113.8970863255
 30
0.0
 11
208.562883659
 21
114.1220863255
 31
0.0
  0
LINE
  5
115
330
1F
100
AcDbEntity
  8
0
  6
Continuous
 62
     7
370
    15
100
AcDbLine
 10
208.562883659
 20
158.1220863255
 30
0.0
 11
208.080369602
 21
158.3470863255
 31
0.0
  0
LINE
  5
116
330
1F
100
AcDbEntity
  8
0
  6
Continuous
 62
     7
370
    15
100
AcDbLine
 10
208.562883659
 20
114.1220863255
 30
0.0
 11
210.8803696019
 21
114.1220863255
 31
0.0
  0
LINE
  5
117
330
1F
100
AcDbEntity
  8
0
  6
Continuous
 62
     7
370
    15
100
AcDbLine
 10
210.8803696019
 20
158.1220863255
 30
0.0
 11
208.562883659
 21
158.1220863255
 31
0.0
  0
SPLINE
  5
118
330
1F
100
AcDbEntity
  8
0
  6
Continuous
 62
     7
370
    15
100
AcDbSpline
210
0.0
220
0.0
230
1.0
 70
     8
 71
     3
 72
    12
 73
     8
 74
     0
 42
0.000000001
 43
0.00000001
 40
0.0
 40
0.0
 40
0.0
 40
0.0
 40
0.1198067580475196
 40
0.3204384421463572
 40
0.5303293960802742
 40
0.7744242344058856
 40
1.0
 40
1.0
 40
1.0
 40
1.0
 10
230.1831230442321
 20
147.1500426082854
 30
0.0
 10
229.9948512536849
 20
147.1492891006665
 30
0.0
 10
229.4912943571773
 20
147.1472737485153
 30
0.0
 10
228.6968754460117
 20
147.4612432379639
 30
0.0
 10
227.8834206447836
 20
148.0960449065567
 30
0.0
 10
227.2936762559012
 20
149.0300644912501
 30
0.0
 10
227.2171324478807
 20
149.7677750022767
 30
0.0
 10
227.1803696018528
 20
150.1220863258359
 30
0.0
  0
SPLINE
  5
119
330
1F
100
AcDbEntity
  8
0
  6
Continuous
 62
     7
370
    15
100
AcDbSpline
210
0.0
220
0.0
230
1.0
 70
     8
 71
     3
 72
    12
 73
     8
 74
     0
 42
0.000000001
 43
0.00000001
 40
0.0
 40
0.0
 40
0.0
 40
0.0
 40
0.1900619807481583
 40
0.3950856448947395
 40
0.6056118418983889
 40
0.8454394399675244
 40
1.0
 40
1.0
 40
1.0
 40
1.0
 10
227.1803696018528
 20
122.1220863250729
 30
0.0
 10
227.2063892135854
 20
122.420351481811
 30
0.0
 10
227.2604767014712
 20
123.0403612351327
 30
0.0
 10
227.704815831032
 20
123.9069036612004
 30
0.0
 10
228.4384251662161
 20
124.6349937911553
 30
0.0
 10
229.3202664361685
 20
125.0763407011084
 30
0.0
 10
229.9418212676518
 20
125.0834066126925
 30
0.0
 10
230.1854083553255
 20
125.0861757405913
 30
0.0
  0
SPLINE
  5
11A
330
1F
100
AcDbEntity
  8
0
  6
Continuous
 62
     7
370
    15
100
AcDbSpline
210
0.0
220
0.0
230
1.0
 70
     8
 71
     3
 72
    11
 73
     7
 74
     0
 42
0.000000001
 43
0.00000001
 40
0.0
 40
0.0
 40
0.0
 40
0.0
 40
0.2418856032025078
 40
0.5000000000124919
 40
0.758114396836261
 40
1.0
 40
1.0
 40
1.0
 40
1.0
 10
140.5360613750357
 20
148.4967817014136
 30
0.0
 10
140.4239091937005
 20
148.4687264057888
 30
0.0
 10
140.192080221961
 20
148.4107335049008
 30
0.0
 10
139.9084646967963
 20
148.1747484520938
 30
0.0
 10
139.7158778036993
 20
147.8600470065458
 30
0.0
 10
139.6919467547024
 20
147.6222757854644
 30
0.0
 10
139.6803696022603
 20
147.5072489150089
 30
0.0
  0
SPLINE
  5
11B
330
1F
100
AcDbEntity
  8
0
  6
Continuous
 62
     7
370
    15
100
AcDbSpline
210
0.0
220
0.0
230
1.0
 70
     8
 71
     3
 72
    11
 73
     7
 74
     0
 42
0.000000001
 43
0.00000001
 40
0.0
 40
0.0
 40
0.0
 40
0.0
 40
0.2418856031626066
 40
0.4999999999851674
 40
0.7581143967952234
 40
1.0
 40
1.0
 40
1.0
 40
1.0
 10
139.6803696022602
 20
124.7369237358999
 30
0.0
 10
139.6919467547015
 20
124.621896865449
 30
0.0
 10
139.7158778036965
 20
124.3841256443768
 30
0.0
 10
139.9084646967794
 20
124.069424198837
 30
0.0
 10
140.1920802219265
 20
123.8334391460284
 30
0.0
 10
140.4239091936565
 20
123.7754462451315
 30
0.0
 10
140.5360613749877
 20
123.7473909495023
 30
0.0
  0
LINE
  5
11C
330
1F
100
AcDbEntity
  8
0
  6
Continuous
 62
     7
370
    15
100
AcDbLine
 10
230.180369602
 20
125.1220863255
 30
0.0
 11
284.480369602
 21
125.1220863255
 31
0.0
  0
LINE
  5
11D
330
1F
100
AcDbEntity
  8
0
  6
Continuous
 62
     7
370
    15
100
AcDbLine
 10
284.480369602
 20
147.1220863255
 30
0.0
 11
230.180369602
 21
147.1220863255
 31
0.0
  0
ARC
  5
11E
330
1F
100
AcDbEntity
  8
0
  6
Continuous
 62
     7
370
    15
100
AcDbCircle
 10
307.6803696016
 20
125.5220863258
 30
0.0
 40
0.4000000002708788
100
AcDbArc
 50
270.0000000467
 51
0.0000000014
  0
ARC
  5
11F
330
1F
100
AcDbEntity
  8
0
  6
Continuous
 62
     7
370
    15
100
AcDbCircle
 10
307.6803696016
 20
146.7220863251
 30
0.0
 40
0.4000000002708646
100
AcDbArc
 50
359.9999999986
 51
89.9999999533
  0
LINE
  5
120
330
1F
100
AcDbEntity
  8
0
  6
Continuous
 62
     7
370
    15
100
AcDbLine
 10
290.980369602
 20
125.1220863255
 30
0.0
 11
307.680369602
 21
125.1220863255
 31
0.0
  0
LINE
  5
121
330
1F
100
AcDbEntity
  8
0
  6
Continuous
 62
     7
370
    15
100
AcDbLine
 10
307.680369602
 20
147.1220863255
 30
0.0
 11
290.980369602
 21
147.1220863255
 31
0.0
  0
LINE
  5
122
330
1F
100
AcDbEntity
  8
0
  6
Continuous
 62
     7
370
    15
100
AcDbLine
 10
290.980369602
 20
147.1220863255
 30
0.0
 11
290.580369602
 21
146.7220863255
 31
0.0
  0
LINE
  5
123
330
1F
100
AcDbEntity
  8
0
  6
Continuous
 62
     7
370
    15
100
AcDbLine
 10
290.580369602
 20
125.5220863255
 30
0.0
 11
290.980369602
 21
125.1220863255
 31
0.0
  0
LINE
  5
124
330
1F
100
AcDbEntity
  8
0
  6
Continuous
 62
     7
370
    15
100
AcDbLine
 10
284.480369602
 20
125.1220863255
 30
0.0
 11
286.195975138
 21
125.9220863255
 31
0.0
  0
LINE
  5
125
330
1F
100
AcDbEntity
  8
0
  6
Continuous
 62
     7
370
    15
100
AcDbLine
 10
286.195975138
 20
146.3220863255
 30
0.0
 11
284.480369602
 21
147.1220863255
 31
0.0
  0
LINE
  5
126
330
1F
100
AcDbEntity
  8
0
  6
Continuous
 62
     7
370
    15
100
AcDbLine
 10
286.195975138
 20
125.9220863255
 30
0.0
 11
290.580369602
 21
125.9220863255
 31
0.0
  0
LINE
  5
127
330
1F
100
AcDbEntity
  8
0
  6
Continuous
 62
     7
370
    15
100
AcDbLine
 10
290.580369602
 20
146.3220863255
 30
0.0
 11
286.195975138
 21
146.3220863255
 31
0.0
  0
ARC
  5
128
330
1F
100
AcDbEntity
  8
0
  6
Continuous
 62
     7
370
    15
100
AcDbCircle
 10
211.6803696001
 20
166.7064009011
 30
0.0
 40
0.3999999981377584
100
AcDbArc
 50
134.9999999427
 51
180.000000483
  0
ARC
  5
129
330
1F
100
AcDbEntity
  8
0
  6
Continuous
 62
     7
370
    15
100
AcDbCircle
 10
211.6803696001
 20
105.5377717498
 30
0.0
 40
0.3999999981377584
100
AcDbArc
 50
179.999999517
 51
225.0000000573
  0
ARC
  5
12A
330
1F
100
AcDbEntity
  8
0
  6
Continuous
 62
     7
370
    15
100
AcDbCircle
 10
212.4460550263
 20
104.7720863236
 30
0.0
 40
0.3999999981810835
100
AcDbArc
 50
224.999999831
 51
270.0000001004
  0
ARC
  5
12B
330
1F
100
AcDbEntity
  8
0
  6
Continuous
 62
     7
370
    15
100
AcDbCircle
 10
226.0146841777
 20
104.7720863236
 30
0.0
 40
0.3999999981682917
100
AcDbArc
 50
269.9999998996
 51
315.000000188
  0
LINE
  5
12C
330
1F
100
AcDbEntity
  8
0
  6
Continuous
 62
     7
370
    15
100
AcDbLine
 10
211.3975268892
 20
105.2549290383
 30
0.0
 11
212.1632123143
 21
104.4892436132
 31
0.0
  0
LINE
  5
12D
330
1F
100
AcDbEntity
  8
0
  6
Continuous
 62
     7
370
    15
100
AcDbLine
 10
212.1632123143
 20
167.7549290377
 30
0.0
 11
211.3975268892
 21
166.9892436126
 31
0.0
  0
ARC
  5
12E
330
1F
100
AcDbEntity
  8
0
  6
Continuous
 62
     7
370
    15
100
AcDbCircle
 10
226.0146841777
 20
167.4720863273
 30
0.0
 40
0.3999999981683017
100
AcDbArc
 50
44.999999812
 51
90.0000001004
  0
ARC
  5
12F
330
1F
100
AcDbEntity
  8
0
  6
Continuous
 62
     7
370
    15
100
AcDbCircle
 10
212.4460550263
 20
167.4720863273
 30
0.0
 40
0.3999999981810634
100
AcDbArc
 50
89.9999998996
 51
135.000000169
  0
ARC
  5
130
330
1F
100
AcDbEntity
  8
0
  6
Continuous
 62
     7
370
    15
100
AcDbCircle
 10
226.7803696038
 20
166.7064009011
 30
0.0
 40
0.3999999981593585
100
AcDbArc
 50
359.9999995195
 51
45.0000000586
  0
ARC
  5
131
330
1F
100
AcDbEntity
  8
0
  6
Continuous
 62
     7
370
    15
100
AcDbCircle
 10
226.7803696038
 20
105.5377717498
 30
0.0
 40
0.3999999981593785
100
AcDbArc
 50
314.9999999414
 51
0.0000004805
  0
LINE
  5
132
330
1F
100
AcDbEntity
  8
0
  6
Continuous
 62
     7
370
    15
100
AcDbLine
 10
222.702206244
 20
167.8720863255
 30
0.0
 11
222.702206244
 21
104.3720863255
 31
0.0
  0
LINE
  5
133
330
1F
100
AcDbEntity
  8
0
  6
Continuous
 62
     7
370
    15
100
AcDbLine
 10
226.0146841768
 20
166.6850555194
 30
0.0
 11
226.014684177
 21
136.1220863255
 31
0.0
  0
LINE
  5
134
330
1F
100
AcDbEntity
  8
0
  6
Continuous
 62
     7
370
    15
100
AcDbLine
 10
226.014684177
 20
136.1220863198
 30
0.0
 11
226.0146841769
 21
105.5924188383
 31
0.0
  0
LINE
  5
135
330
1F
100
AcDbEntity
  8
0
  6
Continuous
 62
     7
370
    15
100
AcDbLine
 10
212.4460550273
 20
105.5924188383
 30
0.0
 11
212.446055027
 21
136.1220863198
 31
0.0
  0
LINE
  5
136
330
1F
100
AcDbEntity
  8
0
  6
Continuous
 62
     7
370
    15
100
AcDbLine
 10
212.446055027
 20
136.1220863255
 30
0.0
 11
212.4460550273
 21
166.6850555194
 31
0.0
  0
LINE
  5
137
330
1F
100
AcDbEntity
  8
0
  6
Continuous
 62
     7
370
    15
100
AcDbLine
 10
215.65853296
 20
104.3720863255
 30
0.0
 11
215.65853296
 21
167.8720863255
 31
0.0
  0
SPLINE
  5
138
330
1F
100
AcDbEntity
  8
0
  6
Continuous
 62
     7
370
    15
100
AcDbSpline
210
0.0
220
0.0
230
1.0
 70
    24
 71
     3
 72
    10
 73
     6
 74
     0
 42
0.000000001
 43
0.00000001
 40
0.0
 40
0.0
 40
0.0
 40
0.0
 40
0.5
 40
0.5
 40
1.0
 40
1.0
 40
1.0
 40
1.0
 10
212.1632123148235
 20
136.1220863254544
 30
0.0
 10
212.199292054645
 20
136.1220863254544
 30
0.0
 10
212.2439760366529
 20
136.1220863254544
 30
0.0
 10
212.3419872711576
 20
136.1220863254544
 30
0.0
 10
212.3950305691573
 20
136.1220863254544
 30
0.0
 10
212.446055027001
 20
136.1220863254544
 30
0.0
  0
LINE
  5
139
330
1F
100
AcDbEntity
  8
0
  6
Continuous
 62
     7
370
    15
100
AcDbLine
 10
212.1632123143
 20
166.5900200351
 30
0.0
 11
212.163212314
 21
136.122086319
 31
0.0
  0
SPLINE
  5
13A
330
1F
100
AcDbEntity
  8
0
  6
Continuous
 62
     7
370
    15
100
AcDbSpline
210
0.0
220
0.0
230
1.0
 70
     8
 71
     3
 72
     8
 73
     4
 74
     0
 42
0.000000001
 43
0.00000001
 40
0.0
 40
0.0
 40
0.0
 40
0.0
 40
1.0
 40
1.0
 40
1.0
 40
1.0
 10
212.4460550277046
 20
166.6850555192758
 30
0.0
 10
212.3375492409996
 20
166.6850555196014
 30
0.0
 10
212.2343775259812
 20
166.6477815349272
 30
0.0
 10
212.1632123143343
 20
166.5900200350532
 30
0.0
  0
SPLINE
  5
13B
330
1F
100
AcDbEntity
  8
0
  6
Continuous
 62
     7
370
    15
100
AcDbSpline
210
0.0
220
0.0
230
1.0
 70
     8
 71
     3
 72
    10
 73
     6
 74
     0
 42
0.000000001
 43
0.00000001
 40
0.0
 40
0.0
 40
0.0
 40
0.0
 40
0.5
 40
0.5
 40
1.0
 40
1.0
 40
1.0
 40
1.0
 10
212.1632123155271
 20
105.6744170253375
 30
0.0
 10
212.1963969460809
 20
105.6511513936342
 30
0.0
 10
212.2371234944475
 20
105.6307852869485
 30
0.0
 10
212.3334153494071
 20
105.6012211861748
 30
0.0
 10
212.3889814186433
 20
105.59241883795
 30
0.0
 10
212.4460550275365
 20
105.592418838142
 30
0.0
  0
LINE
  5
13C
330
1F
100
AcDbEntity
  8
0
  6
Continuous
 62
     7
370
    15
100
AcDbLine
 10
212.163212314
 20
136.1220863125
 30
0.0
 11
212.1632123148
 21
105.6744170259
 31
0.0
  0
LINE
  5
13D
330
1F
100
AcDbEntity
  8
0
  6
Continuous
 62
     7
370
    15
100
AcDbLine
 10
226.29752689
 20
136.1220863198
 30
0.0
 11
226.2975268904
 21
166.5900200344
 31
0.0
  0
SPLINE
  5
13E
330
1F
100
AcDbEntity
  8
0
  6
Continuous
 62
     7
370
    15
100
AcDbSpline
210
0.0
220
0.0
230
1.0
 70
    24
 71
     3
 72
    10
 73
     6
 74
     0
 42
0.000000001
 43
0.00000001
 40
0.0
 40
0.0
 40
0.0
 40
0.0
 40
0.5
 40
0.5
 40
1.0
 40
1.0
 40
1.0
 40
1.0
 10
226.0146841769491
 20
136.1220863254544
 30
0.0
 10
226.0657086348295
 20
136.1220863254544
 30
0.0
 10
226.1187519328687
 20
136.1220863254544
 30
0.0
 10
226.2167631674322
 20
136.1220863254544
 30
0.0
 10
226.2614471494586
 20
136.1220863254544
 30
0.0
 10
226.2975268892822
 20
136.1220863254544
 30
0.0
  0
SPLINE
  5
13F
330
1F
100
AcDbEntity
  8
0
  6
Continuous
 62
     7
370
    15
100
AcDbSpline
210
0.0
220
0.0
230
1.0
 70
     8
 71
     3
 72
     8
 73
     4
 74
     0
 42
0.000000001
 43
0.00000001
 40
0.0
 40
0.0
 40
0.0
 40
0.0
 40
1.0
 40
1.0
 40
1.0
 40
1.0
 10
226.29752689089
 20
166.590020034019
 30
0.0
 10
226.2263631668432
 20
166.6477803269982
 30
0.0
 10
226.1231930060763
 20
166.6850555195225
 30
0.0
 10
226.014684176604
 20
166.6850555192758
 30
0.0
  0
LINE
  5
140
330
1F
100
AcDbEntity
  8
0
  6
Continuous
 62
     7
370
    15
100
AcDbLine
 10
226.2975268901
 20
105.6744170244
 30
0.0
 11
226.29752689
 21
136.1220863198
 31
0.0
  0
SPLINE
  5
141
330
1F
100
AcDbEntity
  8
0
  6
Continuous
 62
     7
370
    15
100
AcDbSpline
210
0.0
220
0.0
230
1.0
 70
     8
 71
     3
 72
    10
 73
     6
 74
     0
 42
0.000000001
 43
0.00000001
 40
0.0
 40
0.0
 40
0.0
 40
0.0
 40
0.5
 40
0.5
 40
1.0
 40
1.0
 40
1.0
 40
1.0
 10
226.014684176891
 20
105.592418838142
 30
0.0
 10
226.0717514586343
 20
105.5924188379976
 30
0.0
 10
226.1271971063796
 20
105.6011886485651
 30
0.0
 10
226.223626561849
 20
105.6307822491921
 30
0.0
 10
226.2643373383152
 20
105.6511479442659
 30
0.0
 10
226.2975268901615
 20
105.674417026558
 30
0.0
  0
LINE
  5
142
330
1F
100
AcDbEntity
  8
0
  6
Continuous
 62
     7
370
    15
100
AcDbLine
 10
221.080369602
 20
107.1811897915
 30
0.0
 11
221.080369602
 21
165.0629828595
 31
0.0
  0
LINE
  5
143
330
1F
100
AcDbEntity
  8
0
  6
Continuous
 62
     7
370
    15
100
AcDbLine
 10
217.280369602
 20
136.1220863255
 30
0.0
 11
217.280369602
 21
107.1811897915
 31
0.0
  0
LINE
  5
144
330
1F
100
AcDbEntity
  8
0
  6
Continuous
 62
     7
370
    15
100
AcDbLine
 10
217.280369602
 20
165.0629828595
 30
0.0
 11
217.280369602
 21
136.1220863255
 31
0.0
  0
LINE
  5
145
330
1F
100
AcDbEntity
  8
0
  6
Continuous
 62
     7
370
    15
100
AcDbLine
 10
211.3975268873
 20
106.4867117598
 30
0.0
 11
211.3975268892
 21
136.1220863255
 31
0.0
  0
LINE
  5
146
330
1F
100
AcDbEntity
  8
0
  6
Continuous
 62
     7
370
    15
100
AcDbLine
 10
211.3975268892
 20
136.1220863255
 30
0.0
 11
211.3975268886
 21
165.7574608918
 31
0.0
  0
SPLINE
  5
147
330
1F
100
AcDbEntity
  8
0
  6
Continuous
 62
     7
370
    15
100
AcDbSpline
210
0.0
220
0.0
230
1.0
 70
     8
 71
     3
 72
     9
 73
     5
 74
     0
 42
0.000000001
 43
0.00000001
 40
0.0
 40
0.0
 40
0.0
 40
0.0
 40
0.498780347075351
 40
1.0
 40
1.0
 40
1.0
 40
1.0
 10
211.3975268880534
 20
165.7574608917669
 30
0.0
 10
211.4660844320504
 20
165.8486270824794
 30
0.0
 10
211.6035348035395
 20
166.0314053159183
 30
0.0
 10
211.7418652227842
 20
166.2128508581365
 30
0.0
 10
211.8111991475069
 20
166.3037949298319
 30
0.0
  0
SPLINE
  5
148
330
1F
100
AcDbEntity
  8
0
  6
Continuous
 62
     7
370
    15
100
AcDbSpline
210
0.0
220
0.0
230
1.0
 70
     8
 71
     3
 72
     8
 73
     4
 74
     0
 42
0.000000001
 43
0.00000001
 40
0.0
 40
0.0
 40
0.0
 40
0.0
 40
0.000536435349708
 40
0.000536435349708
 40
0.000536435349708
 40
0.000536435349708
 10
211.8111991524865
 20
166.3037949328151
 30
0.0
 10
211.9284155737753
 20
166.3992778223929
 30
0.0
 10
212.0457549233033
 20
166.4946853217627
 30
0.0
 10
212.1632123142517
 20
166.5900200351038
 30
0.0
  0
LINE
  5
149
330
1F
100
AcDbEntity
  8
0
  6
Continuous
 62
     7
370
    15
100
AcDbLine
 10
212.163212314
 20
105.6744170232
 30
0.0
 11
211.8409856253
 21
105.9014201158
 31
0.0
  0
SPLINE
  5
14A
330
1F
100
AcDbEntity
  8
0
  6
Continuous
 62
     7
370
    15
100
AcDbSpline
210
0.0
220
0.0
230
1.0
 70
     8
 71
     3
 72
     9
 73
     5
 74
     0
 42
0.000000001
 43
0.00000001
 40
0.0
 40
0.0
 40
0.0
 40
0.0
 40
0.5013065793165208
 40
0.9999999999999999
 40
0.9999999999999999
 40
0.9999999999999999
 40
0.9999999999999999
 10
211.8409856183168
 20
105.9014201247492
 30
0.0
 10
211.7666299207693
 20
105.9988406113189
 30
0.0
 10
211.6183061192968
 20
106.1931737611103
 30
0.0
 10
211.4709916446634
 20
106.3890363675185
 30
0.0
 10
211.3975268853923
 20
106.4867117606923
 30
0.0
  0
LINE
  5
14B
330
1F
100
AcDbEntity
  8
0
  6
Continuous
 62
     7
370
    15
100
AcDbLine
 10
227.063212315
 20
165.9210611226
 30
0.0
 11
227.0632123147
 21
136.1220863255
 31
0.0
  0
LINE
  5
14C
330
1F
100
AcDbEntity
  8
0
  6
Continuous
 62
     7
370
    15
100
AcDbLine
 10
227.0632123147
 20
136.1220863255
 30
0.0
 11
227.0632123147
 21
106.323111528
 31
0.0
  0
SPLINE
  5
14D
330
1F
100
AcDbEntity
  8
0
  6
Continuous
 62
     7
370
    15
100
AcDbSpline
210
0.0
220
0.0
230
1.0
 70
    24
 71
     3
 72
    31
 73
    27
 74
     0
 42
0.000000001
 43
0.00000001
 40
0.0
 40
0.0
 40
0.0
 40
0.0
 40
0.0132823932773856
 40
0.026551203816842
 40
0.0398103956624777
 40
0.0530639414890587
 40
0.0663158190490774
 40
0.0795700075970307
 40
0.0928304843069458
 40
0.1061012206992577
 40
0.11938617909305
 40
0.1814759386760654
 40
0.2435789296667077
 40
0.3073816230332527
 40
0.3711979128662651
 40
0.5004548484509089
 40
0.629649279866097
 40
0.6933605859139234
 40
0.7570854689509972
 40
0.8190310932947362
 40
0.8809899183241852
 40
0.904812838169967
 40
0.9286023320350317
 40
0.9523813656577593
 40
0.9761729350680175
 40
1.0
 40
1.0
 40
1.0
 40
1.0
 10
227.1803696019751
 20
165.6279806189284
 30
0.0
 10
227.1803696019751
 20
165.5806623457597
 30
0.0
 10
227.1803696019751
 20
165.4860741876676
 30
0.0
 10
227.1803696019751
 20
165.3331202094304
 30
0.0
 10
227.1803696019751
 20
165.1721693378331
 30
0.0
 10
227.1803696019751
 20
165.0024220111698
 30
0.0
 10
227.1803696019751
 20
164.8240924129032
 30
0.0
 10
227.1803696019751
 20
164.6371228827919
 30
0.0
 10
227.1803696019751
 20
164.4415302762485
 30
0.0
 10
227.1803696019751
 20
164.2373051698583
 30
0.0
 10
227.1803696019751
 20
163.7639601913958
 30
0.0
 10
227.1803696019751
 20
162.947884230607
 30
0.0
 10
227.1803696019751
 20
161.6538719110177
 30
0.0
 10
227.1803696019751
 20
160.1756856197449
 30
0.0
 10
227.1803696019751
 20
157.9506168065455
 30
0.0
 10
227.1803696019751
 20
154.7601494158842
 30
0.0
 10
227.1803696019751
 20
151.1298568200106
 30
0.0
 10
227.1803696019751
 20
148.0428063594956
 30
0.0
 10
227.1803696019751
 20
145.6822987880046
 30
0.0
 10
227.1803696019751
 20
143.2805211360596
 30
0.0
 10
227.1803696019751
 20
141.3518495277531
 30
0.0
 10
227.1803696019751
 20
139.909404399114
 30
0.0
 10
227.1803696019751
 20
138.9658643383983
 30
0.0
 10
227.1803696019751
 20
138.0200093044573
 30
0.0
 10
227.1803696019751
 20
137.0718218778312
 30
0.0
 10
227.1803696019751
 20
136.4388221248737
 30
0.0
 10
227.1803696019751
 20
136.1220863254544
 30
0.0
  0
SPLINE
  5
14E
330
1F
100
AcDbEntity
  8
0
  6
Continuous
 62
     7
370
    15
100
AcDbSpline
210
0.0
220
0.0
230
1.0
 70
    24
 71
     3
 72
    10
 73
     6
 74
     0
 42
0.000000001
 43
0.00000001
 40
0.0
 40
0.0
 40
0.0
 40
0.0
 40
0.5
 40
0.5
 40
1.0
 40
1.0
 40
1.0
 40
1.0
 10
227.0632123147179
 20
136.1220863254544
 30
0.0
 10
227.0992920545451
 20
136.1220863254544
 30
0.0
 10
227.1296226237097
 20
136.1220863254544
 30
0.0
 10
227.1702202063848
 20
136.1220863254544
 30
0.0
 10
227.1803696020824
 20
136.1220863254544
 30
0.0
 10
227.1803696019932
 20
136.1220863254544
 30
0.0
  0
SPLINE
  5
14F
330
1F
100
AcDbEntity
  8
0
  6
Continuous
 62
     7
370
    15
100
AcDbSpline
210
0.0
220
0.0
230
1.0
 70
     8
 71
     3
 72
     8
 73
     4
 74
     0
 42
0.000000001
 43
0.00000001
 40
0.0
 40
0.0
 40
0.0
 40
0.0
 40
1.0
 40
1.0
 40
1.0
 40
1.0
 10
227.1803696019932
 20
165.6279806127348
 30
0.0
 10
227.1803696037546
 20
165.736495573033
 30
0.0
 10
227.138608064334
 20
165.8429627154426
 30
0.0
 10
227.0632123152435
 20
165.9210611225051
 30
0.0
  0
SPLINE
  5
150
330
1F
100
AcDbEntity
  8
0
  6
Continuous
 62
     7
370
    15
100
AcDbSpline
210
0.0
220
0.0
230
1.0
 70
    24
 71
     3
 72
    31
 73
    27
 74
     0
 42
0.000000001
 43
0.00000001
 40
0.0
 40
0.0
 40
0.0
 40
0.0
 40
0.01324079652309
 40
0.0264681393850173
 40
0.0396859556326916
 40
0.0528981808077628
 40
0.0661087554487642
 40
0.0793216215709709
 40
0.0925407191396565
 40
0.1057699825525114
 40
0.1190133371468792
 40
0.1809589626463297
 40
0.2429177888329158
 40
0.3066290963320342
 40
0.3703539808216763
 40
0.4995484162088853
 40
0.6288053557674718
 40
0.6926080515837287
 40
0.7564243438652541
 40
0.8185141060944454
 40
0.8806170997270959
 40
0.9045147944753773
 40
0.9283787407947773
 40
0.9522321211361716
 40
0.9760981487404895
 40
0.9999999999999999
 40
0.9999999999999999
 40
0.9999999999999999
 40
0.9999999999999999
 10
227.1803696019751
 20
136.1220863254544
 30
0.0
 10
227.1803696019751
 20
135.9460798554934
 30
0.0
 10
227.1803696019751
 20
135.5942457515956
 30
0.0
 10
227.1803696019751
 20
135.0668666273506
 30
0.0
 10
227.1803696019751
 20
134.5401800436446
 30
0.0
 10
227.1803696019751
 20
134.0141860851884
 30
0.0
 10
227.1803696019751
 20
133.4888850408912
 30
0.0
 10
227.1803696019751
 20
132.9642765133118
 30
0.0
 10
227.1803696019751
 20
132.4403626450781
 30
0.0
 10
227.1803696019751
 20
131.9171360892109
 30
0.0
 10
227.1803696019751
 20
130.7544153894186
 30
0.0
 10
227.1803696019751
 20
128.9638069795618
 30
0.0
 10
227.1803696019751
 20
126.5622163395593
 30
0.0
 10
227.1803696019751
 20
124.2015328107722
 30
0.0
 10
227.1803696019751
 20
121.1144689532614
 30
0.0
 10
227.1803696019751
 20
117.4840229927678
 30
0.0
 10
227.1803696019751
 20
114.2936910334013
 30
0.0
 10
227.1803696019751
 20
112.0685982329348
 30
0.0
 10
227.1803696019751
 20
110.5905004138737
 30
0.0
 10
227.1803696019751
 20
109.296362881729
 30
0.0
 10
227.1803696019751
 20
108.4173111410359
 30
0.0
 10
227.1803696019751
 20
107.8398232027349
 30
0.0
 10
227.1803696019751
 20
107.4906350540216
 30
0.0
 10
227.1803696019751
 20
107.1699496018003
 30
0.0
 10
227.1803696019751
 20
106.8751718612436
 30
0.0
 10
227.1803696019751
 20
106.7025617915188
 30
0.0
 10
227.1803696019751
 20
106.6161920319526
 30
0.0
  0
SPLINE
  5
151
330
1F
100
AcDbEntity
  8
0
  6
Continuous
 62
     7
370
    15
100
AcDbSpline
210
0.0
220
0.0
230
1.0
 70
     8
 71
     3
 72
     8
 73
     4
 74
     0
 42
0.000000001
 43
0.00000001
 40
0.0
 40
0.0
 40
0.0
 40
0.0
 40
1.0
 40
1.0
 40
1.0
 40
1.0
 10
227.0632123146902
 20
106.3231115278308
 30
0.0
 10
227.1386085353394
 20
106.40121042305
 30
0.0
 10
227.1803696038244
 20
106.5076780741798
 30
0.0
 10
227.1803696019932
 20
106.6161920384506
 30
0.0
  0
SPLINE
  5
152
330
1F
100
AcDbEntity
  8
0
  6
Continuous
 62
     7
370
    15
100
AcDbSpline
210
0.0
220
0.0
230
1.0
 70
    24
 71
     3
 72
    10
 73
     6
 74
     0
 42
0.000000001
 43
0.00000001
 40
0.0
 40
0.0
 40
0.0
 40
0.0
 40
0.5
 40
0.5
 40
1.0
 40
1.0
 40
1.0
 40
1.0
 10
211.2803696019569
 20
136.1220863254544
 30
0.0
 10
211.2803696018458
 20
136.1220863254544
 30
0.0
 10
211.2905189975307
 20
136.1220863254544
 30
0.0
 10
211.3311165802067
 20
136.1220863254544
 30
0.0
 10
211.3614471493848
 20
136.1220863254544
 30
0.0
 10
211.3975268892322
 20
136.1220863254544
 30
0.0
  0
SPLINE
  5
153
330
1F
100
AcDbEntity
  8
0
  6
Continuous
 62
     7
370
    15
100
AcDbSpline
210
0.0
220
0.0
230
1.0
 70
    24
 71
     3
 72
    31
 73
    27
 74
     0
 42
0.000000001
 43
0.00000001
 40
0.0
 40
0.0
 40
0.0
 40
0.0
 40
0.0132559966349189
 40
0.0264989966081602
 40
0.0397327988291494
 40
0.0529612101314919
 40
0.0661880420034987
 40
0.0794171072986517
 40
0.0926522169401775
 40
0.1058971766339516
 40
0.1191557836038749
 40
0.181094754453264
 40
0.2430471871464789
 40
0.306695881482009
 40
0.3703584092889373
 40
0.4993830193529282
 40
0.6284926302409563
 40
0.6922657259813465
 40
0.7560526822310297
 40
0.8181882638014923
 40
0.8803373499539993
 40
0.9042902683353782
 40
0.9282104830345619
 40
0.952120495510265
 40
0.9760428360099883
 40
1.0
 40
1.0
 40
1.0
 40
1.0
 10
211.2803696019751
 20
136.1220863254544
 30
0.0
 10
211.2803696019751
 20
136.2950823411359
 30
0.0
 10
211.2803696019751
 20
136.6409047609074
 30
0.0
 10
211.2803696019751
 20
137.1592853912979
 30
0.0
 10
211.2803696019751
 20
137.6770089780242
 30
0.0
 10
211.2803696019751
 20
138.1940754445205
 30
0.0
 10
211.2803696019751
 20
138.7104845213785
 30
0.0
 10
211.2803696019751
 20
139.2262365895077
 30
0.0
 10
211.2803696019751
 20
139.7413296223695
 30
0.0
 10
211.2803696019751
 20
140.2557705870766
 30
0.0
 10
211.2803696019751
 20
141.3980251872599
 30
0.0
 10
211.2803696019751
 20
143.1571016253416
 30
0.0
 10
211.2803696019751
 20
145.5171076012948
 30
0.0
 10
211.2803696019751
 20
147.8385377570848
 30
0.0
 10
211.2803696019751
 20
150.8770963630051
 30
0.0
 10
211.2803696019751
 20
154.459936399802
 30
0.0
 10
211.2803696019751
 20
157.6268082014961
 30
0.0
 10
211.2803696019751
 20
159.8503100621015
 30
0.0
 10
211.2803696019751
 20
161.3366691163898
 30
0.0
 10
211.2803696019751
 20
162.6476944533106
 30
0.0
 10
211.2803696019751
 20
163.5471082386507
 30
0.0
 10
211.2803696019751
 20
164.1431937140811
 30
0.0
 10
211.2803696019751
 20
164.5059645952112
 30
0.0
 10
211.2803696019751
 20
164.8413660230287
 30
0.0
 10
211.2803696019751
 20
165.1518945202605
 30
0.0
 10
211.2803696019751
 20
165.3359341149816
 30
0.0
 10
211.2803696019751
 20
165.4280208397374
 30
0.0
  0
SPLINE
  5
154
330
1F
100
AcDbEntity
  8
0
  6
Continuous
 62
     7
370
    15
100
AcDbSpline
210
0.0
220
0.0
230
1.0
 70
     8
 71
     3
 72
    10
 73
     6
 74
     0
 42
0.000000001
 43
0.00000001
 40
0.0
 40
0.0
 40
0.0
 40
0.0
 40
0.5
 40
0.5
 40
1.0
 40
1.0
 40
1.0
 40
1.0
 10
211.3975268916033
 20
165.7574608950003
 30
0.0
 10
211.3648722659402
 20
165.7139366365872
 30
0.0
 10
211.3368911487551
 20
165.6653745295009
 30
0.0
 10
211.2942449425708
 20
165.5538962189712
 30
0.0
 10
211.2803696006958
 20
165.4919249286593
 30
0.0
 10
211.2803696019586
 20
165.4280208363681
 30
0.0
  0
SPLINE
  5
155
330
1F
100
AcDbEntity
  8
0
  6
Continuous
 62
     7
370
    15
100
AcDbSpline
210
0.0
220
0.0
230
1.0
 70
     8
 71
     3
 72
    10
 73
     6
 74
     0
 42
0.000000001
 43
0.00000001
 40
0.0
 40
0.0
 40
0.0
 40
0.0
 40
0.5
 40
0.5
 40
1.0
 40
1.0
 40
1.0
 40
1.0
 10
211.397526891016
 20
106.4867117566913
 30
0.0
 10
211.3648722655401
 20
106.5302360149973
 30
0.0
 10
211.3368911482561
 20
106.5787981224445
 30
0.0
 10
211.2942449424069
 20
106.6902764326337
 30
0.0
 10
211.2803696006685
 20
106.7522477227036
 30
0.0
 10
211.2803696019586
 20
106.8161518147269
 30
0.0
  0
SPLINE
  5
156
330
1F
100
AcDbEntity
  8
0
  6
Continuous
 62
     7
370
    15
100
AcDbSpline
210
0.0
220
0.0
230
1.0
 70
    24
 71
     3
 72
    31
 73
    27
 74
     0
 42
0.000000001
 43
0.00000001
 40
0.0
 40
0.0
 40
0.0
 40
0.0
 40
0.0133128930162584
 40
0.0266126186434238
 40
0.0399030247502073
 40
0.0531879673032782
 40
0.0664713070272858
 40
0.0797569060442002
 40
0.0930486245065691
 40
0.1063503172393517
 40
0.1196658304048915
 40
0.1818014087549293
 40
0.2439504916860299
 40
0.3077235843799929
 40
0.3715105375763663
 40
0.5006201432131341
 40
0.6296447480293218
 40
0.6932934402594029
 40
0.7569559659581583
 40
0.8188949349972185
 40
0.8808473658849603
 40
0.9046980020604894
 40
0.9285163609918906
 40
0.9523246573931505
 40
0.9761451341308867
 40
1.0
 40
1.0
 40
1.0
 40
1.0
 10
211.2803696019751
 20
106.8161518112067
 30
0.0
 10
211.2803696019751
 20
106.8666718306443
 30
0.0
 10
211.2803696019751
 20
106.9676619016612
 30
0.0
 10
211.2803696019751
 20
107.1297895456029
 30
0.0
 10
211.2803696019751
 20
107.299595759128
 30
0.0
 10
211.2803696019751
 20
107.4778497057289
 30
0.0
 10
211.2803696019751
 20
107.6643453349535
 30
0.0
 10
211.2803696019751
 20
107.8591381225329
 30
0.0
 10
211.2803696019751
 20
108.0622118314588
 30
0.0
 10
211.2803696019751
 20
108.2735756067195
 30
0.0
 10
211.2803696019751
 20
108.7615071780491
 30
0.0
 10
211.2803696019751
 20
109.5964003788643
 30
0.0
 10
211.2803696019751
 20
110.907298155351
 30
0.0
 10
211.2803696019751
 20
112.3937488579944
 30
0.0
 10
211.2803696019751
 20
114.6172275399756
 30
0.0
 10
211.2803696019751
 20
117.7842364783008
 30
0.0
 10
211.2803696019751
 20
121.3669221508849
 30
0.0
 10
211.2803696019751
 20
124.4054678149097
 30
0.0
 10
211.2803696019751
 20
126.7267219384656
 30
0.0
 10
211.2803696019751
 20
129.0869143495027
 30
0.0
 10
211.2803696019751
 20
130.9817827180572
 30
0.0
 10
211.2803696019751
 20
132.399045795475
 30
0.0
 10
211.2803696019751
 20
133.3266789418561
 30
0.0
 10
211.2803696019751
 20
134.2565126901756
 30
0.0
 10
211.2803696019751
 20
135.1885636253774
 30
0.0
 10
211.2803696019751
 20
135.8107624908036
 30
0.0
 10
211.2803696019751
 20
136.1220863254544
 30
0.0
  0
LINE
  5
157
330
1F
100
AcDbEntity
  8
0
  6
Continuous
 62
     7
370
    15
100
AcDbLine
 10
208.080369602
 20
136.1220863255
 30
0.0
 11
208.080369602
 21
158.3470863255
 31
0.0
  0
LINE
  5
158
330
1F
100
AcDbEntity
  8
0
  6
Continuous
 62
     7
370
    15
100
AcDbLine
 10
208.080369602
 20
113.8970863255
 30
0.0
 11
208.080369602
 21
136.1220863255
 31
0.0
  0
LINE
  5
159
330
1F
100
AcDbEntity
  8
0
  6
Continuous
 62
     7
370
    15
100
AcDbLine
 10
208.562883659
 20
136.1220863255
 30
0.0
 11
208.562883659
 21
158.1220863255
 31
0.0
  0
LINE
  5
15A
330
1F
100
AcDbEntity
  8
0
  6
Continuous
 62
     7
370
    15
100
AcDbLine
 10
208.562883659
 20
114.1220863255
 30
0.0
 11
208.562883659
 21
136.1220863255
 31
0.0
  0
SPLINE
  5
15B
330
1F
100
AcDbEntity
  8
0
  6
Continuous
 62
     7
370
    15
100
AcDbSpline
210
0.0
220
0.0
230
1.0
 70
    24
 71
     3
 72
    14
 73
    10
 74
     0
 42
0.000000001
 43
0.00000001
 40
0.0
 40
0.0
 40
0.0
 40
0.0
 40
0.25
 40
0.25
 40
0.5
 40
0.5
 40
0.75
 40
0.75
 40
1.0
 40
1.0
 40
1.0
 40
1.0
 10
227.1803696018528
 20
136.1220863254544
 30
0.0
 10
227.1803696020606
 20
136.1220863254544
 30
0.0
 10
227.244805818681
 20
136.1220863254544
 30
0.0
 10
227.5372035796491
 20
136.1220863254544
 30
0.0
 10
227.7661560401313
 20
136.1220863254544
 30
0.0
 10
228.3519424777014
 20
136.1220863254544
 30
0.0
 10
228.7067946225158
 20
136.1220863254544
 30
0.0
 10
229.4453763246125
 20
136.1220863254544
 30
0.0
 10
229.8268162114457
 20
136.1220863254544
 30
0.0
 10
230.1803696019751
 20
136.1220863254544
 30
0.0
  0
SPLINE
  5
15C
330
1F
100
AcDbEntity
  8
0
  6
Continuous
 62
     7
370
    15
100
AcDbSpline
210
0.0
220
0.0
230
1.0
 70
    24
 71
     3
 72
    14
 73
    10
 74
     0
 42
0.000000001
 43
0.00000001
 40
0.0
 40
0.0
 40
0.0
 40
0.0
 40
0.25
 40
0.25
 40
0.5
 40
0.5
 40
0.75
 40
0.75
 40
1.0
 40
1.0
 40
1.0
 40
1.0
 10
139.6803696022602
 20
136.1220863254544
 30
0.0
 10
139.6803696022521
 20
136.1220863254544
 30
0.0
 10
139.6986737841073
 20
136.1220863254544
 30
0.0
 10
139.779779708232
 20
136.1220863254544
 30
0.0
 10
139.8427638055274
 20
136.1220863254544
 30
0.0
 10
140.0051580089046
 20
136.1220863254544
 30
0.0
 10
140.1042034049374
 20
136.1220863254544
 30
0.0
 10
140.3159643909917
 20
136.1220863254544
 30
0.0
 10
140.4281859253488
 20
136.1220863254544
 30
0.0
 10
140.5360613749408
 20
136.1220863254544
 30
0.0
  0
SPLINE
  5
15D
330
1F
100
AcDbEntity
  8
0
  6
Continuous
 62
     7
370
    15
100
AcDbSpline
210
0.0
220
0.0
230
1.0
 70
    24
 71
     3
 72
    22
 73
    18
 74
     0
 42
0.000000001
 43
0.00000001
 40
0.0
 40
0.0
 40
0.0
 40
0.0
 40
0.1250000000000001
 40
0.1250000000000001
 40
0.2500000000000002
 40
0.2500000000000002
 40
0.3750000000000003
 40
0.3750000000000003
 40
0.5000000000000002
 40
0.5000000000000002
 40
0.6250000000000002
 40
0.6250000000000002
 40
0.7500000000000002
 40
0.7500000000000002
 40
0.8750000000000001
 40
0.8750000000000001
 40
1.0
 40
1.0
 40
1.0
 40
1.0
 10
139.6803696022602
 20
147.5072489150089
 30
0.0
 10
139.6803696022602
 20
147.5072489149988
 30
0.0
 10
139.6803696022603
 20
147.3868850659169
 30
0.0
 10
139.6803696022602
 20
146.9269873739227
 30
0.0
 10
139.6803696022603
 20
146.5880316355378
 30
0.0
 10
139.6803696022602
 20
145.7476044086214
 30
0.0
 10
139.6803696022603
 20
145.2468807371171
 30
0.0
 10
139.6803696022602
 20
144.1530163637174
 30
0.0
 10
139.6803696022602
 20
143.5603925505883
 30
0.0
 10
139.6803696022602
 20
142.3459752077077
 30
0.0
 10
139.6803696022602
 20
141.7243548167591
 30
0.0
 10
139.6803696022603
 20
140.4978254968461
 30
0.0
 10
139.6803696022603
 20
139.8928521750925
 30
0.0
 10
139.6803696022603
 20
138.7270115259293
 30
0.0
 10
139.6803696022602
 20
138.1659885659827
 30
0.0
 10
139.6803696022602
 20
137.1007936219589
 30
0.0
 10
139.6803696022602
 20
136.5964681000166
 30
0.0
 10
139.6803696022602
 20
136.1220863254544
 30
0.0
  0
SPLINE
  5
15E
330
1F
100
AcDbEntity
  8
0
  6
Continuous
 62
     7
370
    15
100
AcDbSpline
210
0.0
220
0.0
230
1.0
 70
    24
 71
     3
 72
    22
 73
    18
 74
     0
 42
0.000000001
 43
0.00000001
 40
0.0
 40
0.0
 40
0.0
 40
0.0
 40
0.125
 40
0.125
 40
0.25
 40
0.25
 40
0.375
 40
0.375
 40
0.5
 40
0.5
 40
0.625
 40
0.625
 40
0.75
 40
0.75
 40
0.875
 40
0.875
 40
1.0
 40
1.0
 40
1.0
 40
1.0
 10
139.6803696022603
 20
136.1220863254544
 30
0.0
 10
139.6803696022602
 20
135.6477045508871
 30
0.0
 10
139.6803696022602
 20
135.1433790289392
 30
0.0
 10
139.6803696022602
 20
134.0781840849027
 30
0.0
 10
139.6803696022602
 20
133.5171611249492
 30
0.0
 10
139.6803696022603
 20
132.3513204757716
 30
0.0
 10
139.6803696022602
 20
131.7463471540105
 30
0.0
 10
139.6803696022603
 20
130.5198178340834
 30
0.0
 10
139.6803696022602
 20
129.8981974431281
 30
0.0
 10
139.6803696022602
 20
128.6837801002371
 30
0.0
 10
139.6803696022602
 20
128.0911562871043
 30
0.0
 10
139.6803696022602
 20
126.9972919137028
 30
0.0
 10
139.6803696022603
 20
126.4965682422005
 30
0.0
 10
139.6803696022602
 20
125.6561410152957
 30
0.0
 10
139.6803696022602
 20
125.3171852769205
 30
0.0
 10
139.6803696022602
 20
124.8572875849539
 30
0.0
 10
139.6803696022603
 20
124.7369237358897
 30
0.0
 10
139.6803696022603
 20
124.7369237358999
 30
0.0
  0
LINE
  5
15F
330
1F
100
AcDbEntity
  8
0
  6
Continuous
 62
     7
370
    15
100
AcDbLine
 10
284.480369602
 20
136.1220863255
 30
0.0
 11
284.480369602
 21
147.1220863255
 31
0.0
  0
LINE
  5
160
330
1F
100
AcDbEntity
  8
0
  6
Continuous
 62
     7
370
    15
100
AcDbLine
 10
284.480369602
 20
125.1220863255
 30
0.0
 11
284.480369602
 21
136.1220863255
 31
0.0
  0
LINE
  5
161
330
1F
100
AcDbEntity
  8
0
  6
Continuous
 62
     7
370
    15
100
AcDbLine
 10
308.0803696019
 20
136.1220863255
 30
0.0
 11
308.0803696019
 21
146.7220863251
 31
0.0
  0
LINE
  5
162
330
1F
100
AcDbEntity
  8
0
  6
Continuous
 62
     7
370
    15
100
AcDbLine
 10
308.0803696019
 20
125.5220863258
 30
0.0
 11
308.0803696019
 21
136.1220863255
 31
0.0
  0
LINE
  5
163
330
1F
100
AcDbEntity
  8
0
  6
Continuous
 62
     7
370
    15
100
AcDbLine
 10
290.980369602
 20
147.1220863255
 30
0.0
 11
290.980369602
 21
125.1220863255
 31
0.0
  0
LINE
  5
164
330
1F
100
AcDbEntity
  8
0
  6
Continuous
 62
     7
370
    15
100
AcDbLine
 10
290.580369602
 20
125.5220863255
 30
0.0
 11
290.580369602
 21
146.7220863255
 31
0.0
  0
LINE
  5
165
330
1F
100
AcDbEntity
  8
0
  6
Continuous
 62
     7
370
    15
100
AcDbLine
 10
286.195975138
 20
136.1220863255
 30
0.0
 11
286.195975138
 21
146.3220863255
 31
0.0
  0
LINE
  5
166
330
1F
100
AcDbEntity
  8
0
  6
Continuous
 62
     7
370
    15
100
AcDbLine
 10
286.195975138
 20
125.9220863255
 30
0.0
 11
286.195975138
 21
136.1220863255
 31
0.0
  0
LINE
  5
167
330
1F
100
AcDbEntity
  8
0
  6
Continuous
 62
     7
370
    15
100
AcDbLine
 10
211.280369602
 20
166.7064008944
 30
0.0
 11
211.280369602
 21
165.4280208357
 31
0.0
  0
LINE
  5
168
330
1F
100
AcDbEntity
  8
0
  6
Continuous
 62
     7
370
    15
100
AcDbLine
 10
211.280369602
 20
106.8161518138
 30
0.0
 11
211.280369602
 21
105.5377717565
 31
0.0
  0
LINE
  5
169
330
1F
100
AcDbEntity
  8
0
  6
Continuous
 62
     7
370
    15
100
AcDbLine
 10
227.180369602
 20
166.7064008944
 30
0.0
 11
227.180369602
 21
165.6279806182
 31
0.0
  0
LINE
  5
16A
330
1F
100
AcDbEntity
  8
0
  6
Continuous
 62
     7
370
    15
100
AcDbLine
 10
227.180369602
 20
106.6161920367
 30
0.0
 11
227.180369602
 21
105.5377717565
 31
0.0
  0
LINE
  5
16B
330
1F
100
AcDbEntity
  8
0
  6
Continuous
 62
     8
370
    15
100
AcDbLine
 10
226.014684177
 20
105.5924188381
 30
0.0
 11
226.014684177
 21
104.3720863255
 31
0.0
  0
LINE
  5
16C
330
1F
100
AcDbEntity
  8
0
  6
Continuous
 62
     8
370
    15
100
AcDbLine
 10
226.014684177
 20
167.8720863255
 30
0.0
 11
226.0146841768
 21
166.6850555194
 31
0.0
  0
LINE
  5
16D
330
1F
100
AcDbEntity
  8
0
  6
Continuous
 62
     8
370
    15
100
AcDbLine
 10
212.446055027
 20
105.5924188381
 30
0.0
 11
212.446055027
 21
104.3720863255
 31
0.0
  0
LINE
  5
16E
330
1F
100
AcDbEntity
  8
0
  6
Continuous
 62
     8
370
    15
100
AcDbLine
 10
212.446055027
 20
167.8720863255
 30
0.0
 11
212.4460550273
 21
166.6850555194
 31
0.0
  0
LINE
  5
16F
330
1F
100
AcDbEntity
  8
0
  6
Continuous
 62
     8
370
    15
100
AcDbLine
 10
227.0632123147
 20
106.3231115278
 30
0.0
 11
227.0632123147
 21
105.2549290383
 31
0.0
  0
LINE
  5
170
330
1F
100
AcDbEntity
  8
0
  6
Continuous
 62
     8
370
    15
100
AcDbLine
 10
227.0632123147
 20
166.9892436126
 30
0.0
 11
227.0632123147
 21
165.9210611231
 31
0.0
  0
LINE
  5
171
330
1F
100
AcDbEntity
  8
0
  6
Continuous
 62
     8
370
    15
100
AcDbLine
 10
226.2975268898
 20
167.7549290377
 30
0.0
 11
226.2975268898
 21
166.5900200348
 31
0.0
  0
LINE
  5
172
330
1F
100
AcDbEntity
  8
0
  6
Continuous
 62
     8
370
    15
100
AcDbLine
 10
226.2975268898
 20
105.6744170263
 30
0.0
 11
226.2975268898
 21
104.4892436133
 31
0.0
  0
LINE
  5
173
330
1F
100
AcDbEntity
  8
0
  6
Continuous
 62
     8
370
    15
100
AcDbLine
 10
210.8803696019
 20
136.1220863255
 30
0.0
 11
210.8803696019
 21
158.1220863256
 31
0.0
  0
LINE
  5
174
330
1F
100
AcDbEntity
  8
0
  6
Continuous
 62
     8
370
    15
100
AcDbLine
 10
210.8803696019
 20
114.1220863253
 30
0.0
 11
210.8803696019
 21
136.1220863255
 31
0.0
  0
LINE
  5
175
330
1F
100
AcDbEntity
  8
0
  6
Continuous
 62
     8
370
    15
100
AcDbLine
 10
140.536061375
 20
136.1220863204
 30
0.0
 11
140.536061375
 21
148.4967817015
 31
0.0
  0
LINE
  5
176
330
1F
100
AcDbEntity
  8
0
  6
Continuous
 62
     8
370
    15
100
AcDbLine
 10
140.536061375
 20
123.7473909495
 30
0.0
 11
140.536061375
 21
136.1220863204
 31
0.0
  0
LINE
  5
177
330
1F
100
AcDbEntity
  8
0
  6
Continuous
 62
     8
370
    15
100
AcDbLine
 10
230.180369602
 20
136.1220863255
 30
0.0
 11
230.180369602
 21
147.1220859219
 31
0.0
  0
LINE
  5
178
330
1F
100
AcDbEntity
  8
0
  6
Continuous
 62
     8
370
    15
100
AcDbLine
 10
230.180369602
 20
136.1220863235
 30
0.0
 11
230.180369602
 21
125.1220863255
 31
0.0
  0
LINE
  5
179
330
1F
100
AcDbEntity
  8
0
  6
Continuous
 62
     8
370
    15
100
AcDbLine
 10
307.680369602
 20
136.1220863255
 30
0.0
 11
307.680369602
 21
125.1220863255
 31
0.0
  0
LINE
  5
17A
330
1F
100
AcDbEntity
  8
0
  6
Continuous
 62
     8
370
    15
100
AcDbLine
 10
307.680369602
 20
147.1220863254
 30
0.0
 11
307.680369602
 21
136.1220863255
 31
0.0
  0
LINE
  5
17B
330
1F
100
AcDbEntity
  8
0
  6
Continuous
 62
     8
370
    15
100
AcDbLine
 10
211.3975268892
 20
166.9892436126
 30
0.0
 11
211.3975268892
 21
165.7574608918
 31
0.0
  0
LINE
  5
17C
330
1F
100
AcDbEntity
  8
0
  6
Continuous
 62
     8
370
    15
100
AcDbLine
 10
211.3975268892
 20
106.4867117591
 30
0.0
 11
211.3975268892
 21
105.2549290383
 31
0.0
  0
LINE
  5
17D
330
1F
100
AcDbEntity
  8
0
  6
Continuous
 62
     8
370
    15
100
AcDbLine
 10
212.1632123143
 20
105.6744170262
 30
0.0
 11
212.1632123143
 21
104.4892436132
 31
0.0
  0
LINE
  5
17E
330
1F
100
AcDbEntity
  8
0
  6
Continuous
 62
     8
370
    15
100
AcDbLine
 10
212.1632123143
 20
167.7549290377
 30
0.0
 11
212.1632123143
 21
166.5900200351
 31
0.0
  0
DIMENSION
  5
17F
330
1F
100
AcDbEntity
  8
DIM
100
AcDbDimension
  2
_D
 10
308.0803696019
 20
98.6685883898
 30
0.0
 11
258.0803696019
 21
98.6685883898
 31
0.0
 70
   160
  1
<>
 71
     2
 42
-1.0
  3
SLDDIMSTYLE0
100
AcDbAlignedDimension
 13
208.080369602
 23
113.8970863255
 33
0.0
 14
308.0803696019
 24
125.5220863258
 34
0.0
100
AcDbRotatedDimension
  0
DIMENSION
  5
18A
330
1F
100
AcDbEntity
  8
DIM
100
AcDbDimension
  2
_D_1
 10
308.0803696019
 20
91.8720863254
 30
0.0
 11
223.880369602
 21
91.8720863254
 31
0.0
 70
   160
  1
<>
 71
     2
 42
-1.0
  3
SLDDIMSTYLE1
100
AcDbAlignedDimension
 13
139.6803696021
 23
136.1220863255
 33
0.0
 14
308.0803696019
 24
125.5220863258
 34
0.0
 50
0.0
100
AcDbRotatedDimension
  0
DIMENSION
  5
195
330
1F
100
AcDbEntity
  8
DIM
100
AcDbDimension
  2
_D_2
 10
317.2736467598
 20
125.1220863255
 30
0.0
 11
317.2736467598
 21
136.1220863255
 31
0.0
 70
   160
  1
%%c<>
 71
     2
 42
-1.0
  3
SLDDIMSTYLE2
100
AcDbAlignedDimension
 13
307.680369602
 23
147.1220863255
 33
0.0
 14
307.680369602
 24
125.1220863255
 34
0.0
 50
90.0
100
AcDbRotatedDimension
  0
DIMENSION
  5
1A3
330
1F
100
AcDbEntity
  8
DIM
100
AcDbDimension
  2
_D_3
 10
134.9353330336
 20
104.3720863255
 30
0.0
 11
134.9353330336
 21
136.1220863255
 31
0.0
 70
   160
  1
%%c<>
 71
     2
 42
-1.0
  3
SLDDIMSTYLE1
100
AcDbAlignedDimension
 13
212.446055027
 23
167.8720863255
 33
0.0
 14
212.446055027
 24
104.3720863255
 34
0.0
 50
90.0
100
AcDbRotatedDimension
  0
LINE
  5
1AE
330
1F
100
AcDbEntity
  8
DIM
  6
CENTERX2
 48
1.6
370
     0
100
AcDbLine
 10
136.3083017846
 20
136.1220863255
 30
0.0
 11
308.5558044091
 21
136.1220863255
 31
0.0
  0
ENDSEC
  0
SECTION
  2
OBJECTS
  0
DICTIONARY
  5
C
330
0
100
AcDbDictionary
281
     1
  3
ACAD_GROUP
350
D
  3
ACAD_LAYOUT
350
1A
  3
ACAD_MLINESTYLE
350
17
  3
ACAD_PLOTSETTINGS
350
19
  3
ACAD_PLOTSTYLENAME
350
E
  3
ACAD_SCALELIST
350
47
  0
DICTIONARY
  5
D
102
{ACAD_REACTORS
330
C
102
}
330
C
100
AcDbDictionary
281
     1
  0
DICTIONARY
  5
1A
102
{ACAD_REACTORS
330
C
102
}
330
C
100
AcDbDictionary
281
     1
  3
Layout1
350
1E
  3
Layout2
350
26
  3
Model
350
22
  0
DICTIONARY
  5
17
102
{ACAD_REACTORS
330
C
102
}
330
C
100
AcDbDictionary
281
     1
  3
Standard
350
18
  0
DICTIONARY
  5
19
102
{ACAD_REACTORS
330
C
102
}
330
C
100
AcDbDictionary
281
     1
  0
ACDBDICTIONARYWDFLT
  5
E
102
{ACAD_REACTORS
330
C
102
}
330
C
100
AcDbDictionary
281
     1
  3
Normal
350
F
100
AcDbDictionaryWithDefault
340
F
  0
DICTIONARY
  5
47
102
{ACAD_REACTORS
330
C
102
}
330
C
100
AcDbDictionary
281
     1
  3
A0
350
48
  3
A1
350
49
  3
A2
350
4A
  3
A3
350
4B
  3
A4
350
4C
  3
A5
350
4D
  3
A6
350
4E
  3
A7
350
4F
  3
A8
350
50
  3
A9
350
51
  3
B0
350
52
  3
B1
350
53
  3
B2
350
54
  3
B3
350
55
  3
B4
350
56
  3
B5
350
57
  3
B6
350
58
  3
B7
350
59
  3
B8
350
5A
  3
B9
350
5B
  3
C0
350
5C
  3
C1
350
5D
  3
C2
350
5E
  3
C3
350
5F
  3
C4
350
60
  3
C5
350
61
  3
C6
350
62
  3
C7
350
63
  3
C8
350
64
  3
C9
350
65
  3
D0
350
66
  3
D1
350
67
  3
D2
350
68
  0
LAYOUT
  5
1E
102
{ACAD_REACTORS
330
1A
102
}
330
1A
100
AcDbPlotSettings
  1

  2
none_device
  4

  6

 40
0.0
 41
0.0
 42
0.0
 43
0.0
 44
0.0
 45
0.0
 46
0.0
 47
0.0
 48
0.0
 49
0.0
140
0.0
141
0.0
142
1.0
143
1.0
 70
   688
 72
     1
 73
     0
 74
     5
  7

 75
    16
147
1.0
148
0.0
149
0.0
100
AcDbLayout
  1
Layout1
 70
     1
 71
     1
 10
0.0
 20
0.0
 11
420.0
 21
297.0
 12
0.0
 22
0.0
 32
0.0
 14
1.0000000000E+20
 24
1.0000000000E+20
 34
1.0000000000E+20
 15
-1.0000000000E+20
 25
-1.0000000000E+20
 35
-1.0000000000E+20
146
0.0
 13
0.0
 23
0.0
 33
0.0
 16
1.0
 26
0.0
 36
0.0
 17
0.0
 27
1.0
 37
0.0
 76
     0
330
1B
  0
LAYOUT
  5
26
102
{ACAD_REACTORS
330
1A
102
}
330
1A
100
AcDbPlotSettings
  1

  2
none_device
  4

  6

 40
0.0
 41
0.0
 42
0.0
 43
0.0
 44
0.0
 45
0.0
 46
0.0
 47
0.0
 48
0.0
 49
0.0
140
0.0
141
0.0
142
1.0
143
1.0
 70
   688
 72
     1
 73
     0
 74
     5
  7

 75
    16
147
1.0
148
0.0
149
0.0
100
AcDbLayout
  1
Layout2
 70
     1
 71
     2
 10
0.0
 20
0.0
 11
0.0
 21
0.0
 12
0.0
 22
0.0
 32
0.0
 14
0.0
 24
0.0
 34
0.0
 15
0.0
 25
0.0
 35
0.0
146
0.0
 13
0.0
 23
0.0
 33
0.0
 16
1.0
 26
0.0
 36
0.0
 17
0.0
 27
1.0
 37
0.0
 76
     0
330
23
  0
LAYOUT
  5
22
102
{ACAD_REACTORS
330
1A
102
}
330
1A
100
AcDbPlotSettings
  1

  2
none_device
  4
Letter_(8.50_x_11.00_Inches)
  6

 40
6.35
 41
6.35
 42
6.35000508
 43
6.35000508
 44
215.9
 45
279.4
 46
0.0
 47
0.0
 48
0.0
 49
0.0
140
0.0
141
0.0
142
1.0
143
1.0
 70
  1712
 72
     1
 73
     0
 74
     0
  7

 75
     0
147
1.0
148
0.0
149
0.0
100
AcDbLayout
  1
Model
 70
     1
 71
     0
 10
0.0
 20
0.0
 11
371.25
 21
262.5
 12
0.0
 22
0.0
 32
0.0
 14
0.0
 24
0.0
 34
0.0
 15
371.25
 25
262.5
 35
0.0
146
0.0
 13
0.0
 23
0.0
 33
0.0
 16
1.0
 26
0.0
 36
0.0
 17
0.0
 27
1.0
 37
0.0
 76
     0
330
1F
331
29
  0
MLINESTYLE
  5
18
102
{ACAD_REACTORS
330
17
102
}
330
17
100
AcDbMlineStyle
  2
Standard
 70
     0
  3

 62
   256
 51
90.0
 52
90.0
 71
     2
 49
0.5
 62
   256
  6
BYLAYER
 49
-0.5
 62
   256
  6
BYLAYER
  0
ACDBPLACEHOLDER
  5
F
102
{ACAD_REACTORS
330
E
102
}
330
E
  0
SCALE
  5
48
102
{ACAD_REACTORS
330
47
102
}
330
47
100
AcDbScale
 70
     0
300
1:1
140
1.0
141
1.0
290
     1
  0
SCALE
  5
49
102
{ACAD_REACTORS
330
47
102
}
330
47
100
AcDbScale
 70
     0
300
1:2
140
1.0
141
2.0
290
     0
  0
SCALE
  5
4A
102
{ACAD_REACTORS
330
47
102
}
330
47
100
AcDbScale
 70
     0
300
1:4
140
1.0
141
4.0
290
     0
  0
SCALE
  5
4B
102
{ACAD_REACTORS
330
47
102
}
330
47
100
AcDbScale
 70
     0
300
1:5
140
1.0
141
5.0
290
     0
  0
SCALE
  5
4C
102
{ACAD_REACTORS
330
47
102
}
330
47
100
AcDbScale
 70
     0
300
1:8
140
1.0
141
8.0
290
     0
  0
SCALE
  5
4D
102
{ACAD_REACTORS
330
47
102
}
330
47
100
AcDbScale
 70
     0
300
1:10
140
1.0
141
10.0
290
     0
  0
SCALE
  5
4E
102
{ACAD_REACTORS
330
47
102
}
330
47
100
AcDbScale
 70
     0
300
1:16
140
1.0
141
16.0
290
     0
  0
SCALE
  5
4F
102
{ACAD_REACTORS
330
47
102
}
330
47
100
AcDbScale
 70
     0
300
1:20
140
1.0
141
20.0
290
     0
  0
SCALE
  5
50
102
{ACAD_REACTORS
330
47
102
}
330
47
100
AcDbScale
 70
     0
300
1:30
140
1.0
141
30.0
290
     0
  0
SCALE
  5
51
102
{ACAD_REACTORS
330
47
102
}
330
47
100
AcDbScale
 70
     0
300
1:40
140
1.0
141
40.0
290
     0
  0
SCALE
  5
52
102
{ACAD_REACTORS
330
47
102
}
330
47
100
AcDbScale
 70
     0
300
1:50
140
1.0
141
50.0
290
     0
  0
SCALE
  5
53
102
{ACAD_REACTORS
330
47
102
}
330
47
100
AcDbScale
 70
     0
300
1:100
140
1.0
141
100.0
290
     0
  0
SCALE
  5
54
102
{ACAD_REACTORS
330
47
102
}
330
47
100
AcDbScale
 70
     0
300
2:1
140
2.0
141
1.0
290
     0
  0
SCALE
  5
55
102
{ACAD_REACTORS
330
47
102
}
330
47
100
AcDbScale
 70
     0
300
4:1
140
4.0
141
1.0
290
     0
  0
SCALE
  5
56
102
{ACAD_REACTORS
330
47
102
}
330
47
100
AcDbScale
 70
     0
300
8:1
140
8.0
141
1.0
290
     0
  0
SCALE
  5
57
102
{ACAD_REACTORS
330
47
102
}
330
47
100
AcDbScale
 70
     0
300
10:1
140
10.0
141
1.0
290
     0
  0
SCALE
  5
58
102
{ACAD_REACTORS
330
47
102
}
330
47
100
AcDbScale
 70
     0
300
100:1
140
100.0
141
1.0
290
     0
  0
SCALE
  5
59
102
{ACAD_REACTORS
330
47
102
}
330
47
100
AcDbScale
 70
     0
300
1/128" = 1'-0"
140
0.0078125
141
12.0
290
     0
  0
SCALE
  5
5A
102
{ACAD_REACTORS
330
47
102
}
330
47
100
AcDbScale
 70
     0
300
1/64" = 1'-0"
140
0.015625
141
12.0
290
     0
  0
SCALE
  5
5B
102
{ACAD_REACTORS
330
47
102
}
330
47
100
AcDbScale
 70
     0
300
1/32" = 1'-0"
140
0.03125
141
12.0
290
     0
  0
SCALE
  5
5C
102
{ACAD_REACTORS
330
47
102
}
330
47
100
AcDbScale
 70
     0
300
1/16" = 1'-0"
140
0.0625
141
12.0
290
     0
  0
SCALE
  5
5D
102
{ACAD_REACTORS
330
47
102
}
330
47
100
AcDbScale
 70
     0
300
3/32" = 1'-0"
140
0.09375
141
12.0
290
     0
  0
SCALE
  5
5E
102
{ACAD_REACTORS
330
47
102
}
330
47
100
AcDbScale
 70
     0
300
1/8" = 1'-0"
140
0.125
141
12.0
290
     0
  0
SCALE
  5
5F
102
{ACAD_REACTORS
330
47
102
}
330
47
100
AcDbScale
 70
     0
300
3/16" = 1'-0"
140
0.1875
141
12.0
290
     0
  0
SCALE
  5
60
102
{ACAD_REACTORS
330
47
102
}
330
47
100
AcDbScale
 70
     0
300
1/4" = 1'-0"
140
0.25
141
12.0
290
     0
  0
SCALE
  5
61
102
{ACAD_REACTORS
330
47
102
}
330
47
100
AcDbScale
 70
     0
300
3/8" = 1'-0"
140
0.375
141
12.0
290
     0
  0
SCALE
  5
62
102
{ACAD_REACTORS
330
47
102
}
330
47
100
AcDbScale
 70
     0
300
1/2" = 1'-0"
140
0.5
141
12.0
290
     0
  0
SCALE
  5
63
102
{ACAD_REACTORS
330
47
102
}
330
47
100
AcDbScale
 70
     0
300
3/4" = 1'-0"
140
0.75
141
12.0
290
     0
  0
SCALE
  5
64
102
{ACAD_REACTORS
330
47
102
}
330
47
100
AcDbScale
 70
     0
300
1" = 1'-0"
140
1.0
141
12.0
290
     0
  0
SCALE
  5
65
102
{ACAD_REACTORS
330
47
102
}
330
47
100
AcDbScale
 70
     0
300
1-1/2" = 1'-0"
140
1.5
141
12.0
290
     0
  0
SCALE
  5
66
102
{ACAD_REACTORS
330
47
102
}
330
47
100
AcDbScale
 70
     0
300
3" = 1'-0"
140
3.0
141
12.0
290
     0
  0
SCALE
  5
67
102
{ACAD_REACTORS
330
47
102
}
330
47
100
AcDbScale
 70
     0
300
6" = 1'-0"
140
6.0
141
12.0
290
     0
  0
SCALE
  5
68
102
{ACAD_REACTORS
330
47
102
}
330
47
100
AcDbScale
 70
     0
300
1'-0" = 1'-0"
140
12.0
141
12.0
290
     0
  0
ENDSEC
  0
EOF
