  0
SECTION
  2
HEADER
  9
$ACADVER
  1
AC1015
  9
$ACADMAINTVER
 70
     6
  9
$DWGCODEPAGE
  3
ANSI_1252
  9
$INSBASE
 10
0.0
 20
0.0
 30
0.0
  9
$EXTMIN
 10
0.0
 20
0.0
 30
0.0
  9
$EXTMAX
 10
424.2857142857
 20
300.0
 30
0.0
  9
$LIMMIN
 10
0.0
 20
0.0
  9
$LIMMAX
 10
424.2857142857
 20
300.0
  9
$ORTHOMODE
 70
     0
  9
$REGENMODE
 70
     1
  9
$FILLMODE
 70
     1
  9
$QTEXTMODE
 70
     0
  9
$MIRRTEXT
 70
     1
  9
$LTSCALE
 40
1.4285714286
  9
$ATTMODE
 70
     1
  9
$TEXTSIZE
 40
5.5436507937
  9
$TRACEWID
 40
1.0
  9
$TEXTSTYLE
  7
Standard
  9
$CLAYER
  8
0
  9
$CELTYPE
  6
ByLayer
  9
$CECOLOR
 62
   256
  9
$CELTSCALE
 40
1.0
  9
$DISPSILH
 70
     0
  9
$DIMSCALE
 40
1.0
  9
$DIMASZ
 40
4.7171428571
  9
$DIMEXO
 40
1.4285714286
  9
$DIMDLI
 40
3.75
  9
$DIMRND
 40
0.0
  9
$DIMDLE
 40
0.0
  9
$DIMEXE
 40
1.4285714286
  9
$DIMTP
 40
0.0
  9
$DIMTM
 40
0.0
  9
$DIMTXT
 40
5.5436507937
  9
$DIMCEN
 40
2.5
  9
$DIMTSZ
 40
0.0
  9
$DIMTOL
 70
     0
  9
$DIMLIM
 70
     0
  9
$DIMTIH
 70
     1
  9
$DIMTOH
 70
     1
  9
$DIMSE1
 70
     0
  9
$DIMSE2
 70
     0
  9
$DIMTAD
 70
     1
  9
$DIMZIN
 70
     0
  9
$DIMBLK
  1

  9
$DIMASO
 70
     1
  9
$DIMSHO
 70
     1
  9
$DIMPOST
  1

  9
$DIMAPOST
  1

  9
$DIMALT
 70
     0
  9
$DIMALTD
 70
     3
  9
$DIMALTF
 40
0.0393700787
  9
$DIMLFAC
 40
1.0
  9
$DIMTOFL
 70
     1
  9
$DIMTVP
 40
0.0
  9
$DIMTIX
 70
     0
  9
$DIMSOXD
 70
     0
  9
$DIMSAH
 70
     0
  9
$DIMBLK1
  1

  9
$DIMBLK2
  1

  9
$DIMSTYLE
  2
ISO-25
  9
$DIMCLRD
 70
     0
  9
$DIMCLRE
 70
     0
  9
$DIMCLRT
 70
     0
  9
$DIMTFAC
 40
1.0
  9
$DIMGAP
 40
2.1771428571
  9
$DIMJUST
 70
     0
  9
$DIMSD1
 70
     0
  9
$DIMSD2
 70
     0
  9
$DIMTOLJ
 70
     0
  9
$DIMTZIN
 70
     0
  9
$DIMALTZ
 70
     0
  9
$DIMALTTZ
 70
     0
  9
$DIMUPT
 70
     0
  9
$DIMDEC
 70
     2
  9
$DIMTDEC
 70
     2
  9
$DIMALTU
 70
     2
  9
$DIMALTTD
 70
     3
  9
$DIMTXSTY
  7
Standard
  9
$DIMAUNIT
 70
     0
  9
$DIMADEC
 70
     2
  9
$DIMALTRND
 40
0.0
  9
$DIMAZIN
 70
     0
  9
$DIMDSEP
 70
    44
  9
$DIMATFIT
 70
     3
  9
$DIMFRAC
 70
     0
  9
$DIMLDRBLK
  1

  9
$DIMLUNIT
 70
     2
  9
$DIMLWD
 70
    -2
  9
$DIMLWE
 70
    -2
  9
$DIMTMOVE
 70
     0
  9
$LUNITS
 70
     2
  9
$LUPREC
 70
     2
  9
$SKETCHINC
 40
1.0
  9
$FILLETRAD
 40
10.0
  9
$AUNITS
 70
     1
  9
$AUPREC
 70
     2
  9
$MENU
  1
.
  9
$ELEVATION
 40
0.0
  9
$PELEVATION
 40
0.0
  9
$THICKNESS
 40
0.0
  9
$LIMCHECK
 70
     0
  9
$CHAMFERA
 40
0.0
  9
$CHAMFERB
 40
0.0
  9
$CHAMFERC
 40
0.0
  9
$CHAMFERD
 40
0.0
  9
$SKPOLY
 70
     0
  9
$TDCREATE
 40
2458601.416468796
  9
$TDUCREATE
 40
2458601.18730213
  9
$TDUPDATE
 40
2458601.416469838
  9
$TDUUPDATE
 40
2458601.187303171
  9
$TDINDWG
 40
0.0000000116
  9
$TDUSRTIMER
 40
0.0000000116
  9
$USRTIMER
 70
     1
  9
$ANGBASE
 50
0.0
  9
$ANGDIR
 70
     0
  9
$PDMODE
 70
     0
  9
$PDSIZE
 40
-1.0
  9
$PLINEWID
 40
0.0
  9
$SPLFRAME
 70
     0
  9
$SPLINETYPE
 70
     6
  9
$SPLINESEGS
 70
     8
  9
$HANDSEED
  5
1AF
  9
$SURFTAB1
 70
     6
  9
$SURFTAB2
 70
     6
  9
$SURFTYPE
 70
     6
  9
$SURFU
 70
     6
  9
$SURFV
 70
     6
  9
$UCSBASE
  2

  9
$UCSNAME
  2

  9
$UCSORG
 10
0.0
 20
0.0
 30
0.0
  9
$UCSXDIR
 10
1.0
 20
0.0
 30
0.0
  9
$UCSYDIR
 10
0.0
 20
1.0
 30
0.0
  9
$UCSORTHOREF
  2

  9
$UCSORTHOVIEW
 70
     0
  9
$UCSORGTOP
 10
0.0
 20
0.0
 30
0.0
  9
$UCSORGBOTTOM
 10
0.0
 20
0.0
 30
0.0
  9
$UCSORGLEFT
 10
0.0
 20
0.0
 30
0.0
  9
$UCSORGRIGHT
 10
0.0
 20
0.0
 30
0.0
  9
$UCSORGFRONT
 10
0.0
 20
0.0
 30
0.0
  9
$UCSORGBACK
 10
0.0
 20
0.0
 30
0.0
  9
$PUCSBASE
  2

  9
$PUCSNAME
  2

  9
$PUCSORG
 10
0.0
 20
0.0
 30
0.0
  9
$PUCSXDIR
 10
1.0
 20
0.0
 30
0.0
  9
$PUCSYDIR
 10
0.0
 20
1.0
 30
0.0
  9
$PUCSORTHOREF
  2

  9
$PUCSORTHOVIEW
 70
     0
  9
$PUCSORGTOP
 10
0.0
 20
0.0
 30
0.0
  9
$PUCSORGBOTTOM
 10
0.0
 20
0.0
 30
0.0
  9
$PUCSORGLEFT
 10
0.0
 20
0.0
 30
0.0
  9
$PUCSORGRIGHT
 10
0.0
 20
0.0
 30
0.0
  9
$PUCSORGFRONT
 10
0.0
 20
0.0
 30
0.0
  9
$PUCSORGBACK
 10
0.0
 20
0.0
 30
0.0
  9
$USERI1
 70
     0
  9
$USERI2
 70
     0
  9
$USERI3
 70
     0
  9
$USERI4
 70
     0
  9
$USERI5
 70
     0
  9
$USERR1
 40
0.0
  9
$USERR2
 40
0.0
  9
$USERR3
 40
0.0
  9
$USERR4
 40
0.0
  9
$USERR5
 40
0.0
  9
$WORLDVIEW
 70
     1
  9
$SHADEDGE
 70
     3
  9
$SHADEDIF
 70
    70
  9
$TILEMODE
 70
     1
  9
$MAXACTVP
 70
    64
  9
$PINSBASE
 10
0.0
 20
0.0
 30
0.0
  9
$PLIMCHECK
 70
     0
  9
$PEXTMIN
 10
1.0000000000E+20
 20
1.0000000000E+20
 30
1.0000000000E+20
  9
$PEXTMAX
 10
-1.0000000000E+20
 20
-1.0000000000E+20
 30
-1.0000000000E+20
  9
$PLIMMIN
 10
0.0
 20
0.0
  9
$PLIMMAX
 10
420.0
 20
297.0
  9
$UNITMODE
 70
     0
  9
$VISRETAIN
 70
     1
  9
$PLINEGEN
 70
     0
  9
$PSLTSCALE
 70
     1
  9
$TREEDEPTH
 70
  3020
  9
$CMLSTYLE
  2
Standard
  9
$CMLJUST
 70
     0
  9
$CMLSCALE
 40
20.0
  9
$PROXYGRAPHICS
 70
     1
  9
$MEASUREMENT
 70
     1
  9
$CELWEIGHT
370
    -1
  9
$ENDCAPS
280
     0
  9
$JOINSTYLE
280
     0
  9
$LWDISPLAY
290
     1
  9
$INSUNITS
 70
     4
  9
$HYPERLINKBASE
  1

  9
$STYLESHEET
  1

  9
$XEDIT
290
     1
  9
$CEPSNTYPE
380
     0
  9
$PSTYLEMODE
290
     1
  9
$FINGERPRINTGUID
  2
{6853A851-6AAD-43AB-9C9C-3FE8685510DC}
  9
$VERSIONGUID
  2
{FAEB1C32-E019-11D5-929B-00C0DF256EC4}
  9
$EXTNAMES
290
     1
  9
$PSVPSCALE
 40
0.0
  9
$OLESTARTUP
290
     0
  0
ENDSEC
  0
SECTION
  2
CLASSES
  0
CLASS
  1
ACDBDICTIONARYWDFLT
  2
AcDbDictionaryWithDefault
  3
ObjectDBX Classes
 90
        0
280
     0
281
     0
  0
CLASS
  1
VISUALSTYLE
  2
AcDbVisualStyle
  3
ObjectDBX Classes
 90
     4095
280
     0
281
     0
  0
CLASS
  1
MATERIAL
  2
AcDbMaterial
  3
ObjectDBX Classes
 90
     1153
280
     0
281
     0
  0
CLASS
  1
SCALE
  2
AcDbScale
  3
ObjectDBX Classes
 90
     1153
280
     0
281
     0
  0
CLASS
  1
SUN
  2
AcDbSun
  3
SCENEOE
 90
     1153
280
     0
281
     0
  0
CLASS
  1
ACDBPLACEHOLDER
  2
AcDbPlaceHolder
  3
ObjectDBX Classes
 90
        0
280
     0
281
     0
  0
CLASS
  1
LAYOUT
  2
AcDbLayout
  3
ObjectDBX Classes
 90
        0
280
     0
281
     0
  0
ENDSEC
  0
SECTION
  2
TABLES
  0
TABLE
  2
VPORT
  5
8
330
0
100
AcDbSymbolTable
 70
     1
  0
VPORT
  5
29
330
8
100
AcDbSymbolTableRecord
100
AcDbViewportTableRecord
  2
*Active
 70
     0
 10
0.0
 20
0.0
 11
1.0
 21
1.0
 12
212.1428571429
 22
150.0
 13
0.0
 23
0.0
 14
10.0
 24
10.0
 15
10.0
 25
10.0
 16
0.0
 26
0.0
 36
1.0
 17
0.0
 27
0.0
 37
0.0
 40
300.0
 41
1.4142857143
 42
50.0
 43
0.0
 44
0.0
 50
0.0
 51
0.0
 71
     0
 72
  2000
 73
     1
 74
     3
 75
     0
 76
     0
 77
     0
 78
     0
281
     0
 65
     1
110
0.0
120
0.0
130
0.0
111
1.0
121
0.0
131
0.0
112
0.0
122
1.0
132
0.0
 79
     0
146
0.0
  0
ENDTAB
  0
TABLE
  2
LTYPE
  5
5
330
0
100
AcDbSymbolTable
 70
     6
  0
LTYPE
  5
14
330
5
100
AcDbSymbolTableRecord
100
AcDbLinetypeTableRecord
  2
ByBlock
 70
     0
  3

 72
    65
 73
     0
 40
0.0
  0
LTYPE
  5
15
330
5
100
AcDbSymbolTableRecord
100
AcDbLinetypeTableRecord
  2
ByLayer
 70
     0
  3

 72
    65
 73
     0
 40
0.0
  0
LTYPE
  5
16
330
5
100
AcDbSymbolTableRecord
100
AcDbLinetypeTableRecord
  2
Continuous
 70
     0
  3
Solid line
 72
    65
 73
     0
 40
0.0
  0
LTYPE
  5
6A
330
5
100
AcDbSymbolTableRecord
100
AcDbLinetypeTableRecord
  2
HIDDEN
 70
     0
  3
Hidden __ __ __ __ __ __ __ __ __ __ __ __ __ __
 72
    65
 73
     2
 40
1.905
 49
1.27
 74
     0
 49
-0.635
 74
     0
  0
LTYPE
  5
6B
330
5
100
AcDbSymbolTableRecord
100
AcDbLinetypeTableRecord
  2
PHANTOM
 70
     0
  3
Phantom ______  __  __  ______  __  __  ______
 72
    65
 73
     6
 40
12.7
 49
6.35
 74
     0
 49
-1.27
 74
     0
 49
1.27
 74
     0
 49
-1.27
 74
     0
 49
1.27
 74
     0
 49
-1.27
 74
     0
  0
LTYPE
  5
6C
330
5
100
AcDbSymbolTableRecord
100
AcDbLinetypeTableRecord
  2
CENTER
 70
     0
  3
Center ____ _ ____ _ ____ _ ____ _ ____ _ ____
 72
    65
 73
     4
 40
10.16
 49
6.35
 74
     0
 49
-1.27
 74
     0
 49
1.27
 74
     0
 49
-1.27
 74
     0
  0
LTYPE
  5
6D
330
5
100
AcDbSymbolTableRecord
100
AcDbLinetypeTableRecord
  2
CENTERX2
 70
     0
  3
Center (2x) ________  __  ________  __  _____
 72
    65
 73
     4
 40
20.32
 49
12.7
 74
     0
 49
-2.54
 74
     0
 49
2.54
 74
     0
 49
-2.54
 74
     0
  0
LTYPE
  5
6E
330
5
100
AcDbSymbolTableRecord
100
AcDbLinetypeTableRecord
  2
DOT2
 70
     0
  3
Dot (.5x) ........................................
 72
    65
 73
     2
 40
0.635
 49
0.0
 74
     0
 49
-0.635
 74
     0
  0
ENDTAB
  0
TABLE
  2
LAYER
  5
2
330
0
100
AcDbSymbolTable
 70
     8
  0
LAYER
  5
10
330
2
100
AcDbSymbolTableRecord
100
AcDbLayerTableRecord
  2
0
 70
     0
 62
     7
  6
Continuous
370
    -3
390
F
  0
LAYER
  5
6F
330
2
100
AcDbSymbolTableRecord
100
AcDbLayerTableRecord
  2
FORMAT
 70
     0
 62
     7
  6
Continuous
370
    -3
390
F
  0
LAYER
  5
70
330
2
100
AcDbSymbolTableRecord
100
AcDbLayerTableRecord
  2
SLD-0
 70
     0
 62
     2
  6
Continuous
370
    -3
390
F
  0
LAYER
  5
71
330
2
100
AcDbSymbolTableRecord
100
AcDbLayerTableRecord
  2
DIM
 70
     0
 62
   179
  6
Continuous
370
    -3
390
F
  0
LAYER
  5
72
330
2
100
AcDbSymbolTableRecord
100
AcDbLayerTableRecord
  2
SLD-DEFPOINTS
 70
     0
 62
   179
  6
Continuous
370
    -3
390
F
  0
LAYER
  5
73
330
2
100
AcDbSymbolTableRecord
100
AcDbLayerTableRecord
  2
HAT
 70
     0
 62
   135
  6
Continuous
370
    -3
390
F
  0
LAYER
  5
74
330
2
100
AcDbSymbolTableRecord
100
AcDbLayerTableRecord
  2
JOB
 70
     0
 62
   201
  6
Continuous
370
    -3
390
F
  0
LAYER
  5
75
330
2
100
AcDbSymbolTableRecord
100
AcDbLayerTableRecord
  2
INSPECTION_REPORT
 70
     0
 62
   255
  6
Continuous
370
    -3
390
F
  0
ENDTAB
  0
TABLE
  2
STYLE
  5
3
330
0
100
AcDbSymbolTable
 70
     4
  0
STYLE
  5
11
330
3
100
AcDbSymbolTableRecord
100
AcDbTextStyleTableRecord
  2
Standard
 70
     0
 40
0.0
 41
1.0
 50
0.0
 71
     0
 42
5.5436507937
  3
txt
  4

  0
STYLE
  5
96
330
3
100
AcDbSymbolTableRecord
100
AcDbTextStyleTableRecord
  2
SLDTEXTSTYLE0
 70
     0
 40
0.0
 41
0.7
 50
0.0
 71
     0
 42
5.5436507937
  3
TXT
  4

  0
STYLE
  5
98
330
3
100
AcDbSymbolTableRecord
100
AcDbTextStyleTableRecord
  2
SLDTEXTSTYLE1
 70
     0
 40
0.0
 41
0.75
 50
0.0
 71
     0
 42
5.5436507937
  3
TXT
  4

  0
STYLE
  5
AB
330
3
100
AcDbSymbolTableRecord
100
AcDbTextStyleTableRecord
  2
SLDTEXTSTYLE2
 70
     0
 40
0.0
 41
0.6875
 50
0.0
 71
     0
 42
5.5436507937
  3
TXT
  4

  0
ENDTAB
  0
TABLE
  2
VIEW
  5
6
330
0
100
AcDbSymbolTable
 70
     0
  0
ENDTAB
  0
TABLE
  2
UCS
  5
7
330
0
100
AcDbSymbolTable
 70
     0
  0
ENDTAB
  0
TABLE
  2
APPID
  5
9
330
0
100
AcDbSymbolTable
 70
     1
  0
APPID
  5
12
330
9
100
AcDbSymbolTableRecord
100
AcDbRegAppTableRecord
  2
ACAD
 70
     0
  0
ENDTAB
  0
TABLE
  2
DIMSTYLE
  5
A
330
0
100
AcDbSymbolTable
 70
     4
100
AcDbDimStyleTable
  0
DIMSTYLE
105
27
330
A
100
AcDbSymbolTableRecord
100
AcDbDimStyleTableRecord
  2
ISO-25
 70
     0
 41
2.5
 42
0.625
 43
3.75
 44
1.25
 73
     0
 74
     0
 77
     1
 78
     8
140
2.5
141
2.5
143
0.0393700787
147
0.625
171
     3
172
     1
178
     0
271
     2
272
     2
274
     3
278
    44
283
     0
284
     8
340
11
  0
DIMSTYLE
105
180
102
{ACAD_REACTORS
330
17F
330
195
102
}
330
A
100
AcDbSymbolTableRecord
100
AcDbDimStyleTableRecord
  2
SLDDIMSTYLE0
 70
     0
 41
4.7171428571
 44
0.0
 45
0.000000001
 73
     0
 74
     0
 77
     1
 78
     4
 79
     1
140
4.1577380952
147
1.0394345238
173
     1
178
     0
271
     2
272
     2
276
     2
284
    12
340
96
  0
DIMSTYLE
105
18B
102
{ACAD_REACTORS
330
18A
102
}
330
A
100
AcDbSymbolTableRecord
100
AcDbDimStyleTableRecord
  2
SLDDIMSTYLE1
 70
     0
 41
4.7171428571
 44
0.0
 45
0.000000001
 73
     0
 74
     0
 77
     1
 78
    12
 79
     3
140
4.1577380952
147
1.0394345238
173
     1
178
     0
271
     2
272
     2
276
     2
284
    12
340
96
  0
DIMSTYLE
105
1A1
102
{ACAD_REACTORS
330
1A0
102
}
330
A
100
AcDbSymbolTableRecord
100
AcDbDimStyleTableRecord
  2
SLDDIMSTYLE2
 70
     0
 41
4.7171428571
 44
0.0
 45
0.000000001
 73
     0
 74
     0
 77
     1
 78
    12
 79
     3
140
4.1577380952
147
1.0394345238
172
     1
173
     1
178
     0
271
     2
272
     2
276
     2
284
    12
289
     0
340
96
  0
ENDTAB
  0
TABLE
  2
BLOCK_RECORD
  5
1
330
0
100
AcDbSymbolTable
 70
     6
  0
BLOCK_RECORD
  5
1F
330
1
100
AcDbSymbolTableRecord
100
AcDbBlockTableRecord
  2
*Model_Space
340
22
  0
BLOCK_RECORD
  5
1B
330
1
100
AcDbSymbolTableRecord
100
AcDbBlockTableRecord
  2
*Paper_Space
340
1E
  0
BLOCK_RECORD
  5
23
330
1
100
AcDbSymbolTableRecord
100
AcDbBlockTableRecord
  2
*Paper_Space0
340
26
  0
BLOCK_RECORD
  5
F8
330
1
100
AcDbSymbolTableRecord
100
AcDbBlockTableRecord
  2
SW_CENTERMARKSYMBOL_0
340
0
102
{BLKREFS
331
103
102
}
  0
BLOCK_RECORD
  5
181
330
1
100
AcDbSymbolTableRecord
100
AcDbBlockTableRecord
  2
_D
340
0
  0
BLOCK_RECORD
  5
18C
330
1
100
AcDbSymbolTableRecord
100
AcDbBlockTableRecord
  2
_D_1
340
0
  0
BLOCK_RECORD
  5
196
330
1
100
AcDbSymbolTableRecord
100
AcDbBlockTableRecord
  2
_D_2
340
0
  0
BLOCK_RECORD
  5
1A2
330
1
100
AcDbSymbolTableRecord
100
AcDbBlockTableRecord
  2
_D_3
340
0
  0
ENDTAB
  0
ENDSEC
  0
SECTION
  2
BLOCKS
  0
BLOCK
  5
20
330
1F
100
AcDbEntity
  8
0
100
AcDbBlockBegin
  2
*Model_Space
 70
     0
 10
0.0
 20
0.0
 30
0.0
  3
*Model_Space
  1
*Model_Space
  0
ENDBLK
  5
21
330
1F
100
AcDbEntity
  8
0
100
AcDbBlockEnd
  0
BLOCK
  5
1C
330
1B
100
AcDbEntity
 67
     1
  8
0
100
AcDbBlockBegin
  2
*Paper_Space
 70
     0
 10
0.0
 20
0.0
 30
0.0
  3
*Paper_Space
  1
*Paper_Space
  0
ENDBLK
  5
1D
330
1B
100
AcDbEntity
 67
     1
  8
0
100
AcDbBlockEnd
  0
BLOCK
  5
24
330
23
100
AcDbEntity
  8
0
100
AcDbBlockBegin
  2
*Paper_Space0
 70
     0
 10
0.0
 20
0.0
 30
0.0
  3
*Paper_Space0
  1
*Paper_Space0
  0
ENDBLK
  5
25
330
23
100
AcDbEntity
  8
0
100
AcDbBlockEnd
  0
BLOCK
  5
F9
330
F8
100
AcDbEntity
  8
0
100
AcDbBlockBegin
  2
SW_CENTERMARKSYMBOL_0
 70
     0
 10
0.0
 20
0.0
 30
0.0
  3
SW_CENTERMARKSYMBOL_0
  1
SW_CENTERMARKSYMBOL_0
  0
LINE
  5
FB
330
F8
100
AcDbEntity
  8
DIM
 62
     0
100
AcDbLine
 10
0.0
 20
0.0
 30
0.0
 11
0.0
 21
2.5
 31
0.0
  0
LINE
  5
FC
330
F8
100
AcDbEntity
  8
DIM
 62
     0
100
AcDbLine
 10
0.0
 20
0.0
 30
0.0
 11
-2.5
 21
0.0
 31
0.0
  0
LINE
  5
FD
330
F8
100
AcDbEntity
  8
DIM
 62
     0
100
AcDbLine
 10
0.0
 20
0.0
 30
0.0
 11
0.0
 21
-2.5
 31
0.0
  0
LINE
  5
FE
330
F8
100
AcDbEntity
  8
DIM
 62
     0
100
AcDbLine
 10
0.0
 20
0.0
 30
0.0
 11
2.5
 21
0.0
 31
0.0
  0
LINE
  5
FF
330
F8
100
AcDbEntity
  8
DIM
 62
     0
100
AcDbLine
 10
0.0
 20
5.0
 30
0.0
 11
0.0
 21
34.25
 31
0.0
  0
LINE
  5
100
330
F8
100
AcDbEntity
  8
DIM
 62
     0
100
AcDbLine
 10
-5.0
 20
0.0
 30
0.0
 11
-34.25
 21
0.0
 31
0.0
  0
LINE
  5
101
330
F8
100
AcDbEntity
  8
DIM
 62
     0
100
AcDbLine
 10
0.0
 20
-5.0
 30
0.0
 11
0.0
 21
-34.25
 31
0.0
  0
LINE
  5
102
330
F8
100
AcDbEntity
  8
DIM
 62
     0
100
AcDbLine
 10
5.0
 20
0.0
 30
0.0
 11
34.25
 21
0.0
 31
0.0
  0
ENDBLK
  5
FA
330
F8
100
AcDbEntity
  8
0
100
AcDbBlockEnd
  0
BLOCK
  5
182
330
181
100
AcDbEntity
  8
0
100
AcDbBlockBegin
  2
_D
 70
     0
 10
0.0
 20
0.0
 30
0.0
  3
_D
  1
_D
  0
SOLID
  5
184
330
181
100
AcDbEntity
  8
DIM
100
AcDbTrace
 10
153.3446689033
 20
100.9609558005
 30
0.0
 11
158.0618117604
 21
100.2352415148
 31
0.0
 12
158.0618117604
 22
101.6866700862
 32
0.0
 13
158.0618117604
 23
101.6866700862
 33
0.0
  0
SOLID
  5
185
330
181
100
AcDbEntity
  8
DIM
100
AcDbTrace
 10
381.744668903
 20
100.9609558005
 30
0.0
 11
377.0275260459
 21
101.6866700862
 31
0.0
 12
377.0275260459
 22
100.2352415148
 32
0.0
 13
377.0275260459
 23
100.2352415148
 33
0.0
  0
LINE
  5
186
330
181
100
AcDbEntity
  8
DIM
100
AcDbLine
 10
153.3446689033
 20
154.1395272291
 30
0.0
 11
153.3446689033
 21
99.5323843719
 31
0.0
  0
LINE
  5
187
330
181
100
AcDbEntity
  8
DIM
100
AcDbLine
 10
381.744668903
 20
143.5395272294
 30
0.0
 11
381.744668903
 21
99.5323843719
 31
0.0
  0
LINE
  5
188
330
181
100
AcDbEntity
  8
DIM
100
AcDbLine
 10
153.3446689033
 20
100.9609558005
 30
0.0
 11
381.744668903
 21
100.9609558005
 31
0.0
  0
MTEXT
  5
189
330
181
100
AcDbEntity
  8
DIM
100
AcDbMText
 10
259.7797077318
 20
106.3205621821
 30
0.0
 40
4.1577380952
 41
0.0
 71
     1
 72
     1
  1
228.40
  7
SLDTEXTSTYLE0
 73
     1
 44
1.0
  0
ENDBLK
  5
183
330
181
100
AcDbEntity
  8
0
100
AcDbBlockEnd
  0
BLOCK
  5
18D
330
18C
100
AcDbEntity
  8
0
100
AcDbBlockBegin
  2
_D_1
 70
     0
 10
0.0
 20
0.0
 30
0.0
  3
_D_1
  1
_D_1
  0
SOLID
  5
18F
330
18C
100
AcDbEntity
  8
DIM
100
AcDbTrace
 10
221.7446689031
 20
111.5424238753
 30
0.0
 11
226.4618117603
 21
110.8167095896
 31
0.0
 12
226.4618117603
 22
112.2681381611
 32
0.0
 13
226.4618117603
 23
112.2681381611
 33
0.0
  0
SOLID
  5
190
330
18C
100
AcDbEntity
  8
DIM
100
AcDbTrace
 10
381.744668903
 20
111.5424238753
 30
0.0
 11
377.0275260459
 21
112.2681381611
 31
0.0
 12
377.0275260459
 22
110.8167095896
 32
0.0
 13
377.0275260459
 23
110.8167095896
 33
0.0
  0
LINE
  5
191
330
18C
100
AcDbEntity
  8
DIM
100
AcDbLine
 10
221.7446689031
 20
131.9145272291
 30
0.0
 11
221.7446689031
 21
110.1138524468
 31
0.0
  0
LINE
  5
192
330
18C
100
AcDbEntity
  8
DIM
100
AcDbLine
 10
381.744668903
 20
143.5395272294
 30
0.0
 11
381.744668903
 21
110.1138524468
 31
0.0
  0
LINE
  5
193
330
18C
100
AcDbEntity
  8
DIM
100
AcDbLine
 10
221.7446689031
 20
111.5424238753
 30
0.0
 11
381.744668903
 21
111.5424238753
 31
0.0
  0
MTEXT
  5
194
330
18C
100
AcDbEntity
  8
DIM
100
AcDbMText
 10
297.529184285
 20
116.9020302569
 30
0.0
 40
4.1577380952
 41
0.0
 71
     1
 72
     1
  1
160
  7
SLDTEXTSTYLE0
 73
     1
 44
1.0
  0
ENDBLK
  5
18E
330
18C
100
AcDbEntity
  8
0
100
AcDbBlockEnd
  0
BLOCK
  5
197
330
196
100
AcDbEntity
  8
0
100
AcDbBlockBegin
  2
_D_2
 70
     0
 10
0.0
 20
0.0
 30
0.0
  3
_D_2
  1
_D_2
  0
SOLID
  5
199
330
196
100
AcDbEntity
  8
DIM
100
AcDbTrace
 10
144.7854018877
 20
187.3180986577
 30
0.0
 11
144.059687602
 21
182.6009558005
 31
0.0
 12
145.5111161734
 22
182.6009558005
 32
0.0
 13
145.5111161734
 23
182.6009558005
 33
0.0
  0
SOLID
  5
19A
330
196
100
AcDbEntity
  8
DIM
100
AcDbTrace
 10
144.7854018877
 20
123.8180986577
 30
0.0
 11
145.5111161734
 21
128.5352415148
 31
0.0
 12
144.059687602
 22
128.5352415148
 32
0.0
 13
144.059687602
 23
128.5352415148
 33
0.0
  0
LINE
  5
19B
330
196
100
AcDbEntity
  8
DIM
100
AcDbLine
 10
224.6817828995
 20
187.3180986577
 30
0.0
 11
143.3568304591
 21
187.3180986577
 31
0.0
  0
LINE
  5
19C
330
196
100
AcDbEntity
  8
DIM
100
AcDbLine
 10
224.6817828995
 20
123.8180986577
 30
0.0
 11
143.3568304591
 21
123.8180986577
 31
0.0
  0
LINE
  5
19D
330
196
100
AcDbEntity
  8
DIM
100
AcDbLine
 10
144.7854018877
 20
187.3180986577
 30
0.0
 11
144.7854018877
 21
123.8180986577
 31
0.0
  0
MTEXT
  5
19E
330
196
100
AcDbEntity
  8
DIM
100
AcDbMText
 10
139.4257955061
 20
145.9935590974
 30
0.0
 40
4.1577380952
 41
0.0
 71
     1
 72
     1
  1
%%c
  7
SLDTEXTSTYLE0
 11
-7.044195017643634E-15
 21
1.0
 31
0.0
 73
     1
 44
1.0
  0
MTEXT
  5
19F
330
196
100
AcDbEntity
  8
DIM
100
AcDbMText
 10
139.4257955061
 20
152.4230389539
 30
0.0
 40
4.1577380952
 41
0.0
 71
     1
 72
     1
  1
63.50
  7
SLDTEXTSTYLE0
 11
-7.044195017643634E-15
 21
1.0
 31
0.0
 73
     1
 44
1.0
  0
ENDBLK
  5
198
330
196
100
AcDbEntity
  8
0
100
AcDbBlockEnd
  0
BLOCK
  5
1A3
330
1A2
100
AcDbEntity
  8
0
100
AcDbBlockBegin
  2
_D_3
 70
     0
 10
0.0
 20
0.0
 30
0.0
  3
_D_3
  1
_D_3
  0
SOLID
  5
1A5
330
1A2
100
AcDbEntity
  8
DIM
100
AcDbTrace
 10
390.0918526171
 20
166.5680986577
 30
0.0
 11
390.8175669028
 21
171.2852415148
 31
0.0
 12
389.3661383314
 22
171.2852415148
 32
0.0
 13
389.3661383314
 23
171.2852415148
 33
0.0
  0
SOLID
  5
1A6
330
1A2
100
AcDbEntity
  8
DIM
100
AcDbTrace
 10
390.0918526171
 20
144.5680986577
 30
0.0
 11
389.3661383314
 21
139.8509558005
 31
0.0
 12
390.8175669028
 22
139.8509558005
 32
0.0
 13
390.8175669028
 23
139.8509558005
 33
0.0
  0
LINE
  5
1A7
330
1A2
100
AcDbEntity
  8
DIM
100
AcDbLine
 10
382.7732403317
 20
166.5680986577
 30
0.0
 11
391.5204240457
 21
166.5680986577
 31
0.0
  0
LINE
  5
1A8
330
1A2
100
AcDbEntity
  8
DIM
100
AcDbLine
 10
382.7732403317
 20
144.5680986577
 30
0.0
 11
391.5204240457
 21
144.5680986577
 31
0.0
  0
LINE
  5
1A9
330
1A2
100
AcDbEntity
  8
DIM
100
AcDbLine
 10
390.0918526171
 20
166.5680986577
 30
0.0
 11
390.0918526171
 21
175.6395272291
 31
0.0
  0
LINE
  5
1AA
330
1A2
100
AcDbEntity
  8
DIM
100
AcDbLine
 10
390.0918526171
 20
166.5680986577
 30
0.0
 11
390.0918526171
 21
144.5680986577
 31
0.0
  0
LINE
  5
1AB
330
1A2
100
AcDbEntity
  8
DIM
100
AcDbLine
 10
390.0918526171
 20
144.5680986577
 30
0.0
 11
390.0918526171
 21
135.4966700862
 31
0.0
  0
MTEXT
  5
1AC
330
1A2
100
AcDbEntity
  8
DIM
100
AcDbMText
 10
384.7322462355
 20
149.5430356507
 30
0.0
 40
4.1577380952
 41
0.0
 71
     1
 72
     1
  1
%%c
  7
SLDTEXTSTYLE0
 11
-7.044195017643634E-15
 21
1.0
 31
0.0
 73
     1
 44
1.0
  0
MTEXT
  5
1AD
330
1A2
100
AcDbEntity
  8
DIM
100
AcDbMText
 10
384.7322462355
 20
155.9725155072
 30
0.0
 40
4.1577380952
 41
0.0
 71
     1
 72
     1
  1
22
  7
SLDTEXTSTYLE0
 11
-7.044195017643634E-15
 21
1.0
 31
0.0
 73
     1
 44
1.0
  0
ENDBLK
  5
1A4
330
1A2
100
AcDbEntity
  8
0
100
AcDbBlockEnd
  0
ENDSEC
  0
SECTION
  2
ENTITIES
  0
LINE
  5
76
330
1F
100
AcDbEntity
  8
DIM
100
AcDbLine
 10
149.5777495557
 20
13.9871306526
 30
0.0
 11
149.5777495557
 21
6.8442735098
 31
0.0
  0
LINE
  5
77
330
1F
100
AcDbEntity
  8
DIM
100
AcDbLine
 10
363.5280024219
 20
13.9871306526
 30
0.0
 11
363.5280024219
 21
6.8442735098
 31
0.0
  0
LINE
  5
78
330
1F
100
AcDbEntity
  8
DIM
100
AcDbLine
 10
339.2167284737
 20
13.9871306526
 30
0.0
 11
339.2167284737
 21
6.8442735098
 31
0.0
  0
LINE
  5
79
330
1F
100
AcDbEntity
  8
DIM
100
AcDbLine
 10
398.4348924129
 20
6.8442735098
 30
0.0
 11
398.4348924129
 21
13.9871306526
 31
0.0
  0
LINE
  5
7A
330
1F
100
AcDbEntity
  8
DIM
100
AcDbLine
 10
160.7206066986
 20
13.9871306526
 30
0.0
 11
160.7206066986
 21
6.8442735098
 31
0.0
  0
LINE
  5
7B
330
1F
100
AcDbEntity
  8
DIM
100
AcDbLine
 10
188.1362530326
 20
13.9871306526
 30
0.0
 11
188.1362530326
 21
6.8442735098
 31
0.0
  0
LINE
  5
7C
330
1F
100
AcDbEntity
  8
DIM
100
AcDbLine
 10
417.0063209843
 20
6.8442735098
 30
0.0
 11
417.0063209843
 21
110.0585592241
 31
0.0
  0
LINE
  5
7D
330
1F
100
AcDbEntity
  8
DIM
100
AcDbLine
 10
408.3128638495
 20
85.7728449384
 30
0.0
 11
417.0063209843
 21
85.7728449384
 31
0.0
  0
LINE
  5
7E
330
1F
100
AcDbEntity
  8
DIM
100
AcDbLine
 10
213.0047869322
 20
12.9157020812
 30
0.0
 11
213.0047869322
 21
6.8442735098
 31
0.0
  0
LINE
  5
7F
330
1F
100
AcDbEntity
  8
DIM
100
AcDbLine
 10
281.0913559435
 20
13.9871306526
 30
0.0
 11
281.0913559435
 21
6.8442735098
 31
0.0
  0
LINE
  5
80
330
1F
100
AcDbEntity
  8
DIM
100
AcDbLine
 10
213.0047869322
 20
13.9871306526
 30
0.0
 11
213.0047869322
 21
12.9157020812
 31
0.0
  0
LINE
  5
81
330
1F
100
AcDbEntity
  8
DIM
100
AcDbLine
 10
409.8634638414
 20
25.0584563669
 30
0.0
 11
417.0063209843
 21
25.0584563669
 31
0.0
  0
LINE
  5
82
330
1F
100
AcDbEntity
  8
DIM
100
AcDbLine
 10
409.8634638414
 20
285.4157020812
 30
0.0
 11
14.1491781271
 21
285.4157020812
 31
0.0
  0
LINE
  5
83
330
1F
100
AcDbEntity
  8
DIM
100
AcDbLine
 10
417.0063209843
 20
292.5585592241
 30
0.0
 11
7.0063209843
 21
292.5585592241
 31
0.0
  0
LINE
  5
84
330
1F
100
AcDbEntity
  8
DIM
100
AcDbLine
 10
14.1491781271
 20
285.4157020812
 30
0.0
 11
14.1491781271
 21
13.9871306526
 31
0.0
  0
LINE
  5
85
330
1F
100
AcDbEntity
  8
DIM
100
AcDbLine
 10
7.0063209843
 20
292.5585592241
 30
0.0
 11
7.0063209843
 21
6.8442735098
 31
0.0
  0
LINE
  5
86
330
1F
100
AcDbEntity
  8
DIM
100
AcDbLine
 10
14.1491781271
 20
78.2728449384
 30
0.0
 11
7.0063209843
 21
78.2728449384
 31
0.0
  0
LINE
  5
87
330
1F
100
AcDbEntity
  8
DIM
100
AcDbLine
 10
7.0063209843
 20
149.7014163669
 30
0.0
 11
14.1491781271
 21
149.7014163669
 31
0.0
  0
LINE
  5
88
330
1F
100
AcDbEntity
  8
DIM
100
AcDbLine
 10
7.0063209843
 20
6.8442735098
 30
0.0
 11
417.0063209843
 21
6.8442735098
 31
0.0
  0
LINE
  5
89
330
1F
100
AcDbEntity
  8
DIM
100
AcDbLine
 10
14.1491781271
 20
13.9871306526
 30
0.0
 11
417.0063209843
 21
13.9871306526
 31
0.0
  0
LINE
  5
8A
330
1F
100
AcDbEntity
  8
DIM
100
AcDbLine
 10
69.1491781271
 20
6.8442735098
 30
0.0
 11
69.1491781271
 21
13.9871306526
 31
0.0
  0
LINE
  5
8B
330
1F
100
AcDbEntity
  8
DIM
100
AcDbLine
 10
140.5777495557
 20
13.9871306526
 30
0.0
 11
140.5777495557
 21
6.8442735098
 31
0.0
  0
LINE
  5
8C
330
1F
100
AcDbEntity
  8
DIM
100
AcDbLine
 10
14.1491781271
 20
221.1299877955
 30
0.0
 11
7.0063209843
 21
221.1299877955
 31
0.0
  0
LINE
  5
8D
330
1F
100
AcDbEntity
  8
DIM
100
AcDbLine
 10
69.1491781271
 20
285.4157020812
 30
0.0
 11
69.1491781271
 21
292.5585592241
 31
0.0
  0
LINE
  5
8E
330
1F
100
AcDbEntity
  8
DIM
100
AcDbLine
 10
140.5777495557
 20
292.5585592241
 30
0.0
 11
140.5777495557
 21
285.4157020812
 31
0.0
  0
LINE
  5
8F
330
1F
100
AcDbEntity
  8
DIM
100
AcDbLine
 10
212.0063209843
 20
292.5585592241
 30
0.0
 11
212.0063209843
 21
285.4157020812
 31
0.0
  0
LINE
  5
90
330
1F
100
AcDbEntity
  8
DIM
100
AcDbLine
 10
409.8634638414
 20
13.9871306526
 30
0.0
 11
409.8634638414
 21
285.4157020812
 31
0.0
  0
LINE
  5
91
330
1F
100
AcDbEntity
  8
DIM
100
AcDbLine
 10
417.0063209843
 20
110.0585592241
 30
0.0
 11
417.0063209843
 21
292.5585592241
 31
0.0
  0
LINE
  5
92
330
1F
100
AcDbEntity
  8
DIM
100
AcDbLine
 10
417.0063209843
 20
149.7014163669
 30
0.0
 11
409.8634638414
 21
149.7014163669
 31
0.0
  0
LINE
  5
93
330
1F
100
AcDbEntity
  8
DIM
100
AcDbLine
 10
283.4348924129
 20
292.5585592241
 30
0.0
 11
283.4348924129
 21
285.4157020812
 31
0.0
  0
LINE
  5
94
330
1F
100
AcDbEntity
  8
DIM
100
AcDbLine
 10
354.8634638414
 20
285.4157020812
 30
0.0
 11
354.8634638414
 21
292.5585592241
 31
0.0
  0
LINE
  5
95
330
1F
100
AcDbEntity
  8
DIM
100
AcDbLine
 10
409.8634638414
 20
221.1299877955
 30
0.0
 11
417.0063209843
 21
221.1299877955
 31
0.0
  0
MTEXT
  5
97
330
1F
100
AcDbEntity
  8
DIM
100
AcDbMText
 10
18.9439347742
 20
277.3183688196
 30
0.0
 40
6.0476190476
 41
0.0
 71
     1
 72
     1
  1
SK 40 ER16 160 AD+B/2.5G 25000 SL
  7
SLDTEXTSTYLE0
 73
     1
 44
1.0
  0
MTEXT
  5
99
330
1F
100
AcDbEntity
  8
DIM
 62
     7
100
AcDbMText
 10
282.4753980666
 20
11.1456450376
 30
0.0
 40
2.1408571429
 41
0.0
 71
     1
 72
     1
  1
WEIGHT:
  7
SLDTEXTSTYLE1
 73
     1
 44
1.0
  0
MTEXT
  5
9A
330
1F
100
AcDbEntity
  8
DIM
 62
     7
100
AcDbMText
 10
412.2815382211
 20
117.0580192975
 30
0.0
 40
2.6458333333
 41
0.0
 71
     1
 72
     1
  1
C
  7
SLDTEXTSTYLE1
 73
     1
 44
1.0
  0
MTEXT
  5
9B
330
1F
100
AcDbEntity
  8
DIM
 62
     7
100
AcDbMText
 10
404.3479723135
 20
21.2199742623
 30
0.0
 40
4.1577380952
 41
0.0
 71
     1
 72
     1
  1
A4
  7
SLDTEXTSTYLE1
 73
     1
 44
1.0
  0
MTEXT
  5
9C
330
1F
100
AcDbEntity
  8
DIM
 62
     7
100
AcDbMText
 10
389.3872790795
 20
290.6557255149
 30
0.0
 40
2.6458333333
 41
0.0
 71
     1
 72
     1
  1
6
  7
SLDTEXTSTYLE1
 73
     1
 44
1.0
  0
MTEXT
  5
9D
330
1F
100
AcDbEntity
  8
DIM
 62
     7
100
AcDbMText
 10
317.958707651
 20
290.6557255149
 30
0.0
 40
2.6458333333
 41
0.0
 71
     1
 72
     1
  1
5
  7
SLDTEXTSTYLE1
 73
     1
 44
1.0
  0
MTEXT
  5
9E
330
1F
100
AcDbEntity
  8
DIM
 62
     7
100
AcDbMText
 10
412.244427651
 20
258.512868372
 30
0.0
 40
2.6458333333
 41
0.0
 71
     1
 72
     1
  1
A
  7
SLDTEXTSTYLE1
 73
     1
 44
1.0
  0
MTEXT
  5
9F
330
1F
100
AcDbEntity
  8
DIM
 62
     7
100
AcDbMText
 10
412.244427651
 20
187.0842969434
 30
0.0
 40
2.6458333333
 41
0.0
 71
     1
 72
     1
  1
B
  7
SLDTEXTSTYLE1
 73
     1
 44
1.0
  0
MTEXT
  5
A0
330
1F
100
AcDbEntity
  8
DIM
 62
     7
100
AcDbMText
 10
246.5301362224
 20
290.6557255149
 30
0.0
 40
2.6458333333
 41
0.0
 71
     1
 72
     1
  1
4
  7
SLDTEXTSTYLE1
 73
     1
 44
1.0
  0
MTEXT
  5
A1
330
1F
100
AcDbEntity
  8
DIM
 62
     7
100
AcDbMText
 10
32.8396600319
 20
290.6557255149
 30
0.0
 40
2.6458333333
 41
0.0
 71
     1
 72
     1
  1
1
  7
SLDTEXTSTYLE1
 73
     1
 44
1.0
  0
MTEXT
  5
A2
330
1F
100
AcDbEntity
  8
DIM
 62
     7
100
AcDbMText
 10
103.6729933652
 20
290.6557255149
 30
0.0
 40
2.6458333333
 41
0.0
 71
     1
 72
     1
  1
2
  7
SLDTEXTSTYLE1
 73
     1
 44
1.0
  0
MTEXT
  5
A3
330
1F
100
AcDbEntity
  8
DIM
 62
     7
100
AcDbMText
 10
175.1015647938
 20
290.6557255149
 30
0.0
 40
2.6458333333
 41
0.0
 71
     1
 72
     1
  1
3
  7
SLDTEXTSTYLE1
 73
     1
 44
1.0
  0
MTEXT
  5
A4
330
1F
100
AcDbEntity
  8
DIM
 62
     7
100
AcDbMText
 10
9.3872733652
 20
258.512868372
 30
0.0
 40
2.6458333333
 41
0.0
 71
     1
 72
     1
  1
A
  7
SLDTEXTSTYLE1
 73
     1
 44
1.0
  0
MTEXT
  5
A5
330
1F
100
AcDbEntity
  8
DIM
 62
     7
100
AcDbMText
 10
103.6729933652
 20
12.0842969434
 30
0.0
 40
2.6458333333
 41
0.0
 71
     1
 72
     1
  1
2
  7
SLDTEXTSTYLE1
 73
     1
 44
1.0
  0
MTEXT
  5
A6
330
1F
100
AcDbEntity
  8
DIM
 62
     7
100
AcDbMText
 10
32.8396600319
 20
12.0842969434
 30
0.0
 40
2.6458333333
 41
0.0
 71
     1
 72
     1
  1
1
  7
SLDTEXTSTYLE1
 73
     1
 44
1.0
  0
MTEXT
  5
A7
330
1F
100
AcDbEntity
  8
DIM
 62
     7
100
AcDbMText
 10
9.3872733652
 20
44.2271540863
 30
0.0
 40
2.6458333333
 41
0.0
 71
     1
 72
     1
  1
D
  7
SLDTEXTSTYLE1
 73
     1
 44
1.0
  0
MTEXT
  5
A8
330
1F
100
AcDbEntity
  8
DIM
 62
     7
100
AcDbMText
 10
9.3872733652
 20
115.6557255149
 30
0.0
 40
2.6458333333
 41
0.0
 71
     1
 72
     1
  1
C
  7
SLDTEXTSTYLE1
 73
     1
 44
1.0
  0
MTEXT
  5
A9
330
1F
100
AcDbEntity
  8
DIM
 62
     7
100
AcDbMText
 10
9.3872733652
 20
187.0842969434
 30
0.0
 40
2.6458333333
 41
0.0
 71
     1
 72
     1
  1
B
  7
SLDTEXTSTYLE1
 73
     1
 44
1.0
  0
MTEXT
  5
AA
330
1F
100
AcDbEntity
  8
DIM
 62
     7
100
AcDbMText
 10
412.2815382211
 20
117.0580192975
 30
0.0
 40
2.6458333333
 41
0.0
 71
     1
 72
     1
  1
C
  7
SLDTEXTSTYLE1
 73
     1
 44
1.0
  0
MTEXT
  5
AC
330
1F
100
AcDbEntity
  8
DIM
 62
     7
100
AcDbMText
 10
366.4648083036
 20
10.9872553306
 30
0.0
 40
2.1428571429
 41
0.0
 71
     1
 72
     1
  1
SHEET 1 OF 1
  7
SLDTEXTSTYLE2
 73
     1
 44
1.0
  0
MTEXT
  5
AD
330
1F
100
AcDbEntity
  8
DIM
 62
     7
100
AcDbMText
 10
214.8168291192
 20
11.2190964052
 30
0.0
 40
2.1428571429
 41
0.0
 71
     1
 72
     1
  1
MATERIAL:
  7
SLDTEXTSTYLE1
 73
     1
 44
1.0
  0
MTEXT
  5
AE
330
1F
100
AcDbEntity
  8
DIM
 62
     7
100
AcDbMText
 10
389.3872790795
 20
290.6557255149
 30
0.0
 40
2.6458333333
 41
0.0
 71
     1
 72
     1
  1
6
  7
SLDTEXTSTYLE1
 73
     1
 44
1.0
  0
MTEXT
  5
AF
330
1F
100
AcDbEntity
  8
DIM
 62
     7
100
AcDbMText
 10
317.958707651
 20
290.6557255149
 30
0.0
 40
2.6458333333
 41
0.0
 71
     1
 72
     1
  1
5
  7
SLDTEXTSTYLE1
 73
     1
 44
1.0
  0
MTEXT
  5
B0
330
1F
100
AcDbEntity
  8
DIM
 62
     7
100
AcDbMText
 10
412.244427651
 20
258.512868372
 30
0.0
 40
2.6458333333
 41
0.0
 71
     1
 72
     1
  1
A
  7
SLDTEXTSTYLE1
 73
     1
 44
1.0
  0
MTEXT
  5
B1
330
1F
100
AcDbEntity
  8
DIM
 62
     7
100
AcDbMText
 10
412.244427651
 20
187.0842969434
 30
0.0
 40
2.6458333333
 41
0.0
 71
     1
 72
     1
  1
B
  7
SLDTEXTSTYLE1
 73
     1
 44
1.0
  0
MTEXT
  5
B2
330
1F
100
AcDbEntity
  8
DIM
 62
     7
100
AcDbMText
 10
246.5301362224
 20
290.6557255149
 30
0.0
 40
2.6458333333
 41
0.0
 71
     1
 72
     1
  1
4
  7
SLDTEXTSTYLE1
 73
     1
 44
1.0
  0
MTEXT
  5
B3
330
1F
100
AcDbEntity
  8
DIM
 62
     7
100
AcDbMText
 10
32.8396600319
 20
290.6557255149
 30
0.0
 40
2.6458333333
 41
0.0
 71
     1
 72
     1
  1
1
  7
SLDTEXTSTYLE1
 73
     1
 44
1.0
  0
MTEXT
  5
B4
330
1F
100
AcDbEntity
  8
DIM
 62
     7
100
AcDbMText
 10
103.6729933652
 20
290.6557255149
 30
0.0
 40
2.6458333333
 41
0.0
 71
     1
 72
     1
  1
2
  7
SLDTEXTSTYLE1
 73
     1
 44
1.0
  0
MTEXT
  5
B5
330
1F
100
AcDbEntity
  8
DIM
 62
     7
100
AcDbMText
 10
175.1015647938
 20
290.6557255149
 30
0.0
 40
2.6458333333
 41
0.0
 71
     1
 72
     1
  1
3
  7
SLDTEXTSTYLE1
 73
     1
 44
1.0
  0
MTEXT
  5
B6
330
1F
100
AcDbEntity
  8
DIM
 62
     7
100
AcDbMText
 10
9.3872733652
 20
258.512868372
 30
0.0
 40
2.6458333333
 41
0.0
 71
     1
 72
     1
  1
A
  7
SLDTEXTSTYLE1
 73
     1
 44
1.0
  0
MTEXT
  5
B7
330
1F
100
AcDbEntity
  8
DIM
 62
     7
100
AcDbMText
 10
103.6729933652
 20
12.0842969434
 30
0.0
 40
2.6458333333
 41
0.0
 71
     1
 72
     1
  1
2
  7
SLDTEXTSTYLE1
 73
     1
 44
1.0
  0
MTEXT
  5
B8
330
1F
100
AcDbEntity
  8
DIM
 62
     7
100
AcDbMText
 10
32.8396600319
 20
12.0842969434
 30
0.0
 40
2.6458333333
 41
0.0
 71
     1
 72
     1
  1
1
  7
SLDTEXTSTYLE1
 73
     1
 44
1.0
  0
MTEXT
  5
B9
330
1F
100
AcDbEntity
  8
DIM
 62
     7
100
AcDbMText
 10
9.3872733652
 20
44.2271540863
 30
0.0
 40
2.6458333333
 41
0.0
 71
     1
 72
     1
  1
D
  7
SLDTEXTSTYLE1
 73
     1
 44
1.0
  0
MTEXT
  5
BA
330
1F
100
AcDbEntity
  8
DIM
 62
     7
100
AcDbMText
 10
9.3872733652
 20
115.6557255149
 30
0.0
 40
2.6458333333
 41
0.0
 71
     1
 72
     1
  1
C
  7
SLDTEXTSTYLE1
 73
     1
 44
1.0
  0
MTEXT
  5
BB
330
1F
100
AcDbEntity
  8
DIM
 62
     7
100
AcDbMText
 10
9.3872733652
 20
187.0842969434
 30
0.0
 40
2.6458333333
 41
0.0
 71
     1
 72
     1
  1
B
  7
SLDTEXTSTYLE1
 73
     1
 44
1.0
  0
SPLINE
  5
BC
330
1F
100
AcDbEntity
  8
0
  6
Continuous
 62
     7
370
    15
100
AcDbSpline
210
0.0
220
0.0
230
1.0
 70
     8
 71
     3
 72
    38
 73
    34
 74
     0
 42
0.000000001
 43
0.00000001
 40
0.0
 40
0.0
 40
0.0
 40
0.0
 40
0.0624999999999999
 40
0.0624999999999999
 40
0.1249999999999999
 40
0.1249999999999999
 40
0.1874999999999999
 40
0.1874999999999999
 40
0.25
 40
0.25
 40
0.3125
 40
0.3125
 40
0.375
 40
0.375
 40
0.4375
 40
0.4375
 40
0.5
 40
0.5
 40
0.5625
 40
0.5625
 40
0.625
 40
0.625
 40
0.6875
 40
0.6875
 40
0.75
 40
0.75
 40
0.8125
 40
0.8125
 40
0.875
 40
0.875
 40
0.9375
 40
0.9375
 40
1.0
 40
1.0
 40
1.0
 40
1.0
 10
99.25236621611566
 20
155.5680986576622
 30
0.0
 10
99.25236621611566
 20
155.0937168830974
 30
0.0
 10
99.22294258345433
 20
154.5893913611523
 30
0.0
 10
99.0802825463084
 20
153.5241964171222
 30
0.0
 10
98.96697814053945
 20
152.9631734571721
 30
0.0
 10
98.62694128453374
 20
151.7973328080018
 30
0.0
 10
98.40002416138017
 20
151.1923594862444
 30
0.0
 10
97.80209111792325
 20
149.9658301663244
 30
0.0
 10
97.43074020179938
 20
149.3442097753724
 30
0.0
 10
96.51992719464124
 20
148.1297924324866
 30
0.0
 10
95.98003106263809
 20
147.5371686193557
 30
0.0
 10
94.72664480145843
 20
146.4433042459551
 30
0.0
 10
94.01282772338068
 20
145.9425805744518
 30
0.0
 10
92.43702667293407
 20
145.1021533475412
 30
0.0
 10
91.57512876820576
 20
144.7631976091611
 30
0.0
 10
89.76428160604519
 20
144.3032999171807
 30
0.0
 10
88.81596717576194
 20
144.1829360681077
 30
0.0
 10
86.91844007751581
 20
144.1829360681077
 30
0.0
 10
85.97012564723256
 20
144.3032999171807
 30
0.0
 10
84.159278485072
 20
144.7631976091611
 30
0.0
 10
83.29738058034368
 20
145.1021533475412
 30
0.0
 10
81.72157952989708
 20
145.9425805744518
 30
0.0
 10
81.0077624518193
 20
146.4433042459551
 30
0.0
 10
79.75437619063965
 20
147.5371686193557
 30
0.0
 10
79.21448005863651
 20
148.1297924324866
 30
0.0
 10
78.30366705147837
 20
149.3442097753724
 30
0.0
 10
77.93231613535448
 20
149.9658301663244
 30
0.0
 10
77.33438309189756
 20
151.1923594862444
 30
0.0
 10
77.107465968744
 20
151.7973328080018
 30
0.0
 10
76.7674291127383
 20
152.9631734571721
 30
0.0
 10
76.65412470696934
 20
153.5241964171222
 30
0.0
 10
76.51146466982341
 20
154.5893913611523
 30
0.0
 10
76.48204103716208
 20
155.0937168830974
 30
0.0
 10
76.48204103716209
 20
155.5680986576622
 30
0.0
  0
SPLINE
  5
BD
330
1F
100
AcDbEntity
  8
0
  6
Continuous
 62
     7
370
    15
100
AcDbSpline
210
0.0
220
0.0
230
1.0
 70
     8
 71
     3
 72
    38
 73
    34
 74
     0
 42
0.000000001
 43
0.00000001
 40
0.0
 40
0.0
 40
0.0
 40
0.0
 40
0.0625
 40
0.0625
 40
0.125
 40
0.125
 40
0.1875
 40
0.1875
 40
0.25
 40
0.25
 40
0.3125
 40
0.3125
 40
0.375
 40
0.375
 40
0.4375
 40
0.4375
 40
0.5
 40
0.5
 40
0.5625
 40
0.5625
 40
0.625
 40
0.625
 40
0.6875
 40
0.6875
 40
0.75
 40
0.75
 40
0.8125
 40
0.8125
 40
0.875
 40
0.875
 40
0.9375
 40
0.9375
 40
1.0
 40
1.0
 40
1.0
 40
1.0
 10
76.48204103716208
 20
155.5680986576622
 30
0.0
 10
76.48204103716208
 20
156.042480432227
 30
0.0
 10
76.51146466982343
 20
156.5468059541721
 30
0.0
 10
76.65412470696934
 20
157.6120008982022
 30
0.0
 10
76.76742911273828
 20
158.1730238581523
 30
0.0
 10
77.107465968744
 20
159.3388645073227
 30
0.0
 10
77.33438309189756
 20
159.94383782908
 30
0.0
 10
77.93231613535448
 20
161.170367149
 30
0.0
 10
78.30366705147837
 20
161.791987539952
 30
0.0
 10
79.2144800586365
 20
163.0064048828378
 30
0.0
 10
79.75437619063965
 20
163.5990286959687
 30
0.0
 10
81.0077624518193
 20
164.6928930693693
 30
0.0
 10
81.72157952989708
 20
165.1936167408726
 30
0.0
 10
83.29738058034368
 20
166.0340439677832
 30
0.0
 10
84.159278485072
 20
166.3729997061633
 30
0.0
 10
85.97012564723256
 20
166.8328973981437
 30
0.0
 10
86.91844007751581
 20
166.9532612472167
 30
0.0
 10
88.81596717576194
 20
166.9532612472167
 30
0.0
 10
89.76428160604519
 20
166.8328973981437
 30
0.0
 10
91.57512876820576
 20
166.3729997061633
 30
0.0
 10
92.43702667293407
 20
166.0340439677832
 30
0.0
 10
94.01282772338068
 20
165.1936167408726
 30
0.0
 10
94.72664480145843
 20
164.6928930693693
 30
0.0
 10
95.98003106263809
 20
163.5990286959687
 30
0.0
 10
96.51992719464124
 20
163.0064048828378
 30
0.0
 10
97.43074020179938
 20
161.791987539952
 30
0.0
 10
97.80209111792325
 20
161.170367149
 30
0.0
 10
98.4000241613802
 20
159.94383782908
 30
0.0
 10
98.62694128453374
 20
159.3388645073227
 30
0.0
 10
98.96697814053945
 20
158.1730238581523
 30
0.0
 10
99.0802825463084
 20
157.6120008982022
 30
0.0
 10
99.22294258345433
 20
156.5468059541721
 30
0.0
 10
99.25236621611569
 20
156.042480432227
 30
0.0
 10
99.25236621611566
 20
155.5680986576622
 30
0.0
  0
SPLINE
  5
BE
330
1F
100
AcDbEntity
  8
0
  6
Continuous
 62
     7
370
    15
100
AcDbSpline
210
0.0
220
0.0
230
1.0
 70
    24
 71
     3
 72
    14
 73
    10
 74
     0
 42
0.000000001
 43
0.00000001
 40
0.0
 40
0.0
 40
0.0
 40
0.0
 40
0.25
 40
0.25
 40
0.5
 40
0.5
 40
0.75
 40
0.75
 40
1.0
 40
1.0
 40
1.0
 40
1.0
 10
76.48204103712298
 20
155.5680986576622
 30
0.0
 10
76.37302448818211
 20
155.5680986576622
 30
0.0
 10
76.25694649676139
 20
155.5680986576622
 30
0.0
 10
76.03111745789394
 20
155.5680986576622
 30
0.0
 10
75.92183909850817
 20
155.5680986576622
 30
0.0
 10
75.7340443881314
 20
155.5680986576622
 30
0.0
 10
75.65594979245456
 20
155.5680986576622
 30
0.0
 10
75.5431038329879
 20
155.5680986576622
 30
0.0
 10
75.50824023569825
 20
155.5680986576622
 30
0.0
 10
75.4925082507636
 20
155.5680986576622
 30
0.0
  0
ARC
  5
BF
330
1F
100
AcDbEntity
  8
0
  6
Continuous
 62
     7
370
    15
100
AcDbCircle
 10
87.8672036266
 20
155.5680986577
 30
0.0
 40
12.37469537600002
100
AcDbArc
 50
359.9999999765
 51
180.0
  0
SPLINE
  5
C0
330
1F
100
AcDbEntity
  8
0
  6
Continuous
 62
     7
370
    15
100
AcDbSpline
210
0.0
220
0.0
230
1.0
 70
    24
 71
     3
 72
    14
 73
    10
 74
     0
 42
0.000000001
 43
0.00000001
 40
0.0
 40
0.0
 40
0.0
 40
0.0
 40
0.25
 40
0.25
 40
0.5
 40
0.5
 40
0.75
 40
0.75
 40
1.0
 40
1.0
 40
1.0
 40
1.0
 10
99.25236621615475
 20
155.5680986576622
 30
0.0
 10
99.36138276509124
 20
155.5680986576622
 30
0.0
 10
99.4774607565069
 20
155.5680986576622
 30
0.0
 10
99.70328979536578
 20
155.5680986576622
 30
0.0
 10
99.81256815474809
 20
155.5680986576622
 30
0.0
 10
100.0003628651221
 20
155.5680986576622
 30
0.0
 10
100.0784574607998
 20
155.5680986576622
 30
0.0
 10
100.1913034202721
 20
155.5680986576622
 30
0.0
 10
100.2261670175665
 20
155.5680986576622
 30
0.0
 10
100.2418990025065
 20
155.5680986576622
 30
0.0
  0
ARC
  5
C1
330
1F
100
AcDbEntity
  8
0
  6
Continuous
 62
     7
370
    15
100
AcDbCircle
 10
87.8672036266
 20
155.5680986577
 30
0.0
 40
12.37469537600002
100
AcDbArc
 50
180.0000000103
 51
359.9999999765
  0
CIRCLE
  5
C2
330
1F
100
AcDbEntity
  8
0
  6
Continuous
 62
     7
370
    15
100
AcDbCircle
 10
87.8672036266
 20
155.5680986577
 30
0.0
 40
22.22500000000001
  0
CIRCLE
  5
C3
330
1F
100
AcDbEntity
  8
0
  6
Continuous
 62
     7
370
    15
100
AcDbCircle
 10
87.8672036266
 20
155.5680986577
 30
0.0
 40
22.39999999969785
  0
SPLINE
  5
C4
330
1F
100
AcDbEntity
  8
0
  6
Continuous
 62
     7
370
    15
100
AcDbSpline
210
0.0
220
0.0
230
1.0
 70
     8
 71
     3
 72
    10
 73
     6
 74
     0
 42
0.000000001
 43
0.00000001
 40
0.0
 40
0.0
 40
0.0
 40
0.0
 40
0.5
 40
0.5
 40
1.0
 40
1.0
 40
1.0
 40
1.0
 10
79.23436091578816
 20
125.9327240883997
 30
0.0
 10
79.20170629017055
 20
125.9762483468516
 30
0.0
 10
79.17372517511522
 20
126.0248104498692
 30
0.0
 10
79.1310789683008
 20
126.1362887596784
 30
0.0
 10
79.11720362594258
 20
126.1982600497858
 30
0.0
 10
79.11720362661593
 20
126.2621641420562
 30
0.0
  0
ARC
  5
C5
330
1F
100
AcDbEntity
  8
0
  6
Continuous
 62
     7
370
    15
100
AcDbCircle
 10
87.8672036266
 20
155.5680986577
 30
0.0
 40
30.58431456895075
100
AcDbArc
 50
253.3757249646
 51
286.6242750409
  0
SPLINE
  5
C6
330
1F
100
AcDbEntity
  8
0
  6
Continuous
 62
     7
370
    15
100
AcDbSpline
210
0.0
220
0.0
230
1.0
 70
     8
 71
     3
 72
    10
 73
     6
 74
     0
 42
0.000000001
 43
0.00000001
 40
0.0
 40
0.0
 40
0.0
 40
0.0
 40
0.5
 40
0.5
 40
1.0
 40
1.0
 40
1.0
 40
1.0
 10
96.50004633759794
 20
125.9327240888991
 30
0.0
 10
96.53270096307382
 20
125.9762483472051
 30
0.0
 10
96.5606820803578
 20
126.0248104546523
 30
0.0
 10
96.60332828620705
 20
126.1362887648414
 30
0.0
 10
96.6172036279519
 20
126.1982600549114
 30
0.0
 10
96.61720362666185
 20
126.2621641469347
 30
0.0
  0
ARC
  5
C7
330
1F
100
AcDbEntity
  8
0
  6
Continuous
 62
     7
370
    15
100
AcDbCircle
 10
87.8672036266
 20
155.5680986577
 30
0.0
 40
30.86715728713358
100
AcDbArc
 50
253.7590550445
 51
286.2409449555
  0
SPLINE
  5
C8
330
1F
100
AcDbEntity
  8
0
  6
Continuous
 62
     7
370
    15
100
AcDbSpline
210
0.0
220
0.0
230
1.0
 70
     8
 71
     3
 72
    10
 73
     6
 74
     0
 42
0.000000001
 43
0.00000001
 40
0.0
 40
0.0
 40
0.0
 40
0.0
 40
0.5
 40
0.5
 40
1.0
 40
1.0
 40
1.0
 40
1.0
 10
96.50004633701066
 20
185.2034732272081
 30
0.0
 10
96.53270096267373
 20
185.159948968795
 30
0.0
 10
96.56068207985886
 20
185.1113868617087
 30
0.0
 10
96.60332828604315
 20
184.999908551179
 30
0.0
 10
96.6172036279246
 20
184.937937260867
 30
0.0
 10
96.61720362666185
 20
184.8740331685759
 30
0.0
  0
ARC
  5
C9
330
1F
100
AcDbEntity
  8
0
  6
Continuous
 62
     7
370
    15
100
AcDbCircle
 10
87.8672036266
 20
155.5680986577
 30
0.0
 40
30.58431456895075
100
AcDbArc
 50
73.3757249499
 51
106.6242750409
  0
SPLINE
  5
CA
330
1F
100
AcDbEntity
  8
0
  6
Continuous
 62
     7
370
    15
100
AcDbSpline
210
0.0
220
0.0
230
1.0
 70
     8
 71
     3
 72
    10
 73
     6
 74
     0
 42
0.000000001
 43
0.00000001
 40
0.0
 40
0.0
 40
0.0
 40
0.0
 40
0.5
 40
0.5
 40
1.0
 40
1.0
 40
1.0
 40
1.0
 10
79.23436091296595
 20
185.2034732232237
 30
0.0
 10
79.20170628761181
 20
185.1599489644532
 30
0.0
 10
79.17372517293528
 20
185.1113868610911
 30
0.0
 10
79.13107896705968
 20
184.9999085506781
 30
0.0
 10
79.11720362525924
 20
184.9379372603478
 30
0.0
 10
79.11720362661588
 20
184.8740331681344
 30
0.0
  0
ARC
  5
CB
330
1F
100
AcDbEntity
  8
0
  6
Continuous
 62
     7
370
    15
100
AcDbCircle
 10
87.8672036266
 20
155.5680986577
 30
0.0
 40
30.86715728713356
100
AcDbArc
 50
73.7590550445
 51
106.2409449555
  0
SPLINE
  5
CC
330
1F
100
AcDbEntity
  8
0
  6
Continuous
 62
     7
370
    15
100
AcDbSpline
210
0.0
220
0.0
230
1.0
 70
    24
 71
     3
 72
     8
 73
     4
 74
     0
 42
0.000000001
 43
0.00000001
 40
0.0
 40
0.0
 40
0.0
 40
0.0
 40
1.0
 40
1.0
 40
1.0
 40
1.0
 10
63.15827003935204
 20
137.0680986576622
 30
0.0
 10
63.25843897981239
 20
137.0680986576622
 30
0.0
 10
63.38467691646818
 20
137.0680986576622
 30
0.0
 10
63.51252650025263
 20
137.0680986576622
 30
0.0
  0
ARC
  5
CD
330
1F
100
AcDbEntity
  8
0
  6
Continuous
 62
     7
370
    15
100
AcDbCircle
 10
87.8672036266
 20
155.5680986577
 30
0.0
 40
30.58431456895075
100
AcDbArc
 50
217.2205832067
 51
232.7794167933
  0
SPLINE
  5
CE
330
1F
100
AcDbEntity
  8
0
  6
Continuous
 62
     7
370
    15
100
AcDbSpline
210
0.0
220
0.0
230
1.0
 70
    24
 71
     3
 72
     8
 73
     4
 74
     0
 42
0.000000001
 43
0.00000001
 40
0.0
 40
0.0
 40
0.0
 40
0.0
 40
1.0
 40
1.0
 40
1.0
 40
1.0
 10
69.36720362663887
 20
131.2134215303515
 30
0.0
 10
69.36720362663887
 20
131.0856308704766
 30
0.0
 10
69.36720362663887
 20
130.9592307431678
 30
0.0
 10
69.36720362663887
 20
130.8591650708865
 30
0.0
  0
ARC
  5
CF
330
1F
100
AcDbEntity
  8
0
  6
Continuous
 62
     7
370
    15
100
AcDbCircle
 10
87.8672036266
 20
155.5680986577
 30
0.0
 40
30.86715728713357
100
AcDbArc
 50
216.8228239932
 51
233.1771760068
  0
SPLINE
  5
D0
330
1F
100
AcDbEntity
  8
0
  6
Continuous
 62
     7
370
    15
100
AcDbSpline
210
0.0
220
0.0
230
1.0
 70
     8
 71
     3
 72
    31
 73
    27
 74
     0
 42
0.000000001
 43
0.00000001
 40
0.0
 40
0.0
 40
0.0
 40
0.0
 40
0.0132559966349189
 40
0.0264989966081602
 40
0.0397327988291494
 40
0.0529612101314919
 40
0.0661880420034987
 40
0.0794171072986517
 40
0.0926522169401775
 40
0.1058971766339516
 40
0.1191557836038749
 40
0.181094754453264
 40
0.2430471871464789
 40
0.306695881482009
 40
0.3703584092889373
 40
0.4993830193529282
 40
0.6284926302409563
 40
0.6922657259813465
 40
0.7560526822310297
 40
0.8181882638014923
 40
0.8803373499539993
 40
0.9042902683353782
 40
0.9282104830345619
 40
0.952120495510265
 40
0.9760428360099883
 40
1.0
 40
1.0
 40
1.0
 40
1.0
 10
118.4515182016181
 20
155.5680986576622
 30
0.0
 10
118.4506754870503
 20
155.7410946733437
 30
0.0
 10
118.4489908841426
 20
156.0869170931152
 30
0.0
 10
118.4353456360007
 20
156.6052977235056
 30
0.0
 10
118.4135578824755
 20
157.123021310232
 30
0.0
 10
118.3828316799069
 20
157.6400877767283
 30
0.0
 10
118.3433801668745
 20
158.1564968535863
 30
0.0
 10
118.2951460522498
 20
158.6722489217155
 30
0.0
 10
118.2381455243211
 20
159.1873419545773
 30
0.0
 10
118.1723712286334
 20
159.7017829192844
 30
0.0
 10
118.0066573167178
 20
160.8440375194677
 30
0.0
 10
117.6647038981068
 20
162.6031139575494
 30
0.0
 10
117.0072677803837
 20
164.9631199335025
 30
0.0
 10
116.1552963581752
 20
167.2845500892926
 30
0.0
 10
114.7487429581688
 20
170.3231086952129
 30
0.0
 10
112.5190878213151
 20
173.9059487320098
 30
0.0
 10
109.7277591399591
 20
177.0728205337039
 30
0.0
 10
107.2184604044351
 20
179.2963223943092
 30
0.0
 10
105.2351280827176
 20
180.7826814485975
 30
0.0
 10
103.1573146306526
 20
182.0937067855184
 30
0.0
 10
101.441983303971
 20
182.9931205708585
 30
0.0
 10
100.1355841807348
 20
183.5892060462888
 30
0.0
 10
99.27170398282033
 20
183.951976927419
 30
0.0
 10
98.39732608352232
 20
184.2873783552365
 30
0.0
 10
97.51317841397582
 20
184.5979068524682
 30
0.0
 10
96.91600667613582
 20
184.7819464471894
 30
0.0
 10
96.61720364118167
 20
184.8740331719451
 30
0.0
  0
SPLINE
  5
D1
330
1F
100
AcDbEntity
  8
0
  6
Continuous
 62
     7
370
    15
100
AcDbSpline
210
0.0
220
0.0
230
1.0
 70
     8
 71
     3
 72
    31
 73
    27
 74
     0
 42
0.000000001
 43
0.00000001
 40
0.0
 40
0.0
 40
0.0
 40
0.0
 40
0.0133128930162584
 40
0.0266126186434238
 40
0.0399030247502073
 40
0.0531879673032782
 40
0.0664713070272858
 40
0.0797569060442002
 40
0.0930486245065691
 40
0.1063503172393517
 40
0.1196658304048915
 40
0.1818014087549293
 40
0.2439504916860299
 40
0.3077235843799929
 40
0.3715105375763663
 40
0.5006201432131341
 40
0.6296447480293218
 40
0.6932934402594029
 40
0.7569559659581583
 40
0.8188949349972185
 40
0.8808473658849603
 40
0.9046980020604894
 40
0.9285163609918906
 40
0.9523246573931505
 40
0.9761451341308867
 40
1.0
 40
1.0
 40
1.0
 40
1.0
 10
96.61720364117114
 20
126.2621641434145
 30
0.0
 10
96.7834370239787
 20
126.3126841628521
 30
0.0
 10
97.11573937306699
 20
126.413674233869
 30
0.0
 10
97.61064210183407
 20
126.5758018778106
 30
0.0
 10
98.10255753736935
 20
126.7456080913358
 30
0.0
 10
98.5912559451536
 20
126.9238620379367
 30
0.0
 10
99.0767985608439
 20
127.1103576671613
 30
0.0
 10
99.55916922125071
 20
127.3051504547407
 30
0.0
 10
100.0383706348731
 20
127.5082241636666
 30
0.0
 10
100.5144074203695
 20
127.7195879389273
 30
0.0
 10
101.5648801111494
 20
128.2075195102569
 30
0.0
 10
103.1571739948797
 20
129.042412711072
 30
0.0
 10
105.2348305071154
 20
130.3533104875588
 30
0.0
 10
107.218319770868
 20
131.8397611902022
 30
0.0
 10
109.7276389791969
 20
134.0632398721834
 30
0.0
 10
112.5190880031559
 20
137.2302488105086
 30
0.0
 10
114.7486465469783
 20
140.8129344830927
 30
0.0
 10
116.1552280144587
 20
143.8514801471175
 30
0.0
 10
117.0071567886515
 20
146.1727342706734
 30
0.0
 10
117.6646698211107
 20
148.5329266817105
 30
0.0
 10
118.0330274276302
 20
150.427795050265
 30
0.0
 10
118.2288908331601
 20
151.8450581276828
 30
0.0
 10
118.3284937307931
 20
152.7726912740639
 30
0.0
 10
118.3991162583881
 20
153.7025250223834
 30
0.0
 10
118.4433367881816
 20
154.6345759575852
 30
0.0
 10
118.4487897526724
 20
155.2567748230114
 30
0.0
 10
118.4515182015813
 20
155.5680986576622
 30
0.0
  0
SPLINE
  5
D2
330
1F
100
AcDbEntity
  8
0
  6
Continuous
 62
     7
370
    15
100
AcDbSpline
210
0.0
220
0.0
230
1.0
 70
     8
 71
     3
 72
    19
 73
    15
 74
     0
 42
0.000000001
 43
0.00000001
 40
0.0
 40
0.0
 40
0.0
 40
0.0
 40
0.049898326359839
 40
0.0997762390400176
 40
0.1496497875438987
 40
0.1995350255870841
 40
0.249447995605912
 40
0.3746647806075449
 40
0.4999273868530857
 40
0.6251631702822329
 40
0.7504447819000601
 40
0.8336320953484949
 40
0.9167923453893622
 40
0.9999999999999999
 40
0.9999999999999999
 40
0.9999999999999999
 40
0.9999999999999999
 10
69.3672036247604
 20
131.213421530553
 30
0.0
 10
69.51338700390747
 20
131.1035666200955
 30
0.0
 10
69.80569395777745
 20
130.8839017414283
 30
0.0
 10
70.25151215464689
 20
130.5644699641268
 30
0.0
 10
70.70253159617775
 20
130.2525491473424
 30
0.0
 10
71.15929642308795
 20
129.9488504173974
 30
0.0
 10
71.85400525467604
 20
129.5045982696185
 30
0.0
 10
72.79995723646299
 20
128.9408164041804
 30
0.0
 10
74.01361627096226
 20
128.2897105606015
 30
0.0
 10
75.2555518025964
 20
127.693766129593
 30
0.0
 10
76.3811342544883
 20
127.2145866796358
 30
0.0
 10
77.37971039388418
 20
126.8335643287097
 30
0.0
 10
78.24307284347127
 20
126.5313827804693
 30
0.0
 10
78.82577135145854
 20
126.3519207318364
 30
0.0
 10
79.11720362198152
 20
126.2621641397243
 30
0.0
  0
SPLINE
  5
D3
330
1F
100
AcDbEntity
  8
0
  6
Continuous
 62
     7
370
    15
100
AcDbSpline
210
0.0
220
0.0
230
1.0
 70
     8
 71
     3
 72
    34
 73
    30
 74
     0
 42
0.000000001
 43
0.00000001
 40
0.0
 40
0.0
 40
0.0
 40
0.0
 40
0.0091332024637246
 40
0.0182612433735732
 40
0.0273869560692221
 40
0.0365131760588104
 40
0.0456427383778029
 40
0.0547784749500532
 40
0.0835461555907233
 40
0.1123228157747314
 40
0.1423937441782167
 40
0.1724736920987865
 40
0.23495273877644
 40
0.2994478819463337
 40
0.3655379407129442
 40
0.4327295637688299
 40
0.5004764062567953
 40
0.568204418590846
 40
0.6353405018135823
 40
0.7013410455269796
 40
0.765716890733637
 40
0.8280520419345111
 40
0.8580414660304878
 40
0.8880398851909563
 40
0.9167194313852449
 40
0.9454079297705411
 40
0.9636070100697356
 40
0.9817968780876327
 40
0.9999999999999999
 40
0.9999999999999999
 40
0.9999999999999999
 40
0.9999999999999999
 10
79.11720360603009
 20
184.8740331703441
 30
0.0
 10
78.94532698897459
 20
184.8217638063995
 30
0.0
 10
78.60167088951293
 20
184.7172546181093
 30
0.0
 10
78.08987902921095
 20
184.5490453442924
 30
0.0
 10
77.5810575815719
 20
184.3725346448444
 30
0.0
 10
77.07545423566461
 20
184.1868978214129
 30
0.0
 10
76.5729993047
 20
183.9923524834918
 30
0.0
 10
75.7162923541394
 20
183.6431670744126
 30
0.0
 10
74.51992707393765
 20
183.1038296536832
 30
0.0
 10
72.98993852046065
 20
182.3089087901971
 30
0.0
 10
71.48504075169696
 20
181.4153435749842
 30
0.0
 10
69.48518987707355
 20
180.0648448830731
 30
0.0
 10
67.08305104365306
 20
178.1095818083692
 30
0.0
 10
64.44662086064523
 20
175.3631329737477
 30
0.0
 10
62.12043819582113
 20
172.2318554085037
 30
0.0
 10
60.18382186474867
 20
168.7717521236899
 30
0.0
 10
58.70099994758085
 20
165.0592162052347
 30
0.0
 10
57.71527874522405
 20
161.1860742632917
 30
0.0
 10
57.24483658135568
 20
157.2521562892132
 30
0.0
 10
57.28189109020635
 20
153.3568028254671
 30
0.0
 10
57.79462650540042
 20
149.5914786509718
 30
0.0
 10
58.58226637467803
 20
146.6032422110759
 30
0.0
 10
59.40027821200287
 20
144.3394057649768
 30
0.0
 10
60.08738268826121
 20
142.7352996630104
 30
0.0
 10
60.85256379612425
 20
141.1956962233782
 30
0.0
 10
61.58701501096109
 20
139.9024982671366
 30
0.0
 10
62.26952508677243
 20
138.8193951120643
 30
0.0
 10
62.87157424944692
 20
137.9298470139906
 30
0.0
 10
63.29882387577412
 20
137.3554178518101
 30
0.0
 10
63.51252648855613
 20
137.0680986705824
 30
0.0
  0
ARC
  5
D4
330
1F
100
AcDbEntity
  8
0
  6
Continuous
 62
     7
370
    15
100
AcDbCircle
 10
87.8672036274
 20
155.5680986573
 30
0.0
 40
30.86715729090357
100
AcDbArc
 50
106.2409449512
 51
216.8228239872
  0
SPLINE
  5
D5
330
1F
100
AcDbEntity
  8
0
  6
Continuous
 62
     7
370
    15
100
AcDbSpline
210
0.0
220
0.0
230
1.0
 70
    24
 71
     3
 72
    10
 73
     6
 74
     0
 42
0.000000001
 43
0.00000001
 40
0.0
 40
0.0
 40
0.0
 40
0.0
 40
0.5
 40
0.5
 40
1.0
 40
1.0
 40
1.0
 40
1.0
 10
118.451518201613
 20
155.5680986576622
 30
0.0
 10
118.5025426594567
 20
155.5680986576622
 30
0.0
 10
118.5555859574564
 20
155.5680986576622
 30
0.0
 10
118.653597191961
 20
155.5680986576622
 30
0.0
 10
118.698281173969
 20
155.5680986576622
 30
0.0
 10
118.7343609137905
 20
155.5680986576622
 30
0.0
  0
ARC
  5
D6
330
1F
100
AcDbEntity
  8
0
  6
Continuous
 62
     7
370
    15
100
AcDbCircle
 10
87.8672036264
 20
155.5680986577
 30
0.0
 40
30.86715728734562
100
AcDbArc
 50
286.2409449597
 51
0.0
  0
ARC
  5
D7
330
1F
100
AcDbEntity
  8
0
  6
Continuous
 62
     7
370
    15
100
AcDbCircle
 10
87.8672036264
 20
155.5680986577
 30
0.0
 40
30.86715728744035
100
AcDbArc
 50
0.0
 51
73.759055043
  0
ARC
  5
D8
330
1F
100
AcDbEntity
  8
0
  6
Continuous
 62
     7
370
    15
100
AcDbCircle
 10
87.8672036257
 20
155.5680986582
 30
0.0
 40
30.86715728740665
100
AcDbArc
 50
233.177176009
 51
253.759055057
  0
ARC
  5
D9
330
1F
100
AcDbEntity
  8
0
  6
Continuous
 62
     7
370
    15
100
AcDbCircle
 10
87.8672036266
 20
155.5680986577
 30
0.0
 40
31.63284271224761
100
AcDbArc
 50
254.4024500297
 51
285.7334817367
  0
SPLINE
  5
DA
330
1F
100
AcDbEntity
  8
0
  6
Continuous
 62
     7
370
    15
100
AcDbSpline
210
0.0
220
0.0
230
1.0
 70
     8
 71
     3
 72
     8
 73
     4
 74
     0
 42
0.000000001
 43
0.00000001
 40
0.0
 40
0.0
 40
0.0
 40
0.0
 40
0.0005364353529605
 40
0.0005364353529605
 40
0.0005364353529605
 40
0.0005364353529605
 10
79.64803317727626
 20
125.3863900502581
 30
0.0
 10
79.55255028711801
 20
125.2909071600998
 30
0.0
 10
79.45714278661357
 20
125.1954996616369
 30
0.0
 10
79.36180807269464
 20
125.100164947718
 30
0.0
  0
SPLINE
  5
DB
330
1F
100
AcDbEntity
  8
0
  6
Continuous
 62
     7
370
    15
100
AcDbSpline
210
0.0
220
0.0
230
1.0
 70
     8
 71
     3
 72
     9
 73
     5
 74
     0
 42
0.000000001
 43
0.00000001
 40
0.0
 40
0.0
 40
0.0
 40
0.0
 40
0.4987803470753149
 40
1.0
 40
1.0
 40
1.0
 40
1.0
 10
79.23436092145657
 20
125.9327240862581
 30
0.0
 10
79.30291846548043
 20
125.8415578955861
 30
0.0
 10
79.4403688370235
 20
125.6587796622282
 30
0.0
 10
79.57869925632164
 20
125.4773341200916
 30
0.0
 10
79.64803318107118
 20
125.3863900484372
 30
0.0
  0
SPLINE
  5
DC
330
1F
100
AcDbEntity
  8
0
  6
Continuous
 62
     7
370
    15
100
AcDbSpline
210
0.0
220
0.0
230
1.0
 70
     8
 71
     3
 72
     9
 73
     5
 74
     0
 42
0.000000001
 43
0.00000001
 40
0.0
 40
0.0
 40
0.0
 40
0.0
 40
0.5013065793165208
 40
0.9999999999999999
 40
0.9999999999999999
 40
0.9999999999999999
 40
0.9999999999999999
 10
96.05658761029716
 20
125.3474324569569
 30
0.0
 10
96.13094330784459
 20
125.4448529435267
 30
0.0
 10
96.27926710931717
 20
125.6391860933181
 30
0.0
 10
96.42658158395054
 20
125.8350486997263
 30
0.0
 10
96.50004634322163
 20
125.9327240929001
 30
0.0
  0
LINE
  5
DD
330
1F
100
AcDbEntity
  8
0
  6
Continuous
 62
     7
370
    15
100
AcDbLine
 10
96.44485904
 20
125.1204293555
 30
0.0
 11
96.0565876121
 21
125.347432448
 31
0.0
  0
SPLINE
  5
DE
330
1F
100
AcDbEntity
  8
0
  6
Continuous
 62
     7
370
    15
100
AcDbSpline
210
0.0
220
0.0
230
1.0
 70
     8
 71
     3
 72
     9
 73
     5
 74
     0
 42
0.000000001
 43
0.00000001
 40
0.0
 40
0.0
 40
0.0
 40
0.0
 40
0.498780347075351
 40
1.0
 40
1.0
 40
1.0
 40
1.0
 10
96.50004634056056
 20
185.2034732239747
 30
0.0
 10
96.43148879656357
 20
185.2946394146872
 30
0.0
 10
96.2940384250744
 20
185.4774176481261
 30
0.0
 10
96.15570800582975
 20
185.6588631903443
 30
0.0
 10
96.08637408110704
 20
185.7498072620396
 30
0.0
  0
SPLINE
  5
DF
330
1F
100
AcDbEntity
  8
0
  6
Continuous
 62
     7
370
    15
100
AcDbSpline
210
0.0
220
0.0
230
1.0
 70
    24
 71
     3
 72
     8
 73
     4
 74
     0
 42
0.000000001
 43
0.00000001
 40
0.0
 40
0.0
 40
0.0
 40
0.0
 40
0.000536435349708
 40
0.000536435349708
 40
0.000536435349708
 40
0.000536435349708
 10
96.08637407799952
 20
185.7498072650229
 30
0.0
 10
96.18185696757739
 20
185.8452901546007
 30
0.0
 10
96.27726446694723
 20
185.9406976539705
 30
0.0
 10
96.37259918028829
 20
186.0360323673116
 30
0.0
  0
ARC
  5
E0
330
1F
100
AcDbEntity
  8
0
  6
Continuous
 62
     7
370
    15
100
AcDbCircle
 10
87.8672036266
 20
155.5680986577
 30
0.0
 40
31.63284271224551
100
AcDbArc
 50
359.9999999882
 51
74.4024500297
  0
ARC
  5
E1
330
1F
100
AcDbEntity
  8
0
  6
Continuous
 62
     7
370
    15
100
AcDbCircle
 10
87.8672036266
 20
155.5680986577
 30
0.0
 40
31.63284271276124
100
AcDbArc
 50
285.7334817376
 51
359.9999999765
  0
ARC
  5
E2
330
1F
100
AcDbEntity
  8
0
  6
Continuous
 62
     7
370
    15
100
AcDbCircle
 10
87.8672036266
 20
155.5680986577
 30
0.0
 40
31.63284271224762
100
AcDbArc
 50
74.4024500297
 51
105.7334817367
  0
SPLINE
  5
E3
330
1F
100
AcDbEntity
  8
0
  6
Continuous
 62
     7
370
    15
100
AcDbSpline
210
0.0
220
0.0
230
1.0
 70
     8
 71
     3
 72
     9
 73
     5
 74
     0
 42
0.000000001
 43
0.00000001
 40
0.0
 40
0.0
 40
0.0
 40
0.0
 40
0.5013065560617223
 40
0.9999999999999999
 40
0.9999999999999999
 40
0.9999999999999999
 40
0.9999999999999999
 10
79.67781965189256
 20
185.7887648631975
 30
0.0
 10
79.60346395676002
 20
185.6913443827147
 30
0.0
 10
79.45514015322416
 20
185.4970112360506
 30
0.0
 10
79.30782568052686
 20
185.3011486267079
 30
0.0
 10
79.2343609187955
 20
185.203473227516
 30
0.0
  0
LINE
  5
E4
330
1F
100
AcDbEntity
  8
0
  6
Continuous
 62
     7
370
    15
100
AcDbLine
 10
79.2895482245
 20
186.0157679533
 30
0.0
 11
79.6778196524
 21
185.7887648608
 31
0.0
  0
ARC
  5
E5
330
1F
100
AcDbEntity
  8
0
  6
Continuous
 62
     7
370
    15
100
AcDbCircle
 10
87.8672036298
 20
155.5680986645
 30
0.0
 40
31.63284272006284
100
AcDbArc
 50
234.2086512609
 51
254.4024500271
  0
SPLINE
  5
E6
330
1F
100
AcDbEntity
  8
0
  6
Continuous
 62
     7
370
    15
100
AcDbSpline
210
0.0
220
0.0
230
1.0
 70
    24
 71
     3
 72
     9
 73
     5
 74
     0
 42
0.000000001
 43
0.00000001
 40
0.0
 40
0.0
 40
0.0
 40
0.0
 40
0.5037136263313898
 40
1.0
 40
1.0
 40
1.0
 40
1.0
 10
69.36720362663888
 20
129.9090507866153
 30
0.0
 10
69.36720362663888
 20
130.0682685372558
 30
0.0
 10
69.36720362663888
 20
130.3843563743074
 30
0.0
 10
69.36720362663887
 20
130.701681122653
 30
0.0
 10
69.36720362663887
 20
130.8591650712848
 30
0.0
  0
SPLINE
  5
E7
330
1F
100
AcDbEntity
  8
0
  6
Continuous
 62
     7
370
    15
100
AcDbSpline
210
0.0
220
0.0
230
1.0
 70
    24
 71
     3
 72
     9
 73
     5
 74
     0
 42
0.000000001
 43
0.00000001
 40
0.0
 40
0.0
 40
0.0
 40
0.0
 40
0.4962863652118921
 40
1.0
 40
1.0
 40
1.0
 40
1.0
 10
63.15827003220062
 20
137.0680986576622
 30
0.0
 10
63.00078608806263
 20
137.0680986576622
 30
0.0
 10
62.68346134336457
 20
137.0680986576622
 30
0.0
 10
62.36737350267644
 20
137.0680986576622
 30
0.0
 10
62.20815574753109
 20
137.0680986576622
 30
0.0
  0
ARC
  5
E8
330
1F
100
AcDbEntity
  8
0
  6
Continuous
 62
     7
370
    15
100
AcDbCircle
 10
87.8672036266
 20
155.5680986577
 30
0.0
 40
31.63284271224761
100
AcDbArc
 50
215.7913487373
 51
234.2086512627
  0
ARC
  5
E9
330
1F
100
AcDbEntity
  8
0
  6
Continuous
 62
     7
370
    15
100
AcDbCircle
 10
87.8672036263
 20
155.5680986579
 30
0.0
 40
31.63284271225417
100
AcDbArc
 50
105.7334817317
 51
215.7913487379
  0
SPLINE
  5
EA
330
1F
100
AcDbEntity
  8
0
  6
Continuous
 62
     7
370
    15
100
AcDbSpline
210
0.0
220
0.0
230
1.0
 70
    24
 71
     3
 72
     8
 73
     4
 74
     0
 42
0.000000001
 43
0.00000001
 40
0.0
 40
0.0
 40
0.0
 40
0.0
 40
1.0
 40
1.0
 40
1.0
 40
1.0
 10
62.0638608200576
 20
137.0680986576622
 30
0.0
 10
62.06386081950046
 20
137.0680986576622
 30
0.0
 10
62.12264587740385
 20
137.0680986576623
 30
0.0
 10
62.20815574605969
 20
137.0680986576623
 30
0.0
  0
SPLINE
  5
EB
330
1F
100
AcDbEntity
  8
0
  6
Continuous
 62
     7
370
    15
100
AcDbSpline
210
0.0
220
0.0
230
1.0
 70
    24
 71
     3
 72
     8
 73
     4
 74
     0
 42
0.000000001
 43
0.00000001
 40
0.0
 40
0.0
 40
0.0
 40
0.0
 40
1.0
 40
1.0
 40
1.0
 40
1.0
 10
69.36720362663887
 20
129.9090507791343
 30
0.0
 10
69.36720362663887
 20
129.8234371969717
 30
0.0
 10
69.36720362663945
 20
129.7647558504691
 30
0.0
 10
69.36720362663945
 20
129.7647558512388
 30
0.0
  0
ARC
  5
EC
330
1F
100
AcDbEntity
  8
0
  6
Continuous
 62
     7
370
    15
100
AcDbCircle
 10
87.8672036266
 20
155.5680986577
 30
0.0
 40
31.7500000000362
100
AcDbArc
 50
215.6390613326
 51
234.3609386674
  0
ARC
  5
ED
330
1F
100
AcDbEntity
  8
0
  6
Continuous
 62
     7
370
    15
100
AcDbCircle
 10
87.8672036266
 20
155.5680986577
 30
0.0
 40
31.75000000003622
100
AcDbArc
 50
74.2833781209
 51
105.9369715327
  0
SPLINE
  5
EE
330
1F
100
AcDbEntity
  8
0
  6
Continuous
 62
     7
370
    15
100
AcDbSpline
210
0.0
220
0.0
230
1.0
 70
    24
 71
     3
 72
     8
 73
     4
 74
     0
 42
0.000000001
 43
0.00000001
 40
0.0
 40
0.0
 40
0.0
 40
0.0
 40
1.0
 40
1.0
 40
1.0
 40
1.0
 10
96.46763466446023
 20
186.1310678514836
 30
0.0
 10
96.46763466478583
 20
186.1310678518091
 30
0.0
 10
96.4303606801117
 20
186.093793867135
 30
0.0
 10
96.37259918023766
 20
186.0360323672609
 30
0.0
  0
SPLINE
  5
EF
330
1F
100
AcDbEntity
  8
0
  6
Continuous
 62
     7
370
    15
100
AcDbSpline
210
0.0
220
0.0
230
1.0
 70
    24
 71
     3
 72
    10
 73
     6
 74
     0
 42
0.000000001
 43
0.00000001
 40
0.0
 40
0.0
 40
0.0
 40
0.0
 40
0.5
 40
0.5
 40
1.0
 40
1.0
 40
1.0
 40
1.0
 10
79.28954821857054
 20
186.0157679567701
 30
0.0
 10
79.24975413465295
 20
186.0390335886557
 30
0.0
 10
79.21491946656143
 20
186.0593996954957
 30
0.0
 10
79.16435233293664
 20
186.0889637965027
 30
0.0
 10
79.14929658938429
 20
186.097766144811
 30
0.0
 10
79.14929658949325
 20
186.0977661447474
 30
0.0
  0
ARC
  5
F0
330
1F
100
AcDbEntity
  8
0
  6
Continuous
 62
     7
370
    15
100
AcDbCircle
 10
87.8672036266
 20
155.5680986577
 30
0.0
 40
31.75000000003621
100
AcDbArc
 50
254.2833781209
 51
285.9369715327
  0
SPLINE
  5
F1
330
1F
100
AcDbEntity
  8
0
  6
Continuous
 62
     7
370
    15
100
AcDbSpline
210
0.0
220
0.0
230
1.0
 70
    24
 71
     3
 72
     8
 73
     4
 74
     0
 42
0.000000001
 43
0.00000001
 40
0.0
 40
0.0
 40
0.0
 40
0.0
 40
1.0
 40
1.0
 40
1.0
 40
1.0
 10
79.26677258852128
 20
125.0051294635446
 30
0.0
 10
79.26677258856144
 20
125.0051294635848
 30
0.0
 10
79.30404657306107
 20
125.0424034480844
 30
0.0
 10
79.36180807273044
 20
125.1001649477538
 30
0.0
  0
SPLINE
  5
F2
330
1F
100
AcDbEntity
  8
0
  6
Continuous
 62
     7
370
    15
100
AcDbSpline
210
0.0
220
0.0
230
1.0
 70
    24
 71
     3
 72
    10
 73
     6
 74
     0
 42
0.000000001
 43
0.00000001
 40
0.0
 40
0.0
 40
0.0
 40
0.0
 40
0.5
 40
0.5
 40
1.0
 40
1.0
 40
1.0
 40
1.0
 10
96.44485903643297
 20
125.1204293575453
 30
0.0
 10
96.48465312003897
 20
125.097163725842
 30
0.0
 10
96.51948778786648
 20
125.0767976191562
 30
0.0
 10
96.57005492109228
 20
125.0472335183825
 30
0.0
 10
96.5851106645016
 20
125.0384311701578
 30
0.0
 10
96.58511066417331
 20
125.0384311703497
 30
0.0
  0
ARC
  5
F3
330
1F
100
AcDbEntity
  8
0
  6
Continuous
 62
     7
370
    15
100
AcDbCircle
 10
87.8672036266
 20
155.5680986577
 30
0.0
 40
31.75000000007486
100
AcDbArc
 50
105.936971532
 51
215.6390613325
  0
ARC
  5
F4
330
1F
100
AcDbEntity
  8
0
  6
Continuous
 62
     7
370
    15
100
AcDbCircle
 10
87.8672036266
 20
155.5680986577
 30
0.0
 40
31.75000000001052
100
AcDbArc
 50
234.3609386674
 51
254.283378121
  0
ARC
  5
F5
330
1F
100
AcDbEntity
  8
0
  6
Continuous
 62
     7
370
    15
100
AcDbCircle
 10
87.8672036266
 20
155.5680986577
 30
0.0
 40
31.75
100
AcDbArc
 50
0.0
 51
74.2833781211
  0
SPLINE
  5
F6
330
1F
100
AcDbEntity
  8
0
  6
Continuous
 62
     7
370
    15
100
AcDbSpline
210
0.0
220
0.0
230
1.0
 70
    24
 71
     3
 72
    10
 73
     6
 74
     0
 42
0.000000001
 43
0.00000001
 40
0.0
 40
0.0
 40
0.0
 40
0.0
 40
0.5
 40
0.5
 40
1.0
 40
1.0
 40
1.0
 40
1.0
 10
119.5000463393817
 20
155.5680986576622
 30
0.0
 10
119.5361260792292
 20
155.5680986576622
 30
0.0
 10
119.5664566484073
 20
155.5680986576622
 30
0.0
 10
119.6070542310833
 20
155.5680986576622
 30
0.0
 10
119.6172036267682
 20
155.5680986576622
 30
0.0
 10
119.617203626657
 20
155.5680986576622
 30
0.0
  0
ARC
  5
F7
330
1F
100
AcDbEntity
  8
0
  6
Continuous
 62
     7
370
    15
100
AcDbCircle
 10
87.8672036266
 20
155.5680986577
 30
0.0
 40
31.75
100
AcDbArc
 50
285.9369715323
 51
359.9999999897
  0
INSERT
  5
103
330
1F
100
AcDbEntity
  8
DIM
100
AcDbBlockReference
  2
SW_CENTERMARKSYMBOL_0
 10
87.8672036266
 20
155.5680986577
 30
0.0
  0
LINE
  5
104
330
1F
100
AcDbEntity
  8
0
  6
Continuous
 62
     7
370
    15
100
AcDbLine
 10
236.3665055451
 20
123.8180986577
 30
0.0
 11
239.6789834781
 21
123.8180986577
 31
0.0
  0
LINE
  5
105
330
1F
100
AcDbEntity
  8
0
  6
Continuous
 62
     7
370
    15
100
AcDbLine
 10
239.6789834781
 20
187.3180986577
 30
0.0
 11
236.3665055451
 21
187.3180986577
 31
0.0
  0
LINE
  5
106
330
1F
100
AcDbEntity
  8
0
  6
Continuous
 62
     7
370
    15
100
AcDbLine
 10
226.1103543281
 20
123.8180986577
 30
0.0
 11
229.3228322611
 21
123.8180986577
 31
0.0
  0
LINE
  5
107
330
1F
100
AcDbEntity
  8
0
  6
Continuous
 62
     7
370
    15
100
AcDbLine
 10
229.3228322611
 20
187.3180986577
 30
0.0
 11
226.1103543281
 21
187.3180986577
 31
0.0
  0
LINE
  5
108
330
1F
100
AcDbEntity
  8
0
  6
Continuous
 62
     7
370
    15
100
AcDbLine
 10
236.3665055451
 20
187.3180986577
 30
0.0
 11
234.7446689031
 21
184.5089951917
 31
0.0
  0
LINE
  5
109
330
1F
100
AcDbEntity
  8
0
  6
Continuous
 62
     7
370
    15
100
AcDbLine
 10
234.7446689031
 20
126.6272021237
 30
0.0
 11
236.3665055451
 21
123.8180986577
 31
0.0
  0
LINE
  5
10A
330
1F
100
AcDbEntity
  8
0
  6
Continuous
 62
     7
370
    15
100
AcDbLine
 10
229.3228322611
 20
123.8180986577
 30
0.0
 11
230.9446689031
 21
126.6272021237
 31
0.0
  0
LINE
  5
10B
330
1F
100
AcDbEntity
  8
0
  6
Continuous
 62
     7
370
    15
100
AcDbLine
 10
230.9446689031
 20
184.5089951917
 30
0.0
 11
229.3228322611
 21
187.3180986577
 31
0.0
  0
LINE
  5
10C
330
1F
100
AcDbEntity
  8
0
  6
Continuous
 62
     7
370
    15
100
AcDbLine
 10
239.9618261909
 20
123.9352559455
 30
0.0
 11
240.7275116159
 21
124.7009413704
 31
0.0
  0
LINE
  5
10D
330
1F
100
AcDbEntity
  8
0
  6
Continuous
 62
     7
370
    15
100
AcDbLine
 10
240.7275116159
 20
186.4352559449
 30
0.0
 11
239.9618261909
 21
187.2009413699
 31
0.0
  0
LINE
  5
10E
330
1F
100
AcDbEntity
  8
0
  6
Continuous
 62
     7
370
    15
100
AcDbLine
 10
230.9446689066
 20
127.5680986577
 30
0.0
 11
234.7446689067
 21
127.5680986577
 31
0.0
  0
LINE
  5
10F
330
1F
100
AcDbEntity
  8
0
  6
Continuous
 62
     7
370
    15
100
AcDbLine
 10
234.7446689067
 20
183.5680986577
 30
0.0
 11
230.9446689066
 21
183.5680986577
 31
0.0
  0
ARC
  5
110
330
1F
100
AcDbEntity
  8
0
  6
Continuous
 62
     7
370
    15
100
AcDbCircle
 10
224.5446689028
 20
133.1680986573
 30
0.0
 40
0.4000000002166928
100
AcDbArc
 50
0.000000045
 51
89.9999999705
  0
ARC
  5
111
330
1F
100
AcDbEntity
  8
0
  6
Continuous
 62
     7
370
    15
100
AcDbCircle
 10
224.5446689028
 20
177.968098658
 30
0.0
 40
0.4000000002166928
100
AcDbArc
 50
270.0000000295
 51
359.999999955
  0
LINE
  5
112
330
1F
100
AcDbEntity
  8
0
  6
Continuous
 62
     7
370
    15
100
AcDbLine
 10
221.7446689031
 20
177.7930986577
 30
0.0
 11
154.2003606761
 21
167.9427940337
 31
0.0
  0
LINE
  5
113
330
1F
100
AcDbEntity
  8
0
  6
Continuous
 62
     7
370
    15
100
AcDbLine
 10
154.2003606761
 20
143.1934032817
 30
0.0
 11
221.7446689031
 21
133.3430986577
 31
0.0
  0
LINE
  5
114
330
1F
100
AcDbEntity
  8
0
  6
Continuous
 62
     7
370
    15
100
AcDbLine
 10
221.7446689031
 20
133.3430986577
 30
0.0
 11
222.2271829601
 21
133.5680986577
 31
0.0
  0
LINE
  5
115
330
1F
100
AcDbEntity
  8
0
  6
Continuous
 62
     7
370
    15
100
AcDbLine
 10
222.2271829601
 20
177.5680986577
 30
0.0
 11
221.7446689031
 21
177.7930986577
 31
0.0
  0
LINE
  5
116
330
1F
100
AcDbEntity
  8
0
  6
Continuous
 62
     7
370
    15
100
AcDbLine
 10
222.2271829601
 20
133.5680986577
 30
0.0
 11
224.544668903
 21
133.5680986577
 31
0.0
  0
LINE
  5
117
330
1F
100
AcDbEntity
  8
0
  6
Continuous
 62
     7
370
    15
100
AcDbLine
 10
224.544668903
 20
177.5680986577
 30
0.0
 11
222.2271829601
 21
177.5680986577
 31
0.0
  0
SPLINE
  5
118
330
1F
100
AcDbEntity
  8
0
  6
Continuous
 62
     7
370
    15
100
AcDbSpline
210
0.0
220
0.0
230
1.0
 70
     8
 71
     3
 72
    12
 73
     8
 74
     0
 42
0.000000001
 43
0.00000001
 40
0.0
 40
0.0
 40
0.0
 40
0.0
 40
0.1201318612004371
 40
0.3206894411253652
 40
0.5305028709343054
 40
0.7745075517833898
 40
1.0
 40
1.0
 40
1.0
 40
1.0
 10
243.8491541153416
 20
166.5959792566404
 30
0.0
 10
243.6602996740666
 20
166.595207061051
 30
0.0
 10
243.1561567712487
 20
166.5931457013958
 30
0.0
 10
242.3611715016227
 20
166.9072291466512
 30
0.0
 10
241.5477209918361
 20
167.5420657540897
 30
0.0
 10
240.9579753036653
 20
168.4760747606039
 30
0.0
 10
240.8814316668109
 20
169.2137866651823
 30
0.0
 10
240.8446689029915
 20
169.5680986580437
 30
0.0
  0
SPLINE
  5
119
330
1F
100
AcDbEntity
  8
0
  6
Continuous
 62
     7
370
    15
100
AcDbSpline
210
0.0
220
0.0
230
1.0
 70
     8
 71
     3
 72
    12
 73
     8
 74
     0
 42
0.000000001
 43
0.00000001
 40
0.0
 40
0.0
 40
0.0
 40
0.0
 40
0.1899480118888851
 40
0.3948487355450282
 40
0.6052486925167406
 40
0.8449324802474455
 40
1.0
 40
1.0
 40
1.0
 40
1.0
 10
240.8446689029915
 20
141.5680986572807
 30
0.0
 10
240.8706883949699
 20
141.8663645350479
 30
0.0
 10
240.9247756339203
 20
142.4863757871872
 30
0.0
 10
241.3691167615147
 20
143.3529061832775
 30
0.0
 10
242.1027178200506
 20
144.0810461461726
 30
0.0
 10
242.9854647427447
 20
144.5226443189008
 30
0.0
 10
243.6079786706923
 20
144.5296397135051
 30
0.0
 10
243.852516659518
 20
144.5323876676484
 30
0.0
  0
SPLINE
  5
11A
330
1F
100
AcDbEntity
  8
0
  6
Continuous
 62
     7
370
    15
100
AcDbSpline
210
0.0
220
0.0
230
1.0
 70
     8
 71
     3
 72
    11
 73
     7
 74
     0
 42
0.000000001
 43
0.00000001
 40
0.0
 40
0.0
 40
0.0
 40
0.0
 40
0.2418856032025078
 40
0.5000000000124919
 40
0.758114396836261
 40
1.0
 40
1.0
 40
1.0
 40
1.0
 10
154.2003606761744
 20
167.9427940336214
 30
0.0
 10
154.0882084948392
 20
167.9147387379966
 30
0.0
 10
153.8563795230997
 20
167.8567458371086
 30
0.0
 10
153.572763997935
 20
167.6207607843016
 30
0.0
 10
153.380177104838
 20
167.3060593387536
 30
0.0
 10
153.3562460558412
 20
167.0682881176721
 30
0.0
 10
153.344668903399
 20
166.9532612472167
 30
0.0
  0
SPLINE
  5
11B
330
1F
100
AcDbEntity
  8
0
  6
Continuous
 62
     7
370
    15
100
AcDbSpline
210
0.0
220
0.0
230
1.0
 70
     8
 71
     3
 72
    11
 73
     7
 74
     0
 42
0.000000001
 43
0.00000001
 40
0.0
 40
0.0
 40
0.0
 40
0.0
 40
0.2418856031626066
 40
0.4999999999851674
 40
0.7581143967952234
 40
1.0
 40
1.0
 40
1.0
 40
1.0
 10
153.344668903399
 20
144.1829360681077
 30
0.0
 10
153.3562460558402
 20
144.0679091976567
 30
0.0
 10
153.3801771048352
 20
143.8301379765846
 30
0.0
 10
153.5727639979181
 20
143.5154365310447
 30
0.0
 10
153.8563795230653
 20
143.2794514782362
 30
0.0
 10
154.0882084947952
 20
143.2214585773393
 30
0.0
 10
154.2003606761264
 20
143.1934032817101
 30
0.0
  0
LINE
  5
11C
330
1F
100
AcDbEntity
  8
0
  6
Continuous
 62
     7
370
    15
100
AcDbLine
 10
243.8446689031
 20
144.5680986577
 30
0.0
 11
346.1446689031
 21
144.5680986577
 31
0.0
  0
LINE
  5
11D
330
1F
100
AcDbEntity
  8
0
  6
Continuous
 62
     7
370
    15
100
AcDbLine
 10
346.1446689031
 20
166.5680986577
 30
0.0
 11
243.8446689031
 21
166.5680986577
 31
0.0
  0
ARC
  5
11E
330
1F
100
AcDbEntity
  8
0
  6
Continuous
 62
     7
370
    15
100
AcDbCircle
 10
381.3446689028
 20
144.968098658
 30
0.0
 40
0.400000000270893
100
AcDbArc
 50
270.0000000467
 51
0.0000000014
  0
ARC
  5
11F
330
1F
100
AcDbEntity
  8
0
  6
Continuous
 62
     7
370
    15
100
AcDbCircle
 10
381.3446689028
 20
166.1680986573
 30
0.0
 40
0.400000000270893
100
AcDbArc
 50
359.9999999986
 51
89.9999999533
  0
LINE
  5
120
330
1F
100
AcDbEntity
  8
0
  6
Continuous
 62
     7
370
    15
100
AcDbLine
 10
364.6446689031
 20
144.5680986577
 30
0.0
 11
381.3446689031
 21
144.5680986577
 31
0.0
  0
LINE
  5
121
330
1F
100
AcDbEntity
  8
0
  6
Continuous
 62
     7
370
    15
100
AcDbLine
 10
381.3446689031
 20
166.5680986577
 30
0.0
 11
364.6446689031
 21
166.5680986577
 31
0.0
  0
LINE
  5
122
330
1F
100
AcDbEntity
  8
0
  6
Continuous
 62
     7
370
    15
100
AcDbLine
 10
364.6446689031
 20
166.5680986577
 30
0.0
 11
364.2446689031
 21
166.1680986577
 31
0.0
  0
LINE
  5
123
330
1F
100
AcDbEntity
  8
0
  6
Continuous
 62
     7
370
    15
100
AcDbLine
 10
364.2446689031
 20
144.9680986577
 30
0.0
 11
364.6446689031
 21
144.5680986577
 31
0.0
  0
LINE
  5
124
330
1F
100
AcDbEntity
  8
0
  6
Continuous
 62
     7
370
    15
100
AcDbLine
 10
346.1446689031
 20
144.5680986577
 30
0.0
 11
347.8602744391
 21
145.3680986577
 31
0.0
  0
LINE
  5
125
330
1F
100
AcDbEntity
  8
0
  6
Continuous
 62
     7
370
    15
100
AcDbLine
 10
347.8602744391
 20
165.7680986577
 30
0.0
 11
346.1446689031
 21
166.5680986577
 31
0.0
  0
LINE
  5
126
330
1F
100
AcDbEntity
  8
0
  6
Continuous
 62
     7
370
    15
100
AcDbLine
 10
347.8602744391
 20
145.3680986577
 30
0.0
 11
364.2446689031
 21
145.3680986577
 31
0.0
  0
LINE
  5
127
330
1F
100
AcDbEntity
  8
0
  6
Continuous
 62
     7
370
    15
100
AcDbLine
 10
364.2446689031
 20
165.7680986577
 30
0.0
 11
347.8602744391
 21
165.7680986577
 31
0.0
  0
ARC
  5
128
330
1F
100
AcDbEntity
  8
0
  6
Continuous
 62
     7
370
    15
100
AcDbCircle
 10
225.3446689012
 20
186.1524132334
 30
0.0
 40
0.3999999981377584
100
AcDbArc
 50
134.9999999427
 51
180.000000483
  0
ARC
  5
129
330
1F
100
AcDbEntity
  8
0
  6
Continuous
 62
     7
370
    15
100
AcDbCircle
 10
225.3446689012
 20
124.983784082
 30
0.0
 40
0.3999999981377584
100
AcDbArc
 50
179.999999517
 51
225.0000000573
  0
ARC
  5
12A
330
1F
100
AcDbEntity
  8
0
  6
Continuous
 62
     7
370
    15
100
AcDbCircle
 10
226.1103543274
 20
124.2180986558
 30
0.0
 40
0.3999999981810936
100
AcDbArc
 50
224.999999831
 51
270.0000001004
  0
ARC
  5
12B
330
1F
100
AcDbEntity
  8
0
  6
Continuous
 62
     7
370
    15
100
AcDbCircle
 10
239.6789834788
 20
124.2180986558
 30
0.0
 40
0.3999999981683017
100
AcDbArc
 50
269.9999998996
 51
315.000000188
  0
LINE
  5
12C
330
1F
100
AcDbEntity
  8
0
  6
Continuous
 62
     7
370
    15
100
AcDbLine
 10
225.0618261904
 20
124.7009413705
 30
0.0
 11
225.8275116154
 21
123.9352559454
 31
0.0
  0
LINE
  5
12D
330
1F
100
AcDbEntity
  8
0
  6
Continuous
 62
     7
370
    15
100
AcDbLine
 10
225.8275116154
 20
187.2009413699
 30
0.0
 11
225.0618261904
 21
186.4352559448
 31
0.0
  0
ARC
  5
12E
330
1F
100
AcDbEntity
  8
0
  6
Continuous
 62
     7
370
    15
100
AcDbCircle
 10
239.6789834788
 20
186.9180986595
 30
0.0
 40
0.3999999981683017
100
AcDbArc
 50
44.999999812
 51
90.0000001004
  0
ARC
  5
12F
330
1F
100
AcDbEntity
  8
0
  6
Continuous
 62
     7
370
    15
100
AcDbCircle
 10
226.1103543274
 20
186.9180986595
 30
0.0
 40
0.3999999981811036
100
AcDbArc
 50
89.9999998996
 51
135.000000169
  0
ARC
  5
130
330
1F
100
AcDbEntity
  8
0
  6
Continuous
 62
     7
370
    15
100
AcDbCircle
 10
240.444668905
 20
186.1524132334
 30
0.0
 40
0.3999999981593785
100
AcDbArc
 50
359.9999995195
 51
45.0000000586
  0
ARC
  5
131
330
1F
100
AcDbEntity
  8
0
  6
Continuous
 62
     7
370
    15
100
AcDbCircle
 10
240.444668905
 20
124.983784082
 30
0.0
 40
0.3999999981593685
100
AcDbArc
 50
314.9999999414
 51
0.0000004805
  0
LINE
  5
132
330
1F
100
AcDbEntity
  8
0
  6
Continuous
 62
     7
370
    15
100
AcDbLine
 10
236.3665055451
 20
187.3180986577
 30
0.0
 11
236.3665055451
 21
123.8180986577
 31
0.0
  0
LINE
  5
133
330
1F
100
AcDbEntity
  8
0
  6
Continuous
 62
     7
370
    15
100
AcDbLine
 10
239.6789834779
 20
186.1310678516
 30
0.0
 11
239.6789834781
 21
155.5680986577
 31
0.0
  0
LINE
  5
134
330
1F
100
AcDbEntity
  8
0
  6
Continuous
 62
     7
370
    15
100
AcDbLine
 10
239.6789834781
 20
155.568098652
 30
0.0
 11
239.6789834781
 21
125.0384311705
 31
0.0
  0
LINE
  5
135
330
1F
100
AcDbEntity
  8
0
  6
Continuous
 62
     7
370
    15
100
AcDbLine
 10
226.1103543284
 20
125.0384311705
 30
0.0
 11
226.1103543281
 21
155.568098652
 31
0.0
  0
LINE
  5
136
330
1F
100
AcDbEntity
  8
0
  6
Continuous
 62
     7
370
    15
100
AcDbLine
 10
226.1103543281
 20
155.5680986577
 30
0.0
 11
226.1103543285
 21
186.1310678516
 31
0.0
  0
LINE
  5
137
330
1F
100
AcDbEntity
  8
0
  6
Continuous
 62
     7
370
    15
100
AcDbLine
 10
229.3228322611
 20
123.8180986577
 30
0.0
 11
229.3228322611
 21
187.3180986577
 31
0.0
  0
SPLINE
  5
138
330
1F
100
AcDbEntity
  8
0
  6
Continuous
 62
     7
370
    15
100
AcDbSpline
210
0.0
220
0.0
230
1.0
 70
    24
 71
     3
 72
    10
 73
     6
 74
     0
 42
0.000000001
 43
0.00000001
 40
0.0
 40
0.0
 40
0.0
 40
0.0
 40
0.5
 40
0.5
 40
1.0
 40
1.0
 40
1.0
 40
1.0
 10
225.8275116159622
 20
155.5680986576622
 30
0.0
 10
225.8635913557837
 20
155.5680986576622
 30
0.0
 10
225.9082753377917
 20
155.5680986576622
 30
0.0
 10
226.0062865722963
 20
155.5680986576622
 30
0.0
 10
226.059329870296
 20
155.5680986576622
 30
0.0
 10
226.1103543281397
 20
155.5680986576622
 30
0.0
  0
LINE
  5
139
330
1F
100
AcDbEntity
  8
0
  6
Continuous
 62
     7
370
    15
100
AcDbLine
 10
225.8275116154
 20
186.0360323673
 30
0.0
 11
225.8275116151
 21
155.5680986512
 31
0.0
  0
SPLINE
  5
13A
330
1F
100
AcDbEntity
  8
0
  6
Continuous
 62
     7
370
    15
100
AcDbSpline
210
0.0
220
0.0
230
1.0
 70
     8
 71
     3
 72
     8
 73
     4
 74
     0
 42
0.000000001
 43
0.00000001
 40
0.0
 40
0.0
 40
0.0
 40
0.0
 40
1.0
 40
1.0
 40
1.0
 40
1.0
 10
226.1103543288434
 20
186.1310678514836
 30
0.0
 10
226.0018485421383
 20
186.1310678518091
 30
0.0
 10
225.8986768271199
 20
186.093793867135
 30
0.0
 10
225.827511615473
 20
186.0360323672609
 30
0.0
  0
SPLINE
  5
13B
330
1F
100
AcDbEntity
  8
0
  6
Continuous
 62
     7
370
    15
100
AcDbSpline
210
0.0
220
0.0
230
1.0
 70
     8
 71
     3
 72
    10
 73
     6
 74
     0
 42
0.000000001
 43
0.00000001
 40
0.0
 40
0.0
 40
0.0
 40
0.0
 40
0.5
 40
0.5
 40
1.0
 40
1.0
 40
1.0
 40
1.0
 10
225.8275116166659
 20
125.1204293575453
 30
0.0
 10
225.8606962472196
 20
125.097163725842
 30
0.0
 10
225.9014227955863
 20
125.0767976191562
 30
0.0
 10
225.9977146505458
 20
125.0472335183825
 30
0.0
 10
226.053280719782
 20
125.0384311701578
 30
0.0
 10
226.1103543286753
 20
125.0384311703497
 30
0.0
  0
LINE
  5
13C
330
1F
100
AcDbEntity
  8
0
  6
Continuous
 62
     7
370
    15
100
AcDbLine
 10
225.8275116151
 20
155.5680986447
 30
0.0
 11
225.8275116159
 21
125.1204293581
 31
0.0
  0
LINE
  5
13D
330
1F
100
AcDbEntity
  8
0
  6
Continuous
 62
     7
370
    15
100
AcDbLine
 10
239.9618261911
 20
155.568098652
 30
0.0
 11
239.9618261916
 21
186.0360323667
 31
0.0
  0
SPLINE
  5
13E
330
1F
100
AcDbEntity
  8
0
  6
Continuous
 62
     7
370
    15
100
AcDbSpline
210
0.0
220
0.0
230
1.0
 70
    24
 71
     3
 72
    10
 73
     6
 74
     0
 42
0.000000001
 43
0.00000001
 40
0.0
 40
0.0
 40
0.0
 40
0.0
 40
0.5
 40
0.5
 40
1.0
 40
1.0
 40
1.0
 40
1.0
 10
239.6789834780879
 20
155.5680986576622
 30
0.0
 10
239.7300079359682
 20
155.5680986576622
 30
0.0
 10
239.7830512340075
 20
155.5680986576622
 30
0.0
 10
239.881062468571
 20
155.5680986576622
 30
0.0
 10
239.9257464505973
 20
155.5680986576622
 30
0.0
 10
239.9618261904209
 20
155.5680986576622
 30
0.0
  0
SPLINE
  5
13F
330
1F
100
AcDbEntity
  8
0
  6
Continuous
 62
     7
370
    15
100
AcDbSpline
210
0.0
220
0.0
230
1.0
 70
     8
 71
     3
 72
     8
 73
     4
 74
     0
 42
0.000000001
 43
0.00000001
 40
0.0
 40
0.0
 40
0.0
 40
0.0
 40
1.0
 40
1.0
 40
1.0
 40
1.0
 10
239.9618261920287
 20
186.0360323662268
 30
0.0
 10
239.8906624679819
 20
186.093792659206
 30
0.0
 10
239.787492307215
 20
186.1310678517303
 30
0.0
 10
239.6789834777427
 20
186.1310678514836
 30
0.0
  0
LINE
  5
140
330
1F
100
AcDbEntity
  8
0
  6
Continuous
 62
     7
370
    15
100
AcDbLine
 10
239.9618261912
 20
125.1204293566
 30
0.0
 11
239.9618261911
 21
155.568098652
 31
0.0
  0
SPLINE
  5
141
330
1F
100
AcDbEntity
  8
0
  6
Continuous
 62
     7
370
    15
100
AcDbSpline
210
0.0
220
0.0
230
1.0
 70
     8
 71
     3
 72
    10
 73
     6
 74
     0
 42
0.000000001
 43
0.00000001
 40
0.0
 40
0.0
 40
0.0
 40
0.0
 40
0.5
 40
0.5
 40
1.0
 40
1.0
 40
1.0
 40
1.0
 10
239.6789834780297
 20
125.0384311703497
 30
0.0
 10
239.7360507597731
 20
125.0384311702054
 30
0.0
 10
239.7914964075183
 20
125.0472009807729
 30
0.0
 10
239.8879258629877
 20
125.0767945813999
 30
0.0
 10
239.9286366394539
 20
125.0971602764737
 30
0.0
 10
239.9618261913003
 20
125.1204293587658
 30
0.0
  0
LINE
  5
142
330
1F
100
AcDbEntity
  8
0
  6
Continuous
 62
     7
370
    15
100
AcDbLine
 10
234.7446689031
 20
126.6272021237
 30
0.0
 11
234.7446689031
 21
184.5089951917
 31
0.0
  0
LINE
  5
143
330
1F
100
AcDbEntity
  8
0
  6
Continuous
 62
     7
370
    15
100
AcDbLine
 10
230.9446689031
 20
155.5680986577
 30
0.0
 11
230.9446689031
 21
126.6272021237
 31
0.0
  0
LINE
  5
144
330
1F
100
AcDbEntity
  8
0
  6
Continuous
 62
     7
370
    15
100
AcDbLine
 10
230.9446689031
 20
184.5089951917
 30
0.0
 11
230.9446689031
 21
155.5680986577
 31
0.0
  0
LINE
  5
145
330
1F
100
AcDbEntity
  8
0
  6
Continuous
 62
     7
370
    15
100
AcDbLine
 10
225.0618261885
 20
125.9327240921
 30
0.0
 11
225.0618261904
 21
155.5680986577
 31
0.0
  0
LINE
  5
146
330
1F
100
AcDbEntity
  8
0
  6
Continuous
 62
     7
370
    15
100
AcDbLine
 10
225.0618261904
 20
155.5680986577
 30
0.0
 11
225.0618261898
 21
185.203473224
 31
0.0
  0
SPLINE
  5
147
330
1F
100
AcDbEntity
  8
0
  6
Continuous
 62
     7
370
    15
100
AcDbSpline
210
0.0
220
0.0
230
1.0
 70
     8
 71
     3
 72
     9
 73
     5
 74
     0
 42
0.000000001
 43
0.00000001
 40
0.0
 40
0.0
 40
0.0
 40
0.0
 40
0.498780347075351
 40
1.0
 40
1.0
 40
1.0
 40
1.0
 10
225.0618261891921
 20
185.2034732239747
 30
0.0
 10
225.1303837331891
 20
185.2946394146872
 30
0.0
 10
225.2678341046783
 20
185.4774176481261
 30
0.0
 10
225.4061645239229
 20
185.6588631903443
 30
0.0
 10
225.4754984486457
 20
185.7498072620396
 30
0.0
  0
SPLINE
  5
148
330
1F
100
AcDbEntity
  8
0
  6
Continuous
 62
     7
370
    15
100
AcDbSpline
210
0.0
220
0.0
230
1.0
 70
     8
 71
     3
 72
     8
 73
     4
 74
     0
 42
0.000000001
 43
0.00000001
 40
0.0
 40
0.0
 40
0.0
 40
0.0
 40
0.000536435349708
 40
0.000536435349708
 40
0.000536435349708
 40
0.000536435349708
 10
225.4754984536252
 20
185.7498072650229
 30
0.0
 10
225.592714874914
 20
185.8452901546007
 30
0.0
 10
225.710054224442
 20
185.9406976539705
 30
0.0
 10
225.8275116153904
 20
186.0360323673116
 30
0.0
  0
LINE
  5
149
330
1F
100
AcDbEntity
  8
0
  6
Continuous
 62
     7
370
    15
100
AcDbLine
 10
225.8275116151
 20
125.1204293555
 30
0.0
 11
225.5052849265
 21
125.347432448
 31
0.0
  0
SPLINE
  5
14A
330
1F
100
AcDbEntity
  8
0
  6
Continuous
 62
     7
370
    15
100
AcDbSpline
210
0.0
220
0.0
230
1.0
 70
     8
 71
     3
 72
     9
 73
     5
 74
     0
 42
0.000000001
 43
0.00000001
 40
0.0
 40
0.0
 40
0.0
 40
0.0
 40
0.5013065793165208
 40
0.9999999999999999
 40
0.9999999999999999
 40
0.9999999999999999
 40
0.9999999999999999
 10
225.5052849194555
 20
125.3474324569569
 30
0.0
 10
225.4309292219081
 20
125.4448529435267
 30
0.0
 10
225.2826054204355
 20
125.6391860933181
 30
0.0
 10
225.1352909458022
 20
125.8350486997263
 30
0.0
 10
225.0618261865311
 20
125.9327240929001
 30
0.0
  0
LINE
  5
14B
330
1F
100
AcDbEntity
  8
0
  6
Continuous
 62
     7
370
    15
100
AcDbLine
 10
240.7275116162
 20
185.3670734548
 30
0.0
 11
240.7275116159
 21
155.5680986577
 31
0.0
  0
LINE
  5
14C
330
1F
100
AcDbEntity
  8
0
  6
Continuous
 62
     7
370
    15
100
AcDbLine
 10
240.7275116159
 20
155.5680986577
 30
0.0
 11
240.7275116159
 21
125.7691238603
 31
0.0
  0
SPLINE
  5
14D
330
1F
100
AcDbEntity
  8
0
  6
Continuous
 62
     7
370
    15
100
AcDbSpline
210
0.0
220
0.0
230
1.0
 70
    24
 71
     3
 72
    31
 73
    27
 74
     0
 42
0.000000001
 43
0.00000001
 40
0.0
 40
0.0
 40
0.0
 40
0.0
 40
0.0132823932773856
 40
0.026551203816842
 40
0.0398103956624777
 40
0.0530639414890587
 40
0.0663158190490774
 40
0.0795700075970307
 40
0.0928304843069458
 40
0.1061012206992577
 40
0.11938617909305
 40
0.1814759386760654
 40
0.2435789296667077
 40
0.3073816230332527
 40
0.3711979128662651
 40
0.5004548484509089
 40
0.629649279866097
 40
0.6933605859139234
 40
0.7570854689509972
 40
0.8190310932947362
 40
0.8809899183241852
 40
0.904812838169967
 40
0.9286023320350317
 40
0.9523813656577593
 40
0.9761729350680175
 40
1.0
 40
1.0
 40
1.0
 40
1.0
 10
240.8446689031138
 20
185.0739929511361
 30
0.0
 10
240.8446689031138
 20
185.0266746779675
 30
0.0
 10
240.8446689031138
 20
184.9320865198754
 30
0.0
 10
240.8446689031138
 20
184.7791325416381
 30
0.0
 10
240.8446689031138
 20
184.6181816700409
 30
0.0
 10
240.8446689031138
 20
184.4484343433775
 30
0.0
 10
240.8446689031138
 20
184.270104745111
 30
0.0
 10
240.8446689031138
 20
184.0831352149997
 30
0.0
 10
240.8446689031138
 20
183.8875426084563
 30
0.0
 10
240.8446689031138
 20
183.683317502066
 30
0.0
 10
240.8446689031138
 20
183.2099725236035
 30
0.0
 10
240.8446689031138
 20
182.3938965628148
 30
0.0
 10
240.8446689031138
 20
181.0998842432254
 30
0.0
 10
240.8446689031138
 20
179.6216979519527
 30
0.0
 10
240.8446689031138
 20
177.3966291387533
 30
0.0
 10
240.8446689031138
 20
174.206161748092
 30
0.0
 10
240.8446689031138
 20
170.5758691522184
 30
0.0
 10
240.8446689031138
 20
167.4888186917034
 30
0.0
 10
240.8446689031138
 20
165.1283111202124
 30
0.0
 10
240.8446689031138
 20
162.7265334682674
 30
0.0
 10
240.8446689031138
 20
160.7978618599609
 30
0.0
 10
240.8446689031138
 20
159.3554167313217
 30
0.0
 10
240.8446689031138
 20
158.4118766706061
 30
0.0
 10
240.8446689031138
 20
157.466021636665
 30
0.0
 10
240.8446689031138
 20
156.517834210039
 30
0.0
 10
240.8446689031138
 20
155.8848344570815
 30
0.0
 10
240.8446689031138
 20
155.5680986576622
 30
0.0
  0
SPLINE
  5
14E
330
1F
100
AcDbEntity
  8
0
  6
Continuous
 62
     7
370
    15
100
AcDbSpline
210
0.0
220
0.0
230
1.0
 70
    24
 71
     3
 72
    10
 73
     6
 74
     0
 42
0.000000001
 43
0.00000001
 40
0.0
 40
0.0
 40
0.0
 40
0.0
 40
0.5
 40
0.5
 40
1.0
 40
1.0
 40
1.0
 40
1.0
 10
240.7275116158566
 20
155.5680986576622
 30
0.0
 10
240.7635913556838
 20
155.5680986576622
 30
0.0
 10
240.7939219248484
 20
155.5680986576622
 30
0.0
 10
240.8345195075235
 20
155.5680986576622
 30
0.0
 10
240.8446689032211
 20
155.5680986576622
 30
0.0
 10
240.8446689031319
 20
155.5680986576622
 30
0.0
  0
SPLINE
  5
14F
330
1F
100
AcDbEntity
  8
0
  6
Continuous
 62
     7
370
    15
100
AcDbSpline
210
0.0
220
0.0
230
1.0
 70
     8
 71
     3
 72
     8
 73
     4
 74
     0
 42
0.000000001
 43
0.00000001
 40
0.0
 40
0.0
 40
0.0
 40
0.0
 40
1.0
 40
1.0
 40
1.0
 40
1.0
 10
240.8446689031319
 20
185.0739929449426
 30
0.0
 10
240.8446689048933
 20
185.1825079052408
 30
0.0
 10
240.8029073654727
 20
185.2889750476504
 30
0.0
 10
240.7275116163822
 20
185.3670734547129
 30
0.0
  0
SPLINE
  5
150
330
1F
100
AcDbEntity
  8
0
  6
Continuous
 62
     7
370
    15
100
AcDbSpline
210
0.0
220
0.0
230
1.0
 70
    24
 71
     3
 72
    31
 73
    27
 74
     0
 42
0.000000001
 43
0.00000001
 40
0.0
 40
0.0
 40
0.0
 40
0.0
 40
0.01324079652309
 40
0.0264681393850173
 40
0.0396859556326916
 40
0.0528981808077628
 40
0.0661087554487642
 40
0.0793216215709709
 40
0.0925407191396565
 40
0.1057699825525114
 40
0.1190133371468792
 40
0.1809589626463297
 40
0.2429177888329158
 40
0.3066290963320342
 40
0.3703539808216763
 40
0.4995484162088853
 40
0.6288053557674718
 40
0.6926080515837287
 40
0.7564243438652541
 40
0.8185141060944454
 40
0.8806170997270959
 40
0.9045147944753773
 40
0.9283787407947773
 40
0.9522321211361716
 40
0.9760981487404895
 40
0.9999999999999999
 40
0.9999999999999999
 40
0.9999999999999999
 40
0.9999999999999999
 10
240.8446689031138
 20
155.5680986576622
 30
0.0
 10
240.8446689031138
 20
155.3920921877012
 30
0.0
 10
240.8446689031138
 20
155.0402580838034
 30
0.0
 10
240.8446689031138
 20
154.5128789595584
 30
0.0
 10
240.8446689031138
 20
153.9861923758523
 30
0.0
 10
240.8446689031138
 20
153.4601984173962
 30
0.0
 10
240.8446689031138
 20
152.934897373099
 30
0.0
 10
240.8446689031138
 20
152.4102888455196
 30
0.0
 10
240.8446689031138
 20
151.8863749772859
 30
0.0
 10
240.8446689031138
 20
151.3631484214187
 30
0.0
 10
240.8446689031138
 20
150.2004277216264
 30
0.0
 10
240.8446689031138
 20
148.4098193117696
 30
0.0
 10
240.8446689031138
 20
146.0082286717671
 30
0.0
 10
240.8446689031138
 20
143.64754514298
 30
0.0
 10
240.8446689031138
 20
140.5604812854692
 30
0.0
 10
240.8446689031138
 20
136.9300353249756
 30
0.0
 10
240.8446689031138
 20
133.739703365609
 30
0.0
 10
240.8446689031138
 20
131.5146105651426
 30
0.0
 10
240.8446689031138
 20
130.0365127460815
 30
0.0
 10
240.8446689031138
 20
128.7423752139368
 30
0.0
 10
240.8446689031138
 20
127.8633234732437
 30
0.0
 10
240.8446689031138
 20
127.2858355349426
 30
0.0
 10
240.8446689031138
 20
126.9366473862294
 30
0.0
 10
240.8446689031138
 20
126.6159619340081
 30
0.0
 10
240.8446689031138
 20
126.3211841934514
 30
0.0
 10
240.8446689031138
 20
126.1485741237266
 30
0.0
 10
240.8446689031138
 20
126.0622043641604
 30
0.0
  0
SPLINE
  5
151
330
1F
100
AcDbEntity
  8
0
  6
Continuous
 62
     7
370
    15
100
AcDbSpline
210
0.0
220
0.0
230
1.0
 70
     8
 71
     3
 72
     8
 73
     4
 74
     0
 42
0.000000001
 43
0.00000001
 40
0.0
 40
0.0
 40
0.0
 40
0.0
 40
1.0
 40
1.0
 40
1.0
 40
1.0
 10
240.727511615829
 20
125.7691238600386
 30
0.0
 10
240.8029078364781
 20
125.8472227552578
 30
0.0
 10
240.8446689049631
 20
125.9536904063875
 30
0.0
 10
240.8446689031319
 20
126.0622043706584
 30
0.0
  0
SPLINE
  5
152
330
1F
100
AcDbEntity
  8
0
  6
Continuous
 62
     7
370
    15
100
AcDbSpline
210
0.0
220
0.0
230
1.0
 70
    24
 71
     3
 72
    10
 73
     6
 74
     0
 42
0.000000001
 43
0.00000001
 40
0.0
 40
0.0
 40
0.0
 40
0.0
 40
0.5
 40
0.5
 40
1.0
 40
1.0
 40
1.0
 40
1.0
 10
224.9446689030957
 20
155.5680986576622
 30
0.0
 10
224.9446689029845
 20
155.5680986576622
 30
0.0
 10
224.9548182986694
 20
155.5680986576622
 30
0.0
 10
224.9954158813454
 20
155.5680986576622
 30
0.0
 10
225.0257464505235
 20
155.5680986576622
 30
0.0
 10
225.061826190371
 20
155.5680986576622
 30
0.0
  0
SPLINE
  5
153
330
1F
100
AcDbEntity
  8
0
  6
Continuous
 62
     7
370
    15
100
AcDbSpline
210
0.0
220
0.0
230
1.0
 70
    24
 71
     3
 72
    31
 73
    27
 74
     0
 42
0.000000001
 43
0.00000001
 40
0.0
 40
0.0
 40
0.0
 40
0.0
 40
0.0132559966349189
 40
0.0264989966081602
 40
0.0397327988291494
 40
0.0529612101314919
 40
0.0661880420034987
 40
0.0794171072986517
 40
0.0926522169401775
 40
0.1058971766339516
 40
0.1191557836038749
 40
0.181094754453264
 40
0.2430471871464789
 40
0.306695881482009
 40
0.3703584092889373
 40
0.4993830193529282
 40
0.6284926302409563
 40
0.6922657259813465
 40
0.7560526822310297
 40
0.8181882638014923
 40
0.8803373499539993
 40
0.9042902683353782
 40
0.9282104830345619
 40
0.952120495510265
 40
0.9760428360099883
 40
1.0
 40
1.0
 40
1.0
 40
1.0
 10
224.9446689031138
 20
155.5680986576622
 30
0.0
 10
224.9446689031138
 20
155.7410946733437
 30
0.0
 10
224.9446689031138
 20
156.0869170931152
 30
0.0
 10
224.9446689031138
 20
156.6052977235056
 30
0.0
 10
224.9446689031138
 20
157.123021310232
 30
0.0
 10
224.9446689031138
 20
157.6400877767283
 30
0.0
 10
224.9446689031138
 20
158.1564968535863
 30
0.0
 10
224.9446689031138
 20
158.6722489217155
 30
0.0
 10
224.9446689031138
 20
159.1873419545773
 30
0.0
 10
224.9446689031138
 20
159.7017829192844
 30
0.0
 10
224.9446689031138
 20
160.8440375194677
 30
0.0
 10
224.9446689031138
 20
162.6031139575494
 30
0.0
 10
224.9446689031138
 20
164.9631199335025
 30
0.0
 10
224.9446689031138
 20
167.2845500892926
 30
0.0
 10
224.9446689031138
 20
170.3231086952129
 30
0.0
 10
224.9446689031138
 20
173.9059487320098
 30
0.0
 10
224.9446689031138
 20
177.0728205337039
 30
0.0
 10
224.9446689031138
 20
179.2963223943092
 30
0.0
 10
224.9446689031138
 20
180.7826814485975
 30
0.0
 10
224.9446689031138
 20
182.0937067855184
 30
0.0
 10
224.9446689031138
 20
182.9931205708585
 30
0.0
 10
224.9446689031138
 20
183.5892060462888
 30
0.0
 10
224.9446689031138
 20
183.951976927419
 30
0.0
 10
224.9446689031138
 20
184.2873783552365
 30
0.0
 10
224.9446689031138
 20
184.5979068524682
 30
0.0
 10
224.9446689031138
 20
184.7819464471894
 30
0.0
 10
224.9446689031138
 20
184.8740331719451
 30
0.0
  0
SPLINE
  5
154
330
1F
100
AcDbEntity
  8
0
  6
Continuous
 62
     7
370
    15
100
AcDbSpline
210
0.0
220
0.0
230
1.0
 70
     8
 71
     3
 72
    10
 73
     6
 74
     0
 42
0.000000001
 43
0.00000001
 40
0.0
 40
0.0
 40
0.0
 40
0.0
 40
0.5
 40
0.5
 40
1.0
 40
1.0
 40
1.0
 40
1.0
 10
225.061826192742
 20
185.2034732272081
 30
0.0
 10
225.0291715670789
 20
185.159948968795
 30
0.0
 10
225.0011904498938
 20
185.1113868617087
 30
0.0
 10
224.9585442437096
 20
184.999908551179
 30
0.0
 10
224.9446689018345
 20
184.937937260867
 30
0.0
 10
224.9446689030973
 20
184.8740331685759
 30
0.0
  0
SPLINE
  5
155
330
1F
100
AcDbEntity
  8
0
  6
Continuous
 62
     7
370
    15
100
AcDbSpline
210
0.0
220
0.0
230
1.0
 70
     8
 71
     3
 72
    10
 73
     6
 74
     0
 42
0.000000001
 43
0.00000001
 40
0.0
 40
0.0
 40
0.0
 40
0.0
 40
0.5
 40
0.5
 40
1.0
 40
1.0
 40
1.0
 40
1.0
 10
225.0618261921547
 20
125.9327240888991
 30
0.0
 10
225.0291715666788
 20
125.9762483472051
 30
0.0
 10
225.0011904493949
 20
126.0248104546523
 30
0.0
 10
224.9585442435456
 20
126.1362887648414
 30
0.0
 10
224.9446689018072
 20
126.1982600549114
 30
0.0
 10
224.9446689030973
 20
126.2621641469347
 30
0.0
  0
SPLINE
  5
156
330
1F
100
AcDbEntity
  8
0
  6
Continuous
 62
     7
370
    15
100
AcDbSpline
210
0.0
220
0.0
230
1.0
 70
    24
 71
     3
 72
    31
 73
    27
 74
     0
 42
0.000000001
 43
0.00000001
 40
0.0
 40
0.0
 40
0.0
 40
0.0
 40
0.0133128930162584
 40
0.0266126186434238
 40
0.0399030247502073
 40
0.0531879673032782
 40
0.0664713070272858
 40
0.0797569060442002
 40
0.0930486245065691
 40
0.1063503172393517
 40
0.1196658304048915
 40
0.1818014087549293
 40
0.2439504916860299
 40
0.3077235843799929
 40
0.3715105375763663
 40
0.5006201432131341
 40
0.6296447480293218
 40
0.6932934402594029
 40
0.7569559659581583
 40
0.8188949349972185
 40
0.8808473658849603
 40
0.9046980020604894
 40
0.9285163609918906
 40
0.9523246573931505
 40
0.9761451341308867
 40
1.0
 40
1.0
 40
1.0
 40
1.0
 10
224.9446689031138
 20
126.2621641434145
 30
0.0
 10
224.9446689031138
 20
126.3126841628521
 30
0.0
 10
224.9446689031138
 20
126.413674233869
 30
0.0
 10
224.9446689031138
 20
126.5758018778106
 30
0.0
 10
224.9446689031138
 20
126.7456080913358
 30
0.0
 10
224.9446689031138
 20
126.9238620379367
 30
0.0
 10
224.9446689031138
 20
127.1103576671613
 30
0.0
 10
224.9446689031138
 20
127.3051504547407
 30
0.0
 10
224.9446689031138
 20
127.5082241636666
 30
0.0
 10
224.9446689031138
 20
127.7195879389273
 30
0.0
 10
224.9446689031138
 20
128.2075195102569
 30
0.0
 10
224.9446689031138
 20
129.042412711072
 30
0.0
 10
224.9446689031138
 20
130.3533104875588
 30
0.0
 10
224.9446689031138
 20
131.8397611902022
 30
0.0
 10
224.9446689031138
 20
134.0632398721834
 30
0.0
 10
224.9446689031138
 20
137.2302488105086
 30
0.0
 10
224.9446689031138
 20
140.8129344830927
 30
0.0
 10
224.9446689031138
 20
143.8514801471175
 30
0.0
 10
224.9446689031138
 20
146.1727342706734
 30
0.0
 10
224.9446689031138
 20
148.5329266817105
 30
0.0
 10
224.9446689031138
 20
150.427795050265
 30
0.0
 10
224.9446689031138
 20
151.8450581276828
 30
0.0
 10
224.9446689031138
 20
152.7726912740639
 30
0.0
 10
224.9446689031138
 20
153.7025250223834
 30
0.0
 10
224.9446689031138
 20
154.6345759575852
 30
0.0
 10
224.9446689031138
 20
155.2567748230114
 30
0.0
 10
224.9446689031138
 20
155.5680986576622
 30
0.0
  0
LINE
  5
157
330
1F
100
AcDbEntity
  8
0
  6
Continuous
 62
     7
370
    15
100
AcDbLine
 10
221.7446689031
 20
155.5680986577
 30
0.0
 11
221.7446689031
 21
177.7930986577
 31
0.0
  0
LINE
  5
158
330
1F
100
AcDbEntity
  8
0
  6
Continuous
 62
     7
370
    15
100
AcDbLine
 10
221.7446689031
 20
133.3430986577
 30
0.0
 11
221.7446689031
 21
155.5680986577
 31
0.0
  0
LINE
  5
159
330
1F
100
AcDbEntity
  8
0
  6
Continuous
 62
     7
370
    15
100
AcDbLine
 10
222.2271829601
 20
155.5680986577
 30
0.0
 11
222.2271829601
 21
177.5680986577
 31
0.0
  0
LINE
  5
15A
330
1F
100
AcDbEntity
  8
0
  6
Continuous
 62
     7
370
    15
100
AcDbLine
 10
222.2271829601
 20
133.5680986577
 30
0.0
 11
222.2271829601
 21
155.5680986577
 31
0.0
  0
SPLINE
  5
15B
330
1F
100
AcDbEntity
  8
0
  6
Continuous
 62
     7
370
    15
100
AcDbSpline
210
0.0
220
0.0
230
1.0
 70
    24
 71
     3
 72
    14
 73
    10
 74
     0
 42
0.000000001
 43
0.00000001
 40
0.0
 40
0.0
 40
0.0
 40
0.0
 40
0.25
 40
0.25
 40
0.5
 40
0.5
 40
0.75
 40
0.75
 40
1.0
 40
1.0
 40
1.0
 40
1.0
 10
240.8446689029915
 20
155.5680986576622
 30
0.0
 10
240.8446689031993
 20
155.5680986576622
 30
0.0
 10
240.9091051198197
 20
155.5680986576622
 30
0.0
 10
241.2015028807878
 20
155.5680986576622
 30
0.0
 10
241.43045534127
 20
155.5680986576622
 30
0.0
 10
242.0162417788401
 20
155.5680986576622
 30
0.0
 10
242.3710939236545
 20
155.5680986576622
 30
0.0
 10
243.1096756257513
 20
155.5680986576622
 30
0.0
 10
243.4911155125844
 20
155.5680986576622
 30
0.0
 10
243.8446689031138
 20
155.5680986576622
 30
0.0
  0
SPLINE
  5
15C
330
1F
100
AcDbEntity
  8
0
  6
Continuous
 62
     7
370
    15
100
AcDbSpline
210
0.0
220
0.0
230
1.0
 70
    24
 71
     3
 72
    14
 73
    10
 74
     0
 42
0.000000001
 43
0.00000001
 40
0.0
 40
0.0
 40
0.0
 40
0.0
 40
0.25
 40
0.25
 40
0.5
 40
0.5
 40
0.75
 40
0.75
 40
1.0
 40
1.0
 40
1.0
 40
1.0
 10
153.344668903399
 20
155.5680986576622
 30
0.0
 10
153.3446689033909
 20
155.5680986576622
 30
0.0
 10
153.3629730852461
 20
155.5680986576622
 30
0.0
 10
153.4440790093707
 20
155.5680986576622
 30
0.0
 10
153.5070631066661
 20
155.5680986576622
 30
0.0
 10
153.6694573100434
 20
155.5680986576622
 30
0.0
 10
153.7685027060761
 20
155.5680986576622
 30
0.0
 10
153.9802636921304
 20
155.5680986576622
 30
0.0
 10
154.0924852264875
 20
155.5680986576622
 30
0.0
 10
154.2003606760796
 20
155.5680986576622
 30
0.0
  0
SPLINE
  5
15D
330
1F
100
AcDbEntity
  8
0
  6
Continuous
 62
     7
370
    15
100
AcDbSpline
210
0.0
220
0.0
230
1.0
 70
    24
 71
     3
 72
    22
 73
    18
 74
     0
 42
0.000000001
 43
0.00000001
 40
0.0
 40
0.0
 40
0.0
 40
0.0
 40
0.1250000000000001
 40
0.1250000000000001
 40
0.2500000000000002
 40
0.2500000000000002
 40
0.3750000000000003
 40
0.3750000000000003
 40
0.5000000000000002
 40
0.5000000000000002
 40
0.6250000000000002
 40
0.6250000000000002
 40
0.7500000000000002
 40
0.7500000000000002
 40
0.8750000000000001
 40
0.8750000000000001
 40
1.0
 40
1.0
 40
1.0
 40
1.0
 10
153.344668903399
 20
166.9532612472167
 30
0.0
 10
153.344668903399
 20
166.9532612472066
 30
0.0
 10
153.344668903399
 20
166.8328973981247
 30
0.0
 10
153.344668903399
 20
166.3729997061305
 30
0.0
 10
153.344668903399
 20
166.0340439677456
 30
0.0
 10
153.344668903399
 20
165.1936167408292
 30
0.0
 10
153.344668903399
 20
164.6928930693249
 30
0.0
 10
153.344668903399
 20
163.5990286959252
 30
0.0
 10
153.3446689033989
 20
163.0064048827961
 30
0.0
 10
153.3446689033989
 20
161.7919875399155
 30
0.0
 10
153.344668903399
 20
161.1703671489669
 30
0.0
 10
153.344668903399
 20
159.9438378290539
 30
0.0
 10
153.344668903399
 20
159.3388645073003
 30
0.0
 10
153.344668903399
 20
158.1730238581371
 30
0.0
 10
153.344668903399
 20
157.6120008981905
 30
0.0
 10
153.344668903399
 20
156.5468059541666
 30
0.0
 10
153.344668903399
 20
156.0424804322244
 30
0.0
 10
153.344668903399
 20
155.5680986576622
 30
0.0
  0
SPLINE
  5
15E
330
1F
100
AcDbEntity
  8
0
  6
Continuous
 62
     7
370
    15
100
AcDbSpline
210
0.0
220
0.0
230
1.0
 70
    24
 71
     3
 72
    22
 73
    18
 74
     0
 42
0.000000001
 43
0.00000001
 40
0.0
 40
0.0
 40
0.0
 40
0.0
 40
0.125
 40
0.125
 40
0.25
 40
0.25
 40
0.375
 40
0.375
 40
0.5
 40
0.5
 40
0.625
 40
0.625
 40
0.75
 40
0.75
 40
0.875
 40
0.875
 40
1.0
 40
1.0
 40
1.0
 40
1.0
 10
153.344668903399
 20
155.5680986576622
 30
0.0
 10
153.344668903399
 20
155.0937168830949
 30
0.0
 10
153.344668903399
 20
154.5893913611469
 30
0.0
 10
153.344668903399
 20
153.5241964171105
 30
0.0
 10
153.344668903399
 20
152.963173457157
 30
0.0
 10
153.344668903399
 20
151.7973328079794
 30
0.0
 10
153.344668903399
 20
151.1923594862183
 30
0.0
 10
153.344668903399
 20
149.9658301662912
 30
0.0
 10
153.344668903399
 20
149.3442097753359
 30
0.0
 10
153.344668903399
 20
148.1297924324449
 30
0.0
 10
153.344668903399
 20
147.5371686193121
 30
0.0
 10
153.344668903399
 20
146.4433042459106
 30
0.0
 10
153.344668903399
 20
145.9425805744082
 30
0.0
 10
153.344668903399
 20
145.1021533475035
 30
0.0
 10
153.344668903399
 20
144.7631976091283
 30
0.0
 10
153.344668903399
 20
144.3032999171616
 30
0.0
 10
153.344668903399
 20
144.1829360680975
 30
0.0
 10
153.344668903399
 20
144.1829360681077
 30
0.0
  0
LINE
  5
15F
330
1F
100
AcDbEntity
  8
0
  6
Continuous
 62
     7
370
    15
100
AcDbLine
 10
346.1446689031
 20
155.5680986577
 30
0.0
 11
346.1446689031
 21
166.5680986577
 31
0.0
  0
LINE
  5
160
330
1F
100
AcDbEntity
  8
0
  6
Continuous
 62
     7
370
    15
100
AcDbLine
 10
346.1446689031
 20
144.5680986577
 30
0.0
 11
346.1446689031
 21
155.5680986577
 31
0.0
  0
LINE
  5
161
330
1F
100
AcDbEntity
  8
0
  6
Continuous
 62
     7
370
    15
100
AcDbLine
 10
381.744668903
 20
155.5680986577
 30
0.0
 11
381.744668903
 21
166.1680986573
 31
0.0
  0
LINE
  5
162
330
1F
100
AcDbEntity
  8
0
  6
Continuous
 62
     7
370
    15
100
AcDbLine
 10
381.744668903
 20
144.968098658
 30
0.0
 11
381.744668903
 21
155.5680986577
 31
0.0
  0
LINE
  5
163
330
1F
100
AcDbEntity
  8
0
  6
Continuous
 62
     7
370
    15
100
AcDbLine
 10
364.6446689031
 20
166.5680986577
 30
0.0
 11
364.6446689031
 21
144.5680986577
 31
0.0
  0
LINE
  5
164
330
1F
100
AcDbEntity
  8
0
  6
Continuous
 62
     7
370
    15
100
AcDbLine
 10
364.2446689031
 20
144.9680986577
 30
0.0
 11
364.2446689031
 21
166.1680986577
 31
0.0
  0
LINE
  5
165
330
1F
100
AcDbEntity
  8
0
  6
Continuous
 62
     7
370
    15
100
AcDbLine
 10
347.8602744391
 20
155.5680986577
 30
0.0
 11
347.8602744391
 21
165.7680986577
 31
0.0
  0
LINE
  5
166
330
1F
100
AcDbEntity
  8
0
  6
Continuous
 62
     7
370
    15
100
AcDbLine
 10
347.8602744391
 20
145.3680986577
 30
0.0
 11
347.8602744391
 21
155.5680986577
 31
0.0
  0
LINE
  5
167
330
1F
100
AcDbEntity
  8
0
  6
Continuous
 62
     7
370
    15
100
AcDbLine
 10
224.9446689031
 20
184.8740331679
 30
0.0
 11
224.9446689031
 21
186.1524132266
 31
0.0
  0
LINE
  5
168
330
1F
100
AcDbEntity
  8
0
  6
Continuous
 62
     7
370
    15
100
AcDbLine
 10
224.9446689031
 20
124.9837840887
 30
0.0
 11
224.9446689031
 21
126.262164146
 31
0.0
  0
LINE
  5
169
330
1F
100
AcDbEntity
  8
0
  6
Continuous
 62
     7
370
    15
100
AcDbLine
 10
240.8446689031
 20
185.0739929504
 30
0.0
 11
240.8446689031
 21
186.1524132266
 31
0.0
  0
LINE
  5
16A
330
1F
100
AcDbEntity
  8
0
  6
Continuous
 62
     7
370
    15
100
AcDbLine
 10
240.8446689031
 20
124.9837840887
 30
0.0
 11
240.8446689031
 21
126.0622043689
 31
0.0
  0
LINE
  5
16B
330
1F
100
AcDbEntity
  8
0
  6
Continuous
 62
     8
370
    15
100
AcDbLine
 10
239.6789834781
 20
123.8180986577
 30
0.0
 11
239.6789834781
 21
125.0384311704
 31
0.0
  0
LINE
  5
16C
330
1F
100
AcDbEntity
  8
0
  6
Continuous
 62
     8
370
    15
100
AcDbLine
 10
239.6789834781
 20
186.1310678518
 30
0.0
 11
239.6789834781
 21
187.3180986577
 31
0.0
  0
LINE
  5
16D
330
1F
100
AcDbEntity
  8
0
  6
Continuous
 62
     8
370
    15
100
AcDbLine
 10
226.1103543281
 20
123.8180986577
 30
0.0
 11
226.1103543281
 21
125.0384311703
 31
0.0
  0
LINE
  5
16E
330
1F
100
AcDbEntity
  8
0
  6
Continuous
 62
     8
370
    15
100
AcDbLine
 10
226.1103543281
 20
186.1310678518
 30
0.0
 11
226.1103543281
 21
187.3180986577
 31
0.0
  0
LINE
  5
16F
330
1F
100
AcDbEntity
  8
0
  6
Continuous
 62
     8
370
    15
100
AcDbLine
 10
240.7275116159
 20
124.7009413705
 30
0.0
 11
240.7275116159
 21
125.76912386
 31
0.0
  0
LINE
  5
170
330
1F
100
AcDbEntity
  8
0
  6
Continuous
 62
     8
370
    15
100
AcDbLine
 10
240.7275116159
 20
185.3670734553
 30
0.0
 11
240.7275116159
 21
186.4352559448
 31
0.0
  0
LINE
  5
171
330
1F
100
AcDbEntity
  8
0
  6
Continuous
 62
     8
370
    15
100
AcDbLine
 10
239.9618261909
 20
186.036032367
 30
0.0
 11
239.9618261909
 21
187.2009413699
 31
0.0
  0
LINE
  5
172
330
1F
100
AcDbEntity
  8
0
  6
Continuous
 62
     8
370
    15
100
AcDbLine
 10
239.9618261909
 20
123.9352559455
 30
0.0
 11
239.9618261909
 21
125.1204293585
 31
0.0
  0
LINE
  5
173
330
1F
100
AcDbEntity
  8
0
  6
Continuous
 62
     8
370
    15
100
AcDbLine
 10
224.544668903
 20
155.5680986577
 30
0.0
 11
224.544668903
 21
177.5680986578
 31
0.0
  0
LINE
  5
174
330
1F
100
AcDbEntity
  8
0
  6
Continuous
 62
     8
370
    15
100
AcDbLine
 10
224.544668903
 20
133.5680986576
 30
0.0
 11
224.544668903
 21
155.5680986577
 31
0.0
  0
LINE
  5
175
330
1F
100
AcDbEntity
  8
0
  6
Continuous
 62
     8
370
    15
100
AcDbLine
 10
154.2003606761
 20
155.5680986526
 30
0.0
 11
154.2003606761
 21
167.9427940337
 31
0.0
  0
LINE
  5
176
330
1F
100
AcDbEntity
  8
0
  6
Continuous
 62
     8
370
    15
100
AcDbLine
 10
154.2003606761
 20
143.1934032817
 30
0.0
 11
154.2003606761
 21
155.5680986526
 31
0.0
  0
LINE
  5
177
330
1F
100
AcDbEntity
  8
0
  6
Continuous
 62
     8
370
    15
100
AcDbLine
 10
243.8446689031
 20
155.5680986577
 30
0.0
 11
243.8446689031
 21
166.5680984333
 31
0.0
  0
LINE
  5
178
330
1F
100
AcDbEntity
  8
0
  6
Continuous
 62
     8
370
    15
100
AcDbLine
 10
243.8446689031
 20
144.5680989535
 30
0.0
 11
243.8446689031
 21
155.5680986557
 31
0.0
  0
LINE
  5
179
330
1F
100
AcDbEntity
  8
0
  6
Continuous
 62
     8
370
    15
100
AcDbLine
 10
381.3446689031
 20
155.5680986577
 30
0.0
 11
381.3446689031
 21
144.5680986577
 31
0.0
  0
LINE
  5
17A
330
1F
100
AcDbEntity
  8
0
  6
Continuous
 62
     8
370
    15
100
AcDbLine
 10
381.3446689031
 20
166.5680986576
 30
0.0
 11
381.3446689031
 21
155.5680986577
 31
0.0
  0
LINE
  5
17B
330
1F
100
AcDbEntity
  8
0
  6
Continuous
 62
     8
370
    15
100
AcDbLine
 10
225.0618261904
 20
185.203473224
 30
0.0
 11
225.0618261904
 21
186.4352559448
 31
0.0
  0
LINE
  5
17C
330
1F
100
AcDbEntity
  8
0
  6
Continuous
 62
     8
370
    15
100
AcDbLine
 10
225.0618261904
 20
124.7009413705
 30
0.0
 11
225.0618261904
 21
125.9327240913
 31
0.0
  0
LINE
  5
17D
330
1F
100
AcDbEntity
  8
0
  6
Continuous
 62
     8
370
    15
100
AcDbLine
 10
225.8275116154
 20
123.9352559454
 30
0.0
 11
225.8275116154
 21
125.1204293584
 31
0.0
  0
LINE
  5
17E
330
1F
100
AcDbEntity
  8
0
  6
Continuous
 62
     8
370
    15
100
AcDbLine
 10
225.8275116154
 20
186.0360323673
 30
0.0
 11
225.8275116154
 21
187.2009413699
 31
0.0
  0
DIMENSION
  5
17F
330
1F
100
AcDbEntity
  8
DIM
100
AcDbDimension
  2
_D
 10
381.744668903
 20
100.9609558005
 30
0.0
 11
267.5446689031
 21
100.9609558005
 31
0.0
 70
   160
  1
<>
 71
     2
 42
-1.0
  3
SLDDIMSTYLE0
100
AcDbAlignedDimension
 13
153.3446689033
 23
155.5680986577
 33
0.0
 14
381.744668903
 24
144.968098658
 34
0.0
 50
0.0
100
AcDbRotatedDimension
  0
DIMENSION
  5
18A
330
1F
100
AcDbEntity
  8
DIM
100
AcDbDimension
  2
_D_1
 10
381.744668903
 20
111.5424238753
 30
0.0
 11
301.7446689031
 21
111.5424238753
 31
0.0
 70
   160
  1
<>
 71
     2
 42
-1.0
  3
SLDDIMSTYLE1
100
AcDbAlignedDimension
 13
221.7446689031
 23
133.3430986577
 33
0.0
 14
381.744668903
 24
144.968098658
 34
0.0
100
AcDbRotatedDimension
  0
DIMENSION
  5
195
330
1F
100
AcDbEntity
  8
DIM
100
AcDbDimension
  2
_D_2
 10
144.7854018877
 20
123.8180986577
 30
0.0
 11
144.7854018877
 21
155.5680986577
 31
0.0
 70
   160
  1
%%c<>
 71
     2
 42
-1.0
  3
SLDDIMSTYLE0
100
AcDbAlignedDimension
 13
226.1103543281
 23
187.3180986577
 33
0.0
 14
226.1103543281
 24
123.8180986577
 34
0.0
 50
90.0
100
AcDbRotatedDimension
  0
DIMENSION
  5
1A0
330
1F
100
AcDbEntity
  8
DIM
100
AcDbDimension
  2
_D_3
 10
390.0918526171
 20
144.5680986577
 30
0.0
 11
390.0918526171
 21
155.5680986577
 31
0.0
 70
   160
  1
%%c<>
 71
     2
 42
-1.0
  3
SLDDIMSTYLE2
100
AcDbAlignedDimension
 13
381.3446689031
 23
166.5680986577
 33
0.0
 14
381.3446689031
 24
144.5680986577
 34
0.0
 50
90.0
100
AcDbRotatedDimension
  0
LINE
  5
1AE
330
1F
100
AcDbEntity
  8
DIM
  6
CENTERX2
 48
1.4
370
     0
100
AcDbLine
 10
149.9726010857
 20
155.5680986577
 30
0.0
 11
381.6918781252
 21
155.5680986577
 31
0.0
  0
ENDSEC
  0
SECTION
  2
OBJECTS
  0
DICTIONARY
  5
C
330
0
100
AcDbDictionary
281
     1
  3
ACAD_GROUP
350
D
  3
ACAD_LAYOUT
350
1A
  3
ACAD_MLINESTYLE
350
17
  3
ACAD_PLOTSETTINGS
350
19
  3
ACAD_PLOTSTYLENAME
350
E
  3
ACAD_SCALELIST
350
47
  0
DICTIONARY
  5
D
102
{ACAD_REACTORS
330
C
102
}
330
C
100
AcDbDictionary
281
     1
  0
DICTIONARY
  5
1A
102
{ACAD_REACTORS
330
C
102
}
330
C
100
AcDbDictionary
281
     1
  3
Layout1
350
1E
  3
Layout2
350
26
  3
Model
350
22
  0
DICTIONARY
  5
17
102
{ACAD_REACTORS
330
C
102
}
330
C
100
AcDbDictionary
281
     1
  3
Standard
350
18
  0
DICTIONARY
  5
19
102
{ACAD_REACTORS
330
C
102
}
330
C
100
AcDbDictionary
281
     1
  0
ACDBDICTIONARYWDFLT
  5
E
102
{ACAD_REACTORS
330
C
102
}
330
C
100
AcDbDictionary
281
     1
  3
Normal
350
F
100
AcDbDictionaryWithDefault
340
F
  0
DICTIONARY
  5
47
102
{ACAD_REACTORS
330
C
102
}
330
C
100
AcDbDictionary
281
     1
  3
A0
350
48
  3
A1
350
49
  3
A2
350
4A
  3
A3
350
4B
  3
A4
350
4C
  3
A5
350
4D
  3
A6
350
4E
  3
A7
350
4F
  3
A8
350
50
  3
A9
350
51
  3
B0
350
52
  3
B1
350
53
  3
B2
350
54
  3
B3
350
55
  3
B4
350
56
  3
B5
350
57
  3
B6
350
58
  3
B7
350
59
  3
B8
350
5A
  3
B9
350
5B
  3
C0
350
5C
  3
C1
350
5D
  3
C2
350
5E
  3
C3
350
5F
  3
C4
350
60
  3
C5
350
61
  3
C6
350
62
  3
C7
350
63
  3
C8
350
64
  3
C9
350
65
  3
D0
350
66
  3
D1
350
67
  3
D2
350
68
  0
LAYOUT
  5
1E
102
{ACAD_REACTORS
330
1A
102
}
330
1A
100
AcDbPlotSettings
  1

  2
none_device
  4

  6

 40
0.0
 41
0.0
 42
0.0
 43
0.0
 44
0.0
 45
0.0
 46
0.0
 47
0.0
 48
0.0
 49
0.0
140
0.0
141
0.0
142
1.0
143
1.0
 70
   688
 72
     1
 73
     0
 74
     5
  7

 75
    16
147
1.0
148
0.0
149
0.0
100
AcDbLayout
  1
Layout1
 70
     1
 71
     1
 10
0.0
 20
0.0
 11
420.0
 21
297.0
 12
0.0
 22
0.0
 32
0.0
 14
1.0000000000E+20
 24
1.0000000000E+20
 34
1.0000000000E+20
 15
-1.0000000000E+20
 25
-1.0000000000E+20
 35
-1.0000000000E+20
146
0.0
 13
0.0
 23
0.0
 33
0.0
 16
1.0
 26
0.0
 36
0.0
 17
0.0
 27
1.0
 37
0.0
 76
     0
330
1B
  0
LAYOUT
  5
26
102
{ACAD_REACTORS
330
1A
102
}
330
1A
100
AcDbPlotSettings
  1

  2
none_device
  4

  6

 40
0.0
 41
0.0
 42
0.0
 43
0.0
 44
0.0
 45
0.0
 46
0.0
 47
0.0
 48
0.0
 49
0.0
140
0.0
141
0.0
142
1.0
143
1.0
 70
   688
 72
     1
 73
     0
 74
     5
  7

 75
    16
147
1.0
148
0.0
149
0.0
100
AcDbLayout
  1
Layout2
 70
     1
 71
     2
 10
0.0
 20
0.0
 11
0.0
 21
0.0
 12
0.0
 22
0.0
 32
0.0
 14
0.0
 24
0.0
 34
0.0
 15
0.0
 25
0.0
 35
0.0
146
0.0
 13
0.0
 23
0.0
 33
0.0
 16
1.0
 26
0.0
 36
0.0
 17
0.0
 27
1.0
 37
0.0
 76
     0
330
23
  0
LAYOUT
  5
22
102
{ACAD_REACTORS
330
1A
102
}
330
1A
100
AcDbPlotSettings
  1

  2
none_device
  4
Letter_(8.50_x_11.00_Inches)
  6

 40
6.35
 41
6.35
 42
6.35000508
 43
6.35000508
 44
215.9
 45
279.4
 46
0.0
 47
0.0
 48
0.0
 49
0.0
140
0.0
141
0.0
142
1.0
143
1.0
 70
  1712
 72
     1
 73
     0
 74
     0
  7

 75
     0
147
1.0
148
0.0
149
0.0
100
AcDbLayout
  1
Model
 70
     1
 71
     0
 10
0.0
 20
0.0
 11
424.2857142857
 21
300.0
 12
0.0
 22
0.0
 32
0.0
 14
0.0
 24
0.0
 34
0.0
 15
424.2857142857
 25
300.0
 35
0.0
146
0.0
 13
0.0
 23
0.0
 33
0.0
 16
1.0
 26
0.0
 36
0.0
 17
0.0
 27
1.0
 37
0.0
 76
     0
330
1F
331
29
  0
MLINESTYLE
  5
18
102
{ACAD_REACTORS
330
17
102
}
330
17
100
AcDbMlineStyle
  2
Standard
 70
     0
  3

 62
   256
 51
90.0
 52
90.0
 71
     2
 49
0.5
 62
   256
  6
BYLAYER
 49
-0.5
 62
   256
  6
BYLAYER
  0
ACDBPLACEHOLDER
  5
F
102
{ACAD_REACTORS
330
E
102
}
330
E
  0
SCALE
  5
48
102
{ACAD_REACTORS
330
47
102
}
330
47
100
AcDbScale
 70
     0
300
1:1
140
1.0
141
1.0
290
     1
  0
SCALE
  5
49
102
{ACAD_REACTORS
330
47
102
}
330
47
100
AcDbScale
 70
     0
300
1:2
140
1.0
141
2.0
290
     0
  0
SCALE
  5
4A
102
{ACAD_REACTORS
330
47
102
}
330
47
100
AcDbScale
 70
     0
300
1:4
140
1.0
141
4.0
290
     0
  0
SCALE
  5
4B
102
{ACAD_REACTORS
330
47
102
}
330
47
100
AcDbScale
 70
     0
300
1:5
140
1.0
141
5.0
290
     0
  0
SCALE
  5
4C
102
{ACAD_REACTORS
330
47
102
}
330
47
100
AcDbScale
 70
     0
300
1:8
140
1.0
141
8.0
290
     0
  0
SCALE
  5
4D
102
{ACAD_REACTORS
330
47
102
}
330
47
100
AcDbScale
 70
     0
300
1:10
140
1.0
141
10.0
290
     0
  0
SCALE
  5
4E
102
{ACAD_REACTORS
330
47
102
}
330
47
100
AcDbScale
 70
     0
300
1:16
140
1.0
141
16.0
290
     0
  0
SCALE
  5
4F
102
{ACAD_REACTORS
330
47
102
}
330
47
100
AcDbScale
 70
     0
300
1:20
140
1.0
141
20.0
290
     0
  0
SCALE
  5
50
102
{ACAD_REACTORS
330
47
102
}
330
47
100
AcDbScale
 70
     0
300
1:30
140
1.0
141
30.0
290
     0
  0
SCALE
  5
51
102
{ACAD_REACTORS
330
47
102
}
330
47
100
AcDbScale
 70
     0
300
1:40
140
1.0
141
40.0
290
     0
  0
SCALE
  5
52
102
{ACAD_REACTORS
330
47
102
}
330
47
100
AcDbScale
 70
     0
300
1:50
140
1.0
141
50.0
290
     0
  0
SCALE
  5
53
102
{ACAD_REACTORS
330
47
102
}
330
47
100
AcDbScale
 70
     0
300
1:100
140
1.0
141
100.0
290
     0
  0
SCALE
  5
54
102
{ACAD_REACTORS
330
47
102
}
330
47
100
AcDbScale
 70
     0
300
2:1
140
2.0
141
1.0
290
     0
  0
SCALE
  5
55
102
{ACAD_REACTORS
330
47
102
}
330
47
100
AcDbScale
 70
     0
300
4:1
140
4.0
141
1.0
290
     0
  0
SCALE
  5
56
102
{ACAD_REACTORS
330
47
102
}
330
47
100
AcDbScale
 70
     0
300
8:1
140
8.0
141
1.0
290
     0
  0
SCALE
  5
57
102
{ACAD_REACTORS
330
47
102
}
330
47
100
AcDbScale
 70
     0
300
10:1
140
10.0
141
1.0
290
     0
  0
SCALE
  5
58
102
{ACAD_REACTORS
330
47
102
}
330
47
100
AcDbScale
 70
     0
300
100:1
140
100.0
141
1.0
290
     0
  0
SCALE
  5
59
102
{ACAD_REACTORS
330
47
102
}
330
47
100
AcDbScale
 70
     0
300
1/128" = 1'-0"
140
0.0078125
141
12.0
290
     0
  0
SCALE
  5
5A
102
{ACAD_REACTORS
330
47
102
}
330
47
100
AcDbScale
 70
     0
300
1/64" = 1'-0"
140
0.015625
141
12.0
290
     0
  0
SCALE
  5
5B
102
{ACAD_REACTORS
330
47
102
}
330
47
100
AcDbScale
 70
     0
300
1/32" = 1'-0"
140
0.03125
141
12.0
290
     0
  0
SCALE
  5
5C
102
{ACAD_REACTORS
330
47
102
}
330
47
100
AcDbScale
 70
     0
300
1/16" = 1'-0"
140
0.0625
141
12.0
290
     0
  0
SCALE
  5
5D
102
{ACAD_REACTORS
330
47
102
}
330
47
100
AcDbScale
 70
     0
300
3/32" = 1'-0"
140
0.09375
141
12.0
290
     0
  0
SCALE
  5
5E
102
{ACAD_REACTORS
330
47
102
}
330
47
100
AcDbScale
 70
     0
300
1/8" = 1'-0"
140
0.125
141
12.0
290
     0
  0
SCALE
  5
5F
102
{ACAD_REACTORS
330
47
102
}
330
47
100
AcDbScale
 70
     0
300
3/16" = 1'-0"
140
0.1875
141
12.0
290
     0
  0
SCALE
  5
60
102
{ACAD_REACTORS
330
47
102
}
330
47
100
AcDbScale
 70
     0
300
1/4" = 1'-0"
140
0.25
141
12.0
290
     0
  0
SCALE
  5
61
102
{ACAD_REACTORS
330
47
102
}
330
47
100
AcDbScale
 70
     0
300
3/8" = 1'-0"
140
0.375
141
12.0
290
     0
  0
SCALE
  5
62
102
{ACAD_REACTORS
330
47
102
}
330
47
100
AcDbScale
 70
     0
300
1/2" = 1'-0"
140
0.5
141
12.0
290
     0
  0
SCALE
  5
63
102
{ACAD_REACTORS
330
47
102
}
330
47
100
AcDbScale
 70
     0
300
3/4" = 1'-0"
140
0.75
141
12.0
290
     0
  0
SCALE
  5
64
102
{ACAD_REACTORS
330
47
102
}
330
47
100
AcDbScale
 70
     0
300
1" = 1'-0"
140
1.0
141
12.0
290
     0
  0
SCALE
  5
65
102
{ACAD_REACTORS
330
47
102
}
330
47
100
AcDbScale
 70
     0
300
1-1/2" = 1'-0"
140
1.5
141
12.0
290
     0
  0
SCALE
  5
66
102
{ACAD_REACTORS
330
47
102
}
330
47
100
AcDbScale
 70
     0
300
3" = 1'-0"
140
3.0
141
12.0
290
     0
  0
SCALE
  5
67
102
{ACAD_REACTORS
330
47
102
}
330
47
100
AcDbScale
 70
     0
300
6" = 1'-0"
140
6.0
141
12.0
290
     0
  0
SCALE
  5
68
102
{ACAD_REACTORS
330
47
102
}
330
47
100
AcDbScale
 70
     0
300
1'-0" = 1'-0"
140
12.0
141
12.0
290
     0
  0
ENDSEC
  0
EOF
