  0
SECTION
  2
HEADER
  9
$ACADVER
  1
AC1015
  9
$ACADMAINTVER
 70
     6
  9
$DWGCODEPAGE
  3
ANSI_1252
  9
$INSBASE
 10
0.0
 20
0.0
 30
0.0
  9
$EXTMIN
 10
0.0
 20
0.0
 30
0.0
  9
$EXTMAX
 10
371.25
 20
262.5
 30
0.0
  9
$LIMMIN
 10
0.0
 20
0.0
  9
$LIMMAX
 10
371.25
 20
262.5
  9
$ORTHOMODE
 70
     0
  9
$REGENMODE
 70
     1
  9
$FILLMODE
 70
     1
  9
$QTEXTMODE
 70
     0
  9
$MIRRTEXT
 70
     1
  9
$LTSCALE
 40
1.25
  9
$ATTMODE
 70
     1
  9
$TEXTSIZE
 40
4.8506944444
  9
$TRACEWID
 40
1.0
  9
$TEXTSTYLE
  7
Standard
  9
$CLAYER
  8
0
  9
$CELTYPE
  6
ByLayer
  9
$CECOLOR
 62
   256
  9
$CELTSCALE
 40
1.0
  9
$DISPSILH
 70
     0
  9
$DIMSCALE
 40
1.0
  9
$DIMASZ
 40
4.1275
  9
$DIMEXO
 40
1.25
  9
$DIMDLI
 40
3.75
  9
$DIMRND
 40
0.0
  9
$DIMDLE
 40
0.0
  9
$DIMEXE
 40
1.25
  9
$DIMTP
 40
0.0
  9
$DIMTM
 40
0.0
  9
$DIMTXT
 40
4.8506944444
  9
$DIMCEN
 40
2.5
  9
$DIMTSZ
 40
0.0
  9
$DIMTOL
 70
     0
  9
$DIMLIM
 70
     0
  9
$DIMTIH
 70
     1
  9
$DIMTOH
 70
     1
  9
$DIMSE1
 70
     0
  9
$DIMSE2
 70
     0
  9
$DIMTAD
 70
     1
  9
$DIMZIN
 70
     0
  9
$DIMBLK
  1

  9
$DIMASO
 70
     1
  9
$DIMSHO
 70
     1
  9
$DIMPOST
  1

  9
$DIMAPOST
  1

  9
$DIMALT
 70
     0
  9
$DIMALTD
 70
     3
  9
$DIMALTF
 40
0.0393700787
  9
$DIMLFAC
 40
1.0
  9
$DIMTOFL
 70
     1
  9
$DIMTVP
 40
0.0
  9
$DIMTIX
 70
     0
  9
$DIMSOXD
 70
     0
  9
$DIMSAH
 70
     0
  9
$DIMBLK1
  1

  9
$DIMBLK2
  1

  9
$DIMSTYLE
  2
ISO-25
  9
$DIMCLRD
 70
     0
  9
$DIMCLRE
 70
     0
  9
$DIMCLRT
 70
     0
  9
$DIMTFAC
 40
1.0
  9
$DIMGAP
 40
1.905
  9
$DIMJUST
 70
     0
  9
$DIMSD1
 70
     0
  9
$DIMSD2
 70
     0
  9
$DIMTOLJ
 70
     0
  9
$DIMTZIN
 70
     0
  9
$DIMALTZ
 70
     0
  9
$DIMALTTZ
 70
     0
  9
$DIMUPT
 70
     0
  9
$DIMDEC
 70
     2
  9
$DIMTDEC
 70
     2
  9
$DIMALTU
 70
     2
  9
$DIMALTTD
 70
     3
  9
$DIMTXSTY
  7
Standard
  9
$DIMAUNIT
 70
     0
  9
$DIMADEC
 70
     2
  9
$DIMALTRND
 40
0.0
  9
$DIMAZIN
 70
     0
  9
$DIMDSEP
 70
    44
  9
$DIMATFIT
 70
     3
  9
$DIMFRAC
 70
     0
  9
$DIMLDRBLK
  1

  9
$DIMLUNIT
 70
     2
  9
$DIMLWD
 70
    -2
  9
$DIMLWE
 70
    -2
  9
$DIMTMOVE
 70
     0
  9
$LUNITS
 70
     2
  9
$LUPREC
 70
     2
  9
$SKETCHINC
 40
1.0
  9
$FILLETRAD
 40
10.0
  9
$AUNITS
 70
     1
  9
$AUPREC
 70
     2
  9
$MENU
  1
.
  9
$ELEVATION
 40
0.0
  9
$PELEVATION
 40
0.0
  9
$THICKNESS
 40
0.0
  9
$LIMCHECK
 70
     0
  9
$CHAMFERA
 40
0.0
  9
$CHAMFERB
 40
0.0
  9
$CHAMFERC
 40
0.0
  9
$CHAMFERD
 40
0.0
  9
$SKPOLY
 70
     0
  9
$TDCREATE
 40
2458600.66035419
  9
$TDUCREATE
 40
2458600.431187523
  9
$TDUPDATE
 40
2458600.660355231
  9
$TDUUPDATE
 40
2458600.431188565
  9
$TDINDWG
 40
0.0000000116
  9
$TDUSRTIMER
 40
0.0000000116
  9
$USRTIMER
 70
     1
  9
$ANGBASE
 50
0.0
  9
$ANGDIR
 70
     0
  9
$PDMODE
 70
     0
  9
$PDSIZE
 40
-1.0
  9
$PLINEWID
 40
0.0
  9
$SPLFRAME
 70
     0
  9
$SPLINETYPE
 70
     6
  9
$SPLINESEGS
 70
     8
  9
$HANDSEED
  5
18F
  9
$SURFTAB1
 70
     6
  9
$SURFTAB2
 70
     6
  9
$SURFTYPE
 70
     6
  9
$SURFU
 70
     6
  9
$SURFV
 70
     6
  9
$UCSBASE
  2

  9
$UCSNAME
  2

  9
$UCSORG
 10
0.0
 20
0.0
 30
0.0
  9
$UCSXDIR
 10
1.0
 20
0.0
 30
0.0
  9
$UCSYDIR
 10
0.0
 20
1.0
 30
0.0
  9
$UCSORTHOREF
  2

  9
$UCSORTHOVIEW
 70
     0
  9
$UCSORGTOP
 10
0.0
 20
0.0
 30
0.0
  9
$UCSORGBOTTOM
 10
0.0
 20
0.0
 30
0.0
  9
$UCSORGLEFT
 10
0.0
 20
0.0
 30
0.0
  9
$UCSORGRIGHT
 10
0.0
 20
0.0
 30
0.0
  9
$UCSORGFRONT
 10
0.0
 20
0.0
 30
0.0
  9
$UCSORGBACK
 10
0.0
 20
0.0
 30
0.0
  9
$PUCSBASE
  2

  9
$PUCSNAME
  2

  9
$PUCSORG
 10
0.0
 20
0.0
 30
0.0
  9
$PUCSXDIR
 10
1.0
 20
0.0
 30
0.0
  9
$PUCSYDIR
 10
0.0
 20
1.0
 30
0.0
  9
$PUCSORTHOREF
  2

  9
$PUCSORTHOVIEW
 70
     0
  9
$PUCSORGTOP
 10
0.0
 20
0.0
 30
0.0
  9
$PUCSORGBOTTOM
 10
0.0
 20
0.0
 30
0.0
  9
$PUCSORGLEFT
 10
0.0
 20
0.0
 30
0.0
  9
$PUCSORGRIGHT
 10
0.0
 20
0.0
 30
0.0
  9
$PUCSORGFRONT
 10
0.0
 20
0.0
 30
0.0
  9
$PUCSORGBACK
 10
0.0
 20
0.0
 30
0.0
  9
$USERI1
 70
     0
  9
$USERI2
 70
     0
  9
$USERI3
 70
     0
  9
$USERI4
 70
     0
  9
$USERI5
 70
     0
  9
$USERR1
 40
0.0
  9
$USERR2
 40
0.0
  9
$USERR3
 40
0.0
  9
$USERR4
 40
0.0
  9
$USERR5
 40
0.0
  9
$WORLDVIEW
 70
     1
  9
$SHADEDGE
 70
     3
  9
$SHADEDIF
 70
    70
  9
$TILEMODE
 70
     1
  9
$MAXACTVP
 70
    64
  9
$PINSBASE
 10
0.0
 20
0.0
 30
0.0
  9
$PLIMCHECK
 70
     0
  9
$PEXTMIN
 10
1.0000000000E+20
 20
1.0000000000E+20
 30
1.0000000000E+20
  9
$PEXTMAX
 10
-1.0000000000E+20
 20
-1.0000000000E+20
 30
-1.0000000000E+20
  9
$PLIMMIN
 10
0.0
 20
0.0
  9
$PLIMMAX
 10
420.0
 20
297.0
  9
$UNITMODE
 70
     0
  9
$VISRETAIN
 70
     1
  9
$PLINEGEN
 70
     0
  9
$PSLTSCALE
 70
     1
  9
$TREEDEPTH
 70
  3020
  9
$CMLSTYLE
  2
Standard
  9
$CMLJUST
 70
     0
  9
$CMLSCALE
 40
20.0
  9
$PROXYGRAPHICS
 70
     1
  9
$MEASUREMENT
 70
     1
  9
$CELWEIGHT
370
    -1
  9
$ENDCAPS
280
     0
  9
$JOINSTYLE
280
     0
  9
$LWDISPLAY
290
     1
  9
$INSUNITS
 70
     4
  9
$HYPERLINKBASE
  1

  9
$STYLESHEET
  1

  9
$XEDIT
290
     1
  9
$CEPSNTYPE
380
     0
  9
$PSTYLEMODE
290
     1
  9
$FINGERPRINTGUID
  2
{357A9D52-6931-4B15-86F4-95730CB5EF8B}
  9
$VERSIONGUID
  2
{FAEB1C32-E019-11D5-929B-00C0DF256EC4}
  9
$EXTNAMES
290
     1
  9
$PSVPSCALE
 40
0.0
  9
$OLESTARTUP
290
     0
  0
ENDSEC
  0
SECTION
  2
CLASSES
  0
CLASS
  1
ACDBDICTIONARYWDFLT
  2
AcDbDictionaryWithDefault
  3
ObjectDBX Classes
 90
        0
280
     0
281
     0
  0
CLASS
  1
VISUALSTYLE
  2
AcDbVisualStyle
  3
ObjectDBX Classes
 90
     4095
280
     0
281
     0
  0
CLASS
  1
MATERIAL
  2
AcDbMaterial
  3
ObjectDBX Classes
 90
     1153
280
     0
281
     0
  0
CLASS
  1
SCALE
  2
AcDbScale
  3
ObjectDBX Classes
 90
     1153
280
     0
281
     0
  0
CLASS
  1
SUN
  2
AcDbSun
  3
SCENEOE
 90
     1153
280
     0
281
     0
  0
CLASS
  1
ACDBPLACEHOLDER
  2
AcDbPlaceHolder
  3
ObjectDBX Classes
 90
        0
280
     0
281
     0
  0
CLASS
  1
LAYOUT
  2
AcDbLayout
  3
ObjectDBX Classes
 90
        0
280
     0
281
     0
  0
ENDSEC
  0
SECTION
  2
TABLES
  0
TABLE
  2
VPORT
  5
8
330
0
100
AcDbSymbolTable
 70
     1
  0
VPORT
  5
29
330
8
100
AcDbSymbolTableRecord
100
AcDbViewportTableRecord
  2
*Active
 70
     0
 10
0.0
 20
0.0
 11
1.0
 21
1.0
 12
185.625
 22
131.25
 13
0.0
 23
0.0
 14
10.0
 24
10.0
 15
10.0
 25
10.0
 16
0.0
 26
0.0
 36
1.0
 17
0.0
 27
0.0
 37
0.0
 40
262.5
 41
1.4142857143
 42
50.0
 43
0.0
 44
0.0
 50
0.0
 51
0.0
 71
     0
 72
  2000
 73
     1
 74
     3
 75
     0
 76
     0
 77
     0
 78
     0
281
     0
 65
     1
110
0.0
120
0.0
130
0.0
111
1.0
121
0.0
131
0.0
112
0.0
122
1.0
132
0.0
 79
     0
146
0.0
  0
ENDTAB
  0
TABLE
  2
LTYPE
  5
5
330
0
100
AcDbSymbolTable
 70
     6
  0
LTYPE
  5
14
330
5
100
AcDbSymbolTableRecord
100
AcDbLinetypeTableRecord
  2
ByBlock
 70
     0
  3

 72
    65
 73
     0
 40
0.0
  0
LTYPE
  5
15
330
5
100
AcDbSymbolTableRecord
100
AcDbLinetypeTableRecord
  2
ByLayer
 70
     0
  3

 72
    65
 73
     0
 40
0.0
  0
LTYPE
  5
16
330
5
100
AcDbSymbolTableRecord
100
AcDbLinetypeTableRecord
  2
Continuous
 70
     0
  3
Solid line
 72
    65
 73
     0
 40
0.0
  0
LTYPE
  5
6A
330
5
100
AcDbSymbolTableRecord
100
AcDbLinetypeTableRecord
  2
HIDDEN
 70
     0
  3
Hidden __ __ __ __ __ __ __ __ __ __ __ __ __ __
 72
    65
 73
     2
 40
1.905
 49
1.27
 74
     0
 49
-0.635
 74
     0
  0
LTYPE
  5
6B
330
5
100
AcDbSymbolTableRecord
100
AcDbLinetypeTableRecord
  2
PHANTOM
 70
     0
  3
Phantom ______  __  __  ______  __  __  ______
 72
    65
 73
     6
 40
12.7
 49
6.35
 74
     0
 49
-1.27
 74
     0
 49
1.27
 74
     0
 49
-1.27
 74
     0
 49
1.27
 74
     0
 49
-1.27
 74
     0
  0
LTYPE
  5
6C
330
5
100
AcDbSymbolTableRecord
100
AcDbLinetypeTableRecord
  2
CENTER
 70
     0
  3
Center ____ _ ____ _ ____ _ ____ _ ____ _ ____
 72
    65
 73
     4
 40
10.16
 49
6.35
 74
     0
 49
-1.27
 74
     0
 49
1.27
 74
     0
 49
-1.27
 74
     0
  0
LTYPE
  5
6D
330
5
100
AcDbSymbolTableRecord
100
AcDbLinetypeTableRecord
  2
CENTERX2
 70
     0
  3
Center (2x) ________  __  ________  __  _____
 72
    65
 73
     4
 40
20.32
 49
12.7
 74
     0
 49
-2.54
 74
     0
 49
2.54
 74
     0
 49
-2.54
 74
     0
  0
LTYPE
  5
6E
330
5
100
AcDbSymbolTableRecord
100
AcDbLinetypeTableRecord
  2
DOT2
 70
     0
  3
Dot (.5x) ........................................
 72
    65
 73
     2
 40
0.635
 49
0.0
 74
     0
 49
-0.635
 74
     0
  0
ENDTAB
  0
TABLE
  2
LAYER
  5
2
330
0
100
AcDbSymbolTable
 70
     8
  0
LAYER
  5
10
330
2
100
AcDbSymbolTableRecord
100
AcDbLayerTableRecord
  2
0
 70
     0
 62
     7
  6
Continuous
370
    -3
390
F
  0
LAYER
  5
6F
330
2
100
AcDbSymbolTableRecord
100
AcDbLayerTableRecord
  2
FORMAT
 70
     0
 62
     7
  6
Continuous
370
    -3
390
F
  0
LAYER
  5
70
330
2
100
AcDbSymbolTableRecord
100
AcDbLayerTableRecord
  2
SLD-0
 70
     0
 62
     2
  6
Continuous
370
    -3
390
F
  0
LAYER
  5
71
330
2
100
AcDbSymbolTableRecord
100
AcDbLayerTableRecord
  2
DIM
 70
     0
 62
   179
  6
Continuous
370
    -3
390
F
  0
LAYER
  5
72
330
2
100
AcDbSymbolTableRecord
100
AcDbLayerTableRecord
  2
SLD-DEFPOINTS
 70
     0
 62
   179
  6
Continuous
370
    -3
390
F
  0
LAYER
  5
73
330
2
100
AcDbSymbolTableRecord
100
AcDbLayerTableRecord
  2
HAT
 70
     0
 62
   135
  6
Continuous
370
    -3
390
F
  0
LAYER
  5
74
330
2
100
AcDbSymbolTableRecord
100
AcDbLayerTableRecord
  2
JOB
 70
     0
 62
   201
  6
Continuous
370
    -3
390
F
  0
LAYER
  5
75
330
2
100
AcDbSymbolTableRecord
100
AcDbLayerTableRecord
  2
INSPECTION_REPORT
 70
     0
 62
   255
  6
Continuous
370
    -3
390
F
  0
ENDTAB
  0
TABLE
  2
STYLE
  5
3
330
0
100
AcDbSymbolTable
 70
     4
  0
STYLE
  5
11
330
3
100
AcDbSymbolTableRecord
100
AcDbTextStyleTableRecord
  2
Standard
 70
     0
 40
0.0
 41
1.0
 50
0.0
 71
     0
 42
4.8506944444
  3
txt
  4

  0
STYLE
  5
96
330
3
100
AcDbSymbolTableRecord
100
AcDbTextStyleTableRecord
  2
SLDTEXTSTYLE0
 70
     0
 40
0.0
 41
0.7
 50
0.0
 71
     0
 42
4.8506944444
  3
TXT
  4

  0
STYLE
  5
98
330
3
100
AcDbSymbolTableRecord
100
AcDbTextStyleTableRecord
  2
SLDTEXTSTYLE1
 70
     0
 40
0.0
 41
0.75
 50
0.0
 71
     0
 42
4.8506944444
  3
TXT
  4

  0
STYLE
  5
AB
330
3
100
AcDbSymbolTableRecord
100
AcDbTextStyleTableRecord
  2
SLDTEXTSTYLE2
 70
     0
 40
0.0
 41
0.6875
 50
0.0
 71
     0
 42
4.8506944444
  3
TXT
  4

  0
ENDTAB
  0
TABLE
  2
VIEW
  5
6
330
0
100
AcDbSymbolTable
 70
     0
  0
ENDTAB
  0
TABLE
  2
UCS
  5
7
330
0
100
AcDbSymbolTable
 70
     0
  0
ENDTAB
  0
TABLE
  2
APPID
  5
9
330
0
100
AcDbSymbolTable
 70
     1
  0
APPID
  5
12
330
9
100
AcDbSymbolTableRecord
100
AcDbRegAppTableRecord
  2
ACAD
 70
     0
  0
ENDTAB
  0
TABLE
  2
DIMSTYLE
  5
A
330
0
100
AcDbSymbolTable
 70
     3
100
AcDbDimStyleTable
  0
DIMSTYLE
105
27
330
A
100
AcDbSymbolTableRecord
100
AcDbDimStyleTableRecord
  2
ISO-25
 70
     0
 41
2.5
 42
0.625
 43
3.75
 44
1.25
 73
     0
 74
     0
 77
     1
 78
     8
140
2.5
141
2.5
143
0.0393700787
147
0.625
171
     3
172
     1
178
     0
271
     2
272
     2
274
     3
278
    44
283
     0
284
     8
340
11
  0
DIMSTYLE
105
15B
102
{ACAD_REACTORS
330
15A
330
165
102
}
330
A
100
AcDbSymbolTableRecord
100
AcDbDimStyleTableRecord
  2
SLDDIMSTYLE0
 70
     0
 41
4.1275
 44
0.0
 45
0.000000001
 73
     0
 74
     0
 77
     1
 78
    12
 79
     3
140
3.6380208333
147
0.9095052083
173
     1
178
     0
271
     2
272
     2
276
     2
284
    12
340
96
  0
DIMSTYLE
105
171
102
{ACAD_REACTORS
330
170
330
17B
102
}
330
A
100
AcDbSymbolTableRecord
100
AcDbDimStyleTableRecord
  2
SLDDIMSTYLE1
 70
     0
 41
4.1275
 44
0.0
 45
0.000000001
 73
     0
 74
     0
 77
     1
 78
     4
 79
     1
140
3.6380208333
147
0.9095052083
173
     1
178
     0
271
     2
272
     2
276
     2
284
    12
340
96
  0
ENDTAB
  0
TABLE
  2
BLOCK_RECORD
  5
1
330
0
100
AcDbSymbolTable
 70
     6
  0
BLOCK_RECORD
  5
1F
330
1
100
AcDbSymbolTableRecord
100
AcDbBlockTableRecord
  2
*Model_Space
340
22
  0
BLOCK_RECORD
  5
1B
330
1
100
AcDbSymbolTableRecord
100
AcDbBlockTableRecord
  2
*Paper_Space
340
1E
  0
BLOCK_RECORD
  5
23
330
1
100
AcDbSymbolTableRecord
100
AcDbBlockTableRecord
  2
*Paper_Space0
340
26
  0
BLOCK_RECORD
  5
E7
330
1
100
AcDbSymbolTableRecord
100
AcDbBlockTableRecord
  2
SW_CENTERMARKSYMBOL_0
340
0
102
{BLKREFS
331
F2
102
}
  0
BLOCK_RECORD
  5
15C
330
1
100
AcDbSymbolTableRecord
100
AcDbBlockTableRecord
  2
_D
340
0
  0
BLOCK_RECORD
  5
166
330
1
100
AcDbSymbolTableRecord
100
AcDbBlockTableRecord
  2
_D_1
340
0
  0
BLOCK_RECORD
  5
172
330
1
100
AcDbSymbolTableRecord
100
AcDbBlockTableRecord
  2
_D_2
340
0
  0
BLOCK_RECORD
  5
17C
330
1
100
AcDbSymbolTableRecord
100
AcDbBlockTableRecord
  2
_D_3
340
0
  0
ENDTAB
  0
ENDSEC
  0
SECTION
  2
BLOCKS
  0
BLOCK
  5
20
330
1F
100
AcDbEntity
  8
0
100
AcDbBlockBegin
  2
*Model_Space
 70
     0
 10
0.0
 20
0.0
 30
0.0
  3
*Model_Space
  1
*Model_Space
  0
ENDBLK
  5
21
330
1F
100
AcDbEntity
  8
0
100
AcDbBlockEnd
  0
BLOCK
  5
1C
330
1B
100
AcDbEntity
 67
     1
  8
0
100
AcDbBlockBegin
  2
*Paper_Space
 70
     0
 10
0.0
 20
0.0
 30
0.0
  3
*Paper_Space
  1
*Paper_Space
  0
ENDBLK
  5
1D
330
1B
100
AcDbEntity
 67
     1
  8
0
100
AcDbBlockEnd
  0
BLOCK
  5
24
330
23
100
AcDbEntity
  8
0
100
AcDbBlockBegin
  2
*Paper_Space0
 70
     0
 10
0.0
 20
0.0
 30
0.0
  3
*Paper_Space0
  1
*Paper_Space0
  0
ENDBLK
  5
25
330
23
100
AcDbEntity
  8
0
100
AcDbBlockEnd
  0
BLOCK
  5
E8
330
E7
100
AcDbEntity
  8
0
100
AcDbBlockBegin
  2
SW_CENTERMARKSYMBOL_0
 70
     0
 10
0.0
 20
0.0
 30
0.0
  3
SW_CENTERMARKSYMBOL_0
  1
SW_CENTERMARKSYMBOL_0
  0
LINE
  5
EA
330
E7
100
AcDbEntity
  8
DIM
 62
     0
100
AcDbLine
 10
0.0
 20
0.0
 30
0.0
 11
0.0
 21
2.5
 31
0.0
  0
LINE
  5
EB
330
E7
100
AcDbEntity
  8
DIM
 62
     0
100
AcDbLine
 10
0.0
 20
0.0
 30
0.0
 11
-2.5
 21
0.0
 31
0.0
  0
LINE
  5
EC
330
E7
100
AcDbEntity
  8
DIM
 62
     0
100
AcDbLine
 10
0.0
 20
0.0
 30
0.0
 11
0.0
 21
-2.5
 31
0.0
  0
LINE
  5
ED
330
E7
100
AcDbEntity
  8
DIM
 62
     0
100
AcDbLine
 10
0.0
 20
0.0
 30
0.0
 11
2.5
 21
0.0
 31
0.0
  0
LINE
  5
EE
330
E7
100
AcDbEntity
  8
DIM
 62
     0
100
AcDbLine
 10
0.0
 20
5.0
 30
0.0
 11
0.0
 21
24.725
 31
0.0
  0
LINE
  5
EF
330
E7
100
AcDbEntity
  8
DIM
 62
     0
100
AcDbLine
 10
-5.0
 20
0.0
 30
0.0
 11
-24.725
 21
0.0
 31
0.0
  0
LINE
  5
F0
330
E7
100
AcDbEntity
  8
DIM
 62
     0
100
AcDbLine
 10
0.0
 20
-5.0
 30
0.0
 11
0.0
 21
-24.725
 31
0.0
  0
LINE
  5
F1
330
E7
100
AcDbEntity
  8
DIM
 62
     0
100
AcDbLine
 10
5.0
 20
0.0
 30
0.0
 11
24.725
 21
0.0
 31
0.0
  0
ENDBLK
  5
E9
330
E7
100
AcDbEntity
  8
0
100
AcDbBlockEnd
  0
BLOCK
  5
15D
330
15C
100
AcDbEntity
  8
0
100
AcDbBlockBegin
  2
_D
 70
     0
 10
0.0
 20
0.0
 30
0.0
  3
_D
  1
_D
  0
SOLID
  5
15F
330
15C
100
AcDbEntity
  8
DIM
100
AcDbTrace
 10
299.6772078774
 20
94.5303128309
 30
0.0
 11
295.5497078774
 21
95.1653128309
 31
0.0
 12
295.5497078774
 22
93.8953128309
 32
0.0
 13
295.5497078774
 23
93.8953128309
 33
0.0
  0
SOLID
  5
160
330
15C
100
AcDbEntity
  8
DIM
100
AcDbTrace
 10
229.6772078774
 20
94.5303128309
 30
0.0
 11
233.8047078774
 21
93.8953128309
 31
0.0
 12
233.8047078774
 22
95.1653128309
 32
0.0
 13
233.8047078774
 23
95.1653128309
 33
0.0
  0
LINE
  5
161
330
15C
100
AcDbEntity
  8
DIM
100
AcDbLine
 10
299.6772078774
 20
124.1082991844
 30
0.0
 11
299.6772078774
 21
93.2803128309
 31
0.0
  0
LINE
  5
162
330
15C
100
AcDbEntity
  8
DIM
100
AcDbLine
 10
229.6772078774
 20
112.3832991844
 30
0.0
 11
229.6772078774
 21
93.2803128309
 31
0.0
  0
LINE
  5
163
330
15C
100
AcDbEntity
  8
DIM
100
AcDbLine
 10
299.6772078774
 20
94.5303128309
 30
0.0
 11
229.6772078774
 21
94.5303128309
 31
0.0
  0
MTEXT
  5
164
330
15C
100
AcDbEntity
  8
DIM
100
AcDbMText
 10
262.5316508355
 20
99.2199684148
 30
0.0
 40
3.6380208333
 41
0.0
 71
     1
 72
     1
  1
70
  7
SLDTEXTSTYLE0
 73
     1
 44
1.0
  0
ENDBLK
  5
15E
330
15C
100
AcDbEntity
  8
0
100
AcDbBlockEnd
  0
BLOCK
  5
167
330
166
100
AcDbEntity
  8
0
100
AcDbBlockBegin
  2
_D_1
 70
     0
 10
0.0
 20
0.0
 30
0.0
  3
_D_1
  1
_D_1
  0
SOLID
  5
169
330
166
100
AcDbEntity
  8
DIM
100
AcDbTrace
 10
308.9863907303
 20
151.8582991844
 30
0.0
 11
308.3513907303
 21
147.7307991844
 31
0.0
 12
309.6213907303
 22
147.7307991844
 32
0.0
 13
309.6213907303
 23
147.7307991844
 33
0.0
  0
SOLID
  5
16A
330
166
100
AcDbEntity
  8
DIM
100
AcDbTrace
 10
308.9863907303
 20
119.8582991844
 30
0.0
 11
309.6213907303
 21
123.9857991844
 31
0.0
 12
308.3513907303
 22
123.9857991844
 32
0.0
 13
308.3513907303
 23
123.9857991844
 33
0.0
  0
LINE
  5
16B
330
166
100
AcDbEntity
  8
DIM
100
AcDbLine
 10
297.7517813968
 20
151.8582991844
 30
0.0
 11
310.2363907303
 21
151.8582991844
 31
0.0
  0
LINE
  5
16C
330
166
100
AcDbEntity
  8
DIM
100
AcDbLine
 10
297.7517813968
 20
119.8582991844
 30
0.0
 11
310.2363907303
 21
119.8582991844
 31
0.0
  0
LINE
  5
16D
330
166
100
AcDbEntity
  8
DIM
100
AcDbLine
 10
308.9863907303
 20
151.8582991844
 30
0.0
 11
308.9863907303
 21
119.8582991844
 31
0.0
  0
MTEXT
  5
16E
330
166
100
AcDbEntity
  8
DIM
100
AcDbMText
 10
304.2967351464
 20
130.586769221
 30
0.0
 40
3.6380208333
 41
0.0
 71
     1
 72
     1
  1
%%c
  7
SLDTEXTSTYLE0
 11
-7.044195017643634E-15
 21
1.0
 31
0.0
 73
     1
 44
1.0
  0
MTEXT
  5
16F
330
166
100
AcDbEntity
  8
DIM
100
AcDbMText
 10
304.2967351464
 20
136.2125640955
 30
0.0
 40
3.6380208333
 41
0.0
 71
     1
 72
     1
  1
32
  7
SLDTEXTSTYLE0
 11
-7.044195017643634E-15
 21
1.0
 31
0.0
 73
     1
 44
1.0
  0
ENDBLK
  5
168
330
166
100
AcDbEntity
  8
0
100
AcDbBlockEnd
  0
BLOCK
  5
173
330
172
100
AcDbEntity
  8
0
100
AcDbBlockBegin
  2
_D_2
 70
     0
 10
0.0
 20
0.0
 30
0.0
  3
_D_2
  1
_D_2
  0
SOLID
  5
175
330
172
100
AcDbEntity
  8
DIM
100
AcDbTrace
 10
161.2772078774
 20
87.1636753868
 30
0.0
 11
165.4047078774
 21
86.5286753868
 31
0.0
 12
165.4047078774
 22
87.7986753868
 32
0.0
 13
165.4047078774
 23
87.7986753868
 33
0.0
  0
SOLID
  5
176
330
172
100
AcDbEntity
  8
DIM
100
AcDbTrace
 10
299.6772078774
 20
87.1636753868
 30
0.0
 11
295.5497078774
 21
87.7986753868
 31
0.0
 12
295.5497078774
 22
86.5286753868
 32
0.0
 13
295.5497078774
 23
86.5286753868
 33
0.0
  0
LINE
  5
177
330
172
100
AcDbEntity
  8
DIM
100
AcDbLine
 10
161.2772078774
 20
134.6082991844
 30
0.0
 11
161.2772078774
 21
85.9136753868
 31
0.0
  0
LINE
  5
178
330
172
100
AcDbEntity
  8
DIM
100
AcDbLine
 10
299.6772078774
 20
124.1082991844
 30
0.0
 11
299.6772078774
 21
85.9136753868
 31
0.0
  0
LINE
  5
179
330
172
100
AcDbEntity
  8
DIM
100
AcDbLine
 10
161.2772078774
 20
87.1636753868
 30
0.0
 11
299.6772078774
 21
87.1636753868
 31
0.0
  0
MTEXT
  5
17A
330
172
100
AcDbEntity
  8
DIM
100
AcDbMText
 10
221.2255646783
 20
91.8533309707
 30
0.0
 40
3.6380208333
 41
0.0
 71
     1
 72
     1
  1
138.40
  7
SLDTEXTSTYLE0
 73
     1
 44
1.0
  0
ENDBLK
  5
174
330
172
100
AcDbEntity
  8
0
100
AcDbBlockEnd
  0
BLOCK
  5
17D
330
17C
100
AcDbEntity
  8
0
100
AcDbBlockBegin
  2
_D_3
 70
     0
 10
0.0
 20
0.0
 30
0.0
  3
_D_3
  1
_D_3
  0
SOLID
  5
17F
330
17C
100
AcDbEntity
  8
DIM
100
AcDbTrace
 10
154.3839901497
 20
104.1082991844
 30
0.0
 11
155.0189901497
 21
108.2357991844
 31
0.0
 12
153.7489901497
 22
108.2357991844
 32
0.0
 13
153.7489901497
 23
108.2357991844
 33
0.0
  0
SOLID
  5
180
330
17C
100
AcDbEntity
  8
DIM
100
AcDbTrace
 10
154.3839901497
 20
167.6082991844
 30
0.0
 11
153.7489901497
 21
163.4807991844
 31
0.0
 12
155.0189901497
 22
163.4807991844
 32
0.0
 13
155.0189901497
 23
163.4807991844
 33
0.0
  0
LINE
  5
181
330
17C
100
AcDbEntity
  8
DIM
100
AcDbLine
 10
232.7928933023
 20
104.1082991844
 30
0.0
 11
153.1339901497
 21
104.1082991844
 31
0.0
  0
LINE
  5
182
330
17C
100
AcDbEntity
  8
DIM
100
AcDbLine
 10
232.7928933023
 20
167.6082991844
 30
0.0
 11
153.1339901497
 21
167.6082991844
 31
0.0
  0
LINE
  5
183
330
17C
100
AcDbEntity
  8
DIM
100
AcDbLine
 10
154.3839901497
 20
104.1082991844
 30
0.0
 11
154.3839901497
 21
167.6082991844
 31
0.0
  0
MTEXT
  5
184
330
17C
100
AcDbEntity
  8
DIM
100
AcDbMText
 10
149.6943345658
 20
124.8176358191
 30
0.0
 40
3.6380208333
 41
0.0
 71
     1
 72
     1
  1
%%c
  7
SLDTEXTSTYLE0
 11
6.123233995736766E-17
 21
1.0
 31
0.0
 73
     1
 44
1.0
  0
MTEXT
  5
185
330
17C
100
AcDbEntity
  8
DIM
100
AcDbMText
 10
149.6943345658
 20
130.4434306936
 30
0.0
 40
3.6380208333
 41
0.0
 71
     1
 72
     1
  1
63.50
  7
SLDTEXTSTYLE0
 11
6.123233995736766E-17
 21
1.0
 31
0.0
 73
     1
 44
1.0
  0
ENDBLK
  5
17E
330
17C
100
AcDbEntity
  8
0
100
AcDbBlockEnd
  0
ENDSEC
  0
SECTION
  2
ENTITIES
  0
LINE
  5
76
330
1F
100
AcDbEntity
  8
DIM
100
AcDbLine
 10
130.8805308612
 20
12.2387393211
 30
0.0
 11
130.8805308612
 21
5.9887393211
 31
0.0
  0
LINE
  5
77
330
1F
100
AcDbEntity
  8
DIM
100
AcDbLine
 10
318.0870021191
 20
12.2387393211
 30
0.0
 11
318.0870021191
 21
5.9887393211
 31
0.0
  0
LINE
  5
78
330
1F
100
AcDbEntity
  8
DIM
100
AcDbLine
 10
296.8146374145
 20
12.2387393211
 30
0.0
 11
296.8146374145
 21
5.9887393211
 31
0.0
  0
LINE
  5
79
330
1F
100
AcDbEntity
  8
DIM
100
AcDbLine
 10
348.6305308612
 20
5.9887393211
 30
0.0
 11
348.6305308612
 21
12.2387393211
 31
0.0
  0
LINE
  5
7A
330
1F
100
AcDbEntity
  8
DIM
100
AcDbLine
 10
140.6305308612
 20
12.2387393211
 30
0.0
 11
140.6305308612
 21
5.9887393211
 31
0.0
  0
LINE
  5
7B
330
1F
100
AcDbEntity
  8
DIM
100
AcDbLine
 10
164.6192214035
 20
12.2387393211
 30
0.0
 11
164.6192214035
 21
5.9887393211
 31
0.0
  0
LINE
  5
7C
330
1F
100
AcDbEntity
  8
DIM
100
AcDbLine
 10
364.8805308612
 20
5.9887393211
 30
0.0
 11
364.8805308612
 21
96.3012393211
 31
0.0
  0
LINE
  5
7D
330
1F
100
AcDbEntity
  8
DIM
100
AcDbLine
 10
357.2737558684
 20
75.0512393211
 30
0.0
 11
364.8805308612
 21
75.0512393211
 31
0.0
  0
LINE
  5
7E
330
1F
100
AcDbEntity
  8
DIM
100
AcDbLine
 10
186.3791885657
 20
11.3012393211
 30
0.0
 11
186.3791885657
 21
5.9887393211
 31
0.0
  0
LINE
  5
7F
330
1F
100
AcDbEntity
  8
DIM
100
AcDbLine
 10
245.9549364505
 20
12.2387393211
 30
0.0
 11
245.9549364505
 21
5.9887393211
 31
0.0
  0
LINE
  5
80
330
1F
100
AcDbEntity
  8
DIM
100
AcDbLine
 10
186.3791885657
 20
12.2387393211
 30
0.0
 11
186.3791885657
 21
11.3012393211
 31
0.0
  0
LINE
  5
81
330
1F
100
AcDbEntity
  8
DIM
100
AcDbLine
 10
358.6305308612
 20
21.9261493211
 30
0.0
 11
364.8805308612
 21
21.9261493211
 31
0.0
  0
LINE
  5
82
330
1F
100
AcDbEntity
  8
DIM
100
AcDbLine
 10
358.6305308612
 20
249.7387393211
 30
0.0
 11
12.3805308612
 21
249.7387393211
 31
0.0
  0
LINE
  5
83
330
1F
100
AcDbEntity
  8
DIM
100
AcDbLine
 10
364.8805308612
 20
255.9887393211
 30
0.0
 11
6.1305308612
 21
255.9887393211
 31
0.0
  0
LINE
  5
84
330
1F
100
AcDbEntity
  8
DIM
100
AcDbLine
 10
12.3805308612
 20
249.7387393211
 30
0.0
 11
12.3805308612
 21
12.2387393211
 31
0.0
  0
LINE
  5
85
330
1F
100
AcDbEntity
  8
DIM
100
AcDbLine
 10
6.1305308612
 20
255.9887393211
 30
0.0
 11
6.1305308612
 21
5.9887393211
 31
0.0
  0
LINE
  5
86
330
1F
100
AcDbEntity
  8
DIM
100
AcDbLine
 10
12.3805308612
 20
68.4887393211
 30
0.0
 11
6.1305308612
 21
68.4887393211
 31
0.0
  0
LINE
  5
87
330
1F
100
AcDbEntity
  8
DIM
100
AcDbLine
 10
6.1305308612
 20
130.9887393211
 30
0.0
 11
12.3805308612
 21
130.9887393211
 31
0.0
  0
LINE
  5
88
330
1F
100
AcDbEntity
  8
DIM
100
AcDbLine
 10
6.1305308612
 20
5.9887393211
 30
0.0
 11
364.8805308612
 21
5.9887393211
 31
0.0
  0
LINE
  5
89
330
1F
100
AcDbEntity
  8
DIM
100
AcDbLine
 10
12.3805308612
 20
12.2387393211
 30
0.0
 11
364.8805308612
 21
12.2387393211
 31
0.0
  0
LINE
  5
8A
330
1F
100
AcDbEntity
  8
DIM
100
AcDbLine
 10
60.5055308612
 20
5.9887393211
 30
0.0
 11
60.5055308612
 21
12.2387393211
 31
0.0
  0
LINE
  5
8B
330
1F
100
AcDbEntity
  8
DIM
100
AcDbLine
 10
123.0055308612
 20
12.2387393211
 30
0.0
 11
123.0055308612
 21
5.9887393211
 31
0.0
  0
LINE
  5
8C
330
1F
100
AcDbEntity
  8
DIM
100
AcDbLine
 10
12.3805308612
 20
193.4887393211
 30
0.0
 11
6.1305308612
 21
193.4887393211
 31
0.0
  0
LINE
  5
8D
330
1F
100
AcDbEntity
  8
DIM
100
AcDbLine
 10
60.5055308612
 20
249.7387393211
 30
0.0
 11
60.5055308612
 21
255.9887393211
 31
0.0
  0
LINE
  5
8E
330
1F
100
AcDbEntity
  8
DIM
100
AcDbLine
 10
123.0055308612
 20
255.9887393211
 30
0.0
 11
123.0055308612
 21
249.7387393211
 31
0.0
  0
LINE
  5
8F
330
1F
100
AcDbEntity
  8
DIM
100
AcDbLine
 10
185.5055308612
 20
255.9887393211
 30
0.0
 11
185.5055308612
 21
249.7387393211
 31
0.0
  0
LINE
  5
90
330
1F
100
AcDbEntity
  8
DIM
100
AcDbLine
 10
358.6305308612
 20
12.2387393211
 30
0.0
 11
358.6305308612
 21
249.7387393211
 31
0.0
  0
LINE
  5
91
330
1F
100
AcDbEntity
  8
DIM
100
AcDbLine
 10
364.8805308612
 20
96.3012393211
 30
0.0
 11
364.8805308612
 21
255.9887393211
 31
0.0
  0
LINE
  5
92
330
1F
100
AcDbEntity
  8
DIM
100
AcDbLine
 10
364.8805308612
 20
130.9887393211
 30
0.0
 11
358.6305308612
 21
130.9887393211
 31
0.0
  0
LINE
  5
93
330
1F
100
AcDbEntity
  8
DIM
100
AcDbLine
 10
248.0055308612
 20
255.9887393211
 30
0.0
 11
248.0055308612
 21
249.7387393211
 31
0.0
  0
LINE
  5
94
330
1F
100
AcDbEntity
  8
DIM
100
AcDbLine
 10
310.5055308612
 20
249.7387393211
 30
0.0
 11
310.5055308612
 21
255.9887393211
 31
0.0
  0
LINE
  5
95
330
1F
100
AcDbEntity
  8
DIM
100
AcDbLine
 10
358.6305308612
 20
193.4887393211
 30
0.0
 11
364.8805308612
 21
193.4887393211
 31
0.0
  0
MTEXT
  5
97
330
1F
100
AcDbEntity
  8
DIM
100
AcDbMText
 10
16.5759429274
 20
242.6535727172
 30
0.0
 40
5.2916666667
 41
0.0
 71
     1
 72
     1
  1
SK 40 ER 16 070 AD+B/6.3G15000 SL
  7
SLDTEXTSTYLE0
 73
     1
 44
1.0
  0
MTEXT
  5
99
330
1F
100
AcDbEntity
  8
DIM
 62
     7
100
AcDbMText
 10
247.1659733083
 20
9.7524394079
 30
0.0
 40
1.87325
 41
0.0
 71
     1
 72
     1
  1
WEIGHT:
  7
SLDTEXTSTYLE1
 73
     1
 44
1.0
  0
MTEXT
  5
9A
330
1F
100
AcDbEntity
  8
DIM
 62
     7
100
AcDbMText
 10
360.7463459435
 20
102.4257668853
 30
0.0
 40
2.3151041667
 41
0.0
 71
     1
 72
     1
  1
C
  7
SLDTEXTSTYLE1
 73
     1
 44
1.0
  0
MTEXT
  5
9B
330
1F
100
AcDbEntity
  8
DIM
 62
     7
100
AcDbMText
 10
353.8044757743
 20
18.5674774795
 30
0.0
 40
3.6380208333
 41
0.0
 71
     1
 72
     1
  1
A4
  7
SLDTEXTSTYLE1
 73
     1
 44
1.0
  0
MTEXT
  5
9C
330
1F
100
AcDbEntity
  8
DIM
 62
     7
100
AcDbMText
 10
340.7138691946
 20
254.3237598255
 30
0.0
 40
2.3151041667
 41
0.0
 71
     1
 72
     1
  1
6
  7
SLDTEXTSTYLE1
 73
     1
 44
1.0
  0
MTEXT
  5
9D
330
1F
100
AcDbEntity
  8
DIM
 62
     7
100
AcDbMText
 10
278.2138691946
 20
254.3237598255
 30
0.0
 40
2.3151041667
 41
0.0
 71
     1
 72
     1
  1
5
  7
SLDTEXTSTYLE1
 73
     1
 44
1.0
  0
MTEXT
  5
9E
330
1F
100
AcDbEntity
  8
DIM
 62
     7
100
AcDbMText
 10
360.7138741946
 20
226.1987598255
 30
0.0
 40
2.3151041667
 41
0.0
 71
     1
 72
     1
  1
A
  7
SLDTEXTSTYLE1
 73
     1
 44
1.0
  0
MTEXT
  5
9F
330
1F
100
AcDbEntity
  8
DIM
 62
     7
100
AcDbMText
 10
360.7138741946
 20
163.6987598255
 30
0.0
 40
2.3151041667
 41
0.0
 71
     1
 72
     1
  1
B
  7
SLDTEXTSTYLE1
 73
     1
 44
1.0
  0
MTEXT
  5
A0
330
1F
100
AcDbEntity
  8
DIM
 62
     7
100
AcDbMText
 10
215.7138691946
 20
254.3237598255
 30
0.0
 40
2.3151041667
 41
0.0
 71
     1
 72
     1
  1
4
  7
SLDTEXTSTYLE1
 73
     1
 44
1.0
  0
MTEXT
  5
A1
330
1F
100
AcDbEntity
  8
DIM
 62
     7
100
AcDbMText
 10
28.7347025279
 20
254.3237598255
 30
0.0
 40
2.3151041667
 41
0.0
 71
     1
 72
     1
  1
1
  7
SLDTEXTSTYLE1
 73
     1
 44
1.0
  0
MTEXT
  5
A2
330
1F
100
AcDbEntity
  8
DIM
 62
     7
100
AcDbMText
 10
90.7138691946
 20
254.3237598255
 30
0.0
 40
2.3151041667
 41
0.0
 71
     1
 72
     1
  1
2
  7
SLDTEXTSTYLE1
 73
     1
 44
1.0
  0
MTEXT
  5
A3
330
1F
100
AcDbEntity
  8
DIM
 62
     7
100
AcDbMText
 10
153.2138691946
 20
254.3237598255
 30
0.0
 40
2.3151041667
 41
0.0
 71
     1
 72
     1
  1
3
  7
SLDTEXTSTYLE1
 73
     1
 44
1.0
  0
MTEXT
  5
A4
330
1F
100
AcDbEntity
  8
DIM
 62
     7
100
AcDbMText
 10
8.2138641946
 20
226.1987598255
 30
0.0
 40
2.3151041667
 41
0.0
 71
     1
 72
     1
  1
A
  7
SLDTEXTSTYLE1
 73
     1
 44
1.0
  0
MTEXT
  5
A5
330
1F
100
AcDbEntity
  8
DIM
 62
     7
100
AcDbMText
 10
90.7138691946
 20
10.5737598255
 30
0.0
 40
2.3151041667
 41
0.0
 71
     1
 72
     1
  1
2
  7
SLDTEXTSTYLE1
 73
     1
 44
1.0
  0
MTEXT
  5
A6
330
1F
100
AcDbEntity
  8
DIM
 62
     7
100
AcDbMText
 10
28.7347025279
 20
10.5737598255
 30
0.0
 40
2.3151041667
 41
0.0
 71
     1
 72
     1
  1
1
  7
SLDTEXTSTYLE1
 73
     1
 44
1.0
  0
MTEXT
  5
A7
330
1F
100
AcDbEntity
  8
DIM
 62
     7
100
AcDbMText
 10
8.2138641946
 20
38.6987598255
 30
0.0
 40
2.3151041667
 41
0.0
 71
     1
 72
     1
  1
D
  7
SLDTEXTSTYLE1
 73
     1
 44
1.0
  0
MTEXT
  5
A8
330
1F
100
AcDbEntity
  8
DIM
 62
     7
100
AcDbMText
 10
8.2138641946
 20
101.1987598255
 30
0.0
 40
2.3151041667
 41
0.0
 71
     1
 72
     1
  1
C
  7
SLDTEXTSTYLE1
 73
     1
 44
1.0
  0
MTEXT
  5
A9
330
1F
100
AcDbEntity
  8
DIM
 62
     7
100
AcDbMText
 10
8.2138641946
 20
163.6987598255
 30
0.0
 40
2.3151041667
 41
0.0
 71
     1
 72
     1
  1
B
  7
SLDTEXTSTYLE1
 73
     1
 44
1.0
  0
MTEXT
  5
AA
330
1F
100
AcDbEntity
  8
DIM
 62
     7
100
AcDbMText
 10
360.7463459435
 20
102.4257668853
 30
0.0
 40
2.3151041667
 41
0.0
 71
     1
 72
     1
  1
C
  7
SLDTEXTSTYLE1
 73
     1
 44
1.0
  0
MTEXT
  5
AC
330
1F
100
AcDbEntity
  8
DIM
 62
     7
100
AcDbMText
 10
320.6567072656
 20
9.6138484142
 30
0.0
 40
1.875
 41
0.0
 71
     1
 72
     1
  1
SHEET 1 OF 1
  7
SLDTEXTSTYLE2
 73
     1
 44
1.0
  0
MTEXT
  5
AD
330
1F
100
AcDbEntity
  8
DIM
 62
     7
100
AcDbMText
 10
187.9647254793
 20
9.8167093546
 30
0.0
 40
1.875
 41
0.0
 71
     1
 72
     1
  1
MATERIAL:
  7
SLDTEXTSTYLE1
 73
     1
 44
1.0
  0
MTEXT
  5
AE
330
1F
100
AcDbEntity
  8
DIM
 62
     7
100
AcDbMText
 10
340.7138691946
 20
254.3237598255
 30
0.0
 40
2.3151041667
 41
0.0
 71
     1
 72
     1
  1
6
  7
SLDTEXTSTYLE1
 73
     1
 44
1.0
  0
MTEXT
  5
AF
330
1F
100
AcDbEntity
  8
DIM
 62
     7
100
AcDbMText
 10
278.2138691946
 20
254.3237598255
 30
0.0
 40
2.3151041667
 41
0.0
 71
     1
 72
     1
  1
5
  7
SLDTEXTSTYLE1
 73
     1
 44
1.0
  0
MTEXT
  5
B0
330
1F
100
AcDbEntity
  8
DIM
 62
     7
100
AcDbMText
 10
360.7138741946
 20
226.1987598255
 30
0.0
 40
2.3151041667
 41
0.0
 71
     1
 72
     1
  1
A
  7
SLDTEXTSTYLE1
 73
     1
 44
1.0
  0
MTEXT
  5
B1
330
1F
100
AcDbEntity
  8
DIM
 62
     7
100
AcDbMText
 10
360.7138741946
 20
163.6987598255
 30
0.0
 40
2.3151041667
 41
0.0
 71
     1
 72
     1
  1
B
  7
SLDTEXTSTYLE1
 73
     1
 44
1.0
  0
MTEXT
  5
B2
330
1F
100
AcDbEntity
  8
DIM
 62
     7
100
AcDbMText
 10
215.7138691946
 20
254.3237598255
 30
0.0
 40
2.3151041667
 41
0.0
 71
     1
 72
     1
  1
4
  7
SLDTEXTSTYLE1
 73
     1
 44
1.0
  0
MTEXT
  5
B3
330
1F
100
AcDbEntity
  8
DIM
 62
     7
100
AcDbMText
 10
28.7347025279
 20
254.3237598255
 30
0.0
 40
2.3151041667
 41
0.0
 71
     1
 72
     1
  1
1
  7
SLDTEXTSTYLE1
 73
     1
 44
1.0
  0
MTEXT
  5
B4
330
1F
100
AcDbEntity
  8
DIM
 62
     7
100
AcDbMText
 10
90.7138691946
 20
254.3237598255
 30
0.0
 40
2.3151041667
 41
0.0
 71
     1
 72
     1
  1
2
  7
SLDTEXTSTYLE1
 73
     1
 44
1.0
  0
MTEXT
  5
B5
330
1F
100
AcDbEntity
  8
DIM
 62
     7
100
AcDbMText
 10
153.2138691946
 20
254.3237598255
 30
0.0
 40
2.3151041667
 41
0.0
 71
     1
 72
     1
  1
3
  7
SLDTEXTSTYLE1
 73
     1
 44
1.0
  0
MTEXT
  5
B6
330
1F
100
AcDbEntity
  8
DIM
 62
     7
100
AcDbMText
 10
8.2138641946
 20
226.1987598255
 30
0.0
 40
2.3151041667
 41
0.0
 71
     1
 72
     1
  1
A
  7
SLDTEXTSTYLE1
 73
     1
 44
1.0
  0
MTEXT
  5
B7
330
1F
100
AcDbEntity
  8
DIM
 62
     7
100
AcDbMText
 10
90.7138691946
 20
10.5737598255
 30
0.0
 40
2.3151041667
 41
0.0
 71
     1
 72
     1
  1
2
  7
SLDTEXTSTYLE1
 73
     1
 44
1.0
  0
MTEXT
  5
B8
330
1F
100
AcDbEntity
  8
DIM
 62
     7
100
AcDbMText
 10
28.7347025279
 20
10.5737598255
 30
0.0
 40
2.3151041667
 41
0.0
 71
     1
 72
     1
  1
1
  7
SLDTEXTSTYLE1
 73
     1
 44
1.0
  0
MTEXT
  5
B9
330
1F
100
AcDbEntity
  8
DIM
 62
     7
100
AcDbMText
 10
8.2138641946
 20
38.6987598255
 30
0.0
 40
2.3151041667
 41
0.0
 71
     1
 72
     1
  1
D
  7
SLDTEXTSTYLE1
 73
     1
 44
1.0
  0
MTEXT
  5
BA
330
1F
100
AcDbEntity
  8
DIM
 62
     7
100
AcDbMText
 10
8.2138641946
 20
101.1987598255
 30
0.0
 40
2.3151041667
 41
0.0
 71
     1
 72
     1
  1
C
  7
SLDTEXTSTYLE1
 73
     1
 44
1.0
  0
MTEXT
  5
BB
330
1F
100
AcDbEntity
  8
DIM
 62
     7
100
AcDbMText
 10
8.2138641946
 20
163.6987598255
 30
0.0
 40
2.3151041667
 41
0.0
 71
     1
 72
     1
  1
B
  7
SLDTEXTSTYLE1
 73
     1
 44
1.0
  0
SPLINE
  5
BC
330
1F
100
AcDbEntity
  8
0
  6
Continuous
 62
     7
370
    15
100
AcDbSpline
210
0.0
220
0.0
230
1.0
 70
     8
 71
     3
 72
    14
 73
    10
 74
     0
 42
0.000000001
 43
0.00000001
 40
0.0
 40
0.0
 40
0.0
 40
0.0
 40
0.25
 40
0.25
 40
0.5
 40
0.5
 40
0.75
 40
0.75
 40
1.0
 40
1.0
 40
1.0
 40
1.0
 10
96.8774316442277
 20
135.8582991844447
 30
0.0
 10
96.8774316442277
 20
132.8388517813771
 30
0.0
 10
95.67786646078494
 20
129.942845246559
 30
0.0
 10
91.40772299249447
 20
125.6727017782685
 30
0.0
 10
88.5117164576764
 20
124.4731365948258
 30
0.0
 10
82.47282165154112
 20
124.4731365948258
 30
0.0
 10
79.57681511672307
 20
125.6727017782685
 30
0.0
 10
75.30667164843258
 20
129.942845246559
 30
0.0
 10
74.10710646498984
 20
132.838851781377
 30
0.0
 10
74.10710646498984
 20
135.8582991844447
 30
0.0
  0
SPLINE
  5
BD
330
1F
100
AcDbEntity
  8
0
  6
Continuous
 62
     7
370
    15
100
AcDbSpline
210
0.0
220
0.0
230
1.0
 70
     8
 71
     3
 72
    14
 73
    10
 74
     0
 42
0.000000001
 43
0.00000001
 40
0.0
 40
0.0
 40
0.0
 40
0.0
 40
0.25
 40
0.25
 40
0.5
 40
0.5
 40
0.75
 40
0.75
 40
1.0
 40
1.0
 40
1.0
 40
1.0
 10
74.10710646498984
 20
135.8582991844447
 30
0.0
 10
74.10710646498984
 20
138.8777465875123
 30
0.0
 10
75.30667164843258
 20
141.7737531223304
 30
0.0
 10
79.57681511672307
 20
146.0438965906209
 30
0.0
 10
82.47282165154112
 20
147.2434617740636
 30
0.0
 10
88.5117164576764
 20
147.2434617740636
 30
0.0
 10
91.40772299249447
 20
146.0438965906209
 30
0.0
 10
95.67786646078494
 20
141.7737531223304
 30
0.0
 10
96.8774316442277
 20
138.8777465875123
 30
0.0
 10
96.8774316442277
 20
135.8582991844447
 30
0.0
  0
CIRCLE
  5
BE
330
1F
100
AcDbEntity
  8
0
  6
Continuous
 62
     7
370
    15
100
AcDbCircle
 10
85.4922690546
 20
135.8582991844
 30
0.0
 40
12.37469537611111
  0
CIRCLE
  5
BF
330
1F
100
AcDbEntity
  8
0
  6
Continuous
 62
     7
370
    15
100
AcDbCircle
 10
85.4922690546
 20
135.8582991844
 30
0.0
 40
22.22500000000001
  0
SPLINE
  5
C0
330
1F
100
AcDbEntity
  8
0
  6
Continuous
 62
     7
370
    15
100
AcDbSpline
210
0.0
220
0.0
230
1.0
 70
     8
 71
     3
 72
    47
 73
    43
 74
     0
 42
0.000000001
 43
0.00000001
 40
0.0
 40
0.0
 40
0.0
 40
0.0
 40
0.0064865058599544
 40
0.0129638156775974
 40
0.0194346018868018
 40
0.0259015450089971
 40
0.0323673303453013
 40
0.0388346446390101
 40
0.0453061727291163
 40
0.0517845942156699
 40
0.0582725801576112
 40
0.0891442126942977
 40
0.1200232680972888
 40
0.1521817500082456
 40
0.1843476848298072
 40
0.2171904404488881
 40
0.250040807568759
 40
0.282883563405296
 40
0.315733930742997
 40
0.3478924132540137
 40
0.3800583486754345
 40
0.4109299807251642
 40
0.4418090357728578
 40
0.5000011037995962
 40
0.5581931718263348
 40
0.5890648043627151
 40
0.6199438597660143
 40
0.6521023416767789
 40
0.684268276498532
 40
0.7171110321176541
 40
0.749961399237487
 40
0.7828041550742094
 40
0.815654522411723
 40
0.8478130049227987
 40
0.8799789403441611
 40
0.9108505723940962
 40
0.9417296274415853
 40
0.953398157213752
 40
0.9650438067132959
 40
0.9766822203186435
 40
0.9883290715666286
 40
1.0
 40
1.0
 40
1.0
 40
1.0
 10
62.99226905460876
 20
135.8582991844447
 30
0.0
 10
62.99316003738266
 20
136.0110625380745
 30
0.0
 10
62.9949407397673
 20
136.3163726698319
 30
0.0
 10
63.00937352579214
 20
136.7738881777093
 30
0.0
 10
63.03242157348295
 20
137.23056611013
 30
0.0
 10
63.06492579685007
 20
137.6864063074096
 30
0.0
 10
63.10666108784732
 20
138.1414083492191
 30
0.0
 10
63.15768800296567
 20
138.5955726600841
 30
0.0
 10
63.21798913419708
 20
139.0488965490545
 30
0.0
 10
63.28757331985022
 20
139.5013889734227
 30
0.0
 10
63.46513789549888
 20
140.5184334678437
 30
0.0
 10
63.83392949997413
 20
142.0855904340028
 30
0.0
 10
64.5491688649861
 20
144.1818436912359
 30
0.0
 10
65.47949882926287
 20
146.2260859140388
 30
0.0
 10
66.63609132410554
 20
148.2050967796699
 30
0.0
 10
67.99666187182916
 20
150.0703485919361
 30
0.0
 10
69.55420577263628
 20
151.7961088548491
 30
0.0
 10
71.28007987681998
 20
153.3537925242449
 30
0.0
 10
73.14517036366252
 20
154.7142829142806
 30
0.0
 10
75.12434116748109
 20
155.8709875469315
 30
0.0
 10
77.16833675709196
 20
156.8012756787159
 30
0.0
 10
79.2650312263031
 20
157.5165693589535
 30
0.0
 10
82.01824298616837
 20
158.164947457629
 30
0.0
 10
85.49226893661344
 20
158.4846202088711
 30
0.0
 10
88.96612038279518
 20
158.1649629283445
 30
0.0
 10
91.71933751849046
 20
157.516619036434
 30
0.0
 10
93.81587601885703
 20
156.8014048963232
 30
0.0
 10
95.86003877077215
 20
155.871067910794
 30
0.0
 10
97.83907131310268
 20
154.7144773060816
 30
0.0
 10
99.7043172119592
 20
153.3539063379635
 30
0.0
 10
101.4300790201111
 20
151.7963621892643
 30
0.0
 10
102.9877624639223
 20
150.0704894998622
 30
0.0
 10
104.3482522156015
 20
148.2053936388116
 30
0.0
 10
105.5049595707025
 20
146.2262425209099
 30
0.0
 10
106.4352376189868
 20
144.1821747479371
 30
0.0
 10
107.1505675107549
 20
142.0857393145223
 30
0.0
 10
107.547345729201
 20
140.3996868512472
 30
0.0
 10
107.7567329929228
 20
139.1405129696898
 30
0.0
 10
107.862123781507
 20
138.3239175388516
 30
0.0
 10
107.936845638236
 20
137.5045361882563
 30
0.0
 10
107.9836233869741
 20
136.6823483214076
 30
0.0
 10
107.9893851822494
 20
136.133171250928
 30
0.0
 10
107.9922690546088
 20
135.8582991844447
 30
0.0
  0
SPLINE
  5
C1
330
1F
100
AcDbEntity
  8
0
  6
Continuous
 62
     7
370
    15
100
AcDbSpline
210
0.0
220
0.0
230
1.0
 70
     8
 71
     3
 72
    47
 73
    43
 74
     0
 42
0.000000001
 43
0.00000001
 40
0.0
 40
0.0
 40
0.0
 40
0.0
 40
0.0064865058600646
 40
0.0129638156777903
 40
0.0194346018870498
 40
0.0259015450092725
 40
0.0323673303455768
 40
0.0388346446392581
 40
0.0453061727293097
 40
0.0517845942157816
 40
0.0582725801576143
 40
0.0891442126948909
 40
0.1200232680972924
 40
0.1521817500083951
 40
0.1843476848298058
 40
0.2171904404485402
 40
0.2500408075687574
 40
0.2828835634052776
 40
0.3157339307429991
 40
0.3478924132542638
 40
0.3800583486754358
 40
0.4109299807257716
 40
0.4418090357728632
 40
0.5000011037996017
 40
0.5581931718263402
 40
0.5890648043636169
 40
0.6199438597660184
 40
0.6521023416771926
 40
0.6842682764985326
 40
0.7171110321177041
 40
0.7499613992374872
 40
0.7828041550742053
 40
0.8156545224117233
 40
0.8478130049224891
 40
0.8799789403441584
 40
0.9108505723936514
 40
0.941729627441584
 40
0.9533981572136628
 40
0.9650438067131625
 40
0.9766822203185102
 40
0.9883290715665397
 40
1.0
 40
1.0
 40
1.0
 40
1.0
 10
107.9922690546088
 20
135.8582991844447
 30
0.0
 10
107.9913780718349
 20
135.7055358308123
 30
0.0
 10
107.9895973694502
 20
135.4002256990503
 30
0.0
 10
107.9751645834254
 20
134.9427101911671
 30
0.0
 10
107.9521165357346
 20
134.4860322587425
 30
0.0
 10
107.9196123123675
 20
134.030192061461
 30
0.0
 10
107.8778770213703
 20
133.5751900196514
 30
0.0
 10
107.826850106252
 20
133.1210257087884
 30
0.0
 10
107.7665489750206
 20
132.6677018198218
 30
0.0
 10
107.6969647893675
 20
132.2152093954595
 30
0.0
 10
107.5194002137136
 20
131.1981649010299
 30
0.0
 10
107.1506086092404
 20
129.6310079348731
 30
0.0
 10
106.4353692442256
 20
127.534754677637
 30
0.0
 10
105.5050392799479
 20
125.4905124548501
 30
0.0
 10
104.3484467851154
 20
123.5115015892229
 30
0.0
 10
102.9878762373932
 20
121.6462497769598
 30
0.0
 10
101.430332336587
 20
119.9204895140468
 30
0.0
 10
99.70445823240061
 20
118.3628058446414
 30
0.0
 10
97.83936774555012
 20
117.0023154546063
 30
0.0
 10
95.86019694173102
 20
115.8456108219554
 30
0.0
 10
93.81620135210665
 20
114.9153226901669
 30
0.0
 10
91.71950688290201
 20
114.2000290099271
 30
0.0
 10
88.9662951230343
 20
113.5516509112616
 30
0.0
 10
85.49226917260441
 20
113.2319781600178
 30
0.0
 10
82.01841772640088
 20
113.5516354405458
 30
0.0
 10
79.26520059070724
 20
114.1999793324634
 30
0.0
 10
77.1686620903315
 20
114.9151934725766
 30
0.0
 10
75.12449933843854
 20
115.8455304581035
 30
0.0
 10
73.14546679610537
 20
117.002121062813
 30
0.0
 10
71.28022089725798
 20
118.3626920309274
 30
0.0
 10
69.55445908910553
 20
119.9202361796256
 30
0.0
 10
67.99677564529556
 20
121.6461088690273
 30
0.0
 10
66.63628589361952
 20
123.5112047300713
 30
0.0
 10
65.47957853852154
 20
125.4903558479747
 30
0.0
 10
64.54930049023712
 20
127.5344236209357
 30
0.0
 10
63.83397059846351
 20
129.6308590543564
 30
0.0
 10
63.4371923800198
 20
131.3169115176301
 30
0.0
 10
63.22780511629435
 20
132.5760853991943
 30
0.0
 10
63.12241432771044
 20
133.3926808300294
 30
0.0
 10
63.04769247098137
 20
134.2120621806247
 30
0.0
 10
63.0009147222434
 20
135.0342500474765
 30
0.0
 10
62.99515292696815
 20
135.5834271179593
 30
0.0
 10
62.99226905460876
 20
135.8582991844447
 30
0.0
  0
SPLINE
  5
C2
330
1F
100
AcDbEntity
  8
0
  6
Continuous
 62
     7
370
    15
100
AcDbSpline
210
0.0
220
0.0
230
1.0
 70
     8
 71
     3
 72
    43
 73
    39
 74
     0
 42
0.000000001
 43
0.00000001
 40
0.0
 40
0.0
 40
0.0
 40
0.0
 40
0.0095109916349779
 40
0.0190046239321943
 40
0.0284840481310409
 40
0.0379524296570145
 40
0.0474129450200336
 40
0.056868778657489
 40
0.0663231197375085
 40
0.0757791589383711
 40
0.0852400852202927
 40
0.0947090826058903
 40
0.1041893269855331
 40
0.1136839829634946
 40
0.1231962007603455
 40
0.1547901118117636
 40
0.1863927084008188
 40
0.2182250895803033
 40
0.2500662218550365
 40
0.3137096340347801
 40
0.3768767128430061
 40
0.4384349553554662
 40
0.5000020600078251
 40
0.5615603039215011
 40
0.6231274099053342
 40
0.6862944887135604
 40
0.7499379008933037
 40
0.7817702821039875
 40
0.8136114144100791
 40
0.845205325552833
 40
0.8768079222326423
 40
0.89445668712248
 40
0.9120548834397514
 40
0.9296228104671944
 40
0.9471808724729448
 40
0.9647495080969732
 40
0.9823491191414782
 40
0.9999999999999999
 40
0.9999999999999999
 40
0.9999999999999999
 40
0.9999999999999999
 10
76.7422690546088
 20
165.164233703338
 30
0.0
 10
76.56326750677506
 20
165.109768372055
 30
0.0
 10
76.20559112239579
 20
165.0009371189005
 30
0.0
 10
75.67337736389999
 20
164.8255048114906
 30
0.0
 10
75.14502716394568
 20
164.6413586039726
 30
0.0
 10
74.62080436021927
 20
164.4476153720435
 30
0.0
 10
74.10063864100992
 20
164.2445112983427
 30
0.0
 10
73.58454904965461
 20
164.0319832535222
 30
0.0
 10
73.07253071847754
 20
163.8100482252067
 30
0.0
 10
72.56458517193497
 20
163.578701704449
 30
0.0
 10
72.06071222449219
 20
163.3379452054653
 30
0.0
 10
71.56091210440856
 20
163.0877777105289
 30
0.0
 10
71.06518505126908
 20
162.8282023833649
 30
0.0
 10
70.57353079446386
 20
162.5592082347415
 30
0.0
 10
69.7090562690622
 20
162.0656583406989
 30
0.0
 10
68.49502671580312
 20
161.3074917162866
 30
0.0
 10
66.97204328024655
 20
160.2215369040703
 30
0.0
 10
65.5142547329983
 20
159.0415427092311
 30
0.0
 10
63.66721505748941
 20
157.3481083980846
 30
0.0
 10
61.56453919910688
 20
155.0301240796968
 30
0.0
 10
59.4242881181489
 20
151.9941992823617
 30
0.0
 10
57.68153222961403
 20
148.7604634805156
 30
0.0
 10
56.34986633117064
 20
145.3710625946711
 30
0.0
 10
55.42535024734453
 20
141.8485789505565
 30
0.0
 10
54.92464246630936
 20
138.2094084949728
 30
0.0
 10
54.86160975301534
 20
134.4952683160792
 30
0.0
 10
55.19179017602189
 20
131.3833244005307
 30
0.0
 10
55.68402782878477
 20
128.9262977366212
 30
0.0
 10
56.16485720237554
 20
127.1136527301919
 30
0.0
 10
56.75389337061489
 20
125.3381205711933
 30
0.0
 10
57.34648469713601
 20
123.8611155735301
 30
0.0
 10
57.89326659830283
 20
122.6648882180398
 30
0.0
 10
58.3569864814009
 20
121.7349123309978
 30
0.0
 10
58.85129835514435
 20
120.8228771373648
 30
0.0
 10
59.37600585476727
 20
119.9286284434692
 30
0.0
 10
59.93178542184459
 20
119.0526881675712
 30
0.0
 10
60.51610967799831
 20
118.1931405499601
 30
0.0
 10
60.93023040524861
 20
117.6368493374794
 30
0.0
 10
61.1375919262693
 20
117.3582991844447
 30
0.0
  0
ARC
  5
C3
330
1F
100
AcDbEntity
  8
0
  6
Continuous
 62
     7
370
    15
100
AcDbCircle
 10
85.4922690546
 20
135.8582991844
 30
0.0
 40
30.58435570515188
100
AcDbArc
 50
73.375724968
 51
106.624275032
  0
SPLINE
  5
C4
330
1F
100
AcDbEntity
  8
0
  6
Continuous
 62
     7
370
    15
100
AcDbSpline
210
0.0
220
0.0
230
1.0
 70
     8
 71
     3
 72
    31
 73
    27
 74
     0
 42
0.000000001
 43
0.00000001
 40
0.0
 40
0.0
 40
0.0
 40
0.0
 40
0.0132844560939671
 40
0.0265558208795038
 40
0.0398179176705367
 40
0.0530745777998593
 40
0.0663296373146152
 40
0.0795869336513791
 40
0.0928503023052138
 40
0.1061235735071438
 40
0.1194105689243984
 40
0.1814480130397909
 40
0.2434985490104023
 40
0.3072096944246781
 40
0.3709342849308339
 40
0.5000015820302092
 40
0.6290688791295843
 40
0.692780024999251
 40
0.7565046159608926
 40
0.8185420607560003
 40
0.8805925974112686
 40
0.904494387700386
 40
0.9283636577008713
 40
0.9522227648274317
 40
0.9760940950498311
 40
1.0
 40
1.0
 40
1.0
 40
1.0
 10
116.0765836296595
 20
135.8582991844447
 30
0.0
 10
116.0757373192428
 20
136.0316666197429
 30
0.0
 10
116.0740455324148
 20
136.378230643558
 30
0.0
 10
116.0603419979139
 20
136.8977211968949
 30
0.0
 10
116.0384611470466
 20
137.4165500517749
 30
0.0
 10
116.0076036468966
 20
137.9347171306451
 30
0.0
 10
115.9679835423179
 20
138.4522221618438
 30
0.0
 10
115.9195432995164
 20
138.9690655279512
 30
0.0
 10
115.8622991729633
 20
139.4852451896825
 30
0.0
 10
115.7962437873915
 20
140.0007681553032
 30
0.0
 10
115.6298858853819
 20
141.1449756673499
 30
0.0
 10
115.2866866043741
 20
142.9068111486694
 30
0.0
 10
114.6271206455062
 20
145.2697444834919
 30
0.0
 10
113.7727104933659
 20
147.5933830963258
 30
0.0
 10
112.3631144558106
 20
150.6329464087549
 30
0.0
 10
110.1302782460152
 20
154.2147876353039
 30
0.0
 10
107.337071494174
 20
157.378906144466
 30
0.0
 10
104.8278548081867
 20
159.5992075600975
 30
0.0
 10
102.8459351836611
 20
161.0825957076699
 30
0.0
 10
100.7703142752752
 20
162.3907383600004
 30
0.0
 10
99.05750786726682
 20
163.2879795276106
 30
0.0
 10
97.75331609139911
 20
163.8825931491127
 30
0.0
 10
96.89119451083191
 20
164.2443927928792
 30
0.0
 10
96.01862545529241
 20
164.5789378159605
 30
0.0
 10
95.13633379859988
 20
164.8887141984143
 30
0.0
 10
94.54043437985196
 20
165.0723495715136
 30
0.0
 10
94.24226905460878
 20
165.164233703338
 30
0.0
  0
SPLINE
  5
C5
330
1F
100
AcDbEntity
  8
0
  6
Continuous
 62
     7
370
    15
100
AcDbSpline
210
0.0
220
0.0
230
1.0
 70
     8
 71
     3
 72
    31
 73
    27
 74
     0
 42
0.000000001
 43
0.00000001
 40
0.0
 40
0.0
 40
0.0
 40
0.0
 40
0.0132844560938056
 40
0.0265558208792211
 40
0.0398179176701734
 40
0.0530745777994556
 40
0.0663296373142116
 40
0.0795869336510156
 40
0.0928503023049308
 40
0.106123573506981
 40
0.1194105689243955
 40
0.18144801304061
 40
0.2434985490104099
 40
0.3072096944263704
 40
0.3709342849308375
 40
0.5000015820302129
 40
0.6290688791295884
 40
0.6927800250008046
 40
0.7565046159608975
 40
0.8185420607574302
 40
0.8805925974112735
 40
0.9044943877008197
 40
0.9283636577015203
 40
0.9522227648280808
 40
0.976094095050264
 40
1.0
 40
1.0
 40
1.0
 40
1.0
 10
94.24226905460874
 20
106.5523646655514
 30
0.0
 10
94.4081478575455
 20
106.6027750474063
 30
0.0
 10
94.73974199639038
 20
106.7035461336697
 30
0.0
 10
95.23359809295874
 20
106.8653001992799
 30
0.0
 10
95.724480664991
 20
107.0347004730769
 30
0.0
 10
96.2121609535342
 20
107.2125128548313
 30
0.0
 10
96.69669993530798
 20
107.3985321687329
 30
0.0
 10
97.17808151680693
 20
107.5928136532008
 30
0.0
 10
97.65630839429811
 20
107.7953411497493
 30
0.0
 10
98.13138517308933
 20
108.0061237303949
 30
0.0
 10
99.18017241019396
 20
108.4928794324722
 30
0.0
 10
100.7701783402147
 20
109.3257846805216
 30
0.0
 10
102.8456463807804
 20
110.6338036450679
 30
0.0
 10
104.8277183364211
 20
112.1172805993016
 30
0.0
 10
107.3369548237447
 20
114.3375594939539
 30
0.0
 10
110.1302784209259
 20
117.5018109683513
 30
0.0
 10
112.3630206520358
 20
121.0835021929184
 30
0.0
 10
113.7726439342714
 20
124.1230529748061
 30
0.0
 10
114.6270125728191
 20
126.4465202166658
 30
0.0
 10
115.2866533148868
 20
128.809635416033
 30
0.0
 10
115.6563668426461
 20
130.7075446371452
 30
0.0
 10
115.8530045603882
 20
132.1273386908898
 30
0.0
 10
115.9530333784845
 20
133.0569336766095
 30
0.0
 10
116.0239578158705
 20
133.9887420546224
 30
0.0
 10
116.068367324552
 20
134.9227804746664
 30
0.0
 10
116.0738435403079
 20
135.5463092058151
 30
0.0
 10
116.0765836296595
 20
135.8582991844447
 30
0.0
  0
ARC
  5
C6
330
1F
100
AcDbEntity
  8
0
  6
Continuous
 62
     7
370
    15
100
AcDbCircle
 10
85.4922690546
 20
135.8582991844
 30
0.0
 40
30.58435570515187
100
AcDbArc
 50
253.375724968
 51
286.624275032
  0
SPLINE
  5
C7
330
1F
100
AcDbEntity
  8
0
  6
Continuous
 62
     7
370
    15
100
AcDbSpline
210
0.0
220
0.0
230
1.0
 70
     8
 71
     3
 72
    22
 73
    18
 74
     0
 42
0.000000001
 43
0.00000001
 40
0.0
 40
0.0
 40
0.0
 40
0.0
 40
0.0500936294938496
 40
0.1001235566409922
 40
0.1501059026452516
 40
0.2000568347795997
 40
0.2499925508288438
 40
0.2999292633845469
 40
0.3498831840680211
 40
0.3998705077580371
 40
0.4499073968998467
 40
0.5000099659711904
 40
0.600129604142345
 40
0.7000588625733138
 40
0.7999272374114648
 40
0.8998644614787418
 40
1.0
 40
1.0
 40
1.0
 40
1.0
 10
66.99226905460877
 20
111.503622056105
 30
0.0
 10
67.13902697489608
 20
111.3933325669648
 30
0.0
 10
67.43235618846815
 20
111.1728938400367
 30
0.0
 10
67.87953597539062
 20
110.8524686323819
 30
0.0
 10
68.33155346670469
 20
110.5398615256041
 30
0.0
 10
68.78894914905213
 20
110.2357843036992
 30
0.0
 10
69.25157822627888
 20
109.9400466300335
 30
0.0
 10
69.71947923345839
 20
109.6526995706668
 30
0.0
 10
70.19264185295498
 20
109.3737296338465
 30
0.0
 10
70.67106792890806
 20
109.1031402535351
 30
0.0
 10
71.15475947118588
 20
108.8409316394306
 30
0.0
 10
71.80612631690138
 20
108.5027807227642
 30
0.0
 10
72.63096764589164
 20
108.1022991873307
 30
0.0
 10
73.6364530127312
 20
107.6578317955053
 30
0.0
 10
74.65690357389948
 20
107.2508692843619
 30
0.0
 10
75.69128559620535
 20
106.8779976377933
 30
0.0
 10
76.39170981225901
 20
106.6609806928737
 30
0.0
 10
76.7422690546088
 20
106.5523646655514
 30
0.0
  0
ARC
  5
C8
330
1F
100
AcDbEntity
  8
0
  6
Continuous
 62
     7
370
    15
100
AcDbCircle
 10
85.4922690546
 20
135.8582991844
 30
0.0
 40
30.58435570515189
100
AcDbArc
 50
217.220583198
 51
232.779416802
  0
ARC
  5
C9
330
1F
100
AcDbEntity
  8
0
  6
Continuous
 62
     7
370
    15
100
AcDbCircle
 10
85.4922690546
 20
135.8582991844
 30
0.0
 40
30.86715728752538
100
AcDbArc
 50
216.8228239927
 51
233.1771760073
  0
SPLINE
  5
CA
330
1F
100
AcDbEntity
  8
0
  6
Continuous
 62
     7
370
    15
100
AcDbSpline
210
0.0
220
0.0
230
1.0
 70
    24
 71
     3
 72
     8
 73
     4
 74
     0
 42
0.000000001
 43
0.00000001
 40
0.0
 40
0.0
 40
0.0
 40
0.0
 40
1.0
 40
1.0
 40
1.0
 40
1.0
 10
60.78333546748624
 20
117.3582991844447
 30
0.0
 10
60.88350440712974
 20
117.3582991844447
 30
0.0
 10
61.00974234313791
 20
117.3582991844447
 30
0.0
 10
61.13759192626923
 20
117.3582991844447
 30
0.0
  0
SPLINE
  5
CB
330
1F
100
AcDbEntity
  8
0
  6
Continuous
 62
     7
370
    15
100
AcDbSpline
210
0.0
220
0.0
230
1.0
 70
    24
 71
     3
 72
     8
 73
     4
 74
     0
 42
0.000000001
 43
0.00000001
 40
0.0
 40
0.0
 40
0.0
 40
0.0
 40
1.0
 40
1.0
 40
1.0
 40
1.0
 10
66.99226905460877
 20
111.503622056105
 30
0.0
 10
66.99226905460877
 20
111.3758313965268
 30
0.0
 10
66.99226905460876
 20
111.2494312692744
 30
0.0
 10
66.99226905460876
 20
111.1493655973222
 30
0.0
  0
SPLINE
  5
CC
330
1F
100
AcDbEntity
  8
0
  6
Continuous
 62
     7
370
    15
100
AcDbSpline
210
0.0
220
0.0
230
1.0
 70
     8
 71
     3
 72
    10
 73
     6
 74
     0
 42
0.000000001
 43
0.00000001
 40
0.0
 40
0.0
 40
0.0
 40
0.0
 40
0.5
 40
0.5
 40
1.0
 40
1.0
 40
1.0
 40
1.0
 10
76.74226905460878
 20
165.164233703338
 30
0.0
 10
76.74226905460878
 20
165.228192839052
 30
0.0
 10
76.75610342190629
 20
165.2897699024936
 30
0.0
 10
76.79825740857986
 20
165.4004225452115
 30
0.0
 10
76.82675068005302
 20
165.4501214536583
 30
0.0
 10
76.85942634213413
 20
165.4936737512442
 30
0.0
  0
ARC
  5
CD
330
1F
100
AcDbEntity
  8
0
  6
Continuous
 62
     7
370
    15
100
AcDbCircle
 10
85.4922690546
 20
135.8582991844
 30
0.0
 40
30.86715728752537
100
AcDbArc
 50
73.7590550452
 51
106.2409449548
  0
SPLINE
  5
CE
330
1F
100
AcDbEntity
  8
0
  6
Continuous
 62
     7
370
    15
100
AcDbSpline
210
0.0
220
0.0
230
1.0
 70
     8
 71
     3
 72
    10
 73
     6
 74
     0
 42
0.000000001
 43
0.00000001
 40
0.0
 40
0.0
 40
0.0
 40
0.0
 40
0.5
 40
0.5
 40
1.0
 40
1.0
 40
1.0
 40
1.0
 10
94.12511176708341
 20
165.4936737512442
 30
0.0
 10
94.1577663920126
 20
165.4501494933747
 30
0.0
 10
94.18574750642678
 20
165.4015873910911
 30
0.0
 10
94.22839371236208
 20
165.2901090834712
 30
0.0
 10
94.24226905460878
 20
165.2281377945054
 30
0.0
 10
94.24226905460878
 20
165.164233703338
 30
0.0
  0
SPLINE
  5
CF
330
1F
100
AcDbEntity
  8
0
  6
Continuous
 62
     7
370
    15
100
AcDbSpline
210
0.0
220
0.0
230
1.0
 70
     8
 71
     3
 72
    10
 73
     6
 74
     0
 42
0.000000001
 43
0.00000001
 40
0.0
 40
0.0
 40
0.0
 40
0.0
 40
0.5
 40
0.5
 40
1.0
 40
1.0
 40
1.0
 40
1.0
 10
94.24226905460874
 20
106.5523646655514
 30
0.0
 10
94.24226905460874
 20
106.4884055298374
 30
0.0
 10
94.22843468731124
 20
106.4268284663957
 30
0.0
 10
94.1862807006377
 20
106.3161758236779
 30
0.0
 10
94.1577874291645
 20
106.2664769152311
 30
0.0
 10
94.12511176708341
 20
106.2229246176452
 30
0.0
  0
ARC
  5
D0
330
1F
100
AcDbEntity
  8
0
  6
Continuous
 62
     7
370
    15
100
AcDbCircle
 10
85.4922690546
 20
135.8582991844
 30
0.0
 40
30.86715728752539
100
AcDbArc
 50
253.7590550452
 51
286.2409449548
  0
SPLINE
  5
D1
330
1F
100
AcDbEntity
  8
0
  6
Continuous
 62
     7
370
    15
100
AcDbSpline
210
0.0
220
0.0
230
1.0
 70
     8
 71
     3
 72
    10
 73
     6
 74
     0
 42
0.000000001
 43
0.00000001
 40
0.0
 40
0.0
 40
0.0
 40
0.0
 40
0.5
 40
0.5
 40
1.0
 40
1.0
 40
1.0
 40
1.0
 10
76.85942634213417
 20
106.2229246176452
 30
0.0
 10
76.82677171720496
 20
106.2664488755147
 30
0.0
 10
76.7987906027908
 20
106.3150109777983
 30
0.0
 10
76.75614439685548
 20
106.4264892854181
 30
0.0
 10
76.74226905460878
 20
106.488460574384
 30
0.0
 10
76.74226905460878
 20
106.5523646655514
 30
0.0
  0
ARC
  5
D2
330
1F
100
AcDbEntity
  8
0
  6
Continuous
 62
     7
370
    15
100
AcDbCircle
 10
85.4922690546
 20
135.8582991844
 30
0.0
 40
30.86715728752538
100
AcDbArc
 50
286.2409449548
 51
73.7590550452
  0
ARC
  5
D3
330
1F
100
AcDbEntity
  8
0
  6
Continuous
 62
     7
370
    15
100
AcDbCircle
 10
85.4922690546
 20
135.8582991844
 30
0.0
 40
30.86715728752539
100
AcDbArc
 50
106.2409449548
 51
216.8228239927
  0
ARC
  5
D4
330
1F
100
AcDbEntity
  8
0
  6
Continuous
 62
     7
370
    15
100
AcDbCircle
 10
85.4922690546
 20
135.8582991844
 30
0.0
 40
30.86715728752539
100
AcDbArc
 50
233.1771760073
 51
253.7590550452
  0
ARC
  5
D5
330
1F
100
AcDbEntity
  8
0
  6
Continuous
 62
     7
370
    15
100
AcDbCircle
 10
85.4922690546
 20
135.8582991844
 30
0.0
 40
31.63284271246615
100
AcDbArc
 50
234.208651263
 51
254.4024500298
  0
ARC
  5
D6
330
1F
100
AcDbEntity
  8
0
  6
Continuous
 62
     7
370
    15
100
AcDbCircle
 10
85.4922690546
 20
135.8582991844
 30
0.0
 40
31.63284271247463
100
AcDbArc
 50
215.791348737
 51
234.208651263
  0
ARC
  5
D7
330
1F
100
AcDbEntity
  8
0
  6
Continuous
 62
     7
370
    15
100
AcDbCircle
 10
85.4922690546
 20
135.8582991844
 30
0.0
 40
31.63284271247464
100
AcDbArc
 50
105.733481737
 51
215.791348737
  0
ARC
  5
D8
330
1F
100
AcDbEntity
  8
0
  6
Continuous
 62
     7
370
    15
100
AcDbCircle
 10
85.4922690546
 20
135.8582991844
 30
0.0
 40
31.63284271247464
100
AcDbArc
 50
74.4024500298
 51
105.733481737
  0
ARC
  5
D9
330
1F
100
AcDbEntity
  8
0
  6
Continuous
 62
     7
370
    15
100
AcDbCircle
 10
85.4922690546
 20
135.8582991844
 30
0.0
 40
31.63284271247463
100
AcDbArc
 50
285.733481737
 51
74.4024500298
  0
ARC
  5
DA
330
1F
100
AcDbEntity
  8
0
  6
Continuous
 62
     7
370
    15
100
AcDbCircle
 10
85.4922690546
 20
135.8582991844
 30
0.0
 40
31.63284271247463
100
AcDbArc
 50
254.4024500298
 51
285.733481737
  0
ARC
  5
DB
330
1F
100
AcDbEntity
  8
0
  6
Continuous
 62
     7
370
    15
100
AcDbCircle
 10
85.4922690546
 20
135.8582991844
 30
0.0
 40
31.75000000000001
100
AcDbArc
 50
215.6390613326
 51
234.3609386674
  0
SPLINE
  5
DC
330
1F
100
AcDbEntity
  8
0
  6
Continuous
 62
     7
370
    15
100
AcDbSpline
210
0.0
220
0.0
230
1.0
 70
    24
 71
     3
 72
     8
 73
     4
 74
     0
 42
0.000000001
 43
0.00000001
 40
0.0
 40
0.0
 40
0.0
 40
0.0
 40
1.0
 40
1.0
 40
1.0
 40
1.0
 10
59.68892624791025
 20
117.3582991844447
 30
0.0
 10
59.68892624791025
 20
117.3582991844447
 30
0.0
 10
59.74765045645508
 20
117.3582991844447
 30
0.0
 10
59.83322117530974
 20
117.3582991844447
 30
0.0
  0
SPLINE
  5
DD
330
1F
100
AcDbEntity
  8
0
  6
Continuous
 62
     7
370
    15
100
AcDbSpline
210
0.0
220
0.0
230
1.0
 70
    24
 71
     3
 72
     8
 73
     4
 74
     0
 42
0.000000001
 43
0.00000001
 40
0.0
 40
0.0
 40
0.0
 40
0.0
 40
1.0
 40
1.0
 40
1.0
 40
1.0
 10
66.99226905460878
 20
110.1992513051539
 30
0.0
 10
66.99226905460878
 20
110.1136377238318
 30
0.0
 10
66.99226905460878
 20
110.0549563777455
 30
0.0
 10
66.99226905460878
 20
110.0549563777462
 30
0.0
  0
SPLINE
  5
DE
330
1F
100
AcDbEntity
  8
0
  6
Continuous
 62
     7
370
    15
100
AcDbSpline
210
0.0
220
0.0
230
1.0
 70
    24
 71
     3
 72
    10
 73
     6
 74
     0
 42
0.000000001
 43
0.00000001
 40
0.0
 40
0.0
 40
0.0
 40
0.0
 40
0.5
 40
0.5
 40
1.0
 40
1.0
 40
1.0
 40
1.0
 10
94.0699244631272
 20
105.410629885057
 30
0.0
 10
94.10971854684189
 20
105.3873642532518
 30
0.0
 10
94.14455321475532
 20
105.3669981464824
 30
0.0
 10
94.19512034828888
 20
105.3374340454801
 30
0.0
 10
94.21017609195106
 20
105.328631697093
 30
0.0
 10
94.21017609195106
 20
105.328631697093
 30
0.0
  0
ARC
  5
DF
330
1F
100
AcDbEntity
  8
0
  6
Continuous
 62
     7
370
    15
100
AcDbCircle
 10
85.4922690546
 20
135.8582991844
 30
0.0
 40
31.75000000000001
100
AcDbArc
 50
254.2833781213
 51
285.9369715324
  0
SPLINE
  5
E0
330
1F
100
AcDbEntity
  8
0
  6
Continuous
 62
     7
370
    15
100
AcDbSpline
210
0.0
220
0.0
230
1.0
 70
    24
 71
     3
 72
     8
 73
     4
 74
     0
 42
0.000000001
 43
0.00000001
 40
0.0
 40
0.0
 40
0.0
 40
0.0
 40
1.0
 40
1.0
 40
1.0
 40
1.0
 10
76.8918380167231
 20
105.2953299902945
 30
0.0
 10
76.8918380167231
 20
105.2953299902945
 30
0.0
 10
76.92907207754823
 20
105.3325640511196
 30
0.0
 10
76.9868735010066
 20
105.390365474578
 30
0.0
  0
SPLINE
  5
E1
330
1F
100
AcDbEntity
  8
0
  6
Continuous
 62
     7
370
    15
100
AcDbSpline
210
0.0
220
0.0
230
1.0
 70
    24
 71
     3
 72
    10
 73
     6
 74
     0
 42
0.000000001
 43
0.00000001
 40
0.0
 40
0.0
 40
0.0
 40
0.0
 40
0.5
 40
0.5
 40
1.0
 40
1.0
 40
1.0
 40
1.0
 10
76.91461364609039
 20
166.3059684838324
 30
0.0
 10
76.87481956237569
 20
166.3292341156376
 30
0.0
 10
76.83998489446226
 20
166.349600222407
 30
0.0
 10
76.78941776092871
 20
166.3791643234093
 30
0.0
 10
76.77436201726653
 20
166.3879666717964
 30
0.0
 10
76.77436201726653
 20
166.3879666717964
 30
0.0
  0
ARC
  5
E2
330
1F
100
AcDbEntity
  8
0
  6
Continuous
 62
     7
370
    15
100
AcDbCircle
 10
85.4922690546
 20
135.8582991844
 30
0.0
 40
31.75000000000001
100
AcDbArc
 50
74.2833781213
 51
105.9369715324
  0
SPLINE
  5
E3
330
1F
100
AcDbEntity
  8
0
  6
Continuous
 62
     7
370
    15
100
AcDbSpline
210
0.0
220
0.0
230
1.0
 70
    24
 71
     3
 72
     8
 73
     4
 74
     0
 42
0.000000001
 43
0.00000001
 40
0.0
 40
0.0
 40
0.0
 40
0.0
 40
1.0
 40
1.0
 40
1.0
 40
1.0
 10
94.09270009249445
 20
166.4212683785949
 30
0.0
 10
94.09270009249445
 20
166.4212683785949
 30
0.0
 10
94.05546603166988
 20
166.3840343177703
 30
0.0
 10
93.99766460821215
 20
166.3262328943126
 30
0.0
  0
ARC
  5
E4
330
1F
100
AcDbEntity
  8
0
  6
Continuous
 62
     7
370
    15
100
AcDbCircle
 10
85.4922690546
 20
135.8582991844
 30
0.0
 40
31.75000000000001
100
AcDbArc
 50
234.3609386674
 51
254.2833781213
  0
ARC
  5
E5
330
1F
100
AcDbEntity
  8
0
  6
Continuous
 62
     7
370
    15
100
AcDbCircle
 10
85.4922690546
 20
135.8582991844
 30
0.0
 40
31.75000000000001
100
AcDbArc
 50
285.9369715324
 51
74.2833781213
  0
ARC
  5
E6
330
1F
100
AcDbEntity
  8
0
  6
Continuous
 62
     7
370
    15
100
AcDbCircle
 10
85.4922690546
 20
135.8582991844
 30
0.0
 40
31.75000000000001
100
AcDbArc
 50
105.9369715324
 51
215.6390613326
  0
INSERT
  5
F2
330
1F
100
AcDbEntity
  8
DIM
100
AcDbBlockReference
  2
SW_CENTERMARKSYMBOL_0
 10
85.4922690546
 20
135.8582991844
 30
0.0
  0
LINE
  5
F3
330
1F
100
AcDbEntity
  8
0
  6
Continuous
 62
     7
370
    15
100
AcDbLine
 10
244.299044942
 20
104.1082981712
 30
0.0
 11
247.611522784
 21
104.1082981712
 31
0.0
  0
LINE
  5
F4
330
1F
100
AcDbEntity
  8
0
  6
Continuous
 62
     7
370
    15
100
AcDbLine
 10
247.611522784
 20
167.6083001977
 30
0.0
 11
244.299044942
 21
167.6083001977
 31
0.0
  0
LINE
  5
F5
330
1F
100
AcDbEntity
  8
0
  6
Continuous
 62
     7
370
    15
100
AcDbLine
 10
244.299044942
 20
167.6083001977
 30
0.0
 11
242.6772081456
 21
164.7991966194
 31
0.0
  0
LINE
  5
F6
330
1F
100
AcDbEntity
  8
0
  6
Continuous
 62
     7
370
    15
100
AcDbLine
 10
242.6772081456
 20
106.9174017495
 30
0.0
 11
244.299044942
 21
104.1082981712
 31
0.0
  0
LINE
  5
F7
330
1F
100
AcDbEntity
  8
0
  6
Continuous
 62
     7
370
    15
100
AcDbLine
 10
237.2553712851
 20
104.1082981712
 30
0.0
 11
238.8772080815
 21
106.9174017495
 31
0.0
  0
LINE
  5
F8
330
1F
100
AcDbEntity
  8
0
  6
Continuous
 62
     7
370
    15
100
AcDbLine
 10
238.8772080815
 20
164.7991966194
 30
0.0
 11
237.2553712851
 21
167.6083001977
 31
0.0
  0
LINE
  5
F9
330
1F
100
AcDbEntity
  8
0
  6
Continuous
 62
     7
370
    15
100
AcDbLine
 10
234.0428932733
 20
104.1082981712
 30
0.0
 11
237.2553712851
 21
104.1082981712
 31
0.0
  0
LINE
  5
FA
330
1F
100
AcDbEntity
  8
0
  6
Continuous
 62
     7
370
    15
100
AcDbLine
 10
237.2553712851
 20
167.6083001977
 30
0.0
 11
234.0428932733
 21
167.6083001977
 31
0.0
  0
LINE
  5
FB
330
1F
100
AcDbEntity
  8
0
  6
Continuous
 62
     7
370
    15
100
AcDbLine
 10
247.8943654499
 20
104.2254548258
 30
0.0
 11
248.6600504419
 21
104.9911416805
 31
0.0
  0
LINE
  5
FC
330
1F
100
AcDbEntity
  8
0
  6
Continuous
 62
     7
370
    15
100
AcDbLine
 10
248.6600504419
 20
166.7254566884
 30
0.0
 11
247.8943654499
 21
167.4911435431
 31
0.0
  0
LINE
  5
FD
330
1F
100
AcDbEntity
  8
0
  6
Continuous
 62
     7
370
    15
100
AcDbLine
 10
233.7600506073
 20
167.4911435431
 30
0.0
 11
232.9943651496
 21
166.7254566884
 31
0.0
  0
LINE
  5
FE
330
1F
100
AcDbEntity
  8
0
  6
Continuous
 62
     7
370
    15
100
AcDbLine
 10
232.9943651496
 20
104.9911416805
 30
0.0
 11
233.7600506073
 21
104.2254548258
 31
0.0
  0
LINE
  5
FF
330
1F
100
AcDbEntity
  8
0
  6
Continuous
 62
     7
370
    15
100
AcDbLine
 10
238.8772080815
 20
107.8582983202
 30
0.0
 11
242.6772081456
 21
107.8582983202
 31
0.0
  0
LINE
  5
100
330
1F
100
AcDbEntity
  8
0
  6
Continuous
 62
     7
370
    15
100
AcDbLine
 10
242.6772081456
 20
163.8583000487
 30
0.0
 11
238.8772080815
 21
163.8583000487
 31
0.0
  0
ARC
  5
101
330
1F
100
AcDbEntity
  8
0
  6
Continuous
 62
     7
370
    15
100
AcDbCircle
 10
232.3772078774
 20
113.3582991844
 30
0.0
 40
0.5
100
AcDbArc
 50
0.0
 51
90.0
  0
ARC
  5
102
330
1F
100
AcDbEntity
  8
0
  6
Continuous
 62
     7
370
    15
100
AcDbCircle
 10
232.3772078774
 20
158.3582991844
 30
0.0
 40
0.5
100
AcDbArc
 50
270.0
 51
0.0
  0
LINE
  5
103
330
1F
100
AcDbEntity
  8
0
  6
Continuous
 62
     7
370
    15
100
AcDbLine
 10
229.6772078774
 20
113.6332992202
 30
0.0
 11
230.1597219414
 21
113.8582993037
 31
0.0
  0
LINE
  5
104
330
1F
100
AcDbEntity
  8
0
  6
Continuous
 62
     7
370
    15
100
AcDbLine
 10
230.1597219414
 20
157.8582990652
 30
0.0
 11
229.6772078774
 21
158.0832991487
 31
0.0
  0
LINE
  5
105
330
1F
100
AcDbEntity
  8
0
  6
Continuous
 62
     7
370
    15
100
AcDbLine
 10
229.6772078774
 20
158.0832991487
 30
0.0
 11
162.1328965923
 21
148.2329945749
 31
0.0
  0
LINE
  5
106
330
1F
100
AcDbEntity
  8
0
  6
Continuous
 62
     7
370
    15
100
AcDbLine
 10
162.1328965923
 20
123.483603794
 30
0.0
 11
229.6772078774
 21
113.6332992202
 31
0.0
  0
LINE
  5
107
330
1F
100
AcDbEntity
  8
0
  6
Continuous
 62
     7
370
    15
100
AcDbLine
 10
230.1597219414
 20
113.8582993037
 30
0.0
 11
232.3772079474
 21
113.8582993037
 31
0.0
  0
LINE
  5
108
330
1F
100
AcDbEntity
  8
0
  6
Continuous
 62
     7
370
    15
100
AcDbLine
 10
232.3772079474
 20
157.8582990652
 30
0.0
 11
230.1597219414
 21
157.8582990652
 31
0.0
  0
LINE
  5
109
330
1F
100
AcDbEntity
  8
0
  6
Continuous
 62
     7
370
    15
100
AcDbLine
 10
296.5017781755
 20
119.8582984245
 30
0.0
 11
299.6772081754
 21
125.358299326
 31
0.0
  0
LINE
  5
10A
330
1F
100
AcDbEntity
  8
0
  6
Continuous
 62
     7
370
    15
100
AcDbLine
 10
299.6772081754
 20
146.3582990429
 30
0.0
 11
296.5017781755
 21
151.8582999444
 31
0.0
  0
LINE
  5
10B
330
1F
100
AcDbEntity
  8
0
  6
Continuous
 62
     7
370
    15
100
AcDbLine
 10
283.1772082648
 20
119.8582984245
 30
0.0
 11
296.5017781755
 21
119.8582984245
 31
0.0
  0
LINE
  5
10C
330
1F
100
AcDbEntity
  8
0
  6
Continuous
 62
     7
370
    15
100
AcDbLine
 10
296.5017781755
 20
151.8582999444
 30
0.0
 11
283.1772082648
 21
151.8582999444
 31
0.0
  0
LINE
  5
10D
330
1F
100
AcDbEntity
  8
0
  6
Continuous
 62
     7
370
    15
100
AcDbLine
 10
283.1772082648
 20
151.8582999444
 30
0.0
 11
282.1772062382
 21
150.8582988492
 31
0.0
  0
LINE
  5
10E
330
1F
100
AcDbEntity
  8
0
  6
Continuous
 62
     7
370
    15
100
AcDbLine
 10
282.1772062382
 20
120.8582995197
 30
0.0
 11
283.1772082648
 21
119.8582984245
 31
0.0
  0
ARC
  5
10F
330
1F
100
AcDbEntity
  8
0
  6
Continuous
 62
     7
370
    15
100
AcDbCircle
 10
251.7772078774
 20
149.6082991844
 30
0.0
 40
3.000000000000028
100
AcDbArc
 50
180.0
 51
270.0
  0
ARC
  5
110
330
1F
100
AcDbEntity
  8
0
  6
Continuous
 62
     7
370
    15
100
AcDbCircle
 10
251.7772078774
 20
122.1082991844
 30
0.0
 40
3.000000000000028
100
AcDbArc
 50
90.0
 51
180.0
  0
ARC
  5
111
330
1F
100
AcDbEntity
  8
0
  6
Continuous
 62
     7
370
    15
100
AcDbCircle
 10
162.2772078774
 20
124.4731365948
 30
0.0
 40
1.000000000000018
100
AcDbArc
 50
180.0
 51
261.7027777778
  0
ARC
  5
112
330
1F
100
AcDbEntity
  8
0
  6
Continuous
 62
     7
370
    15
100
AcDbCircle
 10
162.2772078774
 20
147.2434617741
 30
0.0
 40
1.000000000000018
100
AcDbArc
 50
98.2972222222
 51
180.0
  0
LINE
  5
113
330
1F
100
AcDbEntity
  8
0
  6
Continuous
 62
     7
370
    15
100
AcDbLine
 10
269.5061081252
 20
124.9082991591
 30
0.0
 11
282.1772062382
 21
124.9082991591
 31
0.0
  0
LINE
  5
114
330
1F
100
AcDbEntity
  8
0
  6
Continuous
 62
     7
370
    15
100
AcDbLine
 10
282.1772062382
 20
146.8082992098
 30
0.0
 11
269.5061081252
 21
146.8082992098
 31
0.0
  0
LINE
  5
115
330
1F
100
AcDbEntity
  8
0
  6
Continuous
 62
     7
370
    15
100
AcDbLine
 10
269.5061081252
 20
146.8082992098
 30
0.0
 11
269.0772080025
 21
146.6082995495
 31
0.0
  0
LINE
  5
116
330
1F
100
AcDbEntity
  8
0
  6
Continuous
 62
     7
370
    15
100
AcDbLine
 10
269.0772080025
 20
125.1082988194
 30
0.0
 11
269.5061081252
 21
124.9082991591
 31
0.0
  0
LINE
  5
117
330
1F
100
AcDbEntity
  8
0
  6
Continuous
 62
     7
370
    15
100
AcDbLine
 10
251.7772075883
 20
125.1082988194
 30
0.0
 11
269.0772080025
 21
125.1082988194
 31
0.0
  0
LINE
  5
118
330
1F
100
AcDbEntity
  8
0
  6
Continuous
 62
     7
370
    15
100
AcDbLine
 10
269.0772080025
 20
146.6082995495
 30
0.0
 11
251.7772075883
 21
146.6082995495
 31
0.0
  0
ARC
  5
119
330
1F
100
AcDbEntity
  8
0
  6
Continuous
 62
     7
370
    15
100
AcDbCircle
 10
233.2772078774
 20
166.4426137595
 30
0.0
 40
0.4000000010572962
100
AcDbArc
 50
134.9999999243
 51
179.994108547
  0
ARC
  5
11A
330
1F
100
AcDbEntity
  8
0
  6
Continuous
 62
     7
370
    15
100
AcDbCircle
 10
233.2772078774
 20
105.2739846094
 30
0.0
 40
0.4000000010572962
100
AcDbArc
 50
180.005891453
 51
225.0000000757
  0
ARC
  5
11B
330
1F
100
AcDbEntity
  8
0
  6
Continuous
 62
     7
370
    15
100
AcDbCircle
 10
234.0428933023
 20
104.5082991844
 30
0.0
 40
0.4000000000000057
100
AcDbArc
 50
225.0
 51
270.0
  0
ARC
  5
11C
330
1F
100
AcDbEntity
  8
0
  6
Continuous
 62
     7
370
    15
100
AcDbCircle
 10
247.6115224524
 20
104.5082991844
 30
0.0
 40
0.3999999999999992
100
AcDbArc
 50
270.0
 51
315.0
  0
ARC
  5
11D
330
1F
100
AcDbEntity
  8
0
  6
Continuous
 62
     7
370
    15
100
AcDbCircle
 10
247.6115224524
 20
167.2082991844
 30
0.0
 40
0.4000000000000193
100
AcDbArc
 50
45.0
 51
90.0
  0
ARC
  5
11E
330
1F
100
AcDbEntity
  8
0
  6
Continuous
 62
     7
370
    15
100
AcDbCircle
 10
234.0428933023
 20
167.2082991844
 30
0.0
 40
0.4000000000000057
100
AcDbArc
 50
90.0
 51
135.0
  0
ARC
  5
11F
330
1F
100
AcDbEntity
  8
0
  6
Continuous
 62
     7
370
    15
100
AcDbCircle
 10
248.3772078774
 20
105.2739846094
 30
0.0
 40
0.4000000000000341
100
AcDbArc
 50
315.0
 51
0.0
  0
ARC
  5
120
330
1F
100
AcDbEntity
  8
0
  6
Continuous
 62
     7
370
    15
100
AcDbCircle
 10
248.3772078774
 20
166.4426137595
 30
0.0
 40
0.4000000000000394
100
AcDbArc
 50
0.0
 51
45.0
  0
SPLINE
  5
121
330
1F
100
AcDbEntity
  8
0
  6
Continuous
 62
     7
370
    15
100
AcDbSpline
210
0.0
220
0.0
230
1.0
 70
     8
 71
     3
 72
     8
 73
     4
 74
     0
 42
0.000000001
 43
0.00000001
 40
0.0
 40
0.0
 40
0.0
 40
0.0
 40
1.0
 40
1.0
 40
1.0
 40
1.0
 10
247.8943651648796
 20
166.3262328943126
 30
0.0
 10
247.8231198654039
 20
166.3840593975882
 30
0.0
 10
247.7202115016867
 20
166.4212683785949
 30
0.0
 10
247.6115224524049
 20
166.4212683785949
 30
0.0
  0
LINE
  5
122
330
1F
100
AcDbEntity
  8
0
  6
Continuous
 62
     7
370
    15
100
AcDbLine
 10
247.8943654499
 20
166.3262322283
 30
0.0
 11
247.8943654499
 21
105.4106298572
 31
0.0
  0
SPLINE
  5
123
330
1F
100
AcDbEntity
  8
0
  6
Continuous
 62
     7
370
    15
100
AcDbSpline
210
0.0
220
0.0
230
1.0
 70
     8
 71
     3
 72
    10
 73
     6
 74
     0
 42
0.000000001
 43
0.00000001
 40
0.0
 40
0.0
 40
0.0
 40
0.0
 40
0.5
 40
0.5
 40
1.0
 40
1.0
 40
1.0
 40
1.0
 10
247.6115224524049
 20
105.328631697093
 30
0.0
 10
247.668597392365
 20
105.328631697093
 30
0.0
 10
247.7239894203995
 20
105.3374023746418
 30
0.0
 10
247.82023832488
 20
105.3669106632566
 30
0.0
 10
247.8611657178469
 20
105.3873538655103
 30
0.0
 10
247.8943651648796
 20
105.410629885057
 30
0.0
  0
LINE
  5
124
330
1F
100
AcDbEntity
  8
0
  6
Continuous
 62
     7
370
    15
100
AcDbLine
 10
247.611522784
 20
105.3286324924
 30
0.0
 11
247.611522784
 21
166.4212681091
 31
0.0
  0
LINE
  5
125
330
1F
100
AcDbEntity
  8
0
  6
Continuous
 62
     7
370
    15
100
AcDbLine
 10
234.0428932733
 20
105.3286324924
 30
0.0
 11
234.0428932733
 21
166.4212681091
 31
0.0
  0
SPLINE
  5
126
330
1F
100
AcDbEntity
  8
0
  6
Continuous
 62
     7
370
    15
100
AcDbSpline
210
0.0
220
0.0
230
1.0
 70
     8
 71
     3
 72
    10
 73
     6
 74
     0
 42
0.000000001
 43
0.00000001
 40
0.0
 40
0.0
 40
0.0
 40
0.0
 40
0.5
 40
0.5
 40
1.0
 40
1.0
 40
1.0
 40
1.0
 10
233.7600505898288
 20
105.410629885057
 30
0.0
 10
233.7932352204417
 20
105.3873642532518
 30
0.0
 10
233.8339617688824
 20
105.3669981464824
 30
0.0
 10
233.9302536239737
 20
105.3374340454801
 30
0.0
 10
233.9858196932603
 20
105.328631697093
 30
0.0
 10
234.0428933023034
 20
105.328631697093
 30
0.0
  0
LINE
  5
127
330
1F
100
AcDbEntity
  8
0
  6
Continuous
 62
     7
370
    15
100
AcDbLine
 10
233.7600506073
 20
105.4106298572
 30
0.0
 11
233.7600506073
 21
166.3262322283
 31
0.0
  0
SPLINE
  5
128
330
1F
100
AcDbEntity
  8
0
  6
Continuous
 62
     7
370
    15
100
AcDbSpline
210
0.0
220
0.0
230
1.0
 70
     8
 71
     3
 72
     8
 73
     4
 74
     0
 42
0.000000001
 43
0.00000001
 40
0.0
 40
0.0
 40
0.0
 40
0.0
 40
1.0
 40
1.0
 40
1.0
 40
1.0
 10
234.0428933023034
 20
166.4212683785949
 30
0.0
 10
233.9343143101204
 20
166.4212683785949
 30
0.0
 10
233.8312649896471
 20
166.3840343177703
 30
0.0
 10
233.7600505898288
 20
166.3262328943126
 30
0.0
  0
LINE
  5
129
330
1F
100
AcDbEntity
  8
0
  6
Continuous
 62
     7
370
    15
100
AcDbLine
 10
244.299044942
 20
105.3286324924
 30
0.0
 11
244.299044942
 21
167.6083001977
 31
0.0
  0
LINE
  5
12A
330
1F
100
AcDbEntity
  8
0
  6
Continuous
 62
     7
370
    15
100
AcDbLine
 10
244.299044942
 20
104.1082981712
 30
0.0
 11
244.299044942
 21
105.3286324924
 31
0.0
  0
LINE
  5
12B
330
1F
100
AcDbEntity
  8
0
  6
Continuous
 62
     7
370
    15
100
AcDbLine
 10
242.6772081456
 20
164.7991966194
 30
0.0
 11
242.6772081456
 21
106.9174017495
 31
0.0
  0
LINE
  5
12C
330
1F
100
AcDbEntity
  8
0
  6
Continuous
 62
     7
370
    15
100
AcDbLine
 10
238.8772080815
 20
106.9174017495
 30
0.0
 11
238.8772080815
 21
164.7991966194
 31
0.0
  0
LINE
  5
12D
330
1F
100
AcDbEntity
  8
0
  6
Continuous
 62
     7
370
    15
100
AcDbLine
 10
237.2553712851
 20
166.4212681091
 30
0.0
 11
237.2553712851
 21
167.6083001977
 31
0.0
  0
LINE
  5
12E
330
1F
100
AcDbEntity
  8
0
  6
Continuous
 62
     7
370
    15
100
AcDbLine
 10
237.2553712851
 20
104.1082981712
 30
0.0
 11
237.2553712851
 21
166.4212681091
 31
0.0
  0
LINE
  5
12F
330
1F
100
AcDbEntity
  8
0
  6
Continuous
 62
     7
370
    15
100
AcDbLine
 10
248.6600504419
 20
165.6572743988
 30
0.0
 11
248.6600504419
 21
106.0593239701
 31
0.0
  0
LINE
  5
130
330
1F
100
AcDbEntity
  8
0
  6
Continuous
 62
     7
370
    15
100
AcDbLine
 10
232.9943651496
 20
106.2229238188
 30
0.0
 11
232.9943651496
 21
165.4936745501
 31
0.0
  0
SPLINE
  5
131
330
1F
100
AcDbEntity
  8
0
  6
Continuous
 62
     7
370
    15
100
AcDbSpline
210
0.0
220
0.0
230
1.0
 70
     8
 71
     3
 72
    10
 73
     6
 74
     0
 42
0.000000001
 43
0.00000001
 40
0.0
 40
0.0
 40
0.0
 40
0.0
 40
0.5
 40
0.5
 40
1.0
 40
1.0
 40
1.0
 40
1.0
 10
232.8772078773542
 20
106.5523646655514
 30
0.0
 10
232.8772078773542
 20
106.4884055298374
 30
0.0
 10
232.8910422446517
 20
106.4268284663957
 30
0.0
 10
232.9331962313252
 20
106.3161758236779
 30
0.0
 10
232.9616895027984
 20
106.2664769152311
 30
0.0
 10
232.9943651648795
 20
106.2229246176452
 30
0.0
  0
SPLINE
  5
132
330
1F
100
AcDbEntity
  8
0
  6
Continuous
 62
     7
370
    15
100
AcDbSpline
210
0.0
220
0.0
230
1.0
 70
    24
 71
     3
 72
    31
 73
    27
 74
     0
 42
0.000000001
 43
0.00000001
 40
0.0
 40
0.0
 40
0.0
 40
0.0
 40
0.0132844560938056
 40
0.0265558208792211
 40
0.0398179176701734
 40
0.0530745777994556
 40
0.0663296373142116
 40
0.0795869336510156
 40
0.0928503023049308
 40
0.106123573506981
 40
0.1194105689243955
 40
0.18144801304061
 40
0.2434985490104099
 40
0.3072096944263704
 40
0.3709342849308375
 40
0.5000015820302129
 40
0.6290688791295884
 40
0.6927800250008046
 40
0.7565046159608975
 40
0.8185420607574302
 40
0.8805925974112735
 40
0.9044943877008197
 40
0.9283636577015203
 40
0.9522227648280808
 40
0.976094095050264
 40
1.0
 40
1.0
 40
1.0
 40
1.0
 10
232.8772078773542
 20
106.5523646655514
 30
0.0
 10
232.8772078773542
 20
106.6027750474063
 30
0.0
 10
232.8772078773542
 20
106.7035461336697
 30
0.0
 10
232.8772078773542
 20
106.8653001992799
 30
0.0
 10
232.8772078773542
 20
107.0347004730769
 30
0.0
 10
232.8772078773542
 20
107.2125128548313
 30
0.0
 10
232.8772078773542
 20
107.3985321687329
 30
0.0
 10
232.8772078773542
 20
107.5928136532008
 30
0.0
 10
232.8772078773542
 20
107.7953411497493
 30
0.0
 10
232.8772078773542
 20
108.0061237303949
 30
0.0
 10
232.8772078773542
 20
108.4928794324722
 30
0.0
 10
232.8772078773542
 20
109.3257846805216
 30
0.0
 10
232.8772078773542
 20
110.6338036450679
 30
0.0
 10
232.8772078773542
 20
112.1172805993016
 30
0.0
 10
232.8772078773542
 20
114.3375594939539
 30
0.0
 10
232.8772078773542
 20
117.5018109683513
 30
0.0
 10
232.8772078773542
 20
121.0835021929184
 30
0.0
 10
232.8772078773542
 20
124.1230529748061
 30
0.0
 10
232.8772078773542
 20
126.4465202166658
 30
0.0
 10
232.8772078773542
 20
128.809635416033
 30
0.0
 10
232.8772078773542
 20
130.7075446371452
 30
0.0
 10
232.8772078773542
 20
132.1273386908898
 30
0.0
 10
232.8772078773542
 20
133.0569336766095
 30
0.0
 10
232.8772078773542
 20
133.9887420546224
 30
0.0
 10
232.8772078773542
 20
134.9227804746664
 30
0.0
 10
232.8772078773542
 20
135.5463092058151
 30
0.0
 10
232.8772078773542
 20
135.8582991844447
 30
0.0
  0
SPLINE
  5
133
330
1F
100
AcDbEntity
  8
0
  6
Continuous
 62
     7
370
    15
100
AcDbSpline
210
0.0
220
0.0
230
1.0
 70
    24
 71
     3
 72
    31
 73
    27
 74
     0
 42
0.000000001
 43
0.00000001
 40
0.0
 40
0.0
 40
0.0
 40
0.0
 40
0.0132844560939671
 40
0.0265558208795038
 40
0.0398179176705367
 40
0.0530745777998593
 40
0.0663296373146152
 40
0.0795869336513791
 40
0.0928503023052138
 40
0.1061235735071438
 40
0.1194105689243984
 40
0.1814480130397909
 40
0.2434985490104023
 40
0.3072096944246781
 40
0.3709342849308339
 40
0.5000015820302092
 40
0.6290688791295843
 40
0.692780024999251
 40
0.7565046159608926
 40
0.8185420607560003
 40
0.8805925974112686
 40
0.904494387700386
 40
0.9283636577008713
 40
0.9522227648274317
 40
0.9760940950498311
 40
1.0
 40
1.0
 40
1.0
 40
1.0
 10
232.8772078773542
 20
135.8582991844447
 30
0.0
 10
232.8772078773542
 20
136.0316666197429
 30
0.0
 10
232.8772078773542
 20
136.378230643558
 30
0.0
 10
232.8772078773542
 20
136.8977211968949
 30
0.0
 10
232.8772078773542
 20
137.4165500517749
 30
0.0
 10
232.8772078773542
 20
137.9347171306451
 30
0.0
 10
232.8772078773542
 20
138.4522221618438
 30
0.0
 10
232.8772078773542
 20
138.9690655279512
 30
0.0
 10
232.8772078773542
 20
139.4852451896825
 30
0.0
 10
232.8772078773542
 20
140.0007681553032
 30
0.0
 10
232.8772078773542
 20
141.1449756673499
 30
0.0
 10
232.8772078773542
 20
142.9068111486694
 30
0.0
 10
232.8772078773542
 20
145.2697444834919
 30
0.0
 10
232.8772078773542
 20
147.5933830963258
 30
0.0
 10
232.8772078773542
 20
150.6329464087549
 30
0.0
 10
232.8772078773542
 20
154.2147876353039
 30
0.0
 10
232.8772078773542
 20
157.378906144466
 30
0.0
 10
232.8772078773542
 20
159.5992075600975
 30
0.0
 10
232.8772078773542
 20
161.0825957076699
 30
0.0
 10
232.8772078773542
 20
162.3907383600004
 30
0.0
 10
232.8772078773542
 20
163.2879795276106
 30
0.0
 10
232.8772078773542
 20
163.8825931491127
 30
0.0
 10
232.8772078773542
 20
164.2443927928792
 30
0.0
 10
232.8772078773542
 20
164.5789378159605
 30
0.0
 10
232.8772078773542
 20
164.8887141984143
 30
0.0
 10
232.8772078773542
 20
165.0723495715136
 30
0.0
 10
232.8772078773542
 20
165.164233703338
 30
0.0
  0
SPLINE
  5
134
330
1F
100
AcDbEntity
  8
0
  6
Continuous
 62
     7
370
    15
100
AcDbSpline
210
0.0
220
0.0
230
1.0
 70
     8
 71
     3
 72
    10
 73
     6
 74
     0
 42
0.000000001
 43
0.00000001
 40
0.0
 40
0.0
 40
0.0
 40
0.0
 40
0.5
 40
0.5
 40
1.0
 40
1.0
 40
1.0
 40
1.0
 10
232.9943651648795
 20
165.4936737512442
 30
0.0
 10
232.9617105399504
 20
165.4501494933747
 30
0.0
 10
232.9337294255362
 20
165.4015873910911
 30
0.0
 10
232.8910832196009
 20
165.2901090834712
 30
0.0
 10
232.8772078773542
 20
165.2281377945054
 30
0.0
 10
232.8772078773542
 20
165.164233703338
 30
0.0
  0
SPLINE
  5
135
330
1F
100
AcDbEntity
  8
0
  6
Continuous
 62
     7
370
    15
100
AcDbSpline
210
0.0
220
0.0
230
1.0
 70
     8
 71
     3
 72
     8
 73
     4
 74
     0
 42
0.000000001
 43
0.00000001
 40
0.0
 40
0.0
 40
0.0
 40
0.0
 40
1.0
 40
1.0
 40
1.0
 40
1.0
 10
248.6600505898288
 20
165.6572739824613
 30
0.0
 10
248.7355933721074
 20
165.5790232722159
 30
0.0
 10
248.7772078773541
 20
165.4729040339168
 30
0.0
 10
248.7772078773542
 20
165.3641934773764
 30
0.0
  0
SPLINE
  5
136
330
1F
100
AcDbEntity
  8
0
  6
Continuous
 62
     7
370
    15
100
AcDbSpline
210
0.0
220
0.0
230
1.0
 70
    24
 71
     3
 72
    31
 73
    27
 74
     0
 42
0.000000001
 43
0.00000001
 40
0.0
 40
0.0
 40
0.0
 40
0.0
 40
0.0132615204103927
 40
0.0265095378007134
 40
0.0397479976749376
 40
0.0529808540860408
 40
0.066212066110664
 40
0.0794455943013024
 40
0.0926853971318789
 40
0.1059354274526324
 40
0.1191996289701553
 40
0.181217270506452
 40
0.2432482034156576
 40
0.30700546116051
 40
0.3707758455973517
 40
0.5000016328884971
 40
0.6292274201796425
 40
0.6929846784062705
 40
0.7567550633220967
 40
0.8187727037436856
 40
0.8808036357637848
 40
0.904663820894604
 40
0.928490467169364
 40
0.9523066488136858
 40
0.9761354704529388
 40
1.0
 40
1.0
 40
1.0
 40
1.0
 10
248.7772078773542
 20
165.3641934773764
 30
0.0
 10
248.7772078773542
 20
165.3169508697164
 30
0.0
 10
248.7772078773541
 20
165.2225137573181
 30
0.0
 10
248.7772078773542
 20
165.0698206158053
 30
0.0
 10
248.7772078773541
 20
164.9091550624197
 30
0.0
 10
248.7772078773542
 20
164.7397200168787
 30
0.0
 10
248.7772078773542
 20
164.5617289989036
 30
0.0
 10
248.7772078773542
 20
164.3751245259564
 30
0.0
 10
248.7772078773541
 20
164.1799234031401
 30
0.0
 10
248.7772078773542
 20
163.976116227973
 30
0.0
 10
248.7772078773542
 20
163.5036263071479
 30
0.0
 10
248.7772078773542
 20
162.6890061896865
 30
0.0
 10
248.7772078773541
 20
161.3971243987943
 30
0.0
 10
248.7772078773542
 20
159.9211562144808
 30
0.0
 10
248.7772078773541
 20
157.6985027636214
 30
0.0
 10
248.7772078773541
 20
154.5101474781584
 30
0.0
 10
248.7772078773542
 20
150.8806454754915
 30
0.0
 10
248.7772078773541
 20
147.7928734449185
 30
0.0
 10
248.7772078773542
 20
145.4307319408699
 30
0.0
 10
248.7772078773541
 20
143.0267831281108
 30
0.0
 10
248.7772078773542
 20
141.0958489012239
 30
0.0
 10
248.7772078773541
 20
139.651518979842
 30
0.0
 10
248.7772078773541
 20
138.7065215206829
 30
0.0
 10
248.7772078773542
 20
137.7591963833804
 30
0.0
 10
248.7772078773542
 20
136.8095260829542
 30
0.0
 10
248.7772078773542
 20
136.1755330403497
 30
0.0
 10
248.7772078773542
 20
135.8582991844447
 30
0.0
  0
SPLINE
  5
137
330
1F
100
AcDbEntity
  8
0
  6
Continuous
 62
     7
370
    15
100
AcDbSpline
210
0.0
220
0.0
230
1.0
 70
    24
 71
     3
 72
    31
 73
    27
 74
     0
 42
0.000000001
 43
0.00000001
 40
0.0
 40
0.0
 40
0.0
 40
0.0
 40
0.013261520409978
 40
0.0265095377999877
 40
0.0397479976740047
 40
0.0529808540850043
 40
0.0662120661096275
 40
0.0794455943003691
 40
0.0926853971311515
 40
0.1059354274522133
 40
0.1191996289701465
 40
0.1812172705069356
 40
0.2432482034156659
 40
0.3070054611627953
 40
0.370775845597355
 40
0.5000016328884999
 40
0.6292274201796453
 40
0.6929846784064232
 40
0.7567550633220962
 40
0.8187727037441253
 40
0.8808036357637891
 40
0.9046638208950059
 40
0.9284904671699657
 40
0.9523066488142876
 40
0.9761354704533403
 40
1.0
 40
1.0
 40
1.0
 40
1.0
 10
248.7772078773542
 20
135.8582991844447
 30
0.0
 10
248.7772078773542
 20
135.6820172277409
 30
0.0
 10
248.7772078773541
 20
135.3296328064812
 30
0.0
 10
248.7772078773542
 20
134.8014296768663
 30
0.0
 10
248.7772078773542
 20
134.2739217884883
 30
0.0
 10
248.7772078773542
 20
133.7471092269013
 30
0.0
 10
248.7772078773542
 20
133.2209922826704
 30
0.0
 10
248.7772078773541
 20
132.6955705575032
 30
0.0
 10
248.7772078773542
 20
132.1708462023643
 30
0.0
 10
248.7772078773542
 20
131.6468118442012
 30
0.0
 10
248.7772078773542
 20
130.4826361512386
 30
0.0
 10
248.7772078773542
 20
128.6899711440981
 30
0.0
 10
248.7772078773542
 20
126.2862044712326
 30
0.0
 10
248.7772078773541
 20
123.92388578775
 30
0.0
 10
248.7772078773542
 20
120.8361009398412
 30
0.0
 10
248.7772078773542
 20
117.2064506626828
 30
0.0
 10
248.7772078773541
 20
114.0182259819314
 30
0.0
 10
248.7772078773542
 20
111.7955495757657
 30
0.0
 10
248.7772078773541
 20
110.3196701232103
 30
0.0
 10
248.7772078773542
 20
109.0276693576391
 30
0.0
 10
248.7772078773542
 20
108.150207795156
 30
0.0
 10
248.7772078773542
 20
107.5737848196666
 30
0.0
 10
248.7772078773542
 20
107.2252939363199
 30
0.0
 10
248.7772078773542
 20
106.9052171994624
 30
0.0
 10
248.7772078773541
 20
106.6109677732572
 30
0.0
 10
248.7772078773542
 20
106.4386355270195
 30
0.0
 10
248.7772078773542
 20
106.3524048915129
 30
0.0
  0
SPLINE
  5
138
330
1F
100
AcDbEntity
  8
0
  6
Continuous
 62
     7
370
    15
100
AcDbSpline
210
0.0
220
0.0
230
1.0
 70
     8
 71
     3
 72
     8
 73
     4
 74
     0
 42
0.000000001
 43
0.00000001
 40
0.0
 40
0.0
 40
0.0
 40
0.0
 40
1.0
 40
1.0
 40
1.0
 40
1.0
 10
248.6600505898288
 20
106.059324386428
 30
0.0
 10
248.7355933721074
 20
106.1375750966735
 30
0.0
 10
248.7772078773542
 20
106.2436943349725
 30
0.0
 10
248.7772078773542
 20
106.3524048915129
 30
0.0
  0
LINE
  5
139
330
1F
100
AcDbEntity
  8
0
  6
Continuous
 62
     7
370
    15
100
AcDbLine
 10
230.1597219414
 20
135.8582991844
 30
0.0
 11
230.1597219414
 21
157.8582990652
 31
0.0
  0
LINE
  5
13A
330
1F
100
AcDbEntity
  8
0
  6
Continuous
 62
     7
370
    15
100
AcDbLine
 10
230.1597219414
 20
113.8582993037
 30
0.0
 11
230.1597219414
 21
135.8582991844
 31
0.0
  0
LINE
  5
13B
330
1F
100
AcDbEntity
  8
0
  6
Continuous
 62
     7
370
    15
100
AcDbLine
 10
229.6772078774
 20
113.6332992202
 30
0.0
 11
229.6772078774
 21
158.0832991487
 31
0.0
  0
LINE
  5
13C
330
1F
100
AcDbEntity
  8
0
  6
Continuous
 62
     7
370
    15
100
AcDbLine
 10
296.5017781755
 20
135.8582991844
 30
0.0
 11
296.5017781755
 21
151.8582999444
 31
0.0
  0
LINE
  5
13D
330
1F
100
AcDbEntity
  8
0
  6
Continuous
 62
     7
370
    15
100
AcDbLine
 10
296.5017781755
 20
119.8582984245
 30
0.0
 11
296.5017781755
 21
135.8582991844
 31
0.0
  0
LINE
  5
13E
330
1F
100
AcDbEntity
  8
0
  6
Continuous
 62
     7
370
    15
100
AcDbLine
 10
299.6772081754
 20
135.8582991844
 30
0.0
 11
299.6772081754
 21
146.3582990429
 31
0.0
  0
LINE
  5
13F
330
1F
100
AcDbEntity
  8
0
  6
Continuous
 62
     7
370
    15
100
AcDbLine
 10
299.6772081754
 20
125.358299326
 30
0.0
 11
299.6772081754
 21
135.8582991844
 31
0.0
  0
LINE
  5
140
330
1F
100
AcDbEntity
  8
0
  6
Continuous
 62
     7
370
    15
100
AcDbLine
 10
283.1772082648
 20
119.8582984245
 30
0.0
 11
283.1772082648
 21
151.8582999444
 31
0.0
  0
LINE
  5
141
330
1F
100
AcDbEntity
  8
0
  6
Continuous
 62
     7
370
    15
100
AcDbLine
 10
282.1772062382
 20
150.8582988492
 30
0.0
 11
282.1772062382
 21
120.8582995197
 31
0.0
  0
SPLINE
  5
142
330
1F
100
AcDbEntity
  8
0
  6
Continuous
 62
     7
370
    15
100
AcDbSpline
210
0.0
220
0.0
230
1.0
 70
    24
 71
     3
 72
    10
 73
     6
 74
     0
 42
0.000000001
 43
0.00000001
 40
0.0
 40
0.0
 40
0.0
 40
0.0
 40
0.4999999999999997
 40
0.4999999999999997
 40
0.9999999999999999
 40
0.9999999999999999
 40
0.9999999999999999
 40
0.9999999999999999
 10
161.2772078773542
 20
147.2434617740636
 30
0.0
 10
161.2772078773542
 20
147.2434617740635
 30
0.0
 10
161.2772078773542
 20
146.0438965906208
 30
0.0
 10
161.2772078773542
 20
141.7737531223303
 30
0.0
 10
161.2772078773542
 20
138.8777465875123
 30
0.0
 10
161.2772078773542
 20
135.8582991844447
 30
0.0
  0
SPLINE
  5
143
330
1F
100
AcDbEntity
  8
0
  6
Continuous
 62
     7
370
    15
100
AcDbSpline
210
0.0
220
0.0
230
1.0
 70
    24
 71
     3
 72
    10
 73
     6
 74
     0
 42
0.000000001
 43
0.00000001
 40
0.0
 40
0.0
 40
0.0
 40
0.0
 40
0.4999999999999999
 40
0.4999999999999999
 40
0.9999999999999999
 40
0.9999999999999999
 40
0.9999999999999999
 40
0.9999999999999999
 10
161.2772078773542
 20
135.8582991844447
 30
0.0
 10
161.2772078773542
 20
132.8388517813771
 30
0.0
 10
161.2772078773542
 20
129.9428452465589
 30
0.0
 10
161.2772078773542
 20
125.6727017782684
 30
0.0
 10
161.2772078773542
 20
124.4731365948257
 30
0.0
 10
161.2772078773542
 20
124.4731365948258
 30
0.0
  0
LINE
  5
144
330
1F
100
AcDbEntity
  8
0
  6
Continuous
 62
     7
370
    15
100
AcDbLine
 10
269.5061081252
 20
124.9082991591
 30
0.0
 11
269.5061081252
 21
146.8082992098
 31
0.0
  0
LINE
  5
145
330
1F
100
AcDbEntity
  8
0
  6
Continuous
 62
     7
370
    15
100
AcDbLine
 10
269.0772080025
 20
135.8582991844
 30
0.0
 11
269.0772080025
 21
146.6082995495
 31
0.0
  0
LINE
  5
146
330
1F
100
AcDbEntity
  8
0
  6
Continuous
 62
     7
370
    15
100
AcDbLine
 10
269.0772080025
 20
125.1082988194
 30
0.0
 11
269.0772080025
 21
135.8582991844
 31
0.0
  0
LINE
  5
147
330
1F
100
AcDbEntity
  8
0
  6
Continuous
 62
     7
370
    15
100
AcDbLine
 10
232.8772077965
 20
166.4426550007
 30
0.0
 11
232.8772077965
 21
165.164273206
 31
0.0
  0
LINE
  5
148
330
1F
100
AcDbEntity
  8
0
  6
Continuous
 62
     7
370
    15
100
AcDbLine
 10
232.8772077965
 20
106.5523251629
 30
0.0
 11
232.8772077965
 21
105.2739433682
 31
0.0
  0
LINE
  5
149
330
1F
100
AcDbEntity
  8
0
  6
Continuous
 62
     7
370
    15
100
AcDbLine
 10
248.7772070965
 20
106.3524055964
 30
0.0
 11
248.7772070965
 21
105.2739843464
 31
0.0
  0
LINE
  5
14A
330
1F
100
AcDbEntity
  8
0
  6
Continuous
 62
     7
370
    15
100
AcDbLine
 10
248.7772070965
 20
166.4426140225
 30
0.0
 11
248.7772070965
 21
165.3641927725
 31
0.0
  0
LINE
  5
14B
330
1F
100
AcDbEntity
  8
0
  6
Continuous
 62
     8
370
    15
100
AcDbLine
 10
247.611522784
 20
167.6083001977
 30
0.0
 11
247.611522784
 21
166.4212681091
 31
0.0
  0
LINE
  5
14C
330
1F
100
AcDbEntity
  8
0
  6
Continuous
 62
     8
370
    15
100
AcDbLine
 10
247.611522784
 20
105.3286324924
 30
0.0
 11
247.611522784
 21
104.1082981712
 31
0.0
  0
LINE
  5
14D
330
1F
100
AcDbEntity
  8
0
  6
Continuous
 62
     8
370
    15
100
AcDbLine
 10
234.0428932733
 20
167.6083001977
 30
0.0
 11
234.0428932733
 21
166.4212681091
 31
0.0
  0
LINE
  5
14E
330
1F
100
AcDbEntity
  8
0
  6
Continuous
 62
     8
370
    15
100
AcDbLine
 10
234.0428932733
 20
105.3286324924
 30
0.0
 11
234.0428932733
 21
104.1082981712
 31
0.0
  0
LINE
  5
14F
330
1F
100
AcDbEntity
  8
0
  6
Continuous
 62
     8
370
    15
100
AcDbLine
 10
248.6600504419
 20
166.7254566884
 30
0.0
 11
248.6600504419
 21
165.6572743988
 31
0.0
  0
LINE
  5
150
330
1F
100
AcDbEntity
  8
0
  6
Continuous
 62
     8
370
    15
100
AcDbLine
 10
248.6600504419
 20
106.0593239701
 30
0.0
 11
248.6600504419
 21
104.9911416805
 31
0.0
  0
LINE
  5
151
330
1F
100
AcDbEntity
  8
0
  6
Continuous
 62
     8
370
    15
100
AcDbLine
 10
247.8943654499
 20
167.4911435431
 30
0.0
 11
247.8943654499
 21
166.3262322283
 31
0.0
  0
LINE
  5
152
330
1F
100
AcDbEntity
  8
0
  6
Continuous
 62
     8
370
    15
100
AcDbLine
 10
247.8943654499
 20
105.4106298572
 30
0.0
 11
247.8943654499
 21
104.2254548258
 31
0.0
  0
LINE
  5
153
330
1F
100
AcDbEntity
  8
0
  6
Continuous
 62
     8
370
    15
100
AcDbLine
 10
232.9943651496
 20
106.2229238188
 30
0.0
 11
232.9943651496
 21
104.9911416805
 31
0.0
  0
LINE
  5
154
330
1F
100
AcDbEntity
  8
0
  6
Continuous
 62
     8
370
    15
100
AcDbLine
 10
232.9943651496
 20
166.7254566884
 30
0.0
 11
232.9943651496
 21
165.4936745501
 31
0.0
  0
LINE
  5
155
330
1F
100
AcDbEntity
  8
0
  6
Continuous
 62
     8
370
    15
100
AcDbLine
 10
233.7600506073
 20
167.4911435431
 30
0.0
 11
233.7600506073
 21
166.3262322283
 31
0.0
  0
LINE
  5
156
330
1F
100
AcDbEntity
  8
0
  6
Continuous
 62
     8
370
    15
100
AcDbLine
 10
233.7600506073
 20
105.4106298572
 30
0.0
 11
233.7600506073
 21
104.2254548258
 31
0.0
  0
LINE
  5
157
330
1F
100
AcDbEntity
  8
0
  6
Continuous
 62
     8
370
    15
100
AcDbLine
 10
232.3772079474
 20
113.8582993037
 30
0.0
 11
232.3772079474
 21
157.8582990652
 31
0.0
  0
LINE
  5
158
330
1F
100
AcDbEntity
  8
0
  6
Continuous
 62
     8
370
    15
100
AcDbLine
 10
162.1328965923
 20
148.2329945749
 30
0.0
 11
162.1328965923
 21
123.483603794
 31
0.0
  0
LINE
  5
159
330
1F
100
AcDbEntity
  8
0
  6
Continuous
 62
     8
370
    15
100
AcDbLine
 10
251.7772075883
 20
146.6082995495
 30
0.0
 11
251.7772075883
 21
125.1082988194
 31
0.0
  0
DIMENSION
  5
15A
330
1F
100
AcDbEntity
  8
DIM
100
AcDbDimension
  2
_D
 10
229.6772078774
 20
94.5303128309
 30
0.0
 11
264.9906835293
 21
94.5303128309
 31
0.0
 70
   160
  1
<>
 71
     2
 42
-1.0
  3
SLDDIMSTYLE0
100
AcDbAlignedDimension
 13
299.6772078774
 23
125.3582991844
 33
0.0
 14
229.6772078774
 24
113.6332991844
 34
0.0
100
AcDbRotatedDimension
  0
DIMENSION
  5
165
330
1F
100
AcDbEntity
  8
DIM
100
AcDbDimension
  2
_D_1
 10
308.9863907303
 20
119.8582991844
 30
0.0
 11
308.9863907303
 21
135.8586993521
 31
0.0
 70
   160
  1
%%c<>
 71
     2
 42
-1.0
  3
SLDDIMSTYLE0
100
AcDbAlignedDimension
 13
296.5017813968
 23
151.8582991844
 33
0.0
 14
296.5017813968
 24
119.8582991844
 34
0.0
 50
90.0
100
AcDbRotatedDimension
  0
DIMENSION
  5
170
330
1F
100
AcDbEntity
  8
DIM
100
AcDbDimension
  2
_D_2
 10
299.6772078774
 20
87.1636753868
 30
0.0
 11
228.0199057032
 21
87.1636753868
 31
0.0
 70
   160
  1
<>
 71
     2
 42
-1.0
  3
SLDDIMSTYLE1
100
AcDbAlignedDimension
 13
161.2772078774
 23
135.8582991844
 33
0.0
 14
299.6772078774
 24
125.3582991844
 34
0.0
100
AcDbRotatedDimension
  0
DIMENSION
  5
17B
330
1F
100
AcDbEntity
  8
DIM
100
AcDbDimension
  2
_D_3
 10
154.3839901497
 20
167.6082991844
 30
0.0
 11
154.3839901497
 21
133.1953579344
 31
0.0
 70
   160
  1
%%c<>
 71
     2
 42
-1.0
  3
SLDDIMSTYLE1
100
AcDbAlignedDimension
 13
234.0428933023
 23
104.1082991844
 33
0.0
 14
234.0428933023
 24
167.6082991844
 34
0.0
 50
90.0
100
AcDbRotatedDimension
  0
LINE
  5
186
330
1F
100
AcDbEntity
  8
DIM
  6
CENTERX2
 48
1.6
370
     0
100
AcDbLine
 10
296.5017813968
 20
135.8582991844
 30
0.0
 11
302.1772078774
 21
135.8582991844
 31
0.0
  0
LINE
  5
187
330
1F
100
AcDbEntity
  8
DIM
  6
CENTERX2
 48
1.6
370
     0
100
AcDbLine
 10
296.5017813968
 20
135.8582991844
 30
0.0
 11
283.1772078774
 21
135.8582991844
 31
0.0
  0
LINE
  5
188
330
1F
100
AcDbEntity
  8
DIM
  6
CENTERX2
 48
1.6
370
     0
100
AcDbLine
 10
283.1772078774
 20
135.8582991844
 30
0.0
 11
282.1772078774
 21
135.8582991844
 31
0.0
  0
LINE
  5
189
330
1F
100
AcDbEntity
  8
DIM
  6
CENTERX2
 48
1.6
370
     0
100
AcDbLine
 10
282.1772078774
 20
135.8582991844
 30
0.0
 11
269.5061092615
 21
135.8582991844
 31
0.0
  0
LINE
  5
18A
330
1F
100
AcDbEntity
  8
DIM
  6
CENTERX2
 48
1.6
370
     0
100
AcDbLine
 10
269.5061092615
 20
135.8582991844
 30
0.0
 11
269.0772078774
 21
135.8582991844
 31
0.0
  0
LINE
  5
18B
330
1F
100
AcDbEntity
  8
DIM
  6
CENTERX2
 48
1.6
370
     0
100
AcDbLine
 10
269.0772078774
 20
135.8582991844
 30
0.0
 11
249.2772078774
 21
135.8582991844
 31
0.0
  0
LINE
  5
18C
330
1F
100
AcDbEntity
  8
DIM
  6
CENTERX2
 48
1.6
370
     0
100
AcDbLine
 10
234.8772078774
 20
135.8582991844
 30
0.0
 11
230.1597219345
 21
135.8582991844
 31
0.0
  0
LINE
  5
18D
330
1F
100
AcDbEntity
  8
DIM
  6
CENTERX2
 48
1.6
370
     0
100
AcDbLine
 10
229.6772078774
 20
135.8582991844
 30
0.0
 11
230.1597219345
 21
135.8582991844
 31
0.0
  0
LINE
  5
18E
330
1F
100
AcDbEntity
  8
DIM
  6
CENTERX2
 48
1.6
370
     0
100
AcDbLine
 10
229.6772078774
 20
135.8582991844
 30
0.0
 11
159.6328996501
 21
135.8582991844
 31
0.0
  0
ENDSEC
  0
SECTION
  2
OBJECTS
  0
DICTIONARY
  5
C
330
0
100
AcDbDictionary
281
     1
  3
ACAD_GROUP
350
D
  3
ACAD_LAYOUT
350
1A
  3
ACAD_MLINESTYLE
350
17
  3
ACAD_PLOTSETTINGS
350
19
  3
ACAD_PLOTSTYLENAME
350
E
  3
ACAD_SCALELIST
350
47
  0
DICTIONARY
  5
D
102
{ACAD_REACTORS
330
C
102
}
330
C
100
AcDbDictionary
281
     1
  0
DICTIONARY
  5
1A
102
{ACAD_REACTORS
330
C
102
}
330
C
100
AcDbDictionary
281
     1
  3
Layout1
350
1E
  3
Layout2
350
26
  3
Model
350
22
  0
DICTIONARY
  5
17
102
{ACAD_REACTORS
330
C
102
}
330
C
100
AcDbDictionary
281
     1
  3
Standard
350
18
  0
DICTIONARY
  5
19
102
{ACAD_REACTORS
330
C
102
}
330
C
100
AcDbDictionary
281
     1
  0
ACDBDICTIONARYWDFLT
  5
E
102
{ACAD_REACTORS
330
C
102
}
330
C
100
AcDbDictionary
281
     1
  3
Normal
350
F
100
AcDbDictionaryWithDefault
340
F
  0
DICTIONARY
  5
47
102
{ACAD_REACTORS
330
C
102
}
330
C
100
AcDbDictionary
281
     1
  3
A0
350
48
  3
A1
350
49
  3
A2
350
4A
  3
A3
350
4B
  3
A4
350
4C
  3
A5
350
4D
  3
A6
350
4E
  3
A7
350
4F
  3
A8
350
50
  3
A9
350
51
  3
B0
350
52
  3
B1
350
53
  3
B2
350
54
  3
B3
350
55
  3
B4
350
56
  3
B5
350
57
  3
B6
350
58
  3
B7
350
59
  3
B8
350
5A
  3
B9
350
5B
  3
C0
350
5C
  3
C1
350
5D
  3
C2
350
5E
  3
C3
350
5F
  3
C4
350
60
  3
C5
350
61
  3
C6
350
62
  3
C7
350
63
  3
C8
350
64
  3
C9
350
65
  3
D0
350
66
  3
D1
350
67
  3
D2
350
68
  0
LAYOUT
  5
1E
102
{ACAD_REACTORS
330
1A
102
}
330
1A
100
AcDbPlotSettings
  1

  2
none_device
  4

  6

 40
0.0
 41
0.0
 42
0.0
 43
0.0
 44
0.0
 45
0.0
 46
0.0
 47
0.0
 48
0.0
 49
0.0
140
0.0
141
0.0
142
1.0
143
1.0
 70
   688
 72
     1
 73
     0
 74
     5
  7

 75
    16
147
1.0
148
0.0
149
0.0
100
AcDbLayout
  1
Layout1
 70
     1
 71
     1
 10
0.0
 20
0.0
 11
420.0
 21
297.0
 12
0.0
 22
0.0
 32
0.0
 14
1.0000000000E+20
 24
1.0000000000E+20
 34
1.0000000000E+20
 15
-1.0000000000E+20
 25
-1.0000000000E+20
 35
-1.0000000000E+20
146
0.0
 13
0.0
 23
0.0
 33
0.0
 16
1.0
 26
0.0
 36
0.0
 17
0.0
 27
1.0
 37
0.0
 76
     0
330
1B
  0
LAYOUT
  5
26
102
{ACAD_REACTORS
330
1A
102
}
330
1A
100
AcDbPlotSettings
  1

  2
none_device
  4

  6

 40
0.0
 41
0.0
 42
0.0
 43
0.0
 44
0.0
 45
0.0
 46
0.0
 47
0.0
 48
0.0
 49
0.0
140
0.0
141
0.0
142
1.0
143
1.0
 70
   688
 72
     1
 73
     0
 74
     5
  7

 75
    16
147
1.0
148
0.0
149
0.0
100
AcDbLayout
  1
Layout2
 70
     1
 71
     2
 10
0.0
 20
0.0
 11
0.0
 21
0.0
 12
0.0
 22
0.0
 32
0.0
 14
0.0
 24
0.0
 34
0.0
 15
0.0
 25
0.0
 35
0.0
146
0.0
 13
0.0
 23
0.0
 33
0.0
 16
1.0
 26
0.0
 36
0.0
 17
0.0
 27
1.0
 37
0.0
 76
     0
330
23
  0
LAYOUT
  5
22
102
{ACAD_REACTORS
330
1A
102
}
330
1A
100
AcDbPlotSettings
  1

  2
none_device
  4
Letter_(8.50_x_11.00_Inches)
  6

 40
6.35
 41
6.35
 42
6.35000508
 43
6.35000508
 44
215.9
 45
279.4
 46
0.0
 47
0.0
 48
0.0
 49
0.0
140
0.0
141
0.0
142
1.0
143
1.0
 70
  1712
 72
     1
 73
     0
 74
     0
  7

 75
     0
147
1.0
148
0.0
149
0.0
100
AcDbLayout
  1
Model
 70
     1
 71
     0
 10
0.0
 20
0.0
 11
371.25
 21
262.5
 12
0.0
 22
0.0
 32
0.0
 14
0.0
 24
0.0
 34
0.0
 15
371.25
 25
262.5
 35
0.0
146
0.0
 13
0.0
 23
0.0
 33
0.0
 16
1.0
 26
0.0
 36
0.0
 17
0.0
 27
1.0
 37
0.0
 76
     0
330
1F
331
29
  0
MLINESTYLE
  5
18
102
{ACAD_REACTORS
330
17
102
}
330
17
100
AcDbMlineStyle
  2
Standard
 70
     0
  3

 62
   256
 51
90.0
 52
90.0
 71
     2
 49
0.5
 62
   256
  6
BYLAYER
 49
-0.5
 62
   256
  6
BYLAYER
  0
ACDBPLACEHOLDER
  5
F
102
{ACAD_REACTORS
330
E
102
}
330
E
  0
SCALE
  5
48
102
{ACAD_REACTORS
330
47
102
}
330
47
100
AcDbScale
 70
     0
300
1:1
140
1.0
141
1.0
290
     1
  0
SCALE
  5
49
102
{ACAD_REACTORS
330
47
102
}
330
47
100
AcDbScale
 70
     0
300
1:2
140
1.0
141
2.0
290
     0
  0
SCALE
  5
4A
102
{ACAD_REACTORS
330
47
102
}
330
47
100
AcDbScale
 70
     0
300
1:4
140
1.0
141
4.0
290
     0
  0
SCALE
  5
4B
102
{ACAD_REACTORS
330
47
102
}
330
47
100
AcDbScale
 70
     0
300
1:5
140
1.0
141
5.0
290
     0
  0
SCALE
  5
4C
102
{ACAD_REACTORS
330
47
102
}
330
47
100
AcDbScale
 70
     0
300
1:8
140
1.0
141
8.0
290
     0
  0
SCALE
  5
4D
102
{ACAD_REACTORS
330
47
102
}
330
47
100
AcDbScale
 70
     0
300
1:10
140
1.0
141
10.0
290
     0
  0
SCALE
  5
4E
102
{ACAD_REACTORS
330
47
102
}
330
47
100
AcDbScale
 70
     0
300
1:16
140
1.0
141
16.0
290
     0
  0
SCALE
  5
4F
102
{ACAD_REACTORS
330
47
102
}
330
47
100
AcDbScale
 70
     0
300
1:20
140
1.0
141
20.0
290
     0
  0
SCALE
  5
50
102
{ACAD_REACTORS
330
47
102
}
330
47
100
AcDbScale
 70
     0
300
1:30
140
1.0
141
30.0
290
     0
  0
SCALE
  5
51
102
{ACAD_REACTORS
330
47
102
}
330
47
100
AcDbScale
 70
     0
300
1:40
140
1.0
141
40.0
290
     0
  0
SCALE
  5
52
102
{ACAD_REACTORS
330
47
102
}
330
47
100
AcDbScale
 70
     0
300
1:50
140
1.0
141
50.0
290
     0
  0
SCALE
  5
53
102
{ACAD_REACTORS
330
47
102
}
330
47
100
AcDbScale
 70
     0
300
1:100
140
1.0
141
100.0
290
     0
  0
SCALE
  5
54
102
{ACAD_REACTORS
330
47
102
}
330
47
100
AcDbScale
 70
     0
300
2:1
140
2.0
141
1.0
290
     0
  0
SCALE
  5
55
102
{ACAD_REACTORS
330
47
102
}
330
47
100
AcDbScale
 70
     0
300
4:1
140
4.0
141
1.0
290
     0
  0
SCALE
  5
56
102
{ACAD_REACTORS
330
47
102
}
330
47
100
AcDbScale
 70
     0
300
8:1
140
8.0
141
1.0
290
     0
  0
SCALE
  5
57
102
{ACAD_REACTORS
330
47
102
}
330
47
100
AcDbScale
 70
     0
300
10:1
140
10.0
141
1.0
290
     0
  0
SCALE
  5
58
102
{ACAD_REACTORS
330
47
102
}
330
47
100
AcDbScale
 70
     0
300
100:1
140
100.0
141
1.0
290
     0
  0
SCALE
  5
59
102
{ACAD_REACTORS
330
47
102
}
330
47
100
AcDbScale
 70
     0
300
1/128" = 1'-0"
140
0.0078125
141
12.0
290
     0
  0
SCALE
  5
5A
102
{ACAD_REACTORS
330
47
102
}
330
47
100
AcDbScale
 70
     0
300
1/64" = 1'-0"
140
0.015625
141
12.0
290
     0
  0
SCALE
  5
5B
102
{ACAD_REACTORS
330
47
102
}
330
47
100
AcDbScale
 70
     0
300
1/32" = 1'-0"
140
0.03125
141
12.0
290
     0
  0
SCALE
  5
5C
102
{ACAD_REACTORS
330
47
102
}
330
47
100
AcDbScale
 70
     0
300
1/16" = 1'-0"
140
0.0625
141
12.0
290
     0
  0
SCALE
  5
5D
102
{ACAD_REACTORS
330
47
102
}
330
47
100
AcDbScale
 70
     0
300
3/32" = 1'-0"
140
0.09375
141
12.0
290
     0
  0
SCALE
  5
5E
102
{ACAD_REACTORS
330
47
102
}
330
47
100
AcDbScale
 70
     0
300
1/8" = 1'-0"
140
0.125
141
12.0
290
     0
  0
SCALE
  5
5F
102
{ACAD_REACTORS
330
47
102
}
330
47
100
AcDbScale
 70
     0
300
3/16" = 1'-0"
140
0.1875
141
12.0
290
     0
  0
SCALE
  5
60
102
{ACAD_REACTORS
330
47
102
}
330
47
100
AcDbScale
 70
     0
300
1/4" = 1'-0"
140
0.25
141
12.0
290
     0
  0
SCALE
  5
61
102
{ACAD_REACTORS
330
47
102
}
330
47
100
AcDbScale
 70
     0
300
3/8" = 1'-0"
140
0.375
141
12.0
290
     0
  0
SCALE
  5
62
102
{ACAD_REACTORS
330
47
102
}
330
47
100
AcDbScale
 70
     0
300
1/2" = 1'-0"
140
0.5
141
12.0
290
     0
  0
SCALE
  5
63
102
{ACAD_REACTORS
330
47
102
}
330
47
100
AcDbScale
 70
     0
300
3/4" = 1'-0"
140
0.75
141
12.0
290
     0
  0
SCALE
  5
64
102
{ACAD_REACTORS
330
47
102
}
330
47
100
AcDbScale
 70
     0
300
1" = 1'-0"
140
1.0
141
12.0
290
     0
  0
SCALE
  5
65
102
{ACAD_REACTORS
330
47
102
}
330
47
100
AcDbScale
 70
     0
300
1-1/2" = 1'-0"
140
1.5
141
12.0
290
     0
  0
SCALE
  5
66
102
{ACAD_REACTORS
330
47
102
}
330
47
100
AcDbScale
 70
     0
300
3" = 1'-0"
140
3.0
141
12.0
290
     0
  0
SCALE
  5
67
102
{ACAD_REACTORS
330
47
102
}
330
47
100
AcDbScale
 70
     0
300
6" = 1'-0"
140
6.0
141
12.0
290
     0
  0
SCALE
  5
68
102
{ACAD_REACTORS
330
47
102
}
330
47
100
AcDbScale
 70
     0
300
1'-0" = 1'-0"
140
12.0
141
12.0
290
     0
  0
ENDSEC
  0
EOF
