  0
SECTION
  2
HEADER
  9
$ACADVER
  1
AC1015
  9
$ACADMAINTVER
 70
     6
  9
$DWGCODEPAGE
  3
ANSI_1252
  9
$INSBASE
 10
0.0
 20
0.0
 30
0.0
  9
$EXTMIN
 10
0.0
 20
0.0
 30
0.0
  9
$EXTMAX
 10
424.2857142857
 20
300.0
 30
0.0
  9
$LIMMIN
 10
0.0
 20
0.0
  9
$LIMMAX
 10
424.2857142857
 20
300.0
  9
$ORTHOMODE
 70
     0
  9
$REGENMODE
 70
     1
  9
$FILLMODE
 70
     1
  9
$QTEXTMODE
 70
     0
  9
$MIRRTEXT
 70
     1
  9
$LTSCALE
 40
1.4285714286
  9
$ATTMODE
 70
     1
  9
$TEXTSIZE
 40
5.5436507937
  9
$TRACEWID
 40
1.0
  9
$TEXTSTYLE
  7
Standard
  9
$CLAYER
  8
0
  9
$CELTYPE
  6
ByLayer
  9
$CECOLOR
 62
   256
  9
$CELTSCALE
 40
1.0
  9
$DISPSILH
 70
     0
  9
$DIMSCALE
 40
1.0
  9
$DIMASZ
 40
4.7171428571
  9
$DIMEXO
 40
1.4285714286
  9
$DIMDLI
 40
3.75
  9
$DIMRND
 40
0.0
  9
$DIMDLE
 40
0.0
  9
$DIMEXE
 40
1.4285714286
  9
$DIMTP
 40
0.0
  9
$DIMTM
 40
0.0
  9
$DIMTXT
 40
5.5436507937
  9
$DIMCEN
 40
2.5
  9
$DIMTSZ
 40
0.0
  9
$DIMTOL
 70
     0
  9
$DIMLIM
 70
     0
  9
$DIMTIH
 70
     1
  9
$DIMTOH
 70
     1
  9
$DIMSE1
 70
     0
  9
$DIMSE2
 70
     0
  9
$DIMTAD
 70
     1
  9
$DIMZIN
 70
     0
  9
$DIMBLK
  1

  9
$DIMASO
 70
     1
  9
$DIMSHO
 70
     1
  9
$DIMPOST
  1

  9
$DIMAPOST
  1

  9
$DIMALT
 70
     0
  9
$DIMALTD
 70
     3
  9
$DIMALTF
 40
0.0393700787
  9
$DIMLFAC
 40
1.0
  9
$DIMTOFL
 70
     1
  9
$DIMTVP
 40
0.0
  9
$DIMTIX
 70
     0
  9
$DIMSOXD
 70
     0
  9
$DIMSAH
 70
     0
  9
$DIMBLK1
  1

  9
$DIMBLK2
  1

  9
$DIMSTYLE
  2
ISO-25
  9
$DIMCLRD
 70
     0
  9
$DIMCLRE
 70
     0
  9
$DIMCLRT
 70
     0
  9
$DIMTFAC
 40
1.0
  9
$DIMGAP
 40
2.1771428571
  9
$DIMJUST
 70
     0
  9
$DIMSD1
 70
     0
  9
$DIMSD2
 70
     0
  9
$DIMTOLJ
 70
     0
  9
$DIMTZIN
 70
     0
  9
$DIMALTZ
 70
     0
  9
$DIMALTTZ
 70
     0
  9
$DIMUPT
 70
     0
  9
$DIMDEC
 70
     2
  9
$DIMTDEC
 70
     2
  9
$DIMALTU
 70
     2
  9
$DIMALTTD
 70
     3
  9
$DIMTXSTY
  7
Standard
  9
$DIMAUNIT
 70
     0
  9
$DIMADEC
 70
     2
  9
$DIMALTRND
 40
0.0
  9
$DIMAZIN
 70
     0
  9
$DIMDSEP
 70
    44
  9
$DIMATFIT
 70
     3
  9
$DIMFRAC
 70
     0
  9
$DIMLDRBLK
  1

  9
$DIMLUNIT
 70
     2
  9
$DIMLWD
 70
    -2
  9
$DIMLWE
 70
    -2
  9
$DIMTMOVE
 70
     0
  9
$LUNITS
 70
     2
  9
$LUPREC
 70
     2
  9
$SKETCHINC
 40
1.0
  9
$FILLETRAD
 40
10.0
  9
$AUNITS
 70
     1
  9
$AUPREC
 70
     2
  9
$MENU
  1
.
  9
$ELEVATION
 40
0.0
  9
$PELEVATION
 40
0.0
  9
$THICKNESS
 40
0.0
  9
$LIMCHECK
 70
     0
  9
$CHAMFERA
 40
0.0
  9
$CHAMFERB
 40
0.0
  9
$CHAMFERC
 40
0.0
  9
$CHAMFERD
 40
0.0
  9
$SKPOLY
 70
     0
  9
$TDCREATE
 40
2458600.664554988
  9
$TDUCREATE
 40
2458600.435388322
  9
$TDUPDATE
 40
2458600.66455603
  9
$TDUUPDATE
 40
2458600.435389363
  9
$TDINDWG
 40
0.0000000116
  9
$TDUSRTIMER
 40
0.0000000116
  9
$USRTIMER
 70
     1
  9
$ANGBASE
 50
0.0
  9
$ANGDIR
 70
     0
  9
$PDMODE
 70
     0
  9
$PDSIZE
 40
-1.0
  9
$PLINEWID
 40
0.0
  9
$SPLFRAME
 70
     0
  9
$SPLINETYPE
 70
     6
  9
$SPLINESEGS
 70
     8
  9
$HANDSEED
  5
19D
  9
$SURFTAB1
 70
     6
  9
$SURFTAB2
 70
     6
  9
$SURFTYPE
 70
     6
  9
$SURFU
 70
     6
  9
$SURFV
 70
     6
  9
$UCSBASE
  2

  9
$UCSNAME
  2

  9
$UCSORG
 10
0.0
 20
0.0
 30
0.0
  9
$UCSXDIR
 10
1.0
 20
0.0
 30
0.0
  9
$UCSYDIR
 10
0.0
 20
1.0
 30
0.0
  9
$UCSORTHOREF
  2

  9
$UCSORTHOVIEW
 70
     0
  9
$UCSORGTOP
 10
0.0
 20
0.0
 30
0.0
  9
$UCSORGBOTTOM
 10
0.0
 20
0.0
 30
0.0
  9
$UCSORGLEFT
 10
0.0
 20
0.0
 30
0.0
  9
$UCSORGRIGHT
 10
0.0
 20
0.0
 30
0.0
  9
$UCSORGFRONT
 10
0.0
 20
0.0
 30
0.0
  9
$UCSORGBACK
 10
0.0
 20
0.0
 30
0.0
  9
$PUCSBASE
  2

  9
$PUCSNAME
  2

  9
$PUCSORG
 10
0.0
 20
0.0
 30
0.0
  9
$PUCSXDIR
 10
1.0
 20
0.0
 30
0.0
  9
$PUCSYDIR
 10
0.0
 20
1.0
 30
0.0
  9
$PUCSORTHOREF
  2

  9
$PUCSORTHOVIEW
 70
     0
  9
$PUCSORGTOP
 10
0.0
 20
0.0
 30
0.0
  9
$PUCSORGBOTTOM
 10
0.0
 20
0.0
 30
0.0
  9
$PUCSORGLEFT
 10
0.0
 20
0.0
 30
0.0
  9
$PUCSORGRIGHT
 10
0.0
 20
0.0
 30
0.0
  9
$PUCSORGFRONT
 10
0.0
 20
0.0
 30
0.0
  9
$PUCSORGBACK
 10
0.0
 20
0.0
 30
0.0
  9
$USERI1
 70
     0
  9
$USERI2
 70
     0
  9
$USERI3
 70
     0
  9
$USERI4
 70
     0
  9
$USERI5
 70
     0
  9
$USERR1
 40
0.0
  9
$USERR2
 40
0.0
  9
$USERR3
 40
0.0
  9
$USERR4
 40
0.0
  9
$USERR5
 40
0.0
  9
$WORLDVIEW
 70
     1
  9
$SHADEDGE
 70
     3
  9
$SHADEDIF
 70
    70
  9
$TILEMODE
 70
     1
  9
$MAXACTVP
 70
    64
  9
$PINSBASE
 10
0.0
 20
0.0
 30
0.0
  9
$PLIMCHECK
 70
     0
  9
$PEXTMIN
 10
1.0000000000E+20
 20
1.0000000000E+20
 30
1.0000000000E+20
  9
$PEXTMAX
 10
-1.0000000000E+20
 20
-1.0000000000E+20
 30
-1.0000000000E+20
  9
$PLIMMIN
 10
0.0
 20
0.0
  9
$PLIMMAX
 10
420.0
 20
297.0
  9
$UNITMODE
 70
     0
  9
$VISRETAIN
 70
     1
  9
$PLINEGEN
 70
     0
  9
$PSLTSCALE
 70
     1
  9
$TREEDEPTH
 70
  3020
  9
$CMLSTYLE
  2
Standard
  9
$CMLJUST
 70
     0
  9
$CMLSCALE
 40
20.0
  9
$PROXYGRAPHICS
 70
     1
  9
$MEASUREMENT
 70
     1
  9
$CELWEIGHT
370
    -1
  9
$ENDCAPS
280
     0
  9
$JOINSTYLE
280
     0
  9
$LWDISPLAY
290
     1
  9
$INSUNITS
 70
     4
  9
$HYPERLINKBASE
  1

  9
$STYLESHEET
  1

  9
$XEDIT
290
     1
  9
$CEPSNTYPE
380
     0
  9
$PSTYLEMODE
290
     1
  9
$FINGERPRINTGUID
  2
{8B807060-8CA2-4FCC-B714-9133B8486B7F}
  9
$VERSIONGUID
  2
{FAEB1C32-E019-11D5-929B-00C0DF256EC4}
  9
$EXTNAMES
290
     1
  9
$PSVPSCALE
 40
0.0
  9
$OLESTARTUP
290
     0
  0
ENDSEC
  0
SECTION
  2
CLASSES
  0
CLASS
  1
ACDBDICTIONARYWDFLT
  2
AcDbDictionaryWithDefault
  3
ObjectDBX Classes
 90
        0
280
     0
281
     0
  0
CLASS
  1
VISUALSTYLE
  2
AcDbVisualStyle
  3
ObjectDBX Classes
 90
     4095
280
     0
281
     0
  0
CLASS
  1
MATERIAL
  2
AcDbMaterial
  3
ObjectDBX Classes
 90
     1153
280
     0
281
     0
  0
CLASS
  1
SCALE
  2
AcDbScale
  3
ObjectDBX Classes
 90
     1153
280
     0
281
     0
  0
CLASS
  1
SUN
  2
AcDbSun
  3
SCENEOE
 90
     1153
280
     0
281
     0
  0
CLASS
  1
ACDBPLACEHOLDER
  2
AcDbPlaceHolder
  3
ObjectDBX Classes
 90
        0
280
     0
281
     0
  0
CLASS
  1
LAYOUT
  2
AcDbLayout
  3
ObjectDBX Classes
 90
        0
280
     0
281
     0
  0
ENDSEC
  0
SECTION
  2
TABLES
  0
TABLE
  2
VPORT
  5
8
330
0
100
AcDbSymbolTable
 70
     1
  0
VPORT
  5
29
330
8
100
AcDbSymbolTableRecord
100
AcDbViewportTableRecord
  2
*Active
 70
     0
 10
0.0
 20
0.0
 11
1.0
 21
1.0
 12
212.1428571429
 22
150.0
 13
0.0
 23
0.0
 14
10.0
 24
10.0
 15
10.0
 25
10.0
 16
0.0
 26
0.0
 36
1.0
 17
0.0
 27
0.0
 37
0.0
 40
300.0
 41
1.4142857143
 42
50.0
 43
0.0
 44
0.0
 50
0.0
 51
0.0
 71
     0
 72
  2000
 73
     1
 74
     3
 75
     0
 76
     0
 77
     0
 78
     0
281
     0
 65
     1
110
0.0
120
0.0
130
0.0
111
1.0
121
0.0
131
0.0
112
0.0
122
1.0
132
0.0
 79
     0
146
0.0
  0
ENDTAB
  0
TABLE
  2
LTYPE
  5
5
330
0
100
AcDbSymbolTable
 70
     6
  0
LTYPE
  5
14
330
5
100
AcDbSymbolTableRecord
100
AcDbLinetypeTableRecord
  2
ByBlock
 70
     0
  3

 72
    65
 73
     0
 40
0.0
  0
LTYPE
  5
15
330
5
100
AcDbSymbolTableRecord
100
AcDbLinetypeTableRecord
  2
ByLayer
 70
     0
  3

 72
    65
 73
     0
 40
0.0
  0
LTYPE
  5
16
330
5
100
AcDbSymbolTableRecord
100
AcDbLinetypeTableRecord
  2
Continuous
 70
     0
  3
Solid line
 72
    65
 73
     0
 40
0.0
  0
LTYPE
  5
6A
330
5
100
AcDbSymbolTableRecord
100
AcDbLinetypeTableRecord
  2
HIDDEN
 70
     0
  3
Hidden __ __ __ __ __ __ __ __ __ __ __ __ __ __
 72
    65
 73
     2
 40
1.905
 49
1.27
 74
     0
 49
-0.635
 74
     0
  0
LTYPE
  5
6B
330
5
100
AcDbSymbolTableRecord
100
AcDbLinetypeTableRecord
  2
PHANTOM
 70
     0
  3
Phantom ______  __  __  ______  __  __  ______
 72
    65
 73
     6
 40
12.7
 49
6.35
 74
     0
 49
-1.27
 74
     0
 49
1.27
 74
     0
 49
-1.27
 74
     0
 49
1.27
 74
     0
 49
-1.27
 74
     0
  0
LTYPE
  5
6C
330
5
100
AcDbSymbolTableRecord
100
AcDbLinetypeTableRecord
  2
CENTER
 70
     0
  3
Center ____ _ ____ _ ____ _ ____ _ ____ _ ____
 72
    65
 73
     4
 40
10.16
 49
6.35
 74
     0
 49
-1.27
 74
     0
 49
1.27
 74
     0
 49
-1.27
 74
     0
  0
LTYPE
  5
6D
330
5
100
AcDbSymbolTableRecord
100
AcDbLinetypeTableRecord
  2
CENTERX2
 70
     0
  3
Center (2x) ________  __  ________  __  _____
 72
    65
 73
     4
 40
20.32
 49
12.7
 74
     0
 49
-2.54
 74
     0
 49
2.54
 74
     0
 49
-2.54
 74
     0
  0
LTYPE
  5
6E
330
5
100
AcDbSymbolTableRecord
100
AcDbLinetypeTableRecord
  2
DOT2
 70
     0
  3
Dot (.5x) ........................................
 72
    65
 73
     2
 40
0.635
 49
0.0
 74
     0
 49
-0.635
 74
     0
  0
ENDTAB
  0
TABLE
  2
LAYER
  5
2
330
0
100
AcDbSymbolTable
 70
     8
  0
LAYER
  5
10
330
2
100
AcDbSymbolTableRecord
100
AcDbLayerTableRecord
  2
0
 70
     0
 62
     7
  6
Continuous
370
    -3
390
F
  0
LAYER
  5
6F
330
2
100
AcDbSymbolTableRecord
100
AcDbLayerTableRecord
  2
FORMAT
 70
     0
 62
     7
  6
Continuous
370
    -3
390
F
  0
LAYER
  5
70
330
2
100
AcDbSymbolTableRecord
100
AcDbLayerTableRecord
  2
SLD-0
 70
     0
 62
     2
  6
Continuous
370
    -3
390
F
  0
LAYER
  5
71
330
2
100
AcDbSymbolTableRecord
100
AcDbLayerTableRecord
  2
DIM
 70
     0
 62
   179
  6
Continuous
370
    -3
390
F
  0
LAYER
  5
72
330
2
100
AcDbSymbolTableRecord
100
AcDbLayerTableRecord
  2
SLD-DEFPOINTS
 70
     0
 62
   179
  6
Continuous
370
    -3
390
F
  0
LAYER
  5
73
330
2
100
AcDbSymbolTableRecord
100
AcDbLayerTableRecord
  2
HAT
 70
     0
 62
   135
  6
Continuous
370
    -3
390
F
  0
LAYER
  5
74
330
2
100
AcDbSymbolTableRecord
100
AcDbLayerTableRecord
  2
JOB
 70
     0
 62
   201
  6
Continuous
370
    -3
390
F
  0
LAYER
  5
75
330
2
100
AcDbSymbolTableRecord
100
AcDbLayerTableRecord
  2
INSPECTION_REPORT
 70
     0
 62
   255
  6
Continuous
370
    -3
390
F
  0
ENDTAB
  0
TABLE
  2
STYLE
  5
3
330
0
100
AcDbSymbolTable
 70
     4
  0
STYLE
  5
11
330
3
100
AcDbSymbolTableRecord
100
AcDbTextStyleTableRecord
  2
Standard
 70
     0
 40
0.0
 41
1.0
 50
0.0
 71
     0
 42
5.5436507937
  3
txt
  4

  0
STYLE
  5
96
330
3
100
AcDbSymbolTableRecord
100
AcDbTextStyleTableRecord
  2
SLDTEXTSTYLE0
 70
     0
 40
0.0
 41
0.7
 50
0.0
 71
     0
 42
5.5436507937
  3
TXT
  4

  0
STYLE
  5
98
330
3
100
AcDbSymbolTableRecord
100
AcDbTextStyleTableRecord
  2
SLDTEXTSTYLE1
 70
     0
 40
0.0
 41
0.75
 50
0.0
 71
     0
 42
5.5436507937
  3
TXT
  4

  0
STYLE
  5
AB
330
3
100
AcDbSymbolTableRecord
100
AcDbTextStyleTableRecord
  2
SLDTEXTSTYLE2
 70
     0
 40
0.0
 41
0.6875
 50
0.0
 71
     0
 42
5.5436507937
  3
TXT
  4

  0
ENDTAB
  0
TABLE
  2
VIEW
  5
6
330
0
100
AcDbSymbolTable
 70
     0
  0
ENDTAB
  0
TABLE
  2
UCS
  5
7
330
0
100
AcDbSymbolTable
 70
     0
  0
ENDTAB
  0
TABLE
  2
APPID
  5
9
330
0
100
AcDbSymbolTable
 70
     1
  0
APPID
  5
12
330
9
100
AcDbSymbolTableRecord
100
AcDbRegAppTableRecord
  2
ACAD
 70
     0
  0
ENDTAB
  0
TABLE
  2
DIMSTYLE
  5
A
330
0
100
AcDbSymbolTable
 70
     3
100
AcDbDimStyleTable
  0
DIMSTYLE
105
27
330
A
100
AcDbSymbolTableRecord
100
AcDbDimStyleTableRecord
  2
ISO-25
 70
     0
 41
2.5
 42
0.625
 43
3.75
 44
1.25
 73
     0
 74
     0
 77
     1
 78
     8
140
2.5
141
2.5
143
0.0393700787
147
0.625
171
     3
172
     1
178
     0
271
     2
272
     2
274
     3
278
    44
283
     0
284
     8
340
11
  0
DIMSTYLE
105
166
102
{ACAD_REACTORS
330
165
330
17C
330
191
102
}
330
A
100
AcDbSymbolTableRecord
100
AcDbDimStyleTableRecord
  2
SLDDIMSTYLE0
 70
     0
 41
4.7171428571
 44
0.0
 45
0.000000001
 73
     0
 74
     0
 77
     1
 78
    12
 79
     3
140
4.1577380952
147
1.0394345238
173
     1
178
     0
271
     2
272
     2
276
     2
284
    12
340
96
  0
DIMSTYLE
105
172
102
{ACAD_REACTORS
330
171
330
186
102
}
330
A
100
AcDbSymbolTableRecord
100
AcDbDimStyleTableRecord
  2
SLDDIMSTYLE1
 70
     0
 41
4.7171428571
 44
0.0
 45
0.000000001
 73
     0
 74
     0
 77
     1
 78
     4
 79
     1
140
4.1577380952
147
1.0394345238
173
     1
178
     0
271
     2
272
     2
276
     2
284
    12
340
96
  0
ENDTAB
  0
TABLE
  2
BLOCK_RECORD
  5
1
330
0
100
AcDbSymbolTable
 70
     7
  0
BLOCK_RECORD
  5
1F
330
1
100
AcDbSymbolTableRecord
100
AcDbBlockTableRecord
  2
*Model_Space
340
22
  0
BLOCK_RECORD
  5
1B
330
1
100
AcDbSymbolTableRecord
100
AcDbBlockTableRecord
  2
*Paper_Space
340
1E
  0
BLOCK_RECORD
  5
23
330
1
100
AcDbSymbolTableRecord
100
AcDbBlockTableRecord
  2
*Paper_Space0
340
26
  0
BLOCK_RECORD
  5
E7
330
1
100
AcDbSymbolTableRecord
100
AcDbBlockTableRecord
  2
SW_CENTERMARKSYMBOL_0
340
0
102
{BLKREFS
331
F2
102
}
  0
BLOCK_RECORD
  5
167
330
1
100
AcDbSymbolTableRecord
100
AcDbBlockTableRecord
  2
_D
340
0
  0
BLOCK_RECORD
  5
173
330
1
100
AcDbSymbolTableRecord
100
AcDbBlockTableRecord
  2
_D_1
340
0
  0
BLOCK_RECORD
  5
17D
330
1
100
AcDbSymbolTableRecord
100
AcDbBlockTableRecord
  2
_D_2
340
0
  0
BLOCK_RECORD
  5
187
330
1
100
AcDbSymbolTableRecord
100
AcDbBlockTableRecord
  2
_D_3
340
0
  0
BLOCK_RECORD
  5
192
330
1
100
AcDbSymbolTableRecord
100
AcDbBlockTableRecord
  2
_D_4
340
0
  0
ENDTAB
  0
ENDSEC
  0
SECTION
  2
BLOCKS
  0
BLOCK
  5
20
330
1F
100
AcDbEntity
  8
0
100
AcDbBlockBegin
  2
*Model_Space
 70
     0
 10
0.0
 20
0.0
 30
0.0
  3
*Model_Space
  1
*Model_Space
  0
ENDBLK
  5
21
330
1F
100
AcDbEntity
  8
0
100
AcDbBlockEnd
  0
BLOCK
  5
1C
330
1B
100
AcDbEntity
 67
     1
  8
0
100
AcDbBlockBegin
  2
*Paper_Space
 70
     0
 10
0.0
 20
0.0
 30
0.0
  3
*Paper_Space
  1
*Paper_Space
  0
ENDBLK
  5
1D
330
1B
100
AcDbEntity
 67
     1
  8
0
100
AcDbBlockEnd
  0
BLOCK
  5
24
330
23
100
AcDbEntity
  8
0
100
AcDbBlockBegin
  2
*Paper_Space0
 70
     0
 10
0.0
 20
0.0
 30
0.0
  3
*Paper_Space0
  1
*Paper_Space0
  0
ENDBLK
  5
25
330
23
100
AcDbEntity
  8
0
100
AcDbBlockEnd
  0
BLOCK
  5
E8
330
E7
100
AcDbEntity
  8
0
100
AcDbBlockBegin
  2
SW_CENTERMARKSYMBOL_0
 70
     0
 10
0.0
 20
0.0
 30
0.0
  3
SW_CENTERMARKSYMBOL_0
  1
SW_CENTERMARKSYMBOL_0
  0
LINE
  5
EA
330
E7
100
AcDbEntity
  8
DIM
 62
     0
100
AcDbLine
 10
0.0
 20
0.0
 30
0.0
 11
0.0
 21
2.5
 31
0.0
  0
LINE
  5
EB
330
E7
100
AcDbEntity
  8
DIM
 62
     0
100
AcDbLine
 10
0.0
 20
0.0
 30
0.0
 11
-2.5
 21
0.0
 31
0.0
  0
LINE
  5
EC
330
E7
100
AcDbEntity
  8
DIM
 62
     0
100
AcDbLine
 10
0.0
 20
0.0
 30
0.0
 11
0.0
 21
-2.5
 31
0.0
  0
LINE
  5
ED
330
E7
100
AcDbEntity
  8
DIM
 62
     0
100
AcDbLine
 10
0.0
 20
0.0
 30
0.0
 11
2.5
 21
0.0
 31
0.0
  0
LINE
  5
EE
330
E7
100
AcDbEntity
  8
DIM
 62
     0
100
AcDbLine
 10
0.0
 20
5.0
 30
0.0
 11
0.0
 21
33.0853145453
 31
0.0
  0
LINE
  5
EF
330
E7
100
AcDbEntity
  8
DIM
 62
     0
100
AcDbLine
 10
-5.0
 20
0.0
 30
0.0
 11
-33.0853145453
 21
0.0
 31
0.0
  0
LINE
  5
F0
330
E7
100
AcDbEntity
  8
DIM
 62
     0
100
AcDbLine
 10
0.0
 20
-5.0
 30
0.0
 11
0.0
 21
-33.0853145453
 31
0.0
  0
LINE
  5
F1
330
E7
100
AcDbEntity
  8
DIM
 62
     0
100
AcDbLine
 10
5.0
 20
0.0
 30
0.0
 11
33.0853145453
 21
0.0
 31
0.0
  0
ENDBLK
  5
E9
330
E7
100
AcDbEntity
  8
0
100
AcDbBlockEnd
  0
BLOCK
  5
168
330
167
100
AcDbEntity
  8
0
100
AcDbBlockBegin
  2
_D
 70
     0
 10
0.0
 20
0.0
 30
0.0
  3
_D
  1
_D
  0
SOLID
  5
16A
330
167
100
AcDbEntity
  8
DIM
100
AcDbTrace
 10
387.5087059272
 20
176.3928253234
 30
0.0
 11
386.7829916415
 21
171.6756824662
 31
0.0
 12
388.2344202129
 22
171.6756824662
 32
0.0
 13
388.2344202129
 23
171.6756824662
 33
0.0
  0
SOLID
  5
16B
330
167
100
AcDbEntity
  8
DIM
100
AcDbTrace
 10
387.5087059272
 20
134.3928253234
 30
0.0
 11
388.2344202129
 21
139.1099681805
 31
0.0
 12
386.7829916415
 22
139.1099681805
 32
0.0
 13
386.7829916415
 23
139.1099681805
 33
0.0
  0
LINE
  5
16C
330
167
100
AcDbEntity
  8
DIM
100
AcDbLine
 10
367.1491789516
 20
176.3928253234
 30
0.0
 11
388.9372773557
 21
176.3928253234
 31
0.0
  0
LINE
  5
16D
330
167
100
AcDbEntity
  8
DIM
100
AcDbLine
 10
367.1491789516
 20
134.3928253234
 30
0.0
 11
388.9372773557
 21
134.3928253234
 31
0.0
  0
LINE
  5
16E
330
167
100
AcDbEntity
  8
DIM
100
AcDbLine
 10
387.5087059272
 20
176.3928253234
 30
0.0
 11
387.5087059272
 21
134.3928253234
 31
0.0
  0
MTEXT
  5
16F
330
167
100
AcDbEntity
  8
DIM
100
AcDbMText
 10
382.1490995456
 20
149.3677623164
 30
0.0
 40
4.1577380952
 41
0.0
 71
     1
 72
     1
  1
%%c
  7
SLDTEXTSTYLE0
 11
-7.044195017643634E-15
 21
1.0
 31
0.0
 73
     1
 44
1.0
  0
MTEXT
  5
170
330
167
100
AcDbEntity
  8
DIM
100
AcDbMText
 10
382.1490995456
 20
155.7972421729
 30
0.0
 40
4.1577380952
 41
0.0
 71
     1
 72
     1
  1
42
  7
SLDTEXTSTYLE0
 11
-7.044195017643634E-15
 21
1.0
 31
0.0
 73
     1
 44
1.0
  0
ENDBLK
  5
169
330
167
100
AcDbEntity
  8
0
100
AcDbBlockEnd
  0
BLOCK
  5
174
330
173
100
AcDbEntity
  8
0
100
AcDbBlockBegin
  2
_D_1
 70
     0
 10
0.0
 20
0.0
 30
0.0
  3
_D_1
  1
_D_1
  0
SOLID
  5
176
330
173
100
AcDbEntity
  8
DIM
100
AcDbTrace
 10
369.1847091382
 20
100.7856824662
 30
0.0
 11
364.4675662811
 21
101.5113967519
 31
0.0
 12
364.4675662811
 22
100.0599681805
 32
0.0
 13
364.4675662811
 23
100.0599681805
 33
0.0
  0
SOLID
  5
177
330
173
100
AcDbEntity
  8
DIM
100
AcDbTrace
 10
140.7847091382
 20
100.7856824662
 30
0.0
 11
145.5018519953
 21
100.0599681805
 31
0.0
 12
145.5018519953
 22
101.5113967519
 32
0.0
 13
145.5018519953
 23
101.5113967519
 33
0.0
  0
LINE
  5
178
330
173
100
AcDbEntity
  8
DIM
100
AcDbLine
 10
369.1847091382
 20
138.9642538948
 30
0.0
 11
369.1847091382
 21
99.3571110376
 31
0.0
  0
LINE
  5
179
330
173
100
AcDbEntity
  8
DIM
100
AcDbLine
 10
140.7847091382
 20
142.5790913052
 30
0.0
 11
140.7847091382
 21
99.3571110376
 31
0.0
  0
LINE
  5
17A
330
173
100
AcDbEntity
  8
DIM
100
AcDbLine
 10
369.1847091382
 20
100.7856824662
 30
0.0
 11
140.7847091382
 21
100.7856824662
 31
0.0
  0
MTEXT
  5
17B
330
173
100
AcDbEntity
  8
DIM
100
AcDbMText
 10
247.2197479668
 20
106.1452888478
 30
0.0
 40
4.1577380952
 41
0.0
 71
     1
 72
     1
  1
228.40
  7
SLDTEXTSTYLE0
 73
     1
 44
1.0
  0
ENDBLK
  5
175
330
173
100
AcDbEntity
  8
0
100
AcDbBlockEnd
  0
BLOCK
  5
17E
330
17D
100
AcDbEntity
  8
0
100
AcDbBlockBegin
  2
_D_2
 70
     0
 10
0.0
 20
0.0
 30
0.0
  3
_D_2
  1
_D_2
  0
SOLID
  5
180
330
17D
100
AcDbEntity
  8
DIM
100
AcDbTrace
 10
209.1847091382
 20
110.5014073616
 30
0.0
 11
213.9018519953
 21
109.7756930759
 31
0.0
 12
213.9018519953
 22
111.2271216473
 32
0.0
 13
213.9018519953
 23
111.2271216473
 33
0.0
  0
SOLID
  5
181
330
17D
100
AcDbEntity
  8
DIM
100
AcDbTrace
 10
369.1847091382
 20
110.5014073616
 30
0.0
 11
364.4675662811
 21
111.2271216473
 31
0.0
 12
364.4675662811
 22
109.7756930759
 32
0.0
 13
364.4675662811
 23
109.7756930759
 33
0.0
  0
LINE
  5
182
330
17D
100
AcDbEntity
  8
DIM
100
AcDbLine
 10
209.1847091382
 20
131.7392538948
 30
0.0
 11
209.1847091382
 21
109.072835933
 31
0.0
  0
LINE
  5
183
330
17D
100
AcDbEntity
  8
DIM
100
AcDbLine
 10
369.1847091382
 20
138.9642538948
 30
0.0
 11
369.1847091382
 21
109.072835933
 31
0.0
  0
LINE
  5
184
330
17D
100
AcDbEntity
  8
DIM
100
AcDbLine
 10
209.1847091382
 20
110.5014073616
 30
0.0
 11
369.1847091382
 21
110.5014073616
 31
0.0
  0
MTEXT
  5
185
330
17D
100
AcDbEntity
  8
DIM
100
AcDbMText
 10
284.9692245201
 20
115.8610137432
 30
0.0
 40
4.1577380952
 41
0.0
 71
     1
 72
     1
  1
160
  7
SLDTEXTSTYLE0
 73
     1
 44
1.0
  0
ENDBLK
  5
17F
330
17D
100
AcDbEntity
  8
0
100
AcDbBlockEnd
  0
BLOCK
  5
188
330
187
100
AcDbEntity
  8
0
100
AcDbBlockBegin
  2
_D_3
 70
     0
 10
0.0
 20
0.0
 30
0.0
  3
_D_3
  1
_D_3
  0
SOLID
  5
18A
330
187
100
AcDbEntity
  8
DIM
100
AcDbTrace
 10
137.4101402085
 20
187.1428253234
 30
0.0
 11
136.6844259228
 21
182.4256824662
 31
0.0
 12
138.1358544942
 22
182.4256824662
 32
0.0
 13
138.1358544942
 23
182.4256824662
 33
0.0
  0
SOLID
  5
18B
330
187
100
AcDbEntity
  8
DIM
100
AcDbTrace
 10
137.4101402085
 20
123.6428253234
 30
0.0
 11
138.1358544942
 21
128.3599681805
 31
0.0
 12
136.6844259228
 22
128.3599681805
 32
0.0
 13
136.6844259228
 23
128.3599681805
 33
0.0
  0
LINE
  5
18C
330
187
100
AcDbEntity
  8
DIM
100
AcDbLine
 10
212.1218231346
 20
187.1428253234
 30
0.0
 11
135.9815687799
 21
187.1428253234
 31
0.0
  0
LINE
  5
18D
330
187
100
AcDbEntity
  8
DIM
100
AcDbLine
 10
212.1218231346
 20
123.6428253234
 30
0.0
 11
135.9815687799
 21
123.6428253234
 31
0.0
  0
LINE
  5
18E
330
187
100
AcDbEntity
  8
DIM
100
AcDbLine
 10
137.4101402085
 20
187.1428253234
 30
0.0
 11
137.4101402085
 21
123.6428253234
 31
0.0
  0
MTEXT
  5
18F
330
187
100
AcDbEntity
  8
DIM
100
AcDbMText
 10
132.0505338269
 20
145.8182857631
 30
0.0
 40
4.1577380952
 41
0.0
 71
     1
 72
     1
  1
%%c
  7
SLDTEXTSTYLE0
 11
-7.044195017643634E-15
 21
1.0
 31
0.0
 73
     1
 44
1.0
  0
MTEXT
  5
190
330
187
100
AcDbEntity
  8
DIM
100
AcDbMText
 10
132.0505338269
 20
152.2477656196
 30
0.0
 40
4.1577380952
 41
0.0
 71
     1
 72
     1
  1
63.50
  7
SLDTEXTSTYLE0
 11
-7.044195017643634E-15
 21
1.0
 31
0.0
 73
     1
 44
1.0
  0
ENDBLK
  5
189
330
187
100
AcDbEntity
  8
0
100
AcDbBlockEnd
  0
BLOCK
  5
193
330
192
100
AcDbEntity
  8
0
100
AcDbBlockBegin
  2
_D_4
 70
     0
 10
0.0
 20
0.0
 30
0.0
  3
_D_4
  1
_D_4
  0
SOLID
  5
195
330
192
100
AcDbEntity
  8
DIM
100
AcDbTrace
 10
380.0503822281
 20
175.3928253234
 30
0.0
 11
379.3246679424
 21
170.6756824662
 31
0.0
 12
380.7760965138
 22
170.6756824662
 32
0.0
 13
380.7760965138
 23
170.6756824662
 33
0.0
  0
SOLID
  5
196
330
192
100
AcDbEntity
  8
DIM
100
AcDbTrace
 10
380.0503822281
 20
135.3928253234
 30
0.0
 11
380.7760965138
 21
140.1099681805
 31
0.0
 12
379.3246679424
 22
140.1099681805
 32
0.0
 13
379.3246679424
 23
140.1099681805
 33
0.0
  0
LINE
  5
197
330
192
100
AcDbEntity
  8
DIM
100
AcDbLine
 10
332.7632805668
 20
175.3928253234
 30
0.0
 11
381.4789536567
 21
175.3928253234
 31
0.0
  0
LINE
  5
198
330
192
100
AcDbEntity
  8
DIM
100
AcDbLine
 10
332.7632805668
 20
135.3928253234
 30
0.0
 11
381.4789536567
 21
135.3928253234
 31
0.0
  0
LINE
  5
199
330
192
100
AcDbEntity
  8
DIM
100
AcDbLine
 10
380.0503822281
 20
175.3928253234
 30
0.0
 11
380.0503822281
 21
135.3928253234
 31
0.0
  0
MTEXT
  5
19A
330
192
100
AcDbEntity
  8
DIM
100
AcDbMText
 10
374.6907758465
 20
149.3677623164
 30
0.0
 40
4.1577380952
 41
0.0
 71
     1
 72
     1
  1
%%c
  7
SLDTEXTSTYLE0
 11
-7.044195017643634E-15
 21
1.0
 31
0.0
 73
     1
 44
1.0
  0
MTEXT
  5
19B
330
192
100
AcDbEntity
  8
DIM
100
AcDbMText
 10
374.6907758465
 20
155.7972421729
 30
0.0
 40
4.1577380952
 41
0.0
 71
     1
 72
     1
  1
40
  7
SLDTEXTSTYLE0
 11
-7.044195017643634E-15
 21
1.0
 31
0.0
 73
     1
 44
1.0
  0
ENDBLK
  5
194
330
192
100
AcDbEntity
  8
0
100
AcDbBlockEnd
  0
ENDSEC
  0
SECTION
  2
ENTITIES
  0
LINE
  5
76
330
1F
100
AcDbEntity
  8
DIM
100
AcDbLine
 10
149.5777495557
 20
13.9871306526
 30
0.0
 11
149.5777495557
 21
6.8442735098
 31
0.0
  0
LINE
  5
77
330
1F
100
AcDbEntity
  8
DIM
100
AcDbLine
 10
363.5280024219
 20
13.9871306526
 30
0.0
 11
363.5280024219
 21
6.8442735098
 31
0.0
  0
LINE
  5
78
330
1F
100
AcDbEntity
  8
DIM
100
AcDbLine
 10
339.2167284737
 20
13.9871306526
 30
0.0
 11
339.2167284737
 21
6.8442735098
 31
0.0
  0
LINE
  5
79
330
1F
100
AcDbEntity
  8
DIM
100
AcDbLine
 10
398.4348924129
 20
6.8442735098
 30
0.0
 11
398.4348924129
 21
13.9871306526
 31
0.0
  0
LINE
  5
7A
330
1F
100
AcDbEntity
  8
DIM
100
AcDbLine
 10
160.7206066986
 20
13.9871306526
 30
0.0
 11
160.7206066986
 21
6.8442735098
 31
0.0
  0
LINE
  5
7B
330
1F
100
AcDbEntity
  8
DIM
100
AcDbLine
 10
188.1362530326
 20
13.9871306526
 30
0.0
 11
188.1362530326
 21
6.8442735098
 31
0.0
  0
LINE
  5
7C
330
1F
100
AcDbEntity
  8
DIM
100
AcDbLine
 10
417.0063209843
 20
6.8442735098
 30
0.0
 11
417.0063209843
 21
110.0585592241
 31
0.0
  0
LINE
  5
7D
330
1F
100
AcDbEntity
  8
DIM
100
AcDbLine
 10
408.3128638495
 20
85.7728449384
 30
0.0
 11
417.0063209843
 21
85.7728449384
 31
0.0
  0
LINE
  5
7E
330
1F
100
AcDbEntity
  8
DIM
100
AcDbLine
 10
213.0047869322
 20
12.9157020812
 30
0.0
 11
213.0047869322
 21
6.8442735098
 31
0.0
  0
LINE
  5
7F
330
1F
100
AcDbEntity
  8
DIM
100
AcDbLine
 10
281.0913559435
 20
13.9871306526
 30
0.0
 11
281.0913559435
 21
6.8442735098
 31
0.0
  0
LINE
  5
80
330
1F
100
AcDbEntity
  8
DIM
100
AcDbLine
 10
213.0047869322
 20
13.9871306526
 30
0.0
 11
213.0047869322
 21
12.9157020812
 31
0.0
  0
LINE
  5
81
330
1F
100
AcDbEntity
  8
DIM
100
AcDbLine
 10
409.8634638414
 20
25.0584563669
 30
0.0
 11
417.0063209843
 21
25.0584563669
 31
0.0
  0
LINE
  5
82
330
1F
100
AcDbEntity
  8
DIM
100
AcDbLine
 10
409.8634638414
 20
285.4157020812
 30
0.0
 11
14.1491781271
 21
285.4157020812
 31
0.0
  0
LINE
  5
83
330
1F
100
AcDbEntity
  8
DIM
100
AcDbLine
 10
417.0063209843
 20
292.5585592241
 30
0.0
 11
7.0063209843
 21
292.5585592241
 31
0.0
  0
LINE
  5
84
330
1F
100
AcDbEntity
  8
DIM
100
AcDbLine
 10
14.1491781271
 20
285.4157020812
 30
0.0
 11
14.1491781271
 21
13.9871306526
 31
0.0
  0
LINE
  5
85
330
1F
100
AcDbEntity
  8
DIM
100
AcDbLine
 10
7.0063209843
 20
292.5585592241
 30
0.0
 11
7.0063209843
 21
6.8442735098
 31
0.0
  0
LINE
  5
86
330
1F
100
AcDbEntity
  8
DIM
100
AcDbLine
 10
14.1491781271
 20
78.2728449384
 30
0.0
 11
7.0063209843
 21
78.2728449384
 31
0.0
  0
LINE
  5
87
330
1F
100
AcDbEntity
  8
DIM
100
AcDbLine
 10
7.0063209843
 20
149.7014163669
 30
0.0
 11
14.1491781271
 21
149.7014163669
 31
0.0
  0
LINE
  5
88
330
1F
100
AcDbEntity
  8
DIM
100
AcDbLine
 10
7.0063209843
 20
6.8442735098
 30
0.0
 11
417.0063209843
 21
6.8442735098
 31
0.0
  0
LINE
  5
89
330
1F
100
AcDbEntity
  8
DIM
100
AcDbLine
 10
14.1491781271
 20
13.9871306526
 30
0.0
 11
417.0063209843
 21
13.9871306526
 31
0.0
  0
LINE
  5
8A
330
1F
100
AcDbEntity
  8
DIM
100
AcDbLine
 10
69.1491781271
 20
6.8442735098
 30
0.0
 11
69.1491781271
 21
13.9871306526
 31
0.0
  0
LINE
  5
8B
330
1F
100
AcDbEntity
  8
DIM
100
AcDbLine
 10
140.5777495557
 20
13.9871306526
 30
0.0
 11
140.5777495557
 21
6.8442735098
 31
0.0
  0
LINE
  5
8C
330
1F
100
AcDbEntity
  8
DIM
100
AcDbLine
 10
14.1491781271
 20
221.1299877955
 30
0.0
 11
7.0063209843
 21
221.1299877955
 31
0.0
  0
LINE
  5
8D
330
1F
100
AcDbEntity
  8
DIM
100
AcDbLine
 10
69.1491781271
 20
285.4157020812
 30
0.0
 11
69.1491781271
 21
292.5585592241
 31
0.0
  0
LINE
  5
8E
330
1F
100
AcDbEntity
  8
DIM
100
AcDbLine
 10
140.5777495557
 20
292.5585592241
 30
0.0
 11
140.5777495557
 21
285.4157020812
 31
0.0
  0
LINE
  5
8F
330
1F
100
AcDbEntity
  8
DIM
100
AcDbLine
 10
212.0063209843
 20
292.5585592241
 30
0.0
 11
212.0063209843
 21
285.4157020812
 31
0.0
  0
LINE
  5
90
330
1F
100
AcDbEntity
  8
DIM
100
AcDbLine
 10
409.8634638414
 20
13.9871306526
 30
0.0
 11
409.8634638414
 21
285.4157020812
 31
0.0
  0
LINE
  5
91
330
1F
100
AcDbEntity
  8
DIM
100
AcDbLine
 10
417.0063209843
 20
110.0585592241
 30
0.0
 11
417.0063209843
 21
292.5585592241
 31
0.0
  0
LINE
  5
92
330
1F
100
AcDbEntity
  8
DIM
100
AcDbLine
 10
417.0063209843
 20
149.7014163669
 30
0.0
 11
409.8634638414
 21
149.7014163669
 31
0.0
  0
LINE
  5
93
330
1F
100
AcDbEntity
  8
DIM
100
AcDbLine
 10
283.4348924129
 20
292.5585592241
 30
0.0
 11
283.4348924129
 21
285.4157020812
 31
0.0
  0
LINE
  5
94
330
1F
100
AcDbEntity
  8
DIM
100
AcDbLine
 10
354.8634638414
 20
285.4157020812
 30
0.0
 11
354.8634638414
 21
292.5585592241
 31
0.0
  0
LINE
  5
95
330
1F
100
AcDbEntity
  8
DIM
100
AcDbLine
 10
409.8634638414
 20
221.1299877955
 30
0.0
 11
417.0063209843
 21
221.1299877955
 31
0.0
  0
MTEXT
  5
97
330
1F
100
AcDbEntity
  8
DIM
100
AcDbMText
 10
20.5595752126
 20
277.3183688196
 30
0.0
 40
6.0476190476
 41
0.0
 71
     1
 72
     1
  1
SK 40 ER 25 160 AD+B/6.3G15000 SL
  7
SLDTEXTSTYLE0
 73
     1
 44
1.0
  0
MTEXT
  5
99
330
1F
100
AcDbEntity
  8
DIM
 62
     7
100
AcDbMText
 10
282.4753980666
 20
11.1456450376
 30
0.0
 40
2.1408571429
 41
0.0
 71
     1
 72
     1
  1
WEIGHT:
  7
SLDTEXTSTYLE1
 73
     1
 44
1.0
  0
MTEXT
  5
9A
330
1F
100
AcDbEntity
  8
DIM
 62
     7
100
AcDbMText
 10
412.2815382211
 20
117.0580192975
 30
0.0
 40
2.6458333333
 41
0.0
 71
     1
 72
     1
  1
C
  7
SLDTEXTSTYLE1
 73
     1
 44
1.0
  0
MTEXT
  5
9B
330
1F
100
AcDbEntity
  8
DIM
 62
     7
100
AcDbMText
 10
404.3479723135
 20
21.2199742623
 30
0.0
 40
4.1577380952
 41
0.0
 71
     1
 72
     1
  1
A4
  7
SLDTEXTSTYLE1
 73
     1
 44
1.0
  0
MTEXT
  5
9C
330
1F
100
AcDbEntity
  8
DIM
 62
     7
100
AcDbMText
 10
389.3872790795
 20
290.6557255149
 30
0.0
 40
2.6458333333
 41
0.0
 71
     1
 72
     1
  1
6
  7
SLDTEXTSTYLE1
 73
     1
 44
1.0
  0
MTEXT
  5
9D
330
1F
100
AcDbEntity
  8
DIM
 62
     7
100
AcDbMText
 10
317.958707651
 20
290.6557255149
 30
0.0
 40
2.6458333333
 41
0.0
 71
     1
 72
     1
  1
5
  7
SLDTEXTSTYLE1
 73
     1
 44
1.0
  0
MTEXT
  5
9E
330
1F
100
AcDbEntity
  8
DIM
 62
     7
100
AcDbMText
 10
412.244427651
 20
258.512868372
 30
0.0
 40
2.6458333333
 41
0.0
 71
     1
 72
     1
  1
A
  7
SLDTEXTSTYLE1
 73
     1
 44
1.0
  0
MTEXT
  5
9F
330
1F
100
AcDbEntity
  8
DIM
 62
     7
100
AcDbMText
 10
412.244427651
 20
187.0842969434
 30
0.0
 40
2.6458333333
 41
0.0
 71
     1
 72
     1
  1
B
  7
SLDTEXTSTYLE1
 73
     1
 44
1.0
  0
MTEXT
  5
A0
330
1F
100
AcDbEntity
  8
DIM
 62
     7
100
AcDbMText
 10
246.5301362224
 20
290.6557255149
 30
0.0
 40
2.6458333333
 41
0.0
 71
     1
 72
     1
  1
4
  7
SLDTEXTSTYLE1
 73
     1
 44
1.0
  0
MTEXT
  5
A1
330
1F
100
AcDbEntity
  8
DIM
 62
     7
100
AcDbMText
 10
32.8396600319
 20
290.6557255149
 30
0.0
 40
2.6458333333
 41
0.0
 71
     1
 72
     1
  1
1
  7
SLDTEXTSTYLE1
 73
     1
 44
1.0
  0
MTEXT
  5
A2
330
1F
100
AcDbEntity
  8
DIM
 62
     7
100
AcDbMText
 10
103.6729933652
 20
290.6557255149
 30
0.0
 40
2.6458333333
 41
0.0
 71
     1
 72
     1
  1
2
  7
SLDTEXTSTYLE1
 73
     1
 44
1.0
  0
MTEXT
  5
A3
330
1F
100
AcDbEntity
  8
DIM
 62
     7
100
AcDbMText
 10
175.1015647938
 20
290.6557255149
 30
0.0
 40
2.6458333333
 41
0.0
 71
     1
 72
     1
  1
3
  7
SLDTEXTSTYLE1
 73
     1
 44
1.0
  0
MTEXT
  5
A4
330
1F
100
AcDbEntity
  8
DIM
 62
     7
100
AcDbMText
 10
9.3872733652
 20
258.512868372
 30
0.0
 40
2.6458333333
 41
0.0
 71
     1
 72
     1
  1
A
  7
SLDTEXTSTYLE1
 73
     1
 44
1.0
  0
MTEXT
  5
A5
330
1F
100
AcDbEntity
  8
DIM
 62
     7
100
AcDbMText
 10
103.6729933652
 20
12.0842969434
 30
0.0
 40
2.6458333333
 41
0.0
 71
     1
 72
     1
  1
2
  7
SLDTEXTSTYLE1
 73
     1
 44
1.0
  0
MTEXT
  5
A6
330
1F
100
AcDbEntity
  8
DIM
 62
     7
100
AcDbMText
 10
32.8396600319
 20
12.0842969434
 30
0.0
 40
2.6458333333
 41
0.0
 71
     1
 72
     1
  1
1
  7
SLDTEXTSTYLE1
 73
     1
 44
1.0
  0
MTEXT
  5
A7
330
1F
100
AcDbEntity
  8
DIM
 62
     7
100
AcDbMText
 10
9.3872733652
 20
44.2271540863
 30
0.0
 40
2.6458333333
 41
0.0
 71
     1
 72
     1
  1
D
  7
SLDTEXTSTYLE1
 73
     1
 44
1.0
  0
MTEXT
  5
A8
330
1F
100
AcDbEntity
  8
DIM
 62
     7
100
AcDbMText
 10
9.3872733652
 20
115.6557255149
 30
0.0
 40
2.6458333333
 41
0.0
 71
     1
 72
     1
  1
C
  7
SLDTEXTSTYLE1
 73
     1
 44
1.0
  0
MTEXT
  5
A9
330
1F
100
AcDbEntity
  8
DIM
 62
     7
100
AcDbMText
 10
9.3872733652
 20
187.0842969434
 30
0.0
 40
2.6458333333
 41
0.0
 71
     1
 72
     1
  1
B
  7
SLDTEXTSTYLE1
 73
     1
 44
1.0
  0
MTEXT
  5
AA
330
1F
100
AcDbEntity
  8
DIM
 62
     7
100
AcDbMText
 10
412.2815382211
 20
117.0580192975
 30
0.0
 40
2.6458333333
 41
0.0
 71
     1
 72
     1
  1
C
  7
SLDTEXTSTYLE1
 73
     1
 44
1.0
  0
MTEXT
  5
AC
330
1F
100
AcDbEntity
  8
DIM
 62
     7
100
AcDbMText
 10
366.4648083036
 20
10.9872553306
 30
0.0
 40
2.1428571429
 41
0.0
 71
     1
 72
     1
  1
SHEET 1 OF 1
  7
SLDTEXTSTYLE2
 73
     1
 44
1.0
  0
MTEXT
  5
AD
330
1F
100
AcDbEntity
  8
DIM
 62
     7
100
AcDbMText
 10
214.8168291192
 20
11.2190964052
 30
0.0
 40
2.1428571429
 41
0.0
 71
     1
 72
     1
  1
MATERIAL:
  7
SLDTEXTSTYLE1
 73
     1
 44
1.0
  0
MTEXT
  5
AE
330
1F
100
AcDbEntity
  8
DIM
 62
     7
100
AcDbMText
 10
389.3872790795
 20
290.6557255149
 30
0.0
 40
2.6458333333
 41
0.0
 71
     1
 72
     1
  1
6
  7
SLDTEXTSTYLE1
 73
     1
 44
1.0
  0
MTEXT
  5
AF
330
1F
100
AcDbEntity
  8
DIM
 62
     7
100
AcDbMText
 10
317.958707651
 20
290.6557255149
 30
0.0
 40
2.6458333333
 41
0.0
 71
     1
 72
     1
  1
5
  7
SLDTEXTSTYLE1
 73
     1
 44
1.0
  0
MTEXT
  5
B0
330
1F
100
AcDbEntity
  8
DIM
 62
     7
100
AcDbMText
 10
412.244427651
 20
258.512868372
 30
0.0
 40
2.6458333333
 41
0.0
 71
     1
 72
     1
  1
A
  7
SLDTEXTSTYLE1
 73
     1
 44
1.0
  0
MTEXT
  5
B1
330
1F
100
AcDbEntity
  8
DIM
 62
     7
100
AcDbMText
 10
412.244427651
 20
187.0842969434
 30
0.0
 40
2.6458333333
 41
0.0
 71
     1
 72
     1
  1
B
  7
SLDTEXTSTYLE1
 73
     1
 44
1.0
  0
MTEXT
  5
B2
330
1F
100
AcDbEntity
  8
DIM
 62
     7
100
AcDbMText
 10
246.5301362224
 20
290.6557255149
 30
0.0
 40
2.6458333333
 41
0.0
 71
     1
 72
     1
  1
4
  7
SLDTEXTSTYLE1
 73
     1
 44
1.0
  0
MTEXT
  5
B3
330
1F
100
AcDbEntity
  8
DIM
 62
     7
100
AcDbMText
 10
32.8396600319
 20
290.6557255149
 30
0.0
 40
2.6458333333
 41
0.0
 71
     1
 72
     1
  1
1
  7
SLDTEXTSTYLE1
 73
     1
 44
1.0
  0
MTEXT
  5
B4
330
1F
100
AcDbEntity
  8
DIM
 62
     7
100
AcDbMText
 10
103.6729933652
 20
290.6557255149
 30
0.0
 40
2.6458333333
 41
0.0
 71
     1
 72
     1
  1
2
  7
SLDTEXTSTYLE1
 73
     1
 44
1.0
  0
MTEXT
  5
B5
330
1F
100
AcDbEntity
  8
DIM
 62
     7
100
AcDbMText
 10
175.1015647938
 20
290.6557255149
 30
0.0
 40
2.6458333333
 41
0.0
 71
     1
 72
     1
  1
3
  7
SLDTEXTSTYLE1
 73
     1
 44
1.0
  0
MTEXT
  5
B6
330
1F
100
AcDbEntity
  8
DIM
 62
     7
100
AcDbMText
 10
9.3872733652
 20
258.512868372
 30
0.0
 40
2.6458333333
 41
0.0
 71
     1
 72
     1
  1
A
  7
SLDTEXTSTYLE1
 73
     1
 44
1.0
  0
MTEXT
  5
B7
330
1F
100
AcDbEntity
  8
DIM
 62
     7
100
AcDbMText
 10
103.6729933652
 20
12.0842969434
 30
0.0
 40
2.6458333333
 41
0.0
 71
     1
 72
     1
  1
2
  7
SLDTEXTSTYLE1
 73
     1
 44
1.0
  0
MTEXT
  5
B8
330
1F
100
AcDbEntity
  8
DIM
 62
     7
100
AcDbMText
 10
32.8396600319
 20
12.0842969434
 30
0.0
 40
2.6458333333
 41
0.0
 71
     1
 72
     1
  1
1
  7
SLDTEXTSTYLE1
 73
     1
 44
1.0
  0
MTEXT
  5
B9
330
1F
100
AcDbEntity
  8
DIM
 62
     7
100
AcDbMText
 10
9.3872733652
 20
44.2271540863
 30
0.0
 40
2.6458333333
 41
0.0
 71
     1
 72
     1
  1
D
  7
SLDTEXTSTYLE1
 73
     1
 44
1.0
  0
MTEXT
  5
BA
330
1F
100
AcDbEntity
  8
DIM
 62
     7
100
AcDbMText
 10
9.3872733652
 20
115.6557255149
 30
0.0
 40
2.6458333333
 41
0.0
 71
     1
 72
     1
  1
C
  7
SLDTEXTSTYLE1
 73
     1
 44
1.0
  0
MTEXT
  5
BB
330
1F
100
AcDbEntity
  8
DIM
 62
     7
100
AcDbMText
 10
9.3872733652
 20
187.0842969434
 30
0.0
 40
2.6458333333
 41
0.0
 71
     1
 72
     1
  1
B
  7
SLDTEXTSTYLE1
 73
     1
 44
1.0
  0
SPLINE
  5
BC
330
1F
100
AcDbEntity
  8
0
  6
Continuous
 62
     7
370
    15
100
AcDbSpline
210
0.0
220
0.0
230
1.0
 70
     8
 71
     3
 72
    14
 73
    10
 74
     0
 42
0.000000001
 43
0.00000001
 40
0.0
 40
0.0
 40
0.0
 40
0.0
 40
0.25
 40
0.25
 40
0.5
 40
0.5
 40
0.75
 40
0.75
 40
1.0
 40
1.0
 40
1.0
 40
1.0
 10
91.17426621023182
 20
155.3928253233597
 30
0.0
 10
91.17426621023182
 20
152.373377920292
 30
0.0
 10
89.97470102678905
 20
149.477371385474
 30
0.0
 10
85.70455755849858
 20
145.2072279171835
 30
0.0
 10
82.80855102368052
 20
144.0076627337407
 30
0.0
 10
76.76965621754525
 20
144.0076627337407
 30
0.0
 10
73.87364968272719
 20
145.2072279171835
 30
0.0
 10
69.60350621443669
 20
149.477371385474
 30
0.0
 10
68.40394103099395
 20
152.373377920292
 30
0.0
 10
68.40394103099395
 20
155.3928253233597
 30
0.0
  0
SPLINE
  5
BD
330
1F
100
AcDbEntity
  8
0
  6
Continuous
 62
     7
370
    15
100
AcDbSpline
210
0.0
220
0.0
230
1.0
 70
     8
 71
     3
 72
    14
 73
    10
 74
     0
 42
0.000000001
 43
0.00000001
 40
0.0
 40
0.0
 40
0.0
 40
0.0
 40
0.25
 40
0.25
 40
0.5
 40
0.5
 40
0.75
 40
0.75
 40
1.0
 40
1.0
 40
1.0
 40
1.0
 10
68.40394103099395
 20
155.3928253233597
 30
0.0
 10
68.40394103099395
 20
158.4122727264273
 30
0.0
 10
69.60350621443669
 20
161.3082792612454
 30
0.0
 10
73.87364968272718
 20
165.5784227295359
 30
0.0
 10
76.76965621754523
 20
166.7779879129786
 30
0.0
 10
82.80855102368052
 20
166.7779879129786
 30
0.0
 10
85.70455755849858
 20
165.5784227295359
 30
0.0
 10
89.97470102678905
 20
161.3082792612454
 30
0.0
 10
91.17426621023182
 20
158.4122727264273
 30
0.0
 10
91.17426621023182
 20
155.3928253233597
 30
0.0
  0
CIRCLE
  5
BE
330
1F
100
AcDbEntity
  8
0
  6
Continuous
 62
     7
370
    15
100
AcDbCircle
 10
79.7891036206
 20
155.3928253234
 30
0.0
 40
12.37469537611111
  0
CIRCLE
  5
BF
330
1F
100
AcDbEntity
  8
0
  6
Continuous
 62
     7
370
    15
100
AcDbCircle
 10
79.7891036206
 20
155.3928253234
 30
0.0
 40
22.22500000000001
  0
SPLINE
  5
C0
330
1F
100
AcDbEntity
  8
0
  6
Continuous
 62
     7
370
    15
100
AcDbSpline
210
0.0
220
0.0
230
1.0
 70
     8
 71
     3
 72
    47
 73
    43
 74
     0
 42
0.000000001
 43
0.00000001
 40
0.0
 40
0.0
 40
0.0
 40
0.0
 40
0.0064865058599544
 40
0.0129638156775974
 40
0.0194346018868018
 40
0.0259015450089971
 40
0.0323673303453013
 40
0.0388346446390101
 40
0.0453061727291163
 40
0.0517845942156699
 40
0.0582725801576112
 40
0.0891442126942977
 40
0.1200232680972888
 40
0.1521817500082456
 40
0.1843476848298072
 40
0.2171904404488881
 40
0.250040807568759
 40
0.282883563405296
 40
0.315733930742997
 40
0.3478924132540137
 40
0.3800583486754345
 40
0.4109299807251642
 40
0.4418090357728578
 40
0.5000011037995962
 40
0.5581931718263348
 40
0.5890648043627151
 40
0.6199438597660143
 40
0.6521023416767789
 40
0.684268276498532
 40
0.7171110321176541
 40
0.749961399237487
 40
0.7828041550742094
 40
0.815654522411723
 40
0.8478130049227987
 40
0.8799789403441611
 40
0.9108505723940962
 40
0.9417296274415853
 40
0.953398157213752
 40
0.9650438067132959
 40
0.9766822203186435
 40
0.9883290715666286
 40
1.0
 40
1.0
 40
1.0
 40
1.0
 10
57.28910362061288
 20
155.3928253233597
 30
0.0
 10
57.28999460338679
 20
155.5455886769895
 30
0.0
 10
57.29177530577142
 20
155.8508988087469
 30
0.0
 10
57.30620809179624
 20
156.3084143166243
 30
0.0
 10
57.32925613948706
 20
156.765092249045
 30
0.0
 10
57.36176036285418
 20
157.2209324463246
 30
0.0
 10
57.40349565385144
 20
157.6759344881341
 30
0.0
 10
57.45452256896979
 20
158.1300987989991
 30
0.0
 10
57.51482370020119
 20
158.5834226879695
 30
0.0
 10
57.58440788585435
 20
159.0359151123376
 30
0.0
 10
57.761972461503
 20
160.0529596067587
 30
0.0
 10
58.13076406597823
 20
161.6201165729178
 30
0.0
 10
58.84600343099022
 20
163.7163698301509
 30
0.0
 10
59.77633339526699
 20
165.7606120529538
 30
0.0
 10
60.93292589010964
 20
167.7396229185849
 30
0.0
 10
62.29349643783328
 20
169.6048747308511
 30
0.0
 10
63.8510403386404
 20
171.3306349937641
 30
0.0
 10
65.5769144428241
 20
172.8883186631599
 30
0.0
 10
67.44200492966662
 20
174.2488090531956
 30
0.0
 10
69.42117573348521
 20
175.4055136858465
 30
0.0
 10
71.46517132309609
 20
176.3358018176309
 30
0.0
 10
73.56186579230722
 20
177.0510954978685
 30
0.0
 10
76.3150775521725
 20
177.699473596544
 30
0.0
 10
79.78910350261756
 20
178.019146347786
 30
0.0
 10
83.26295494879929
 20
177.6994890672595
 30
0.0
 10
86.01617208449458
 20
177.051145175349
 30
0.0
 10
88.11271058486115
 20
176.3359310352382
 30
0.0
 10
90.15687333677626
 20
175.405594049709
 30
0.0
 10
92.13590587910679
 20
174.2490034449965
 30
0.0
 10
94.0011517779633
 20
172.8884324768784
 30
0.0
 10
95.72691358611519
 20
171.3308883281793
 30
0.0
 10
97.28459702992646
 20
169.6050156387772
 30
0.0
 10
98.64508678160563
 20
167.7399197777266
 30
0.0
 10
99.80179413670662
 20
165.7607686598249
 30
0.0
 10
100.7320721849909
 20
163.7167008868521
 30
0.0
 10
101.447402076759
 20
161.6202654534373
 30
0.0
 10
101.8441802952051
 20
159.9342129901621
 30
0.0
 10
102.053567558927
 20
158.6750391086048
 30
0.0
 10
102.1589583475111
 20
157.8584436777666
 30
0.0
 10
102.2336802042401
 20
157.0390623271713
 30
0.0
 10
102.2804579529782
 20
156.2168744603226
 30
0.0
 10
102.2862197482535
 20
155.6676973898429
 30
0.0
 10
102.2891036206129
 20
155.3928253233597
 30
0.0
  0
SPLINE
  5
C1
330
1F
100
AcDbEntity
  8
0
  6
Continuous
 62
     7
370
    15
100
AcDbSpline
210
0.0
220
0.0
230
1.0
 70
     8
 71
     3
 72
    47
 73
    43
 74
     0
 42
0.000000001
 43
0.00000001
 40
0.0
 40
0.0
 40
0.0
 40
0.0
 40
0.0064865058600646
 40
0.0129638156777903
 40
0.0194346018870498
 40
0.0259015450092725
 40
0.0323673303455768
 40
0.0388346446392581
 40
0.0453061727293097
 40
0.0517845942157816
 40
0.0582725801576143
 40
0.0891442126948909
 40
0.1200232680972924
 40
0.1521817500083951
 40
0.1843476848298058
 40
0.2171904404485402
 40
0.2500408075687574
 40
0.2828835634052776
 40
0.3157339307429991
 40
0.3478924132542638
 40
0.3800583486754358
 40
0.4109299807257716
 40
0.4418090357728632
 40
0.5000011037996017
 40
0.5581931718263402
 40
0.5890648043636169
 40
0.6199438597660184
 40
0.6521023416771926
 40
0.6842682764985326
 40
0.7171110321177041
 40
0.7499613992374872
 40
0.7828041550742053
 40
0.8156545224117233
 40
0.8478130049224891
 40
0.8799789403441584
 40
0.9108505723936514
 40
0.941729627441584
 40
0.9533981572136628
 40
0.9650438067131625
 40
0.9766822203185102
 40
0.9883290715665397
 40
1.0
 40
1.0
 40
1.0
 40
1.0
 10
102.2891036206129
 20
155.3928253233597
 30
0.0
 10
102.288212637839
 20
155.2400619697273
 30
0.0
 10
102.2864319354544
 20
154.9347518379653
 30
0.0
 10
102.2719991494296
 20
154.4772363300821
 30
0.0
 10
102.2489511017388
 20
154.0205583976575
 30
0.0
 10
102.2164468783717
 20
153.564718200376
 30
0.0
 10
102.1747115873744
 20
153.1097161585664
 30
0.0
 10
102.1236846722561
 20
152.6555518477034
 30
0.0
 10
102.0633835410247
 20
152.2022279587368
 30
0.0
 10
101.9937993553716
 20
151.7497355343745
 30
0.0
 10
101.8162347797177
 20
150.7326910399449
 30
0.0
 10
101.4474431752445
 20
149.165534073788
 30
0.0
 10
100.7322038102297
 20
147.069280816552
 30
0.0
 10
99.80187384595199
 20
145.0250385937651
 30
0.0
 10
98.64528135111954
 20
143.0460277281379
 30
0.0
 10
97.28471080339735
 20
141.1807759158748
 30
0.0
 10
95.72716690259108
 20
139.4550156529618
 30
0.0
 10
94.00129279840472
 20
137.8973319835564
 30
0.0
 10
92.13620231155424
 20
136.5368415935213
 30
0.0
 10
90.15703150773516
 20
135.3801369608703
 30
0.0
 10
88.11303591811075
 20
134.4498488290819
 30
0.0
 10
86.01634144890613
 20
133.734555148842
 30
0.0
 10
83.26312968903842
 20
133.0861770501766
 30
0.0
 10
79.78910373860852
 20
132.7665042989328
 30
0.0
 10
76.31525229240499
 20
133.0861615794608
 30
0.0
 10
73.56203515671136
 20
133.7345054713784
 30
0.0
 10
71.4654966563356
 20
134.4497196114916
 30
0.0
 10
69.42133390444266
 20
135.3800565970185
 30
0.0
 10
67.44230136210948
 20
136.536647201728
 30
0.0
 10
65.5770554632621
 20
137.8972181698424
 30
0.0
 10
63.85129365510964
 20
139.4547623185406
 30
0.0
 10
62.29361021129967
 20
141.1806350079423
 30
0.0
 10
60.93312045962363
 20
143.0457308689863
 30
0.0
 10
59.77641310452567
 20
145.0248819868896
 30
0.0
 10
58.84613505624123
 20
147.0689497598507
 30
0.0
 10
58.13080516446762
 20
149.1653851932714
 30
0.0
 10
57.73402694602392
 20
150.8514376565451
 30
0.0
 10
57.52463968229847
 20
152.1106115381093
 30
0.0
 10
57.41924889371455
 20
152.9272069689444
 30
0.0
 10
57.34452703698548
 20
153.7465883195397
 30
0.0
 10
57.29774928824752
 20
154.5687761863915
 30
0.0
 10
57.29198749297227
 20
155.1179532568743
 30
0.0
 10
57.28910362061288
 20
155.3928253233597
 30
0.0
  0
SPLINE
  5
C2
330
1F
100
AcDbEntity
  8
0
  6
Continuous
 62
     7
370
    15
100
AcDbSpline
210
0.0
220
0.0
230
1.0
 70
    24
 71
     3
 72
     8
 73
     4
 74
     0
 42
0.000000001
 43
0.00000001
 40
0.0
 40
0.0
 40
0.0
 40
0.0
 40
1.0
 40
1.0
 40
1.0
 40
1.0
 10
55.08017003349035
 20
136.8928253233597
 30
0.0
 10
55.18033897313386
 20
136.8928253233597
 30
0.0
 10
55.30657690914204
 20
136.8928253233597
 30
0.0
 10
55.43442649227335
 20
136.8928253233597
 30
0.0
  0
ARC
  5
C3
330
1F
100
AcDbEntity
  8
0
  6
Continuous
 62
     7
370
    15
100
AcDbCircle
 10
79.7891036206
 20
155.3928253234
 30
0.0
 40
30.58431457505078
100
AcDbArc
 50
217.220583198
 51
232.779416802
  0
SPLINE
  5
C4
330
1F
100
AcDbEntity
  8
0
  6
Continuous
 62
     7
370
    15
100
AcDbSpline
210
0.0
220
0.0
230
1.0
 70
    24
 71
     3
 72
     8
 73
     4
 74
     0
 42
0.000000001
 43
0.00000001
 40
0.0
 40
0.0
 40
0.0
 40
0.0
 40
1.0
 40
1.0
 40
1.0
 40
1.0
 10
61.28910362061289
 20
131.03814819502
 30
0.0
 10
61.28910362061289
 20
130.9103575354418
 30
0.0
 10
61.28910362061286
 20
130.7839574081894
 30
0.0
 10
61.28910362061286
 20
130.6838917362372
 30
0.0
  0
ARC
  5
C5
330
1F
100
AcDbEntity
  8
0
  6
Continuous
 62
     7
370
    15
100
AcDbCircle
 10
79.7891036206
 20
155.3928253234
 30
0.0
 40
30.86715728752539
100
AcDbArc
 50
216.8228239927
 51
233.1771760073
  0
ARC
  5
C6
330
1F
100
AcDbEntity
  8
0
  6
Continuous
 62
     7
370
    15
100
AcDbCircle
 10
79.7891036206
 20
155.3928253234
 30
0.0
 40
30.8671572875254
100
AcDbArc
 50
253.7590550452
 51
286.2409449548
  0
SPLINE
  5
C7
330
1F
100
AcDbEntity
  8
0
  6
Continuous
 62
     7
370
    15
100
AcDbSpline
210
0.0
220
0.0
230
1.0
 70
     8
 71
     3
 72
    10
 73
     6
 74
     0
 42
0.000000001
 43
0.00000001
 40
0.0
 40
0.0
 40
0.0
 40
0.0
 40
0.5
 40
0.5
 40
1.0
 40
1.0
 40
1.0
 40
1.0
 10
71.15626090813828
 20
125.7574507565602
 30
0.0
 10
71.12360628320907
 20
125.8009750144296
 30
0.0
 10
71.09562516879494
 20
125.8495371167133
 30
0.0
 10
71.05297896285963
 20
125.9610154243331
 30
0.0
 10
71.03910362061292
 20
126.022986713299
 30
0.0
 10
71.03910362061293
 20
126.0868908044664
 30
0.0
  0
ARC
  5
C8
330
1F
100
AcDbEntity
  8
0
  6
Continuous
 62
     7
370
    15
100
AcDbCircle
 10
79.7891036206
 20
155.3928253234
 30
0.0
 40
30.58431457505077
100
AcDbArc
 50
253.375724968
 51
286.624275032
  0
SPLINE
  5
C9
330
1F
100
AcDbEntity
  8
0
  6
Continuous
 62
     7
370
    15
100
AcDbSpline
210
0.0
220
0.0
230
1.0
 70
     8
 71
     3
 72
    10
 73
     6
 74
     0
 42
0.000000001
 43
0.00000001
 40
0.0
 40
0.0
 40
0.0
 40
0.0
 40
0.5
 40
0.5
 40
1.0
 40
1.0
 40
1.0
 40
1.0
 10
88.4219463330875
 20
125.7574507565602
 30
0.0
 10
88.4546009580167
 20
125.8009750144297
 30
0.0
 10
88.48258207243083
 20
125.8495371167133
 30
0.0
 10
88.52522827836614
 20
125.9610154243331
 30
0.0
 10
88.53910362061285
 20
126.022986713299
 30
0.0
 10
88.53910362061285
 20
126.0868908044664
 30
0.0
  0
ARC
  5
CA
330
1F
100
AcDbEntity
  8
0
  6
Continuous
 62
     7
370
    15
100
AcDbCircle
 10
79.7891036206
 20
155.3928253234
 30
0.0
 40
30.86715728752539
100
AcDbArc
 50
73.7590550452
 51
106.2409449548
  0
SPLINE
  5
CB
330
1F
100
AcDbEntity
  8
0
  6
Continuous
 62
     7
370
    15
100
AcDbSpline
210
0.0
220
0.0
230
1.0
 70
     8
 71
     3
 72
    10
 73
     6
 74
     0
 42
0.000000001
 43
0.00000001
 40
0.0
 40
0.0
 40
0.0
 40
0.0
 40
0.5
 40
0.5
 40
1.0
 40
1.0
 40
1.0
 40
1.0
 10
88.4219463330875
 20
185.0281998901591
 30
0.0
 10
88.45460095801671
 20
184.9846756322897
 30
0.0
 10
88.48258207243086
 20
184.936113530006
 30
0.0
 10
88.52522827836617
 20
184.8246352223862
 30
0.0
 10
88.53910362061289
 20
184.7626639334204
 30
0.0
 10
88.53910362061289
 20
184.698759842253
 30
0.0
  0
ARC
  5
CC
330
1F
100
AcDbEntity
  8
0
  6
Continuous
 62
     7
370
    15
100
AcDbCircle
 10
79.7891036206
 20
155.3928253234
 30
0.0
 40
30.58431457505077
100
AcDbArc
 50
73.375724968
 51
106.624275032
  0
SPLINE
  5
CD
330
1F
100
AcDbEntity
  8
0
  6
Continuous
 62
     7
370
    15
100
AcDbSpline
210
0.0
220
0.0
230
1.0
 70
     8
 71
     3
 72
    10
 73
     6
 74
     0
 42
0.000000001
 43
0.00000001
 40
0.0
 40
0.0
 40
0.0
 40
0.0
 40
0.5
 40
0.5
 40
1.0
 40
1.0
 40
1.0
 40
1.0
 10
71.15626090813832
 20
185.0281998901592
 30
0.0
 10
71.12360628320911
 20
184.9846756322897
 30
0.0
 10
71.09562516879497
 20
184.9361135300061
 30
0.0
 10
71.05297896285965
 20
184.8246352223863
 30
0.0
 10
71.03910362061295
 20
184.7626639334204
 30
0.0
 10
71.03910362061295
 20
184.698759842253
 30
0.0
  0
SPLINE
  5
CE
330
1F
100
AcDbEntity
  8
0
  6
Continuous
 62
     7
370
    15
100
AcDbSpline
210
0.0
220
0.0
230
1.0
 70
     8
 71
     3
 72
    31
 73
    27
 74
     0
 42
0.000000001
 43
0.00000001
 40
0.0
 40
0.0
 40
0.0
 40
0.0
 40
0.0132844560942216
 40
0.0265558208799491
 40
0.0398179176711092
 40
0.0530745778004954
 40
0.0663296373152515
 40
0.0795869336519523
 40
0.0928503023056608
 40
0.1061235735074018
 40
0.1194105689244049
 40
0.1814480130405382
 40
0.243498549010407
 40
0.3072096944243587
 40
0.3709342849308368
 40
0.5000015820302136
 40
0.6290688791295904
 40
0.6927800250010282
 40
0.7565046159608936
 40
0.8185420607578854
 40
0.8805925974112784
 40
0.9044943877013564
 40
0.928363657702324
 40
0.9522227648288848
 40
0.9760940950508002
 40
1.0
 40
1.0
 40
1.0
 40
1.0
 10
110.3734181956636
 20
155.3928253233597
 30
0.0
 10
110.3725718852469
 20
155.5661927586612
 30
0.0
 10
110.370880098419
 20
155.9127567824821
 30
0.0
 10
110.3571765639181
 20
156.4322473358265
 30
0.0
 10
110.3352957130508
 20
156.9510761907115
 30
0.0
 10
110.3044382129007
 20
157.4692432695842
 30
0.0
 10
110.2648181083221
 20
157.9867483007829
 30
0.0
 10
110.2163778655207
 20
158.5035916668877
 30
0.0
 10
110.1591337389675
 20
159.0197713286141
 30
0.0
 10
110.0930783533959
 20
159.5352942942274
 30
0.0
 10
109.926720451382
 20
160.6795018062774
 30
0.0
 10
109.5835211703736
 20
162.4413372875932
 30
0.0
 10
108.9239552115094
 20
164.8042706224124
 30
0.0
 10
108.0695450593688
 20
167.1279092352357
 30
0.0
 10
106.6599490218186
 20
170.1674725476671
 30
0.0
 10
104.427112812018
 20
173.7493137742178
 30
0.0
 10
101.6339060601649
 20
176.9134322834007
 30
0.0
 10
99.12468937416938
 20
179.1337336990232
 30
0.0
 10
97.14276974962603
 20
180.617121846612
 30
0.0
 10
95.06714884126015
 20
181.9252644989315
 30
0.0
 10
93.35434243323913
 20
182.8225056665451
 30
0.0
 10
92.05015065737223
 20
183.4171192880353
 30
0.0
 10
91.18802907678723
 20
183.778918931808
 30
0.0
 10
90.3154600212478
 20
184.1134639548893
 30
0.0
 10
89.43316836457362
 20
184.4232403373382
 30
0.0
 10
88.83726894584392
 20
184.6068757104322
 30
0.0
 10
88.53910362061289
 20
184.698759842253
 30
0.0
  0
SPLINE
  5
CF
330
1F
100
AcDbEntity
  8
0
  6
Continuous
 62
     7
370
    15
100
AcDbSpline
210
0.0
220
0.0
230
1.0
 70
     8
 71
     3
 72
    31
 73
    27
 74
     0
 42
0.000000001
 43
0.00000001
 40
0.0
 40
0.0
 40
0.0
 40
0.0
 40
0.0132844560938056
 40
0.0265558208792211
 40
0.0398179176701734
 40
0.0530745777994556
 40
0.0663296373142116
 40
0.0795869336510156
 40
0.0928503023049308
 40
0.106123573506981
 40
0.1194105689243955
 40
0.18144801304061
 40
0.2434985490104099
 40
0.3072096944263704
 40
0.3709342849308375
 40
0.5000015820302129
 40
0.6290688791295884
 40
0.6927800250008046
 40
0.7565046159608975
 40
0.8185420607574302
 40
0.8805925974112735
 40
0.9044943877008197
 40
0.9283636577015203
 40
0.9522227648280808
 40
0.976094095050264
 40
1.0
 40
1.0
 40
1.0
 40
1.0
 10
88.53910362061286
 20
126.0868908044664
 30
0.0
 10
88.70498242354961
 20
126.1373011863212
 30
0.0
 10
89.0365765623945
 20
126.2380722725847
 30
0.0
 10
89.53043265896285
 20
126.3998263381949
 30
0.0
 10
90.02131523099511
 20
126.5692266119919
 30
0.0
 10
90.50899551953832
 20
126.7470389937463
 30
0.0
 10
90.9935345013121
 20
126.9330583076479
 30
0.0
 10
91.47491608281102
 20
127.1273397921158
 30
0.0
 10
91.95314296030223
 20
127.3298672886642
 30
0.0
 10
92.42821973909345
 20
127.5406498693099
 30
0.0
 10
93.47700697619807
 20
128.0274055713872
 30
0.0
 10
95.06701290621882
 20
128.8603108194366
 30
0.0
 10
97.14248094678454
 20
130.1683297839829
 30
0.0
 10
99.1245529024252
 20
131.6518067382166
 30
0.0
 10
101.6337893897489
 20
133.8720856328688
 30
0.0
 10
104.4271129869301
 20
137.0363371072663
 30
0.0
 10
106.6598552180399
 20
140.6180283318334
 30
0.0
 10
108.0694785002755
 20
143.6575791137211
 30
0.0
 10
108.9238471388232
 20
145.9810463555808
 30
0.0
 10
109.5834878808909
 20
148.344161554948
 30
0.0
 10
109.9532014086502
 20
150.2420707760602
 30
0.0
 10
110.1498391263923
 20
151.6618648298048
 30
0.0
 10
110.2498679444886
 20
152.5914598155245
 30
0.0
 10
110.3207923818747
 20
153.5232681935374
 30
0.0
 10
110.3652018905562
 20
154.4573066135814
 30
0.0
 10
110.370678106312
 20
155.0808353447301
 30
0.0
 10
110.3734181956636
 20
155.3928253233597
 30
0.0
  0
SPLINE
  5
D0
330
1F
100
AcDbEntity
  8
0
  6
Continuous
 62
     7
370
    15
100
AcDbSpline
210
0.0
220
0.0
230
1.0
 70
     8
 71
     3
 72
    22
 73
    18
 74
     0
 42
0.000000001
 43
0.00000001
 40
0.0
 40
0.0
 40
0.0
 40
0.0
 40
0.0500936294938495
 40
0.1001235566409927
 40
0.1501059026452517
 40
0.2000568347795998
 40
0.2499925508288441
 40
0.2999292633845472
 40
0.3498831840680214
 40
0.3998705077580372
 40
0.4499073968998467
 40
0.5000099659711902
 40
0.6001296041423445
 40
0.700058862573313
 40
0.7999272374114642
 40
0.8998644614787416
 40
1.0
 40
1.0
 40
1.0
 40
1.0
 10
61.28910362061288
 20
131.03814819502
 30
0.0
 10
61.43586154090019
 20
130.9278587058798
 30
0.0
 10
61.72919075447226
 20
130.7074199789517
 30
0.0
 10
62.17637054139472
 20
130.3869947712969
 30
0.0
 10
62.62838803270881
 20
130.0743876645191
 30
0.0
 10
63.08578371505624
 20
129.7703104426142
 30
0.0
 10
63.548412792283
 20
129.4745727689485
 30
0.0
 10
64.01631379946251
 20
129.1872257095818
 30
0.0
 10
64.4894764189591
 20
128.9082557727615
 30
0.0
 10
64.96790249491218
 20
128.6376663924501
 30
0.0
 10
65.45159403719
 20
128.3754577783456
 30
0.0
 10
66.10296088290549
 20
128.0373068616792
 30
0.0
 10
66.92780221189575
 20
127.6368253262457
 30
0.0
 10
67.93328757873532
 20
127.1923579344203
 30
0.0
 10
68.9537381399036
 20
126.7853954232769
 30
0.0
 10
69.98812016220947
 20
126.4125237767083
 30
0.0
 10
70.68854437826313
 20
126.1955068317886
 30
0.0
 10
71.03910362061292
 20
126.0868908044663
 30
0.0
  0
SPLINE
  5
D1
330
1F
100
AcDbEntity
  8
0
  6
Continuous
 62
     7
370
    15
100
AcDbSpline
210
0.0
220
0.0
230
1.0
 70
     8
 71
     3
 72
    43
 73
    39
 74
     0
 42
0.000000001
 43
0.00000001
 40
0.0
 40
0.0
 40
0.0
 40
0.0
 40
0.0095109916351198
 40
0.0190046239324543
 40
0.0284840481313954
 40
0.0379524296574398
 40
0.0474129450205059
 40
0.0568687786579848
 40
0.0663231197380042
 40
0.0757791589388433
 40
0.0852400852207181
 40
0.0947090826062457
 40
0.1041893269857955
 40
0.1136839829636412
 40
0.1231962007603538
 40
0.154790111810953
 40
0.1863927084008197
 40
0.2182250895786934
 40
0.2500662218550408
 40
0.3137096340347837
 40
0.3768767128430092
 40
0.4384349553553257
 40
0.5000020600078294
 40
0.5615603039219336
 40
0.6231274099053438
 40
0.6862944887135692
 40
0.7499379008933121
 40
0.7817702821026734
 40
0.813611414410082
 40
0.8452053255519245
 40
0.8768079222326508
 40
0.8944566871226847
 40
0.9120548834400876
 40
0.9296228104675966
 40
0.9471808724733469
 40
0.9647495080973084
 40
0.9823491191416794
 40
1.0
 40
1.0
 40
1.0
 40
1.0
 10
71.03910362061293
 20
184.698759842253
 30
0.0
 10
70.86010207277654
 20
184.6442945109692
 30
0.0
 10
70.50242568839236
 20
184.5354632578132
 30
0.0
 10
69.97021192988987
 20
184.3600309504014
 30
0.0
 10
69.4418617299302
 20
184.1758847428817
 30
0.0
 10
68.91763892619977
 20
183.9821415109515
 30
0.0
 10
68.39747320698774
 20
183.7790374372499
 30
0.0
 10
67.88138361563108
 20
183.566509392429
 30
0.0
 10
67.369365284454
 20
183.3445743641136
 30
0.0
 10
66.86141973791275
 20
183.1132278433562
 30
0.0
 10
66.35754679047265
 20
182.8724713443733
 30
0.0
 10
65.85774667039301
 20
182.6223038494382
 30
0.0
 10
65.36201961725888
 20
182.3627285222757
 30
0.0
 10
64.87036536046035
 20
182.0937343736544
 30
0.0
 10
64.0058908350786
 20
181.6001844796193
 30
0.0
 10
62.79186128182646
 20
180.8420178552018
 30
0.0
 10
61.26887784628828
 20
179.7560630430149
 30
0.0
 10
59.81108929902297
 20
178.5760688481709
 30
0.0
 10
57.96404962351706
 20
176.8826345370209
 30
0.0
 10
55.86137376511019
 20
174.5646502186126
 30
0.0
 10
53.72112268415538
 20
171.5287254212786
 30
0.0
 10
51.97836679561738
 20
168.2949896194341
 30
0.0
 10
50.64670089717418
 20
164.9055887335805
 30
0.0
 10
49.72218481334188
 20
161.3831050894643
 30
0.0
 10
49.22147703231443
 20
157.7439346338791
 30
0.0
 10
49.15844431902046
 20
154.0297944549946
 30
0.0
 10
49.48862474201913
 20
150.9178505394707
 30
0.0
 10
49.98086239479017
 20
148.4608238755632
 30
0.0
 10
50.46169176836747
 20
146.6481788691492
 30
0.0
 10
51.05072793660348
 20
144.8726467101218
 30
0.0
 10
51.6433192631341
 20
143.3956417124578
 30
0.0
 10
52.19010116431365
 20
142.1994143569465
 30
0.0
 10
52.65382104741649
 20
141.2694384698983
 30
0.0
 10
53.14813292116224
 20
140.3574032762621
 30
0.0
 10
53.67284042078511
 20
139.4631545823665
 30
0.0
 10
54.22861998785999
 20
138.5872143064716
 30
0.0
 10
54.81294424400885
 20
137.7276666888667
 30
0.0
 10
55.22706497125512
 20
137.1713754763913
 30
0.0
 10
55.4344264922734
 20
136.8928253233597
 30
0.0
  0
ARC
  5
D2
330
1F
100
AcDbEntity
  8
0
  6
Continuous
 62
     7
370
    15
100
AcDbCircle
 10
79.7891036206
 20
155.3928253234
 30
0.0
 40
30.86715728752539
100
AcDbArc
 50
106.2409449548
 51
216.8228239927
  0
ARC
  5
D3
330
1F
100
AcDbEntity
  8
0
  6
Continuous
 62
     7
370
    15
100
AcDbCircle
 10
79.7891036206
 20
155.3928253234
 30
0.0
 40
30.86715728752538
100
AcDbArc
 50
286.2409449548
 51
73.7590550452
  0
ARC
  5
D4
330
1F
100
AcDbEntity
  8
0
  6
Continuous
 62
     7
370
    15
100
AcDbCircle
 10
79.7891036206
 20
155.3928253234
 30
0.0
 40
30.8671572875254
100
AcDbArc
 50
233.1771760073
 51
253.7590550452
  0
ARC
  5
D5
330
1F
100
AcDbEntity
  8
0
  6
Continuous
 62
     7
370
    15
100
AcDbCircle
 10
79.7891036206
 20
155.3928253234
 30
0.0
 40
31.63284271247464
100
AcDbArc
 50
285.733481737
 51
74.4024500298
  0
ARC
  5
D6
330
1F
100
AcDbEntity
  8
0
  6
Continuous
 62
     7
370
    15
100
AcDbCircle
 10
79.7891036206
 20
155.3928253234
 30
0.0
 40
31.63284271247465
100
AcDbArc
 50
254.4024500298
 51
285.733481737
  0
ARC
  5
D7
330
1F
100
AcDbEntity
  8
0
  6
Continuous
 62
     7
370
    15
100
AcDbCircle
 10
79.7891036206
 20
155.3928253234
 30
0.0
 40
31.63284271247466
100
AcDbArc
 50
234.208651263
 51
254.4024500298
  0
ARC
  5
D8
330
1F
100
AcDbEntity
  8
0
  6
Continuous
 62
     7
370
    15
100
AcDbCircle
 10
79.7891036206
 20
155.3928253234
 30
0.0
 40
31.63284271247465
100
AcDbArc
 50
215.791348737
 51
234.208651263
  0
ARC
  5
D9
330
1F
100
AcDbEntity
  8
0
  6
Continuous
 62
     7
370
    15
100
AcDbCircle
 10
79.7891036206
 20
155.3928253234
 30
0.0
 40
31.63284271247465
100
AcDbArc
 50
105.733481737
 51
215.791348737
  0
ARC
  5
DA
330
1F
100
AcDbEntity
  8
0
  6
Continuous
 62
     7
370
    15
100
AcDbCircle
 10
79.7891036206
 20
155.3928253234
 30
0.0
 40
31.63284271247464
100
AcDbArc
 50
74.4024500298
 51
105.733481737
  0
SPLINE
  5
DB
330
1F
100
AcDbEntity
  8
0
  6
Continuous
 62
     7
370
    15
100
AcDbSpline
210
0.0
220
0.0
230
1.0
 70
    24
 71
     3
 72
     8
 73
     4
 74
     0
 42
0.000000001
 43
0.00000001
 40
0.0
 40
0.0
 40
0.0
 40
0.0
 40
1.0
 40
1.0
 40
1.0
 40
1.0
 10
88.38953465849858
 20
185.9557945175098
 30
0.0
 10
88.38953465849858
 20
185.9557945175098
 30
0.0
 10
88.35230059767399
 20
185.9185604566853
 30
0.0
 10
88.29449917421627
 20
185.8607590332275
 30
0.0
  0
SPLINE
  5
DC
330
1F
100
AcDbEntity
  8
0
  6
Continuous
 62
     7
370
    15
100
AcDbSpline
210
0.0
220
0.0
230
1.0
 70
    24
 71
     3
 72
    10
 73
     6
 74
     0
 42
0.000000001
 43
0.00000001
 40
0.0
 40
0.0
 40
0.0
 40
0.0
 40
0.5
 40
0.5
 40
1.0
 40
1.0
 40
1.0
 40
1.0
 10
71.2114482120946
 20
185.8404946227473
 30
0.0
 10
71.1716541283799
 20
185.8637602545525
 30
0.0
 10
71.13681946046643
 20
185.884126361322
 30
0.0
 10
71.08625232693288
 20
185.9136904623243
 30
0.0
 10
71.0711965832707
 20
185.9224928107114
 30
0.0
 10
71.0711965832707
 20
185.9224928107114
 30
0.0
  0
ARC
  5
DD
330
1F
100
AcDbEntity
  8
0
  6
Continuous
 62
     7
370
    15
100
AcDbCircle
 10
79.7891036206
 20
155.3928253234
 30
0.0
 40
31.74999999999999
100
AcDbArc
 50
74.2833781213
 51
105.9369715324
  0
SPLINE
  5
DE
330
1F
100
AcDbEntity
  8
0
  6
Continuous
 62
     7
370
    15
100
AcDbSpline
210
0.0
220
0.0
230
1.0
 70
    24
 71
     3
 72
     8
 73
     4
 74
     0
 42
0.000000001
 43
0.00000001
 40
0.0
 40
0.0
 40
0.0
 40
0.0
 40
1.0
 40
1.0
 40
1.0
 40
1.0
 10
71.18867258272724
 20
124.8298561292095
 30
0.0
 10
71.18867258272724
 20
124.8298561292095
 30
0.0
 10
71.22590664355182
 20
124.8670901900341
 30
0.0
 10
71.28370806700954
 20
124.9248916134918
 30
0.0
  0
SPLINE
  5
DF
330
1F
100
AcDbEntity
  8
0
  6
Continuous
 62
     7
370
    15
100
AcDbSpline
210
0.0
220
0.0
230
1.0
 70
    24
 71
     3
 72
    10
 73
     6
 74
     0
 42
0.000000001
 43
0.00000001
 40
0.0
 40
0.0
 40
0.0
 40
0.0
 40
0.5
 40
0.5
 40
1.0
 40
1.0
 40
1.0
 40
1.0
 10
88.36675902913127
 20
124.945156023972
 30
0.0
 10
88.40655311284596
 20
124.9218903921668
 30
0.0
 10
88.44138778075941
 20
124.9015242853973
 30
0.0
 10
88.49195491429298
 20
124.8719601843951
 30
0.0
 10
88.50701065795514
 20
124.863157836008
 30
0.0
 10
88.50701065795514
 20
124.863157836008
 30
0.0
  0
ARC
  5
E0
330
1F
100
AcDbEntity
  8
0
  6
Continuous
 62
     7
370
    15
100
AcDbCircle
 10
79.7891036206
 20
155.3928253234
 30
0.0
 40
31.75000000000001
100
AcDbArc
 50
254.2833781213
 51
285.9369715324
  0
SPLINE
  5
E1
330
1F
100
AcDbEntity
  8
0
  6
Continuous
 62
     7
370
    15
100
AcDbSpline
210
0.0
220
0.0
230
1.0
 70
    24
 71
     3
 72
     8
 73
     4
 74
     0
 42
0.000000001
 43
0.00000001
 40
0.0
 40
0.0
 40
0.0
 40
0.0
 40
1.0
 40
1.0
 40
1.0
 40
1.0
 10
53.98576081391436
 20
136.8928253233597
 30
0.0
 10
53.98576081391436
 20
136.8928253233597
 30
0.0
 10
54.0444850224592
 20
136.8928253233597
 30
0.0
 10
54.13005574131386
 20
136.8928253233597
 30
0.0
  0
SPLINE
  5
E2
330
1F
100
AcDbEntity
  8
0
  6
Continuous
 62
     7
370
    15
100
AcDbSpline
210
0.0
220
0.0
230
1.0
 70
    24
 71
     3
 72
     8
 73
     4
 74
     0
 42
0.000000001
 43
0.00000001
 40
0.0
 40
0.0
 40
0.0
 40
0.0
 40
1.0
 40
1.0
 40
1.0
 40
1.0
 10
61.28910362061289
 20
129.7337774440689
 30
0.0
 10
61.28910362061289
 20
129.6481638627468
 30
0.0
 10
61.28910362061291
 20
129.5894825166605
 30
0.0
 10
61.28910362061291
 20
129.5894825166611
 30
0.0
  0
ARC
  5
E3
330
1F
100
AcDbEntity
  8
0
  6
Continuous
 62
     7
370
    15
100
AcDbCircle
 10
79.7891036206
 20
155.3928253234
 30
0.0
 40
31.75000000000002
100
AcDbArc
 50
215.6390613326
 51
234.3609386674
  0
ARC
  5
E4
330
1F
100
AcDbEntity
  8
0
  6
Continuous
 62
     7
370
    15
100
AcDbCircle
 10
79.7891036206
 20
155.3928253234
 30
0.0
 40
31.75000000000001
100
AcDbArc
 50
234.3609386674
 51
254.2833781213
  0
ARC
  5
E5
330
1F
100
AcDbEntity
  8
0
  6
Continuous
 62
     7
370
    15
100
AcDbCircle
 10
79.7891036206
 20
155.3928253234
 30
0.0
 40
31.75000000000001
100
AcDbArc
 50
285.9369715324
 51
74.2833781213
  0
ARC
  5
E6
330
1F
100
AcDbEntity
  8
0
  6
Continuous
 62
     7
370
    15
100
AcDbCircle
 10
79.7891036206
 20
155.3928253234
 30
0.0
 40
31.75000000000002
100
AcDbArc
 50
105.9369715324
 51
215.6390613326
  0
INSERT
  5
F2
330
1F
100
AcDbEntity
  8
DIM
100
AcDbBlockReference
  2
SW_CENTERMARKSYMBOL_0
 10
79.7891036206
 20
155.3928253234
 30
0.0
  0
LINE
  5
F3
330
1F
100
AcDbEntity
  8
0
  6
Continuous
 62
     7
370
    15
100
AcDbLine
 10
223.8065462028
 20
123.6428243101
 30
0.0
 11
227.1190240448
 21
123.6428243101
 31
0.0
  0
LINE
  5
F4
330
1F
100
AcDbEntity
  8
0
  6
Continuous
 62
     7
370
    15
100
AcDbLine
 10
227.1190240448
 20
187.1428263366
 30
0.0
 11
223.8065462028
 21
187.1428263366
 31
0.0
  0
LINE
  5
F5
330
1F
100
AcDbEntity
  8
0
  6
Continuous
 62
     7
370
    15
100
AcDbLine
 10
223.8065462028
 20
187.1428263366
 30
0.0
 11
222.1847094064
 21
184.3337227583
 31
0.0
  0
LINE
  5
F6
330
1F
100
AcDbEntity
  8
0
  6
Continuous
 62
     7
370
    15
100
AcDbLine
 10
222.1847094064
 20
126.4519278884
 30
0.0
 11
223.8065462028
 21
123.6428243101
 31
0.0
  0
LINE
  5
F7
330
1F
100
AcDbEntity
  8
0
  6
Continuous
 62
     7
370
    15
100
AcDbLine
 10
216.7628725459
 20
123.6428243101
 30
0.0
 11
218.3847093423
 21
126.4519278884
 31
0.0
  0
LINE
  5
F8
330
1F
100
AcDbEntity
  8
0
  6
Continuous
 62
     7
370
    15
100
AcDbLine
 10
218.3847093423
 20
184.3337227583
 30
0.0
 11
216.7628725459
 21
187.1428263366
 31
0.0
  0
LINE
  5
F9
330
1F
100
AcDbEntity
  8
0
  6
Continuous
 62
     7
370
    15
100
AcDbLine
 10
213.5503945341
 20
123.6428243101
 30
0.0
 11
216.7628725459
 21
123.6428243101
 31
0.0
  0
LINE
  5
FA
330
1F
100
AcDbEntity
  8
0
  6
Continuous
 62
     7
370
    15
100
AcDbLine
 10
216.7628725459
 20
187.1428263366
 30
0.0
 11
213.5503945341
 21
187.1428263366
 31
0.0
  0
LINE
  5
FB
330
1F
100
AcDbEntity
  8
0
  6
Continuous
 62
     7
370
    15
100
AcDbLine
 10
227.4018667107
 20
123.7599809647
 30
0.0
 11
228.1675517028
 21
124.5256678194
 31
0.0
  0
LINE
  5
FC
330
1F
100
AcDbEntity
  8
0
  6
Continuous
 62
     7
370
    15
100
AcDbLine
 10
228.1675517028
 20
186.2599828273
 30
0.0
 11
227.4018667107
 21
187.025669682
 31
0.0
  0
LINE
  5
FD
330
1F
100
AcDbEntity
  8
0
  6
Continuous
 62
     7
370
    15
100
AcDbLine
 10
213.2675518682
 20
187.025669682
 30
0.0
 11
212.5018664104
 21
186.2599828273
 31
0.0
  0
LINE
  5
FE
330
1F
100
AcDbEntity
  8
0
  6
Continuous
 62
     7
370
    15
100
AcDbLine
 10
212.5018664104
 20
124.5256678194
 30
0.0
 11
213.2675518682
 21
123.7599809647
 31
0.0
  0
LINE
  5
FF
330
1F
100
AcDbEntity
  8
0
  6
Continuous
 62
     7
370
    15
100
AcDbLine
 10
218.3847093423
 20
127.3928244591
 30
0.0
 11
222.1847094064
 21
127.3928244591
 31
0.0
  0
LINE
  5
100
330
1F
100
AcDbEntity
  8
0
  6
Continuous
 62
     7
370
    15
100
AcDbLine
 10
222.1847094064
 20
183.3928261876
 30
0.0
 11
218.3847093423
 21
183.3928261876
 31
0.0
  0
ARC
  5
101
330
1F
100
AcDbEntity
  8
0
  6
Continuous
 62
     7
370
    15
100
AcDbCircle
 10
231.2847091382
 20
132.3928253234
 30
0.0
 40
3.000000000000028
100
AcDbArc
 50
90.0
 51
180.0
  0
ARC
  5
102
330
1F
100
AcDbEntity
  8
0
  6
Continuous
 62
     7
370
    15
100
AcDbCircle
 10
211.8847091382
 20
132.8928253234
 30
0.0
 40
0.5000000000000284
100
AcDbArc
 50
0.0
 51
90.0
  0
ARC
  5
103
330
1F
100
AcDbEntity
  8
0
  6
Continuous
 62
     7
370
    15
100
AcDbCircle
 10
211.8847091382
 20
177.8928253234
 30
0.0
 40
0.5000000000000284
100
AcDbArc
 50
270.0
 51
0.0
  0
LINE
  5
104
330
1F
100
AcDbEntity
  8
0
  6
Continuous
 62
     7
370
    15
100
AcDbLine
 10
209.1847091382
 20
133.1678253591
 30
0.0
 11
209.6672232023
 21
133.3928254426
 31
0.0
  0
LINE
  5
105
330
1F
100
AcDbEntity
  8
0
  6
Continuous
 62
     7
370
    15
100
AcDbLine
 10
209.6672232023
 20
177.3928252042
 30
0.0
 11
209.1847091382
 21
177.6178252876
 31
0.0
  0
LINE
  5
106
330
1F
100
AcDbEntity
  8
0
  6
Continuous
 62
     7
370
    15
100
AcDbLine
 10
209.1847091382
 20
177.6178252876
 30
0.0
 11
141.6403978532
 21
167.7675207138
 31
0.0
  0
LINE
  5
107
330
1F
100
AcDbEntity
  8
0
  6
Continuous
 62
     7
370
    15
100
AcDbLine
 10
141.6403978532
 20
143.0181299329
 30
0.0
 11
209.1847091382
 21
133.1678253591
 31
0.0
  0
LINE
  5
108
330
1F
100
AcDbEntity
  8
0
  6
Continuous
 62
     7
370
    15
100
AcDbLine
 10
209.6672232023
 20
133.3928254426
 30
0.0
 11
211.8847092082
 21
133.3928254426
 31
0.0
  0
LINE
  5
109
330
1F
100
AcDbEntity
  8
0
  6
Continuous
 62
     7
370
    15
100
AcDbLine
 10
211.8847092082
 20
177.3928252042
 30
0.0
 11
209.6672232023
 21
177.3928252042
 31
0.0
  0
LINE
  5
10A
330
1F
100
AcDbEntity
  8
0
  6
Continuous
 62
     7
370
    15
100
AcDbLine
 10
365.7206028169
 20
134.3928256065
 30
0.0
 11
369.1847055619
 21
140.3928256586
 31
0.0
  0
LINE
  5
10B
330
1F
100
AcDbEntity
  8
0
  6
Continuous
 62
     7
370
    15
100
AcDbLine
 10
369.1847055619
 20
170.3928249881
 30
0.0
 11
365.7206028169
 21
176.3928250402
 31
0.0
  0
LINE
  5
10C
330
1F
100
AcDbEntity
  8
0
  6
Continuous
 62
     7
370
    15
100
AcDbLine
 10
347.1847056811
 20
134.3928256065
 30
0.0
 11
365.7206028169
 21
134.3928256065
 31
0.0
  0
LINE
  5
10D
330
1F
100
AcDbEntity
  8
0
  6
Continuous
 62
     7
370
    15
100
AcDbLine
 10
365.7206028169
 20
176.3928250402
 30
0.0
 11
347.1847056811
 21
176.3928250402
 31
0.0
  0
LINE
  5
10E
330
1F
100
AcDbEntity
  8
0
  6
Continuous
 62
     7
370
    15
100
AcDbLine
 10
347.1847056811
 20
176.3928250402
 30
0.0
 11
346.1847036546
 21
175.3928248763
 31
0.0
  0
LINE
  5
10F
330
1F
100
AcDbEntity
  8
0
  6
Continuous
 62
     7
370
    15
100
AcDbLine
 10
346.1847036546
 20
135.3928257704
 30
0.0
 11
347.1847056811
 21
134.3928256065
 31
0.0
  0
LINE
  5
110
330
1F
100
AcDbEntity
  8
0
  6
Continuous
 62
     7
370
    15
100
AcDbLine
 10
231.2847088491
 20
135.3928257704
 30
0.0
 11
331.3347055977
 21
135.3928257704
 31
0.0
  0
LINE
  5
111
330
1F
100
AcDbEntity
  8
0
  6
Continuous
 62
     7
370
    15
100
AcDbLine
 10
331.3347055977
 20
175.3928248763
 30
0.0
 11
231.2531873053
 21
175.3928248763
 31
0.0
  0
LINE
  5
112
330
1F
100
AcDbEntity
  8
0
  6
Continuous
 62
     7
370
    15
100
AcDbLine
 10
331.3347055977
 20
135.3928257704
 30
0.0
 11
335.5847030347
 21
139.64282507
 31
0.0
  0
LINE
  5
113
330
1F
100
AcDbEntity
  8
0
  6
Continuous
 62
     7
370
    15
100
AcDbLine
 10
335.5847030347
 20
171.1428255767
 30
0.0
 11
331.3347055977
 21
175.3928248763
 31
0.0
  0
LINE
  5
114
330
1F
100
AcDbEntity
  8
0
  6
Continuous
 62
     7
370
    15
100
AcDbLine
 10
340.1930957501
 20
138.8928254128
 30
0.0
 11
346.1847036546
 21
138.8928254128
 31
0.0
  0
LINE
  5
115
330
1F
100
AcDbEntity
  8
0
  6
Continuous
 62
     7
370
    15
100
AcDbLine
 10
346.1847036546
 20
171.892825234
 30
0.0
 11
340.1930957501
 21
171.892825234
 31
0.0
  0
LINE
  5
116
330
1F
100
AcDbEntity
  8
0
  6
Continuous
 62
     7
370
    15
100
AcDbLine
 10
340.1930957501
 20
171.892825234
 30
0.0
 11
338.5847091144
 21
171.1428255767
 31
0.0
  0
LINE
  5
117
330
1F
100
AcDbEntity
  8
0
  6
Continuous
 62
     7
370
    15
100
AcDbLine
 10
338.5847091144
 20
139.64282507
 30
0.0
 11
340.1930957501
 21
138.8928254128
 31
0.0
  0
LINE
  5
118
330
1F
100
AcDbEntity
  8
0
  6
Continuous
 62
     7
370
    15
100
AcDbLine
 10
335.5847030347
 20
139.64282507
 30
0.0
 11
338.5847091144
 21
139.64282507
 31
0.0
  0
LINE
  5
119
330
1F
100
AcDbEntity
  8
0
  6
Continuous
 62
     7
370
    15
100
AcDbLine
 10
338.5847091144
 20
171.1428255767
 30
0.0
 11
335.5847030347
 21
171.1428255767
 31
0.0
  0
ARC
  5
11A
330
1F
100
AcDbEntity
  8
0
  6
Continuous
 62
     7
370
    15
100
AcDbCircle
 10
141.7847091382
 20
144.0076627337
 30
0.0
 40
1.000000000000018
100
AcDbArc
 50
180.0
 51
261.7027777778
  0
ARC
  5
11B
330
1F
100
AcDbEntity
  8
0
  6
Continuous
 62
     7
370
    15
100
AcDbCircle
 10
141.7847091382
 20
166.777987913
 30
0.0
 40
1.000000000000018
100
AcDbArc
 50
98.2972222222
 51
180.0
  0
ARC
  5
11C
330
1F
100
AcDbEntity
  8
0
  6
Continuous
 62
     7
370
    15
100
AcDbCircle
 10
212.7847091382
 20
185.9771398984
 30
0.0
 40
0.4000000000000193
100
AcDbArc
 50
135.0
 51
180.0
  0
ARC
  5
11D
330
1F
100
AcDbEntity
  8
0
  6
Continuous
 62
     7
370
    15
100
AcDbCircle
 10
212.7847091382
 20
124.8085107483
 30
0.0
 40
0.4000000000000193
100
AcDbArc
 50
180.0
 51
225.0
  0
ARC
  5
11E
330
1F
100
AcDbEntity
  8
0
  6
Continuous
 62
     7
370
    15
100
AcDbCircle
 10
213.5503945631
 20
124.0428253234
 30
0.0
 40
0.3999999999999773
100
AcDbArc
 50
225.0
 51
270.0
  0
ARC
  5
11F
330
1F
100
AcDbEntity
  8
0
  6
Continuous
 62
     7
370
    15
100
AcDbCircle
 10
227.1190237132
 20
124.0428253234
 30
0.0
 40
0.3999999999999891
100
AcDbArc
 50
270.0
 51
315.0
  0
ARC
  5
120
330
1F
100
AcDbEntity
  8
0
  6
Continuous
 62
     7
370
    15
100
AcDbCircle
 10
227.1190237132
 20
186.7428253234
 30
0.0
 40
0.3999999999999791
100
AcDbArc
 50
45.0
 51
90.0
  0
ARC
  5
121
330
1F
100
AcDbEntity
  8
0
  6
Continuous
 62
     7
370
    15
100
AcDbCircle
 10
213.5503945631
 20
186.7428253234
 30
0.0
 40
0.4000000000000057
100
AcDbArc
 50
90.0
 51
135.0
  0
ARC
  5
122
330
1F
100
AcDbEntity
  8
0
  6
Continuous
 62
     7
370
    15
100
AcDbCircle
 10
227.8847091382
 20
124.8085107483
 30
0.0
 40
0.4000000000000057
100
AcDbArc
 50
315.0
 51
0.0
  0
ARC
  5
123
330
1F
100
AcDbEntity
  8
0
  6
Continuous
 62
     7
370
    15
100
AcDbCircle
 10
227.8847091382
 20
185.9771398984
 30
0.0
 40
0.4000000000000057
100
AcDbArc
 50
0.0
 51
45.0
  0
SPLINE
  5
124
330
1F
100
AcDbEntity
  8
0
  6
Continuous
 62
     7
370
    15
100
AcDbSpline
210
0.0
220
0.0
230
1.0
 70
     8
 71
     3
 72
    11
 73
     7
 74
     0
 42
0.000000001
 43
0.00000001
 40
0.0
 40
0.0
 40
0.0
 40
0.0
 40
0.2418543496229949
 40
0.4999994785040948
 40
0.7581451758278482
 40
1.0
 40
1.0
 40
1.0
 40
1.0
 10
231.2544520413086
 20
175.3928248763249
 30
0.0
 10
230.9087707179587
 20
175.4276797687263
 30
0.0
 10
230.1941237344624
 20
175.4997373027388
 30
0.0
 10
229.248696289499
 20
176.0795897926077
 30
0.0
 10
228.5407552841367
 20
176.933336163761
 30
0.0
 10
228.3681831005484
 20
177.6305681414012
 30
0.0
 10
228.2847083573744
 20
177.9678256243631
 30
0.0
  0
SPLINE
  5
125
330
1F
100
AcDbEntity
  8
0
  6
Continuous
 62
     7
370
    15
100
AcDbSpline
210
0.0
220
0.0
230
1.0
 70
     8
 71
     3
 72
     8
 73
     4
 74
     0
 42
0.000000001
 43
0.00000001
 40
0.0
 40
0.0
 40
0.0
 40
0.0
 40
1.0
 40
1.0
 40
1.0
 40
1.0
 10
227.4018664257206
 20
185.8607590332275
 30
0.0
 10
227.3306211262449
 20
185.9185855365032
 30
0.0
 10
227.2277127625277
 20
185.9557945175098
 30
0.0
 10
227.119023713246
 20
185.9557945175098
 30
0.0
  0
LINE
  5
126
330
1F
100
AcDbEntity
  8
0
  6
Continuous
 62
     7
370
    15
100
AcDbLine
 10
227.4018667107
 20
185.8607583672
 30
0.0
 11
227.4018667107
 21
124.9451559961
 31
0.0
  0
SPLINE
  5
127
330
1F
100
AcDbEntity
  8
0
  6
Continuous
 62
     7
370
    15
100
AcDbSpline
210
0.0
220
0.0
230
1.0
 70
     8
 71
     3
 72
    10
 73
     6
 74
     0
 42
0.000000001
 43
0.00000001
 40
0.0
 40
0.0
 40
0.0
 40
0.0
 40
0.5
 40
0.5
 40
1.0
 40
1.0
 40
1.0
 40
1.0
 10
227.119023713246
 20
124.863157836008
 30
0.0
 10
227.1760986532061
 20
124.863157836008
 30
0.0
 10
227.2314906812406
 20
124.8719285135568
 30
0.0
 10
227.3277395857211
 20
124.9014368021715
 30
0.0
 10
227.3686669786879
 20
124.9218800044252
 30
0.0
 10
227.4018664257206
 20
124.945156023972
 30
0.0
  0
LINE
  5
128
330
1F
100
AcDbEntity
  8
0
  6
Continuous
 62
     7
370
    15
100
AcDbLine
 10
227.1190240448
 20
124.8631586313
 30
0.0
 11
227.1190240448
 21
185.955794248
 31
0.0
  0
SPLINE
  5
129
330
1F
100
AcDbEntity
  8
0
  6
Continuous
 62
     7
370
    15
100
AcDbSpline
210
0.0
220
0.0
230
1.0
 70
     8
 71
     3
 72
     8
 73
     4
 74
     0
 42
0.000000001
 43
0.00000001
 40
0.0
 40
0.0
 40
0.0
 40
0.0
 40
1.0
 40
1.0
 40
1.0
 40
1.0
 10
213.5503945631444
 20
185.9557945175098
 30
0.0
 10
213.4418155709615
 20
185.9557945175098
 30
0.0
 10
213.3387662504881
 20
185.9185604566853
 30
0.0
 10
213.2675518506699
 20
185.8607590332275
 30
0.0
  0
LINE
  5
12A
330
1F
100
AcDbEntity
  8
0
  6
Continuous
 62
     7
370
    15
100
AcDbLine
 10
213.5503945341
 20
185.955794248
 30
0.0
 11
213.5503945341
 21
124.8631586313
 31
0.0
  0
SPLINE
  5
12B
330
1F
100
AcDbEntity
  8
0
  6
Continuous
 62
     7
370
    15
100
AcDbSpline
210
0.0
220
0.0
230
1.0
 70
     8
 71
     3
 72
    10
 73
     6
 74
     0
 42
0.000000001
 43
0.00000001
 40
0.0
 40
0.0
 40
0.0
 40
0.0
 40
0.5
 40
0.5
 40
1.0
 40
1.0
 40
1.0
 40
1.0
 10
213.2675518506699
 20
124.945156023972
 30
0.0
 10
213.3007364812827
 20
124.9218903921668
 30
0.0
 10
213.3414630297235
 20
124.9015242853973
 30
0.0
 10
213.4377548848147
 20
124.8719601843951
 30
0.0
 10
213.4933209541013
 20
124.863157836008
 30
0.0
 10
213.5503945631444
 20
124.863157836008
 30
0.0
  0
LINE
  5
12C
330
1F
100
AcDbEntity
  8
0
  6
Continuous
 62
     7
370
    15
100
AcDbLine
 10
213.2675518682
 20
124.9451559961
 30
0.0
 11
213.2675518682
 21
185.8607583672
 31
0.0
  0
LINE
  5
12D
330
1F
100
AcDbEntity
  8
0
  6
Continuous
 62
     7
370
    15
100
AcDbLine
 10
223.8065462028
 20
123.6428243101
 30
0.0
 11
223.8065462028
 21
187.1428263366
 31
0.0
  0
LINE
  5
12E
330
1F
100
AcDbEntity
  8
0
  6
Continuous
 62
     7
370
    15
100
AcDbLine
 10
222.1847094064
 20
184.3337227583
 30
0.0
 11
222.1847094064
 21
126.4519278884
 31
0.0
  0
LINE
  5
12F
330
1F
100
AcDbEntity
  8
0
  6
Continuous
 62
     7
370
    15
100
AcDbLine
 10
218.3847093423
 20
155.3928253234
 30
0.0
 11
218.3847093423
 21
184.3337227583
 31
0.0
  0
LINE
  5
130
330
1F
100
AcDbEntity
  8
0
  6
Continuous
 62
     7
370
    15
100
AcDbLine
 10
218.3847093423
 20
126.4519278884
 30
0.0
 11
218.3847093423
 21
155.3928253234
 31
0.0
  0
LINE
  5
131
330
1F
100
AcDbEntity
  8
0
  6
Continuous
 62
     7
370
    15
100
AcDbLine
 10
216.7628725459
 20
187.1428263366
 30
0.0
 11
216.7628725459
 21
123.6428243101
 31
0.0
  0
LINE
  5
132
330
1F
100
AcDbEntity
  8
0
  6
Continuous
 62
     7
370
    15
100
AcDbLine
 10
228.1675517028
 20
185.1918005377
 30
0.0
 11
228.1675517028
 21
125.593850109
 31
0.0
  0
LINE
  5
133
330
1F
100
AcDbEntity
  8
0
  6
Continuous
 62
     7
370
    15
100
AcDbLine
 10
212.5018664104
 20
125.7574499577
 30
0.0
 11
212.5018664104
 21
185.028200689
 31
0.0
  0
SPLINE
  5
134
330
1F
100
AcDbEntity
  8
0
  6
Continuous
 62
     7
370
    15
100
AcDbSpline
210
0.0
220
0.0
230
1.0
 70
     8
 71
     3
 72
    10
 73
     6
 74
     0
 42
0.000000001
 43
0.00000001
 40
0.0
 40
0.0
 40
0.0
 40
0.0
 40
0.5
 40
0.5
 40
1.0
 40
1.0
 40
1.0
 40
1.0
 10
212.5018664257206
 20
125.7574507565602
 30
0.0
 10
212.4692118007914
 20
125.8009750144297
 30
0.0
 10
212.4412306863772
 20
125.8495371167133
 30
0.0
 10
212.3985844804419
 20
125.9610154243331
 30
0.0
 10
212.3847091381952
 20
126.022986713299
 30
0.0
 10
212.3847091381952
 20
126.0868908044664
 30
0.0
  0
SPLINE
  5
135
330
1F
100
AcDbEntity
  8
0
  6
Continuous
 62
     7
370
    15
100
AcDbSpline
210
0.0
220
0.0
230
1.0
 70
    24
 71
     3
 72
    31
 73
    27
 74
     0
 42
0.000000001
 43
0.00000001
 40
0.0
 40
0.0
 40
0.0
 40
0.0
 40
0.0132844560938056
 40
0.0265558208792211
 40
0.0398179176701734
 40
0.0530745777994556
 40
0.0663296373142116
 40
0.0795869336510156
 40
0.0928503023049308
 40
0.106123573506981
 40
0.1194105689243955
 40
0.18144801304061
 40
0.2434985490104099
 40
0.3072096944263704
 40
0.3709342849308375
 40
0.5000015820302129
 40
0.6290688791295884
 40
0.6927800250008046
 40
0.7565046159608975
 40
0.8185420607574302
 40
0.8805925974112735
 40
0.9044943877008197
 40
0.9283636577015203
 40
0.9522227648280808
 40
0.976094095050264
 40
1.0
 40
1.0
 40
1.0
 40
1.0
 10
212.3847091381952
 20
126.0868908044664
 30
0.0
 10
212.3847091381952
 20
126.1373011863212
 30
0.0
 10
212.3847091381952
 20
126.2380722725847
 30
0.0
 10
212.3847091381952
 20
126.3998263381949
 30
0.0
 10
212.3847091381952
 20
126.5692266119919
 30
0.0
 10
212.3847091381952
 20
126.7470389937463
 30
0.0
 10
212.3847091381952
 20
126.9330583076479
 30
0.0
 10
212.3847091381952
 20
127.1273397921158
 30
0.0
 10
212.3847091381952
 20
127.3298672886642
 30
0.0
 10
212.3847091381952
 20
127.5406498693099
 30
0.0
 10
212.3847091381952
 20
128.0274055713872
 30
0.0
 10
212.3847091381952
 20
128.8603108194366
 30
0.0
 10
212.3847091381952
 20
130.1683297839829
 30
0.0
 10
212.3847091381952
 20
131.6518067382166
 30
0.0
 10
212.3847091381952
 20
133.8720856328688
 30
0.0
 10
212.3847091381952
 20
137.0363371072663
 30
0.0
 10
212.3847091381952
 20
140.6180283318334
 30
0.0
 10
212.3847091381952
 20
143.6575791137211
 30
0.0
 10
212.3847091381952
 20
145.9810463555808
 30
0.0
 10
212.3847091381952
 20
148.344161554948
 30
0.0
 10
212.3847091381952
 20
150.2420707760602
 30
0.0
 10
212.3847091381952
 20
151.6618648298048
 30
0.0
 10
212.3847091381952
 20
152.5914598155245
 30
0.0
 10
212.3847091381952
 20
153.5232681935374
 30
0.0
 10
212.3847091381952
 20
154.4573066135814
 30
0.0
 10
212.3847091381952
 20
155.0808353447301
 30
0.0
 10
212.3847091381952
 20
155.3928253233597
 30
0.0
  0
SPLINE
  5
136
330
1F
100
AcDbEntity
  8
0
  6
Continuous
 62
     7
370
    15
100
AcDbSpline
210
0.0
220
0.0
230
1.0
 70
    24
 71
     3
 72
    31
 73
    27
 74
     0
 42
0.000000001
 43
0.00000001
 40
0.0
 40
0.0
 40
0.0
 40
0.0
 40
0.0132844560942216
 40
0.0265558208799491
 40
0.0398179176711092
 40
0.0530745778004954
 40
0.0663296373152515
 40
0.0795869336519523
 40
0.0928503023056608
 40
0.1061235735074018
 40
0.1194105689244049
 40
0.1814480130405382
 40
0.243498549010407
 40
0.3072096944243587
 40
0.3709342849308368
 40
0.5000015820302136
 40
0.6290688791295904
 40
0.6927800250010282
 40
0.7565046159608936
 40
0.8185420607578854
 40
0.8805925974112784
 40
0.9044943877013564
 40
0.928363657702324
 40
0.9522227648288848
 40
0.9760940950508002
 40
1.0
 40
1.0
 40
1.0
 40
1.0
 10
212.3847091381952
 20
155.3928253233597
 30
0.0
 10
212.3847091381952
 20
155.5661927586612
 30
0.0
 10
212.3847091381952
 20
155.9127567824821
 30
0.0
 10
212.3847091381952
 20
156.4322473358265
 30
0.0
 10
212.3847091381952
 20
156.9510761907115
 30
0.0
 10
212.3847091381952
 20
157.4692432695842
 30
0.0
 10
212.3847091381952
 20
157.9867483007829
 30
0.0
 10
212.3847091381952
 20
158.5035916668877
 30
0.0
 10
212.3847091381952
 20
159.0197713286141
 30
0.0
 10
212.3847091381952
 20
159.5352942942274
 30
0.0
 10
212.3847091381952
 20
160.6795018062774
 30
0.0
 10
212.3847091381952
 20
162.4413372875932
 30
0.0
 10
212.3847091381952
 20
164.8042706224124
 30
0.0
 10
212.3847091381952
 20
167.1279092352357
 30
0.0
 10
212.3847091381952
 20
170.1674725476671
 30
0.0
 10
212.3847091381952
 20
173.7493137742178
 30
0.0
 10
212.3847091381952
 20
176.9134322834007
 30
0.0
 10
212.3847091381952
 20
179.1337336990232
 30
0.0
 10
212.3847091381952
 20
180.617121846612
 30
0.0
 10
212.3847091381952
 20
181.9252644989315
 30
0.0
 10
212.3847091381952
 20
182.8225056665451
 30
0.0
 10
212.3847091381952
 20
183.4171192880353
 30
0.0
 10
212.3847091381952
 20
183.778918931808
 30
0.0
 10
212.3847091381952
 20
184.1134639548893
 30
0.0
 10
212.3847091381952
 20
184.4232403373382
 30
0.0
 10
212.3847091381952
 20
184.6068757104322
 30
0.0
 10
212.3847091381952
 20
184.698759842253
 30
0.0
  0
SPLINE
  5
137
330
1F
100
AcDbEntity
  8
0
  6
Continuous
 62
     7
370
    15
100
AcDbSpline
210
0.0
220
0.0
230
1.0
 70
     8
 71
     3
 72
    10
 73
     6
 74
     0
 42
0.000000001
 43
0.00000001
 40
0.0
 40
0.0
 40
0.0
 40
0.0
 40
0.5
 40
0.5
 40
1.0
 40
1.0
 40
1.0
 40
1.0
 10
212.5018664257206
 20
185.0281998901591
 30
0.0
 10
212.4692118007914
 20
184.9846756322897
 30
0.0
 10
212.4412306863773
 20
184.936113530006
 30
0.0
 10
212.3985844804419
 20
184.8246352223862
 30
0.0
 10
212.3847091381952
 20
184.7626639334204
 30
0.0
 10
212.3847091381952
 20
184.698759842253
 30
0.0
  0
SPLINE
  5
138
330
1F
100
AcDbEntity
  8
0
  6
Continuous
 62
     7
370
    15
100
AcDbSpline
210
0.0
220
0.0
230
1.0
 70
     8
 71
     3
 72
     8
 73
     4
 74
     0
 42
0.000000001
 43
0.00000001
 40
0.0
 40
0.0
 40
0.0
 40
0.0
 40
1.0
 40
1.0
 40
1.0
 40
1.0
 10
228.2847091381952
 20
184.8987196162914
 30
0.0
 10
228.2847091381952
 20
185.007470938215
 30
0.0
 10
228.2431186154747
 20
185.1135245689202
 30
0.0
 10
228.1675518506698
 20
185.1918001213763
 30
0.0
  0
SPLINE
  5
139
330
1F
100
AcDbEntity
  8
0
  6
Continuous
 62
     7
370
    15
100
AcDbSpline
210
0.0
220
0.0
230
1.0
 70
    24
 71
     3
 72
    31
 73
    27
 74
     0
 42
0.000000001
 43
0.00000001
 40
0.0
 40
0.0
 40
0.0
 40
0.0
 40
0.0132615204103927
 40
0.0265095378007134
 40
0.0397479976749376
 40
0.0529808540860408
 40
0.066212066110664
 40
0.0794455943013024
 40
0.0926853971318789
 40
0.1059354274526324
 40
0.1191996289701553
 40
0.181217270506452
 40
0.2432482034156576
 40
0.30700546116051
 40
0.3707758455973517
 40
0.5000016328884971
 40
0.6292274201796425
 40
0.6929846784062705
 40
0.7567550633220967
 40
0.8187727037436856
 40
0.8808036357637848
 40
0.904663820894604
 40
0.928490467169364
 40
0.9523066488136858
 40
0.9761354704529388
 40
1.0
 40
1.0
 40
1.0
 40
1.0
 10
228.2847091381952
 20
184.8987196162914
 30
0.0
 10
228.2847091381952
 20
184.8514770086314
 30
0.0
 10
228.2847091381952
 20
184.7570398962331
 30
0.0
 10
228.2847091381952
 20
184.6043467547203
 30
0.0
 10
228.2847091381952
 20
184.4436812013347
 30
0.0
 10
228.2847091381952
 20
184.2742461557936
 30
0.0
 10
228.2847091381952
 20
184.0962551378186
 30
0.0
 10
228.2847091381952
 20
183.9096506648714
 30
0.0
 10
228.2847091381952
 20
183.7144495420551
 30
0.0
 10
228.2847091381952
 20
183.510642366888
 30
0.0
 10
228.2847091381952
 20
183.0381524460628
 30
0.0
 10
228.2847091381952
 20
182.2235323286015
 30
0.0
 10
228.2847091381952
 20
180.9316505377093
 30
0.0
 10
228.2847091381952
 20
179.4556823533958
 30
0.0
 10
228.2847091381952
 20
177.2330289025364
 30
0.0
 10
228.2847091381952
 20
174.0446736170734
 30
0.0
 10
228.2847091381952
 20
170.4151716144064
 30
0.0
 10
228.2847091381952
 20
167.3273995838335
 30
0.0
 10
228.2847091381952
 20
164.9652580797849
 30
0.0
 10
228.2847091381952
 20
162.5613092670258
 30
0.0
 10
228.2847091381952
 20
160.6303750401389
 30
0.0
 10
228.2847091381952
 20
159.186045118757
 30
0.0
 10
228.2847091381952
 20
158.2410476595979
 30
0.0
 10
228.2847091381952
 20
157.2937225222954
 30
0.0
 10
228.2847091381952
 20
156.3440522218692
 30
0.0
 10
228.2847091381952
 20
155.7100591792647
 30
0.0
 10
228.2847091381952
 20
155.3928253233597
 30
0.0
  0
SPLINE
  5
13A
330
1F
100
AcDbEntity
  8
0
  6
Continuous
 62
     7
370
    15
100
AcDbSpline
210
0.0
220
0.0
230
1.0
 70
    24
 71
     3
 72
    31
 73
    27
 74
     0
 42
0.000000001
 43
0.00000001
 40
0.0
 40
0.0
 40
0.0
 40
0.0
 40
0.013261520409978
 40
0.0265095377999877
 40
0.0397479976740047
 40
0.0529808540850043
 40
0.0662120661096275
 40
0.0794455943003691
 40
0.0926853971311515
 40
0.1059354274522133
 40
0.1191996289701465
 40
0.1812172705069356
 40
0.2432482034156659
 40
0.3070054611627953
 40
0.370775845597355
 40
0.5000016328884999
 40
0.6292274201796453
 40
0.6929846784064232
 40
0.7567550633220962
 40
0.8187727037441253
 40
0.8808036357637891
 40
0.9046638208950059
 40
0.9284904671699657
 40
0.9523066488142876
 40
0.9761354704533403
 40
1.0
 40
1.0
 40
1.0
 40
1.0
 10
228.2847091381952
 20
155.3928253233597
 30
0.0
 10
228.2847091381952
 20
155.2165433666559
 30
0.0
 10
228.2847091381952
 20
154.8641589453961
 30
0.0
 10
228.2847091381952
 20
154.3359558157813
 30
0.0
 10
228.2847091381952
 20
153.8084479274033
 30
0.0
 10
228.2847091381952
 20
153.2816353658163
 30
0.0
 10
228.2847091381952
 20
152.7555184215854
 30
0.0
 10
228.2847091381952
 20
152.2300966964181
 30
0.0
 10
228.2847091381952
 20
151.7053723412793
 30
0.0
 10
228.2847091381952
 20
151.1813379831162
 30
0.0
 10
228.2847091381952
 20
150.0171622901536
 30
0.0
 10
228.2847091381952
 20
148.224497283013
 30
0.0
 10
228.2847091381952
 20
145.8207306101476
 30
0.0
 10
228.2847091381952
 20
143.458411926665
 30
0.0
 10
228.2847091381952
 20
140.3706270787562
 30
0.0
 10
228.2847091381952
 20
136.7409768015978
 30
0.0
 10
228.2847091381952
 20
133.5527521208463
 30
0.0
 10
228.2847091381952
 20
131.3300757146807
 30
0.0
 10
228.2847091381952
 20
129.8541962621253
 30
0.0
 10
228.2847091381952
 20
128.5621954965541
 30
0.0
 10
228.2847091381952
 20
127.684733934071
 30
0.0
 10
228.2847091381952
 20
127.1083109585816
 30
0.0
 10
228.2847091381952
 20
126.7598200752349
 30
0.0
 10
228.2847091381952
 20
126.4397433383773
 30
0.0
 10
228.2847091381952
 20
126.1454939121722
 30
0.0
 10
228.2847091381952
 20
125.9731616659345
 30
0.0
 10
228.2847091381952
 20
125.8869310304279
 30
0.0
  0
SPLINE
  5
13B
330
1F
100
AcDbEntity
  8
0
  6
Continuous
 62
     7
370
    15
100
AcDbSpline
210
0.0
220
0.0
230
1.0
 70
     8
 71
     3
 72
     8
 73
     4
 74
     0
 42
0.000000001
 43
0.00000001
 40
0.0
 40
0.0
 40
0.0
 40
0.0
 40
1.0
 40
1.0
 40
1.0
 40
1.0
 10
228.1675518506698
 20
125.593850525343
 30
0.0
 10
228.2430946329484
 20
125.6721012355885
 30
0.0
 10
228.2847091381952
 20
125.7782204738875
 30
0.0
 10
228.2847091381952
 20
125.8869310304279
 30
0.0
  0
ARC
  5
13C
330
1F
100
AcDbEntity
  8
0
  6
Continuous
 62
     7
370
    15
100
AcDbCircle
 10
231.2572504536
 20
177.9958062813
 30
0.0
 40
2.972673784838801
100
AcDbArc
 50
180.539311523
 51
270.529244936
  0
LINE
  5
13D
330
1F
100
AcDbEntity
  8
0
  6
Continuous
 62
     7
370
    15
100
AcDbLine
 10
209.1847091382
 20
155.3928253234
 30
0.0
 11
209.1847091382
 21
133.1678253591
 31
0.0
  0
LINE
  5
13E
330
1F
100
AcDbEntity
  8
0
  6
Continuous
 62
     7
370
    15
100
AcDbLine
 10
209.1847091382
 20
177.6178252876
 30
0.0
 11
209.1847091382
 21
155.3928253234
 31
0.0
  0
LINE
  5
13F
330
1F
100
AcDbEntity
  8
0
  6
Continuous
 62
     7
370
    15
100
AcDbLine
 10
209.6672232023
 20
155.3928253234
 30
0.0
 11
209.6672232023
 21
133.3928254426
 31
0.0
  0
LINE
  5
140
330
1F
100
AcDbEntity
  8
0
  6
Continuous
 62
     7
370
    15
100
AcDbLine
 10
209.6672232023
 20
177.3928252042
 30
0.0
 11
209.6672232023
 21
155.3928253234
 31
0.0
  0
LINE
  5
141
330
1F
100
AcDbEntity
  8
0
  6
Continuous
 62
     7
370
    15
100
AcDbLine
 10
365.7206028169
 20
155.3928253234
 30
0.0
 11
365.7206028169
 21
176.3928250402
 31
0.0
  0
LINE
  5
142
330
1F
100
AcDbEntity
  8
0
  6
Continuous
 62
     7
370
    15
100
AcDbLine
 10
365.7206028169
 20
134.3928256065
 30
0.0
 11
365.7206028169
 21
155.3928253234
 31
0.0
  0
LINE
  5
143
330
1F
100
AcDbEntity
  8
0
  6
Continuous
 62
     7
370
    15
100
AcDbLine
 10
369.1847055619
 20
155.3928253234
 30
0.0
 11
369.1847055619
 21
170.3928249881
 31
0.0
  0
LINE
  5
144
330
1F
100
AcDbEntity
  8
0
  6
Continuous
 62
     7
370
    15
100
AcDbLine
 10
369.1847055619
 20
140.3928256586
 30
0.0
 11
369.1847055619
 21
155.3928253234
 31
0.0
  0
LINE
  5
145
330
1F
100
AcDbEntity
  8
0
  6
Continuous
 62
     7
370
    15
100
AcDbLine
 10
347.1847056811
 20
134.3928256065
 30
0.0
 11
347.1847056811
 21
176.3928250402
 31
0.0
  0
LINE
  5
146
330
1F
100
AcDbEntity
  8
0
  6
Continuous
 62
     7
370
    15
100
AcDbLine
 10
346.1847036546
 20
175.3928248763
 30
0.0
 11
346.1847036546
 21
135.3928257704
 31
0.0
  0
LINE
  5
147
330
1F
100
AcDbEntity
  8
0
  6
Continuous
 62
     7
370
    15
100
AcDbLine
 10
331.3347055977
 20
155.3928253234
 30
0.0
 11
331.3347055977
 21
175.3928248763
 31
0.0
  0
LINE
  5
148
330
1F
100
AcDbEntity
  8
0
  6
Continuous
 62
     7
370
    15
100
AcDbLine
 10
331.3347055977
 20
135.3928257704
 30
0.0
 11
331.3347055977
 21
155.3928253234
 31
0.0
  0
LINE
  5
149
330
1F
100
AcDbEntity
  8
0
  6
Continuous
 62
     7
370
    15
100
AcDbLine
 10
335.5847030347
 20
155.3928253234
 30
0.0
 11
335.5847030347
 21
171.1428255767
 31
0.0
  0
LINE
  5
14A
330
1F
100
AcDbEntity
  8
0
  6
Continuous
 62
     7
370
    15
100
AcDbLine
 10
335.5847030347
 20
139.64282507
 30
0.0
 11
335.5847030347
 21
155.3928253234
 31
0.0
  0
LINE
  5
14B
330
1F
100
AcDbEntity
  8
0
  6
Continuous
 62
     7
370
    15
100
AcDbLine
 10
340.1930957501
 20
138.8928254128
 30
0.0
 11
340.1930957501
 21
171.892825234
 31
0.0
  0
LINE
  5
14C
330
1F
100
AcDbEntity
  8
0
  6
Continuous
 62
     7
370
    15
100
AcDbLine
 10
338.5847091144
 20
155.3928253234
 30
0.0
 11
338.5847091144
 21
171.1428255767
 31
0.0
  0
LINE
  5
14D
330
1F
100
AcDbEntity
  8
0
  6
Continuous
 62
     7
370
    15
100
AcDbLine
 10
338.5847091144
 20
139.64282507
 30
0.0
 11
338.5847091144
 21
155.3928253234
 31
0.0
  0
SPLINE
  5
14E
330
1F
100
AcDbEntity
  8
0
  6
Continuous
 62
     7
370
    15
100
AcDbSpline
210
0.0
220
0.0
230
1.0
 70
    24
 71
     3
 72
    10
 73
     6
 74
     0
 42
0.000000001
 43
0.00000001
 40
0.0
 40
0.0
 40
0.0
 40
0.0
 40
0.4999999999999997
 40
0.4999999999999997
 40
0.9999999999999999
 40
0.9999999999999999
 40
0.9999999999999999
 40
0.9999999999999999
 10
140.7847091381952
 20
166.7779879129786
 30
0.0
 10
140.7847091381952
 20
166.7779879129785
 30
0.0
 10
140.7847091381952
 20
165.5784227295358
 30
0.0
 10
140.7847091381952
 20
161.3082792612452
 30
0.0
 10
140.7847091381952
 20
158.4122727264273
 30
0.0
 10
140.7847091381952
 20
155.3928253233597
 30
0.0
  0
SPLINE
  5
14F
330
1F
100
AcDbEntity
  8
0
  6
Continuous
 62
     7
370
    15
100
AcDbSpline
210
0.0
220
0.0
230
1.0
 70
    24
 71
     3
 72
    10
 73
     6
 74
     0
 42
0.000000001
 43
0.00000001
 40
0.0
 40
0.0
 40
0.0
 40
0.0
 40
0.4999999999999999
 40
0.4999999999999999
 40
0.9999999999999999
 40
0.9999999999999999
 40
0.9999999999999999
 40
0.9999999999999999
 10
140.7847091381952
 20
155.3928253233597
 30
0.0
 10
140.7847091381952
 20
152.373377920292
 30
0.0
 10
140.7847091381952
 20
149.4773713854738
 30
0.0
 10
140.7847091381952
 20
145.2072279171834
 30
0.0
 10
140.7847091381952
 20
144.0076627337407
 30
0.0
 10
140.7847091381952
 20
144.0076627337407
 30
0.0
  0
LINE
  5
150
330
1F
100
AcDbEntity
  8
0
  6
Continuous
 62
     7
370
    15
100
AcDbLine
 10
212.3847090574
 20
184.6987602294
 30
0.0
 11
212.3847090574
 21
185.9771401614
 31
0.0
  0
LINE
  5
151
330
1F
100
AcDbEntity
  8
0
  6
Continuous
 62
     7
370
    15
100
AcDbLine
 10
212.3847090574
 20
124.8085104853
 30
0.0
 11
212.3847090574
 21
126.0868904174
 31
0.0
  0
LINE
  5
152
330
1F
100
AcDbEntity
  8
0
  6
Continuous
 62
     7
370
    15
100
AcDbLine
 10
228.2847083574
 20
124.8085104853
 30
0.0
 11
228.2847083574
 21
125.8869317353
 31
0.0
  0
LINE
  5
153
330
1F
100
AcDbEntity
  8
0
  6
Continuous
 62
     7
370
    15
100
AcDbLine
 10
228.2847083574
 20
184.8987189114
 30
0.0
 11
228.2847083574
 21
185.9771401614
 31
0.0
  0
LINE
  5
154
330
1F
100
AcDbEntity
  8
0
  6
Continuous
 62
     8
370
    15
100
AcDbLine
 10
227.1190240448
 20
123.6428243101
 30
0.0
 11
227.1190240448
 21
124.8631586313
 31
0.0
  0
LINE
  5
155
330
1F
100
AcDbEntity
  8
0
  6
Continuous
 62
     8
370
    15
100
AcDbLine
 10
227.1190240448
 20
185.955794248
 30
0.0
 11
227.1190240448
 21
187.1428263366
 31
0.0
  0
LINE
  5
156
330
1F
100
AcDbEntity
  8
0
  6
Continuous
 62
     8
370
    15
100
AcDbLine
 10
213.5503945341
 20
123.6428243101
 30
0.0
 11
213.5503945341
 21
124.8631586313
 31
0.0
  0
LINE
  5
157
330
1F
100
AcDbEntity
  8
0
  6
Continuous
 62
     8
370
    15
100
AcDbLine
 10
213.5503945341
 20
185.955794248
 30
0.0
 11
213.5503945341
 21
187.1428263366
 31
0.0
  0
LINE
  5
158
330
1F
100
AcDbEntity
  8
0
  6
Continuous
 62
     8
370
    15
100
AcDbLine
 10
228.1675517028
 20
185.1918005377
 30
0.0
 11
228.1675517028
 21
186.2599828273
 31
0.0
  0
LINE
  5
159
330
1F
100
AcDbEntity
  8
0
  6
Continuous
 62
     8
370
    15
100
AcDbLine
 10
228.1675517028
 20
124.5256678194
 30
0.0
 11
228.1675517028
 21
125.593850109
 31
0.0
  0
LINE
  5
15A
330
1F
100
AcDbEntity
  8
0
  6
Continuous
 62
     8
370
    15
100
AcDbLine
 10
227.4018667107
 20
123.7599809647
 30
0.0
 11
227.4018667107
 21
124.9451559961
 31
0.0
  0
LINE
  5
15B
330
1F
100
AcDbEntity
  8
0
  6
Continuous
 62
     8
370
    15
100
AcDbLine
 10
227.4018667107
 20
185.8607583672
 30
0.0
 11
227.4018667107
 21
187.025669682
 31
0.0
  0
LINE
  5
15C
330
1F
100
AcDbEntity
  8
0
  6
Continuous
 62
     8
370
    15
100
AcDbLine
 10
212.5018664104
 20
124.5256678194
 30
0.0
 11
212.5018664104
 21
125.7574499577
 31
0.0
  0
LINE
  5
15D
330
1F
100
AcDbEntity
  8
0
  6
Continuous
 62
     8
370
    15
100
AcDbLine
 10
212.5018664104
 20
185.028200689
 30
0.0
 11
212.5018664104
 21
186.2599828273
 31
0.0
  0
LINE
  5
15E
330
1F
100
AcDbEntity
  8
0
  6
Continuous
 62
     8
370
    15
100
AcDbLine
 10
213.2675518682
 20
123.7599809647
 30
0.0
 11
213.2675518682
 21
124.9451559961
 31
0.0
  0
LINE
  5
15F
330
1F
100
AcDbEntity
  8
0
  6
Continuous
 62
     8
370
    15
100
AcDbLine
 10
213.2675518682
 20
185.8607583672
 30
0.0
 11
213.2675518682
 21
187.025669682
 31
0.0
  0
LINE
  5
160
330
1F
100
AcDbEntity
  8
0
  6
Continuous
 62
     8
370
    15
100
AcDbLine
 10
231.2847088491
 20
175.0232593149
 30
0.0
 11
231.2847088491
 21
135.3928257704
 31
0.0
  0
LINE
  5
161
330
1F
100
AcDbEntity
  8
0
  6
Continuous
 62
     8
370
    15
100
AcDbLine
 10
211.8847092082
 20
155.3928253234
 30
0.0
 11
211.8847092082
 21
177.3928252042
 31
0.0
  0
LINE
  5
162
330
1F
100
AcDbEntity
  8
0
  6
Continuous
 62
     8
370
    15
100
AcDbLine
 10
211.8847092082
 20
133.3928254426
 30
0.0
 11
211.8847092082
 21
155.3928253234
 31
0.0
  0
LINE
  5
163
330
1F
100
AcDbEntity
  8
0
  6
Continuous
 62
     8
370
    15
100
AcDbLine
 10
141.6403978532
 20
167.7675207138
 30
0.0
 11
141.6403978532
 21
143.0181299329
 31
0.0
  0
SPLINE
  5
164
330
1F
100
AcDbEntity
  8
0
  6
Continuous
 62
     8
370
    15
100
AcDbSpline
210
0.0
220
0.0
230
1.0
 70
     8
 71
     3
 72
    10
 73
     6
 74
     0
 42
0.000000001
 43
0.00000001
 40
0.0
 40
0.0
 40
0.0
 40
0.0
 40
0.1786753202597943
 40
0.6569553578717789
 40
1.0
 40
1.0
 40
1.0
 40
1.0
 10
231.256579182069
 20
175.3808834582731
 30
0.0
 10
231.2562002843825
 20
175.3829313575656
 30
0.0
 10
231.2548071492541
 20
175.3904610959233
 30
0.0
 10
231.2757326489145
 20
175.277758072861
 30
0.0
 10
231.2820642952527
 20
175.0982393351704
 30
0.0
 10
231.2847088491127
 20
175.0232593149111
 30
0.0
  0
DIMENSION
  5
165
330
1F
100
AcDbEntity
  8
DIM
100
AcDbDimension
  2
_D
 10
387.5087059272
 20
134.3928253234
 30
0.0
 11
387.5087059272
 21
155.3928253234
 31
0.0
 70
   160
  1
%%c<>
 71
     2
 42
-1.0
  3
SLDDIMSTYLE0
100
AcDbAlignedDimension
 13
365.7206075231
 23
176.3928253234
 33
0.0
 14
365.7206075231
 24
134.3928253234
 34
0.0
 50
90.0
100
AcDbRotatedDimension
  0
DIMENSION
  5
171
330
1F
100
AcDbEntity
  8
DIM
100
AcDbDimension
  2
_D_1
 10
140.7847091382
 20
100.7856824662
 30
0.0
 11
254.9847091382
 21
100.7856824662
 31
0.0
 70
   160
  1
<>
 71
     2
 42
-1.0
  3
SLDDIMSTYLE1
100
AcDbAlignedDimension
 13
369.1847091382
 23
140.3928253234
 33
0.0
 14
140.7847091382
 24
144.0076627337
 34
0.0
100
AcDbRotatedDimension
  0
DIMENSION
  5
17C
330
1F
100
AcDbEntity
  8
DIM
100
AcDbDimension
  2
_D_2
 10
369.1847091382
 20
110.5014073616
 30
0.0
 11
289.1847091382
 21
110.5014073616
 31
0.0
 70
   160
  1
<>
 71
     2
 42
-1.0
  3
SLDDIMSTYLE0
100
AcDbAlignedDimension
 13
209.1847091382
 23
133.1678253234
 33
0.0
 14
369.1847091382
 24
140.3928253234
 34
0.0
100
AcDbRotatedDimension
  0
DIMENSION
  5
186
330
1F
100
AcDbEntity
  8
DIM
100
AcDbDimension
  2
_D_3
 10
137.4101402085
 20
123.6428253234
 30
0.0
 11
137.4101402085
 21
155.3928253234
 31
0.0
 70
   160
  1
%%c<>
 71
     2
 42
-1.0
  3
SLDDIMSTYLE1
100
AcDbAlignedDimension
 13
213.5503945631
 23
187.1428253234
 33
0.0
 14
213.5503945631
 24
123.6428253234
 34
0.0
 50
90.0
100
AcDbRotatedDimension
  0
DIMENSION
  5
191
330
1F
100
AcDbEntity
  8
DIM
100
AcDbDimension
  2
_D_4
 10
380.0503822281
 20
135.3928253234
 30
0.0
 11
380.0503822281
 21
155.3928253234
 31
0.0
 70
   160
  1
%%c<>
 71
     2
 42
-1.0
  3
SLDDIMSTYLE0
100
AcDbAlignedDimension
 13
331.3347091382
 23
175.3928253234
 33
0.0
 14
331.3347091382
 24
135.3928253234
 34
0.0
 50
90.0
100
AcDbRotatedDimension
  0
LINE
  5
19C
330
1F
100
AcDbEntity
  8
DIM
  6
CENTERX2
 48
1.4
370
     0
100
AcDbLine
 10
138.0392529225
 20
155.3928253234
 30
0.0
 11
370.9528733067
 21
155.3928253234
 31
0.0
  0
ENDSEC
  0
SECTION
  2
OBJECTS
  0
DICTIONARY
  5
C
330
0
100
AcDbDictionary
281
     1
  3
ACAD_GROUP
350
D
  3
ACAD_LAYOUT
350
1A
  3
ACAD_MLINESTYLE
350
17
  3
ACAD_PLOTSETTINGS
350
19
  3
ACAD_PLOTSTYLENAME
350
E
  3
ACAD_SCALELIST
350
47
  0
DICTIONARY
  5
D
102
{ACAD_REACTORS
330
C
102
}
330
C
100
AcDbDictionary
281
     1
  0
DICTIONARY
  5
1A
102
{ACAD_REACTORS
330
C
102
}
330
C
100
AcDbDictionary
281
     1
  3
Layout1
350
1E
  3
Layout2
350
26
  3
Model
350
22
  0
DICTIONARY
  5
17
102
{ACAD_REACTORS
330
C
102
}
330
C
100
AcDbDictionary
281
     1
  3
Standard
350
18
  0
DICTIONARY
  5
19
102
{ACAD_REACTORS
330
C
102
}
330
C
100
AcDbDictionary
281
     1
  0
ACDBDICTIONARYWDFLT
  5
E
102
{ACAD_REACTORS
330
C
102
}
330
C
100
AcDbDictionary
281
     1
  3
Normal
350
F
100
AcDbDictionaryWithDefault
340
F
  0
DICTIONARY
  5
47
102
{ACAD_REACTORS
330
C
102
}
330
C
100
AcDbDictionary
281
     1
  3
A0
350
48
  3
A1
350
49
  3
A2
350
4A
  3
A3
350
4B
  3
A4
350
4C
  3
A5
350
4D
  3
A6
350
4E
  3
A7
350
4F
  3
A8
350
50
  3
A9
350
51
  3
B0
350
52
  3
B1
350
53
  3
B2
350
54
  3
B3
350
55
  3
B4
350
56
  3
B5
350
57
  3
B6
350
58
  3
B7
350
59
  3
B8
350
5A
  3
B9
350
5B
  3
C0
350
5C
  3
C1
350
5D
  3
C2
350
5E
  3
C3
350
5F
  3
C4
350
60
  3
C5
350
61
  3
C6
350
62
  3
C7
350
63
  3
C8
350
64
  3
C9
350
65
  3
D0
350
66
  3
D1
350
67
  3
D2
350
68
  0
LAYOUT
  5
1E
102
{ACAD_REACTORS
330
1A
102
}
330
1A
100
AcDbPlotSettings
  1

  2
none_device
  4

  6

 40
0.0
 41
0.0
 42
0.0
 43
0.0
 44
0.0
 45
0.0
 46
0.0
 47
0.0
 48
0.0
 49
0.0
140
0.0
141
0.0
142
1.0
143
1.0
 70
   688
 72
     1
 73
     0
 74
     5
  7

 75
    16
147
1.0
148
0.0
149
0.0
100
AcDbLayout
  1
Layout1
 70
     1
 71
     1
 10
0.0
 20
0.0
 11
420.0
 21
297.0
 12
0.0
 22
0.0
 32
0.0
 14
1.0000000000E+20
 24
1.0000000000E+20
 34
1.0000000000E+20
 15
-1.0000000000E+20
 25
-1.0000000000E+20
 35
-1.0000000000E+20
146
0.0
 13
0.0
 23
0.0
 33
0.0
 16
1.0
 26
0.0
 36
0.0
 17
0.0
 27
1.0
 37
0.0
 76
     0
330
1B
  0
LAYOUT
  5
26
102
{ACAD_REACTORS
330
1A
102
}
330
1A
100
AcDbPlotSettings
  1

  2
none_device
  4

  6

 40
0.0
 41
0.0
 42
0.0
 43
0.0
 44
0.0
 45
0.0
 46
0.0
 47
0.0
 48
0.0
 49
0.0
140
0.0
141
0.0
142
1.0
143
1.0
 70
   688
 72
     1
 73
     0
 74
     5
  7

 75
    16
147
1.0
148
0.0
149
0.0
100
AcDbLayout
  1
Layout2
 70
     1
 71
     2
 10
0.0
 20
0.0
 11
0.0
 21
0.0
 12
0.0
 22
0.0
 32
0.0
 14
0.0
 24
0.0
 34
0.0
 15
0.0
 25
0.0
 35
0.0
146
0.0
 13
0.0
 23
0.0
 33
0.0
 16
1.0
 26
0.0
 36
0.0
 17
0.0
 27
1.0
 37
0.0
 76
     0
330
23
  0
LAYOUT
  5
22
102
{ACAD_REACTORS
330
1A
102
}
330
1A
100
AcDbPlotSettings
  1

  2
none_device
  4
Letter_(8.50_x_11.00_Inches)
  6

 40
6.35
 41
6.35
 42
6.35000508
 43
6.35000508
 44
215.9
 45
279.4
 46
0.0
 47
0.0
 48
0.0
 49
0.0
140
0.0
141
0.0
142
1.0
143
1.0
 70
  1712
 72
     1
 73
     0
 74
     0
  7

 75
     0
147
1.0
148
0.0
149
0.0
100
AcDbLayout
  1
Model
 70
     1
 71
     0
 10
0.0
 20
0.0
 11
424.2857142857
 21
300.0
 12
0.0
 22
0.0
 32
0.0
 14
0.0
 24
0.0
 34
0.0
 15
424.2857142857
 25
300.0
 35
0.0
146
0.0
 13
0.0
 23
0.0
 33
0.0
 16
1.0
 26
0.0
 36
0.0
 17
0.0
 27
1.0
 37
0.0
 76
     0
330
1F
331
29
  0
MLINESTYLE
  5
18
102
{ACAD_REACTORS
330
17
102
}
330
17
100
AcDbMlineStyle
  2
Standard
 70
     0
  3

 62
   256
 51
90.0
 52
90.0
 71
     2
 49
0.5
 62
   256
  6
BYLAYER
 49
-0.5
 62
   256
  6
BYLAYER
  0
ACDBPLACEHOLDER
  5
F
102
{ACAD_REACTORS
330
E
102
}
330
E
  0
SCALE
  5
48
102
{ACAD_REACTORS
330
47
102
}
330
47
100
AcDbScale
 70
     0
300
1:1
140
1.0
141
1.0
290
     1
  0
SCALE
  5
49
102
{ACAD_REACTORS
330
47
102
}
330
47
100
AcDbScale
 70
     0
300
1:2
140
1.0
141
2.0
290
     0
  0
SCALE
  5
4A
102
{ACAD_REACTORS
330
47
102
}
330
47
100
AcDbScale
 70
     0
300
1:4
140
1.0
141
4.0
290
     0
  0
SCALE
  5
4B
102
{ACAD_REACTORS
330
47
102
}
330
47
100
AcDbScale
 70
     0
300
1:5
140
1.0
141
5.0
290
     0
  0
SCALE
  5
4C
102
{ACAD_REACTORS
330
47
102
}
330
47
100
AcDbScale
 70
     0
300
1:8
140
1.0
141
8.0
290
     0
  0
SCALE
  5
4D
102
{ACAD_REACTORS
330
47
102
}
330
47
100
AcDbScale
 70
     0
300
1:10
140
1.0
141
10.0
290
     0
  0
SCALE
  5
4E
102
{ACAD_REACTORS
330
47
102
}
330
47
100
AcDbScale
 70
     0
300
1:16
140
1.0
141
16.0
290
     0
  0
SCALE
  5
4F
102
{ACAD_REACTORS
330
47
102
}
330
47
100
AcDbScale
 70
     0
300
1:20
140
1.0
141
20.0
290
     0
  0
SCALE
  5
50
102
{ACAD_REACTORS
330
47
102
}
330
47
100
AcDbScale
 70
     0
300
1:30
140
1.0
141
30.0
290
     0
  0
SCALE
  5
51
102
{ACAD_REACTORS
330
47
102
}
330
47
100
AcDbScale
 70
     0
300
1:40
140
1.0
141
40.0
290
     0
  0
SCALE
  5
52
102
{ACAD_REACTORS
330
47
102
}
330
47
100
AcDbScale
 70
     0
300
1:50
140
1.0
141
50.0
290
     0
  0
SCALE
  5
53
102
{ACAD_REACTORS
330
47
102
}
330
47
100
AcDbScale
 70
     0
300
1:100
140
1.0
141
100.0
290
     0
  0
SCALE
  5
54
102
{ACAD_REACTORS
330
47
102
}
330
47
100
AcDbScale
 70
     0
300
2:1
140
2.0
141
1.0
290
     0
  0
SCALE
  5
55
102
{ACAD_REACTORS
330
47
102
}
330
47
100
AcDbScale
 70
     0
300
4:1
140
4.0
141
1.0
290
     0
  0
SCALE
  5
56
102
{ACAD_REACTORS
330
47
102
}
330
47
100
AcDbScale
 70
     0
300
8:1
140
8.0
141
1.0
290
     0
  0
SCALE
  5
57
102
{ACAD_REACTORS
330
47
102
}
330
47
100
AcDbScale
 70
     0
300
10:1
140
10.0
141
1.0
290
     0
  0
SCALE
  5
58
102
{ACAD_REACTORS
330
47
102
}
330
47
100
AcDbScale
 70
     0
300
100:1
140
100.0
141
1.0
290
     0
  0
SCALE
  5
59
102
{ACAD_REACTORS
330
47
102
}
330
47
100
AcDbScale
 70
     0
300
1/128" = 1'-0"
140
0.0078125
141
12.0
290
     0
  0
SCALE
  5
5A
102
{ACAD_REACTORS
330
47
102
}
330
47
100
AcDbScale
 70
     0
300
1/64" = 1'-0"
140
0.015625
141
12.0
290
     0
  0
SCALE
  5
5B
102
{ACAD_REACTORS
330
47
102
}
330
47
100
AcDbScale
 70
     0
300
1/32" = 1'-0"
140
0.03125
141
12.0
290
     0
  0
SCALE
  5
5C
102
{ACAD_REACTORS
330
47
102
}
330
47
100
AcDbScale
 70
     0
300
1/16" = 1'-0"
140
0.0625
141
12.0
290
     0
  0
SCALE
  5
5D
102
{ACAD_REACTORS
330
47
102
}
330
47
100
AcDbScale
 70
     0
300
3/32" = 1'-0"
140
0.09375
141
12.0
290
     0
  0
SCALE
  5
5E
102
{ACAD_REACTORS
330
47
102
}
330
47
100
AcDbScale
 70
     0
300
1/8" = 1'-0"
140
0.125
141
12.0
290
     0
  0
SCALE
  5
5F
102
{ACAD_REACTORS
330
47
102
}
330
47
100
AcDbScale
 70
     0
300
3/16" = 1'-0"
140
0.1875
141
12.0
290
     0
  0
SCALE
  5
60
102
{ACAD_REACTORS
330
47
102
}
330
47
100
AcDbScale
 70
     0
300
1/4" = 1'-0"
140
0.25
141
12.0
290
     0
  0
SCALE
  5
61
102
{ACAD_REACTORS
330
47
102
}
330
47
100
AcDbScale
 70
     0
300
3/8" = 1'-0"
140
0.375
141
12.0
290
     0
  0
SCALE
  5
62
102
{ACAD_REACTORS
330
47
102
}
330
47
100
AcDbScale
 70
     0
300
1/2" = 1'-0"
140
0.5
141
12.0
290
     0
  0
SCALE
  5
63
102
{ACAD_REACTORS
330
47
102
}
330
47
100
AcDbScale
 70
     0
300
3/4" = 1'-0"
140
0.75
141
12.0
290
     0
  0
SCALE
  5
64
102
{ACAD_REACTORS
330
47
102
}
330
47
100
AcDbScale
 70
     0
300
1" = 1'-0"
140
1.0
141
12.0
290
     0
  0
SCALE
  5
65
102
{ACAD_REACTORS
330
47
102
}
330
47
100
AcDbScale
 70
     0
300
1-1/2" = 1'-0"
140
1.5
141
12.0
290
     0
  0
SCALE
  5
66
102
{ACAD_REACTORS
330
47
102
}
330
47
100
AcDbScale
 70
     0
300
3" = 1'-0"
140
3.0
141
12.0
290
     0
  0
SCALE
  5
67
102
{ACAD_REACTORS
330
47
102
}
330
47
100
AcDbScale
 70
     0
300
6" = 1'-0"
140
6.0
141
12.0
290
     0
  0
SCALE
  5
68
102
{ACAD_REACTORS
330
47
102
}
330
47
100
AcDbScale
 70
     0
300
1'-0" = 1'-0"
140
12.0
141
12.0
290
     0
  0
ENDSEC
  0
EOF
