  0
SECTION
  2
HEADER
  9
$ACADVER
  1
AC1015
  9
$ACADMAINTVER
 70
     6
  9
$DWGCODEPAGE
  3
ANSI_1252
  9
$INSBASE
 10
0.0
 20
0.0
 30
0.0
  9
$EXTMIN
 10
0.0
 20
0.0
 30
0.0
  9
$EXTMAX
 10
495.0
 20
350.0
 30
0.0
  9
$LIMMIN
 10
0.0
 20
0.0
  9
$LIMMAX
 10
495.0
 20
350.0
  9
$ORTHOMODE
 70
     0
  9
$REGENMODE
 70
     1
  9
$FILLMODE
 70
     1
  9
$QTEXTMODE
 70
     0
  9
$MIRRTEXT
 70
     1
  9
$LTSCALE
 40
1.6666666667
  9
$ATTMODE
 70
     1
  9
$TEXTSIZE
 40
6.4675925926
  9
$TRACEWID
 40
1.0
  9
$TEXTSTYLE
  7
Standard
  9
$CLAYER
  8
0
  9
$CELTYPE
  6
ByLayer
  9
$CECOLOR
 62
   256
  9
$CELTSCALE
 40
1.0
  9
$DISPSILH
 70
     0
  9
$DIMSCALE
 40
1.0
  9
$DIMASZ
 40
5.5033333333
  9
$DIMEXO
 40
1.6666666667
  9
$DIMDLI
 40
3.75
  9
$DIMRND
 40
0.0
  9
$DIMDLE
 40
0.0
  9
$DIMEXE
 40
1.6666666667
  9
$DIMTP
 40
0.0
  9
$DIMTM
 40
0.0
  9
$DIMTXT
 40
6.4675925926
  9
$DIMCEN
 40
2.5
  9
$DIMTSZ
 40
0.0
  9
$DIMTOL
 70
     0
  9
$DIMLIM
 70
     0
  9
$DIMTIH
 70
     1
  9
$DIMTOH
 70
     1
  9
$DIMSE1
 70
     0
  9
$DIMSE2
 70
     0
  9
$DIMTAD
 70
     1
  9
$DIMZIN
 70
     0
  9
$DIMBLK
  1

  9
$DIMASO
 70
     1
  9
$DIMSHO
 70
     1
  9
$DIMPOST
  1

  9
$DIMAPOST
  1

  9
$DIMALT
 70
     0
  9
$DIMALTD
 70
     3
  9
$DIMALTF
 40
0.0393700787
  9
$DIMLFAC
 40
1.0
  9
$DIMTOFL
 70
     1
  9
$DIMTVP
 40
0.0
  9
$DIMTIX
 70
     0
  9
$DIMSOXD
 70
     0
  9
$DIMSAH
 70
     0
  9
$DIMBLK1
  1

  9
$DIMBLK2
  1

  9
$DIMSTYLE
  2
ISO-25
  9
$DIMCLRD
 70
     0
  9
$DIMCLRE
 70
     0
  9
$DIMCLRT
 70
     0
  9
$DIMTFAC
 40
1.0
  9
$DIMGAP
 40
2.54
  9
$DIMJUST
 70
     0
  9
$DIMSD1
 70
     0
  9
$DIMSD2
 70
     0
  9
$DIMTOLJ
 70
     0
  9
$DIMTZIN
 70
     0
  9
$DIMALTZ
 70
     0
  9
$DIMALTTZ
 70
     0
  9
$DIMUPT
 70
     0
  9
$DIMDEC
 70
     2
  9
$DIMTDEC
 70
     2
  9
$DIMALTU
 70
     2
  9
$DIMALTTD
 70
     3
  9
$DIMTXSTY
  7
Standard
  9
$DIMAUNIT
 70
     0
  9
$DIMADEC
 70
     2
  9
$DIMALTRND
 40
0.0
  9
$DIMAZIN
 70
     0
  9
$DIMDSEP
 70
    44
  9
$DIMATFIT
 70
     3
  9
$DIMFRAC
 70
     0
  9
$DIMLDRBLK
  1

  9
$DIMLUNIT
 70
     2
  9
$DIMLWD
 70
    -2
  9
$DIMLWE
 70
    -2
  9
$DIMTMOVE
 70
     0
  9
$LUNITS
 70
     2
  9
$LUPREC
 70
     2
  9
$SKETCHINC
 40
1.0
  9
$FILLETRAD
 40
10.0
  9
$AUNITS
 70
     1
  9
$AUPREC
 70
     2
  9
$MENU
  1
.
  9
$ELEVATION
 40
0.0
  9
$PELEVATION
 40
0.0
  9
$THICKNESS
 40
0.0
  9
$LIMCHECK
 70
     0
  9
$CHAMFERA
 40
0.0
  9
$CHAMFERB
 40
0.0
  9
$CHAMFERC
 40
0.0
  9
$CHAMFERD
 40
0.0
  9
$SKPOLY
 70
     0
  9
$TDCREATE
 40
2458600.667764699
  9
$TDUCREATE
 40
2458600.438598033
  9
$TDUPDATE
 40
2458600.667765625
  9
$TDUUPDATE
 40
2458600.438598958
  9
$TDINDWG
 40
0.0000000116
  9
$TDUSRTIMER
 40
0.0000000116
  9
$USRTIMER
 70
     1
  9
$ANGBASE
 50
0.0
  9
$ANGDIR
 70
     0
  9
$PDMODE
 70
     0
  9
$PDSIZE
 40
-1.0
  9
$PLINEWID
 40
0.0
  9
$SPLFRAME
 70
     0
  9
$SPLINETYPE
 70
     6
  9
$SPLINESEGS
 70
     8
  9
$HANDSEED
  5
156
  9
$SURFTAB1
 70
     6
  9
$SURFTAB2
 70
     6
  9
$SURFTYPE
 70
     6
  9
$SURFU
 70
     6
  9
$SURFV
 70
     6
  9
$UCSBASE
  2

  9
$UCSNAME
  2

  9
$UCSORG
 10
0.0
 20
0.0
 30
0.0
  9
$UCSXDIR
 10
1.0
 20
0.0
 30
0.0
  9
$UCSYDIR
 10
0.0
 20
1.0
 30
0.0
  9
$UCSORTHOREF
  2

  9
$UCSORTHOVIEW
 70
     0
  9
$UCSORGTOP
 10
0.0
 20
0.0
 30
0.0
  9
$UCSORGBOTTOM
 10
0.0
 20
0.0
 30
0.0
  9
$UCSORGLEFT
 10
0.0
 20
0.0
 30
0.0
  9
$UCSORGRIGHT
 10
0.0
 20
0.0
 30
0.0
  9
$UCSORGFRONT
 10
0.0
 20
0.0
 30
0.0
  9
$UCSORGBACK
 10
0.0
 20
0.0
 30
0.0
  9
$PUCSBASE
  2

  9
$PUCSNAME
  2

  9
$PUCSORG
 10
0.0
 20
0.0
 30
0.0
  9
$PUCSXDIR
 10
1.0
 20
0.0
 30
0.0
  9
$PUCSYDIR
 10
0.0
 20
1.0
 30
0.0
  9
$PUCSORTHOREF
  2

  9
$PUCSORTHOVIEW
 70
     0
  9
$PUCSORGTOP
 10
0.0
 20
0.0
 30
0.0
  9
$PUCSORGBOTTOM
 10
0.0
 20
0.0
 30
0.0
  9
$PUCSORGLEFT
 10
0.0
 20
0.0
 30
0.0
  9
$PUCSORGRIGHT
 10
0.0
 20
0.0
 30
0.0
  9
$PUCSORGFRONT
 10
0.0
 20
0.0
 30
0.0
  9
$PUCSORGBACK
 10
0.0
 20
0.0
 30
0.0
  9
$USERI1
 70
     0
  9
$USERI2
 70
     0
  9
$USERI3
 70
     0
  9
$USERI4
 70
     0
  9
$USERI5
 70
     0
  9
$USERR1
 40
0.0
  9
$USERR2
 40
0.0
  9
$USERR3
 40
0.0
  9
$USERR4
 40
0.0
  9
$USERR5
 40
0.0
  9
$WORLDVIEW
 70
     1
  9
$SHADEDGE
 70
     3
  9
$SHADEDIF
 70
    70
  9
$TILEMODE
 70
     1
  9
$MAXACTVP
 70
    64
  9
$PINSBASE
 10
0.0
 20
0.0
 30
0.0
  9
$PLIMCHECK
 70
     0
  9
$PEXTMIN
 10
1.0000000000E+20
 20
1.0000000000E+20
 30
1.0000000000E+20
  9
$PEXTMAX
 10
-1.0000000000E+20
 20
-1.0000000000E+20
 30
-1.0000000000E+20
  9
$PLIMMIN
 10
0.0
 20
0.0
  9
$PLIMMAX
 10
420.0
 20
297.0
  9
$UNITMODE
 70
     0
  9
$VISRETAIN
 70
     1
  9
$PLINEGEN
 70
     0
  9
$PSLTSCALE
 70
     1
  9
$TREEDEPTH
 70
  3020
  9
$CMLSTYLE
  2
Standard
  9
$CMLJUST
 70
     0
  9
$CMLSCALE
 40
20.0
  9
$PROXYGRAPHICS
 70
     1
  9
$MEASUREMENT
 70
     1
  9
$CELWEIGHT
370
    -1
  9
$ENDCAPS
280
     0
  9
$JOINSTYLE
280
     0
  9
$LWDISPLAY
290
     1
  9
$INSUNITS
 70
     4
  9
$HYPERLINKBASE
  1

  9
$STYLESHEET
  1

  9
$XEDIT
290
     1
  9
$CEPSNTYPE
380
     0
  9
$PSTYLEMODE
290
     1
  9
$FINGERPRINTGUID
  2
{FBD83ED9-4E0F-40CE-8E25-776FCA5AFA29}
  9
$VERSIONGUID
  2
{FAEB1C32-E019-11D5-929B-00C0DF256EC4}
  9
$EXTNAMES
290
     1
  9
$PSVPSCALE
 40
0.0
  9
$OLESTARTUP
290
     0
  0
ENDSEC
  0
SECTION
  2
CLASSES
  0
CLASS
  1
ACDBDICTIONARYWDFLT
  2
AcDbDictionaryWithDefault
  3
ObjectDBX Classes
 90
        0
280
     0
281
     0
  0
CLASS
  1
VISUALSTYLE
  2
AcDbVisualStyle
  3
ObjectDBX Classes
 90
     4095
280
     0
281
     0
  0
CLASS
  1
MATERIAL
  2
AcDbMaterial
  3
ObjectDBX Classes
 90
     1153
280
     0
281
     0
  0
CLASS
  1
SCALE
  2
AcDbScale
  3
ObjectDBX Classes
 90
     1153
280
     0
281
     0
  0
CLASS
  1
SUN
  2
AcDbSun
  3
SCENEOE
 90
     1153
280
     0
281
     0
  0
CLASS
  1
ACDBPLACEHOLDER
  2
AcDbPlaceHolder
  3
ObjectDBX Classes
 90
        0
280
     0
281
     0
  0
CLASS
  1
LAYOUT
  2
AcDbLayout
  3
ObjectDBX Classes
 90
        0
280
     0
281
     0
  0
ENDSEC
  0
SECTION
  2
TABLES
  0
TABLE
  2
VPORT
  5
8
330
0
100
AcDbSymbolTable
 70
     1
  0
VPORT
  5
29
330
8
100
AcDbSymbolTableRecord
100
AcDbViewportTableRecord
  2
*Active
 70
     0
 10
0.0
 20
0.0
 11
1.0
 21
1.0
 12
247.5
 22
175.0
 13
0.0
 23
0.0
 14
10.0
 24
10.0
 15
10.0
 25
10.0
 16
0.0
 26
0.0
 36
1.0
 17
0.0
 27
0.0
 37
0.0
 40
350.0
 41
1.4142857143
 42
50.0
 43
0.0
 44
0.0
 50
0.0
 51
0.0
 71
     0
 72
  2000
 73
     1
 74
     3
 75
     0
 76
     0
 77
     0
 78
     0
281
     0
 65
     1
110
0.0
120
0.0
130
0.0
111
1.0
121
0.0
131
0.0
112
0.0
122
1.0
132
0.0
 79
     0
146
0.0
  0
ENDTAB
  0
TABLE
  2
LTYPE
  5
5
330
0
100
AcDbSymbolTable
 70
     6
  0
LTYPE
  5
14
330
5
100
AcDbSymbolTableRecord
100
AcDbLinetypeTableRecord
  2
ByBlock
 70
     0
  3

 72
    65
 73
     0
 40
0.0
  0
LTYPE
  5
15
330
5
100
AcDbSymbolTableRecord
100
AcDbLinetypeTableRecord
  2
ByLayer
 70
     0
  3

 72
    65
 73
     0
 40
0.0
  0
LTYPE
  5
16
330
5
100
AcDbSymbolTableRecord
100
AcDbLinetypeTableRecord
  2
Continuous
 70
     0
  3
Solid line
 72
    65
 73
     0
 40
0.0
  0
LTYPE
  5
6A
330
5
100
AcDbSymbolTableRecord
100
AcDbLinetypeTableRecord
  2
HIDDEN
 70
     0
  3
Hidden __ __ __ __ __ __ __ __ __ __ __ __ __ __
 72
    65
 73
     2
 40
1.905
 49
1.27
 74
     0
 49
-0.635
 74
     0
  0
LTYPE
  5
6B
330
5
100
AcDbSymbolTableRecord
100
AcDbLinetypeTableRecord
  2
PHANTOM
 70
     0
  3
Phantom ______  __  __  ______  __  __  ______
 72
    65
 73
     6
 40
12.7
 49
6.35
 74
     0
 49
-1.27
 74
     0
 49
1.27
 74
     0
 49
-1.27
 74
     0
 49
1.27
 74
     0
 49
-1.27
 74
     0
  0
LTYPE
  5
6C
330
5
100
AcDbSymbolTableRecord
100
AcDbLinetypeTableRecord
  2
CENTER
 70
     0
  3
Center ____ _ ____ _ ____ _ ____ _ ____ _ ____
 72
    65
 73
     4
 40
10.16
 49
6.35
 74
     0
 49
-1.27
 74
     0
 49
1.27
 74
     0
 49
-1.27
 74
     0
  0
LTYPE
  5
6D
330
5
100
AcDbSymbolTableRecord
100
AcDbLinetypeTableRecord
  2
CENTERX2
 70
     0
  3
Center (2x) ________  __  ________  __  _____
 72
    65
 73
     4
 40
20.32
 49
12.7
 74
     0
 49
-2.54
 74
     0
 49
2.54
 74
     0
 49
-2.54
 74
     0
  0
LTYPE
  5
6E
330
5
100
AcDbSymbolTableRecord
100
AcDbLinetypeTableRecord
  2
DOT2
 70
     0
  3
Dot (.5x) ........................................
 72
    65
 73
     2
 40
0.635
 49
0.0
 74
     0
 49
-0.635
 74
     0
  0
ENDTAB
  0
TABLE
  2
LAYER
  5
2
330
0
100
AcDbSymbolTable
 70
     8
  0
LAYER
  5
10
330
2
100
AcDbSymbolTableRecord
100
AcDbLayerTableRecord
  2
0
 70
     0
 62
     7
  6
Continuous
370
    -3
390
F
  0
LAYER
  5
6F
330
2
100
AcDbSymbolTableRecord
100
AcDbLayerTableRecord
  2
FORMAT
 70
     0
 62
     7
  6
Continuous
370
    -3
390
F
  0
LAYER
  5
70
330
2
100
AcDbSymbolTableRecord
100
AcDbLayerTableRecord
  2
SLD-0
 70
     0
 62
     2
  6
Continuous
370
    -3
390
F
  0
LAYER
  5
71
330
2
100
AcDbSymbolTableRecord
100
AcDbLayerTableRecord
  2
DIM
 70
     0
 62
   179
  6
Continuous
370
    -3
390
F
  0
LAYER
  5
72
330
2
100
AcDbSymbolTableRecord
100
AcDbLayerTableRecord
  2
SLD-DEFPOINTS
 70
     0
 62
   179
  6
Continuous
370
    -3
390
F
  0
LAYER
  5
73
330
2
100
AcDbSymbolTableRecord
100
AcDbLayerTableRecord
  2
HAT
 70
     0
 62
   135
  6
Continuous
370
    -3
390
F
  0
LAYER
  5
74
330
2
100
AcDbSymbolTableRecord
100
AcDbLayerTableRecord
  2
JOB
 70
     0
 62
   201
  6
Continuous
370
    -3
390
F
  0
LAYER
  5
75
330
2
100
AcDbSymbolTableRecord
100
AcDbLayerTableRecord
  2
INSPECTION_REPORT
 70
     0
 62
   255
  6
Continuous
370
    -3
390
F
  0
ENDTAB
  0
TABLE
  2
STYLE
  5
3
330
0
100
AcDbSymbolTable
 70
     4
  0
STYLE
  5
11
330
3
100
AcDbSymbolTableRecord
100
AcDbTextStyleTableRecord
  2
Standard
 70
     0
 40
0.0
 41
1.0
 50
0.0
 71
     0
 42
6.4675925926
  3
txt
  4

  0
STYLE
  5
96
330
3
100
AcDbSymbolTableRecord
100
AcDbTextStyleTableRecord
  2
SLDTEXTSTYLE0
 70
     0
 40
0.0
 41
0.7
 50
0.0
 71
     0
 42
6.4675925926
  3
TXT
  4

  0
STYLE
  5
98
330
3
100
AcDbSymbolTableRecord
100
AcDbTextStyleTableRecord
  2
SLDTEXTSTYLE1
 70
     0
 40
0.0
 41
0.75
 50
0.0
 71
     0
 42
6.4675925926
  3
TXT
  4

  0
STYLE
  5
AB
330
3
100
AcDbSymbolTableRecord
100
AcDbTextStyleTableRecord
  2
SLDTEXTSTYLE2
 70
     0
 40
0.0
 41
0.6875
 50
0.0
 71
     0
 42
6.4675925926
  3
TXT
  4

  0
ENDTAB
  0
TABLE
  2
VIEW
  5
6
330
0
100
AcDbSymbolTable
 70
     0
  0
ENDTAB
  0
TABLE
  2
UCS
  5
7
330
0
100
AcDbSymbolTable
 70
     0
  0
ENDTAB
  0
TABLE
  2
APPID
  5
9
330
0
100
AcDbSymbolTable
 70
     1
  0
APPID
  5
12
330
9
100
AcDbSymbolTableRecord
100
AcDbRegAppTableRecord
  2
ACAD
 70
     0
  0
ENDTAB
  0
TABLE
  2
DIMSTYLE
  5
A
330
0
100
AcDbSymbolTable
 70
     3
100
AcDbDimStyleTable
  0
DIMSTYLE
105
27
330
A
100
AcDbSymbolTableRecord
100
AcDbDimStyleTableRecord
  2
ISO-25
 70
     0
 41
2.5
 42
0.625
 43
3.75
 44
1.25
 73
     0
 74
     0
 77
     1
 78
     8
140
2.5
141
2.5
143
0.0393700787
147
0.625
171
     3
172
     1
178
     0
271
     2
272
     2
274
     3
278
    44
283
     0
284
     8
340
11
  0
DIMSTYLE
105
12A
102
{ACAD_REACTORS
330
129
330
140
102
}
330
A
100
AcDbSymbolTableRecord
100
AcDbDimStyleTableRecord
  2
SLDDIMSTYLE0
 70
     0
 41
5.5033333333
 44
0.0
 45
0.000000001
 73
     0
 74
     0
 77
     1
 78
     4
 79
     1
140
4.8506944444
144
1.0
147
1.2126736111
173
     1
178
     0
271
     2
272
     2
276
     2
284
    12
340
96
  0
DIMSTYLE
105
136
102
{ACAD_REACTORS
330
135
330
14A
102
}
330
A
100
AcDbSymbolTableRecord
100
AcDbDimStyleTableRecord
  2
SLDDIMSTYLE1
 70
     0
 41
5.5033333333
 44
0.0
 45
0.000000001
 73
     0
 74
     0
 77
     1
 78
    12
 79
     3
140
4.8506944444
144
1.0
147
1.2126736111
173
     1
178
     0
271
     2
272
     2
276
     2
284
    12
340
96
  0
ENDTAB
  0
TABLE
  2
BLOCK_RECORD
  5
1
330
0
100
AcDbSymbolTable
 70
     6
  0
BLOCK_RECORD
  5
1F
330
1
100
AcDbSymbolTableRecord
100
AcDbBlockTableRecord
  2
*Model_Space
340
22
  0
BLOCK_RECORD
  5
1B
330
1
100
AcDbSymbolTableRecord
100
AcDbBlockTableRecord
  2
*Paper_Space
340
1E
  0
BLOCK_RECORD
  5
23
330
1
100
AcDbSymbolTableRecord
100
AcDbBlockTableRecord
  2
*Paper_Space0
340
26
  0
BLOCK_RECORD
  5
C7
330
1
100
AcDbSymbolTableRecord
100
AcDbBlockTableRecord
  2
SW_CENTERMARKSYMBOL_0
340
0
102
{BLKREFS
331
D2
102
}
  0
BLOCK_RECORD
  5
12B
330
1
100
AcDbSymbolTableRecord
100
AcDbBlockTableRecord
  2
_D
340
0
  0
BLOCK_RECORD
  5
137
330
1
100
AcDbSymbolTableRecord
100
AcDbBlockTableRecord
  2
_D_1
340
0
  0
BLOCK_RECORD
  5
141
330
1
100
AcDbSymbolTableRecord
100
AcDbBlockTableRecord
  2
_D_2
340
0
  0
BLOCK_RECORD
  5
14B
330
1
100
AcDbSymbolTableRecord
100
AcDbBlockTableRecord
  2
_D_3
340
0
  0
ENDTAB
  0
ENDSEC
  0
SECTION
  2
BLOCKS
  0
BLOCK
  5
20
330
1F
100
AcDbEntity
  8
0
100
AcDbBlockBegin
  2
*Model_Space
 70
     0
 10
0.0
 20
0.0
 30
0.0
  3
*Model_Space
  1
*Model_Space
  0
ENDBLK
  5
21
330
1F
100
AcDbEntity
  8
0
100
AcDbBlockEnd
  0
BLOCK
  5
1C
330
1B
100
AcDbEntity
 67
     1
  8
0
100
AcDbBlockBegin
  2
*Paper_Space
 70
     0
 10
0.0
 20
0.0
 30
0.0
  3
*Paper_Space
  1
*Paper_Space
  0
ENDBLK
  5
1D
330
1B
100
AcDbEntity
 67
     1
  8
0
100
AcDbBlockEnd
  0
BLOCK
  5
24
330
23
100
AcDbEntity
  8
0
100
AcDbBlockBegin
  2
*Paper_Space0
 70
     0
 10
0.0
 20
0.0
 30
0.0
  3
*Paper_Space0
  1
*Paper_Space0
  0
ENDBLK
  5
25
330
23
100
AcDbEntity
  8
0
100
AcDbBlockEnd
  0
BLOCK
  5
C8
330
C7
100
AcDbEntity
  8
0
100
AcDbBlockBegin
  2
SW_CENTERMARKSYMBOL_0
 70
     0
 10
0.0
 20
0.0
 30
0.0
  3
SW_CENTERMARKSYMBOL_0
  1
SW_CENTERMARKSYMBOL_0
  0
LINE
  5
CA
330
C7
100
AcDbEntity
  8
DIM
 62
     0
100
AcDbLine
 10
0.0
 20
0.0
 30
0.0
 11
0.0
 21
2.5
 31
0.0
  0
LINE
  5
CB
330
C7
100
AcDbEntity
  8
DIM
 62
     0
100
AcDbLine
 10
0.0
 20
0.0
 30
0.0
 11
-2.5
 21
0.0
 31
0.0
  0
LINE
  5
CC
330
C7
100
AcDbEntity
  8
DIM
 62
     0
100
AcDbLine
 10
0.0
 20
0.0
 30
0.0
 11
0.0
 21
-2.5
 31
0.0
  0
LINE
  5
CD
330
C7
100
AcDbEntity
  8
DIM
 62
     0
100
AcDbLine
 10
0.0
 20
0.0
 30
0.0
 11
2.5
 21
0.0
 31
0.0
  0
LINE
  5
CE
330
C7
100
AcDbEntity
  8
DIM
 62
     0
100
AcDbLine
 10
0.0
 20
5.0
 30
0.0
 11
0.0
 21
34.25
 31
0.0
  0
LINE
  5
CF
330
C7
100
AcDbEntity
  8
DIM
 62
     0
100
AcDbLine
 10
-5.0
 20
0.0
 30
0.0
 11
-34.25
 21
0.0
 31
0.0
  0
LINE
  5
D0
330
C7
100
AcDbEntity
  8
DIM
 62
     0
100
AcDbLine
 10
0.0
 20
-5.0
 30
0.0
 11
0.0
 21
-34.25
 31
0.0
  0
LINE
  5
D1
330
C7
100
AcDbEntity
  8
DIM
 62
     0
100
AcDbLine
 10
5.0
 20
0.0
 30
0.0
 11
34.25
 21
0.0
 31
0.0
  0
ENDBLK
  5
C9
330
C7
100
AcDbEntity
  8
0
100
AcDbBlockEnd
  0
BLOCK
  5
12C
330
12B
100
AcDbEntity
  8
0
100
AcDbBlockBegin
  2
_D
 70
     0
 10
0.0
 20
0.0
 30
0.0
  3
_D
  1
_D
  0
SOLID
  5
12E
330
12B
100
AcDbEntity
  8
DIM
100
AcDbTrace
 10
167.8746024967
 20
216.6834123964
 30
0.0
 11
167.02793583
 21
211.1800790631
 31
0.0
 12
168.7212691633
 22
211.1800790631
 32
0.0
 13
168.7212691633
 23
211.1800790631
 33
0.0
  0
SOLID
  5
12F
330
12B
100
AcDbEntity
  8
DIM
100
AcDbTrace
 10
167.8746024967
 20
153.1834123964
 30
0.0
 11
168.7212691633
 21
158.6867457298
 31
0.0
 12
167.02793583
 22
158.6867457298
 32
0.0
 13
167.02793583
 23
158.6867457298
 33
0.0
  0
LINE
  5
130
330
12B
100
AcDbEntity
  8
DIM
100
AcDbLine
 10
247.5060159148
 20
216.6834123964
 30
0.0
 11
166.20793583
 21
216.6834123964
 31
0.0
  0
LINE
  5
131
330
12B
100
AcDbEntity
  8
DIM
100
AcDbLine
 10
247.5060159148
 20
153.1834123964
 30
0.0
 11
166.20793583
 21
153.1834123964
 31
0.0
  0
LINE
  5
132
330
12B
100
AcDbEntity
  8
DIM
100
AcDbLine
 10
167.8746024967
 20
216.6834123964
 30
0.0
 11
167.8746024967
 21
153.1834123964
 31
0.0
  0
MTEXT
  5
133
330
12B
100
AcDbEntity
  8
DIM
100
AcDbMText
 10
161.6217283848
 20
173.7631162427
 30
0.0
 40
4.8506944444
 41
0.0
 71
     1
 72
     1
  1
%%c
  7
SLDTEXTSTYLE0
 11
-7.044195017643634E-15
 21
1.0
 31
0.0
 73
     1
 44
1.0
  0
MTEXT
  5
134
330
12B
100
AcDbEntity
  8
DIM
100
AcDbMText
 10
161.6217283848
 20
181.2641760754
 30
0.0
 40
4.8506944444
 41
0.0
 71
     1
 72
     1
  1
63.50
  7
SLDTEXTSTYLE0
 11
-7.044195017643634E-15
 21
1.0
 31
0.0
 73
     1
 44
1.0
  0
ENDBLK
  5
12D
330
12B
100
AcDbEntity
  8
0
100
AcDbBlockEnd
  0
BLOCK
  5
138
330
137
100
AcDbEntity
  8
0
100
AcDbBlockBegin
  2
_D_1
 70
     0
 10
0.0
 20
0.0
 30
0.0
  3
_D_1
  1
_D_1
  0
SOLID
  5
13A
330
137
100
AcDbEntity
  8
DIM
100
AcDbTrace
 10
244.9726825815
 20
142.9116256081
 30
0.0
 11
250.4760159148
 21
142.0649589414
 31
0.0
 12
250.4760159148
 22
143.7582922747
 32
0.0
 13
250.4760159148
 23
143.7582922747
 33
0.0
  0
SOLID
  5
13B
330
137
100
AcDbEntity
  8
DIM
100
AcDbTrace
 10
404.9726825811
 20
142.9116256081
 30
0.0
 11
399.4693492478
 21
143.7582922747
 31
0.0
 12
399.4693492478
 22
142.0649589414
 32
0.0
 13
399.4693492478
 23
142.0649589414
 33
0.0
  0
LINE
  5
13C
330
137
100
AcDbEntity
  8
DIM
100
AcDbLine
 10
244.9726825815
 20
161.0417457298
 30
0.0
 11
244.9726825815
 21
141.2449589414
 31
0.0
  0
LINE
  5
13D
330
137
100
AcDbEntity
  8
DIM
100
AcDbLine
 10
404.9726825811
 20
159.76674573
 30
0.0
 11
404.9726825811
 21
141.2449589414
 31
0.0
  0
LINE
  5
13E
330
137
100
AcDbEntity
  8
DIM
100
AcDbLine
 10
244.9726825815
 20
142.9116256081
 30
0.0
 11
404.9726825811
 21
142.9116256081
 31
0.0
  0
MTEXT
  5
13F
330
137
100
AcDbEntity
  8
DIM
100
AcDbMText
 10
320.0546171936
 20
149.1644997199
 30
0.0
 40
4.8506944444
 41
0.0
 71
     1
 72
     1
  1
160
  7
SLDTEXTSTYLE0
 73
     1
 44
1.0
  0
ENDBLK
  5
139
330
137
100
AcDbEntity
  8
0
100
AcDbBlockEnd
  0
BLOCK
  5
142
330
141
100
AcDbEntity
  8
0
100
AcDbBlockBegin
  2
_D_2
 70
     0
 10
0.0
 20
0.0
 30
0.0
  3
_D_2
  1
_D_2
  0
SOLID
  5
144
330
141
100
AcDbEntity
  8
DIM
100
AcDbTrace
 10
404.9726825811
 20
132.4814035663
 30
0.0
 11
399.4693492478
 21
133.328070233
 31
0.0
 12
399.4693492478
 22
131.6347368996
 32
0.0
 13
399.4693492478
 23
131.6347368996
 33
0.0
  0
SOLID
  5
145
330
141
100
AcDbEntity
  8
DIM
100
AcDbTrace
 10
176.5726825817
 20
132.4814035663
 30
0.0
 11
182.076015915
 21
131.6347368996
 31
0.0
 12
182.076015915
 22
133.328070233
 32
0.0
 13
182.076015915
 23
133.328070233
 33
0.0
  0
LINE
  5
146
330
141
100
AcDbEntity
  8
DIM
100
AcDbLine
 10
404.9726825811
 20
159.76674573
 30
0.0
 11
404.9726825811
 21
130.8147368996
 31
0.0
  0
LINE
  5
147
330
141
100
AcDbEntity
  8
DIM
100
AcDbLine
 10
176.5726825817
 20
183.2667457298
 30
0.0
 11
176.5726825817
 21
130.8147368996
 31
0.0
  0
LINE
  5
148
330
141
100
AcDbEntity
  8
DIM
100
AcDbLine
 10
404.9726825811
 20
132.4814035663
 30
0.0
 11
176.5726825817
 21
132.4814035663
 31
0.0
  0
MTEXT
  5
149
330
141
100
AcDbEntity
  8
DIM
100
AcDbMText
 10
281.7135612148
 20
138.7342776782
 30
0.0
 40
4.8506944444
 41
0.0
 71
     1
 72
     1
  1
228.40
  7
SLDTEXTSTYLE0
 73
     1
 44
1.0
  0
ENDBLK
  5
143
330
141
100
AcDbEntity
  8
0
100
AcDbBlockEnd
  0
BLOCK
  5
14C
330
14B
100
AcDbEntity
  8
0
100
AcDbBlockBegin
  2
_D_3
 70
     0
 10
0.0
 20
0.0
 30
0.0
  3
_D_3
  1
_D_3
  0
SOLID
  5
14E
330
14B
100
AcDbEntity
  8
DIM
100
AcDbTrace
 10
417.8744240083
 20
216.4334123964
 30
0.0
 11
417.0277573416
 21
210.9300790631
 31
0.0
 12
418.721090675
 22
210.9300790631
 32
0.0
 13
418.721090675
 23
210.9300790631
 33
0.0
  0
SOLID
  5
14F
330
14B
100
AcDbEntity
  8
DIM
100
AcDbTrace
 10
417.8744240083
 20
153.4334123964
 30
0.0
 11
418.721090675
 21
158.9367457298
 31
0.0
 12
417.0277573416
 22
158.9367457298
 32
0.0
 13
417.0277573416
 23
158.9367457298
 33
0.0
  0
LINE
  5
150
330
14B
100
AcDbEntity
  8
DIM
100
AcDbLine
 10
402.0205470942
 20
216.4334123964
 30
0.0
 11
419.541090675
 21
216.4334123964
 31
0.0
  0
LINE
  5
151
330
14B
100
AcDbEntity
  8
DIM
100
AcDbLine
 10
402.0205470942
 20
153.4334123964
 30
0.0
 11
419.541090675
 21
153.4334123964
 31
0.0
  0
LINE
  5
152
330
14B
100
AcDbEntity
  8
DIM
100
AcDbLine
 10
417.8744240083
 20
216.4334123964
 30
0.0
 11
417.8744240083
 21
153.4334123964
 31
0.0
  0
MTEXT
  5
153
330
14B
100
AcDbEntity
  8
DIM
100
AcDbMText
 10
411.6215498964
 20
177.9041722216
 30
0.0
 40
4.8506944444
 41
0.0
 71
     1
 72
     1
  1
%%c
  7
SLDTEXTSTYLE0
 11
-7.044195017643634E-15
 21
1.0
 31
0.0
 73
     1
 44
1.0
  0
MTEXT
  5
154
330
14B
100
AcDbEntity
  8
DIM
100
AcDbMText
 10
411.6215498964
 20
185.4052320543
 30
0.0
 40
4.8506944444
 41
0.0
 71
     1
 72
     1
  1
63
  7
SLDTEXTSTYLE0
 11
-7.044195017643634E-15
 21
1.0
 31
0.0
 73
     1
 44
1.0
  0
ENDBLK
  5
14D
330
14B
100
AcDbEntity
  8
0
100
AcDbBlockEnd
  0
ENDSEC
  0
SECTION
  2
ENTITIES
  0
LINE
  5
76
330
1F
100
AcDbEntity
  8
DIM
100
AcDbLine
 10
174.5073744817
 20
16.3183190948
 30
0.0
 11
174.5073744817
 21
7.9849857614
 31
0.0
  0
LINE
  5
77
330
1F
100
AcDbEntity
  8
DIM
100
AcDbLine
 10
424.1160028255
 20
16.3183190948
 30
0.0
 11
424.1160028255
 21
7.9849857614
 31
0.0
  0
LINE
  5
78
330
1F
100
AcDbEntity
  8
DIM
100
AcDbLine
 10
395.752849886
 20
16.3183190948
 30
0.0
 11
395.752849886
 21
7.9849857614
 31
0.0
  0
LINE
  5
79
330
1F
100
AcDbEntity
  8
DIM
100
AcDbLine
 10
464.840707815
 20
7.9849857614
 30
0.0
 11
464.840707815
 21
16.3183190948
 31
0.0
  0
LINE
  5
7A
330
1F
100
AcDbEntity
  8
DIM
100
AcDbLine
 10
187.5073744817
 20
16.3183190948
 30
0.0
 11
187.5073744817
 21
7.9849857614
 31
0.0
  0
LINE
  5
7B
330
1F
100
AcDbEntity
  8
DIM
100
AcDbLine
 10
219.4922952047
 20
16.3183190948
 30
0.0
 11
219.4922952047
 21
7.9849857614
 31
0.0
  0
LINE
  5
7C
330
1F
100
AcDbEntity
  8
DIM
100
AcDbLine
 10
486.5073744817
 20
7.9849857614
 30
0.0
 11
486.5073744817
 21
128.4016524281
 31
0.0
  0
LINE
  5
7D
330
1F
100
AcDbEntity
  8
DIM
100
AcDbLine
 10
476.3650078245
 20
100.0683190948
 30
0.0
 11
486.5073744817
 21
100.0683190948
 31
0.0
  0
LINE
  5
7E
330
1F
100
AcDbEntity
  8
DIM
100
AcDbLine
 10
248.5055847542
 20
15.0683190948
 30
0.0
 11
248.5055847542
 21
7.9849857614
 31
0.0
  0
LINE
  5
7F
330
1F
100
AcDbEntity
  8
DIM
100
AcDbLine
 10
327.9399152674
 20
16.3183190948
 30
0.0
 11
327.9399152674
 21
7.9849857614
 31
0.0
  0
LINE
  5
80
330
1F
100
AcDbEntity
  8
DIM
100
AcDbLine
 10
248.5055847542
 20
16.3183190948
 30
0.0
 11
248.5055847542
 21
15.0683190948
 31
0.0
  0
LINE
  5
81
330
1F
100
AcDbEntity
  8
DIM
100
AcDbLine
 10
478.1740411483
 20
29.2348657614
 30
0.0
 11
486.5073744817
 21
29.2348657614
 31
0.0
  0
LINE
  5
82
330
1F
100
AcDbEntity
  8
DIM
100
AcDbLine
 10
478.1740411483
 20
332.9849857614
 30
0.0
 11
16.5073744817
 21
332.9849857614
 31
0.0
  0
LINE
  5
83
330
1F
100
AcDbEntity
  8
DIM
100
AcDbLine
 10
486.5073744817
 20
341.3183190948
 30
0.0
 11
8.1740411483
 21
341.3183190948
 31
0.0
  0
LINE
  5
84
330
1F
100
AcDbEntity
  8
DIM
100
AcDbLine
 10
16.5073744817
 20
332.9849857614
 30
0.0
 11
16.5073744817
 21
16.3183190948
 31
0.0
  0
LINE
  5
85
330
1F
100
AcDbEntity
  8
DIM
100
AcDbLine
 10
8.1740411483
 20
341.3183190948
 30
0.0
 11
8.1740411483
 21
7.9849857614
 31
0.0
  0
LINE
  5
86
330
1F
100
AcDbEntity
  8
DIM
100
AcDbLine
 10
16.5073744817
 20
91.3183190948
 30
0.0
 11
8.1740411483
 21
91.3183190948
 31
0.0
  0
LINE
  5
87
330
1F
100
AcDbEntity
  8
DIM
100
AcDbLine
 10
8.1740411483
 20
174.6516524281
 30
0.0
 11
16.5073744817
 21
174.6516524281
 31
0.0
  0
LINE
  5
88
330
1F
100
AcDbEntity
  8
DIM
100
AcDbLine
 10
8.1740411483
 20
7.9849857614
 30
0.0
 11
486.5073744817
 21
7.9849857614
 31
0.0
  0
LINE
  5
89
330
1F
100
AcDbEntity
  8
DIM
100
AcDbLine
 10
16.5073744817
 20
16.3183190948
 30
0.0
 11
486.5073744817
 21
16.3183190948
 31
0.0
  0
LINE
  5
8A
330
1F
100
AcDbEntity
  8
DIM
100
AcDbLine
 10
80.6740411483
 20
7.9849857614
 30
0.0
 11
80.6740411483
 21
16.3183190948
 31
0.0
  0
LINE
  5
8B
330
1F
100
AcDbEntity
  8
DIM
100
AcDbLine
 10
164.0073744817
 20
16.3183190948
 30
0.0
 11
164.0073744817
 21
7.9849857614
 31
0.0
  0
LINE
  5
8C
330
1F
100
AcDbEntity
  8
DIM
100
AcDbLine
 10
16.5073744817
 20
257.9849857614
 30
0.0
 11
8.1740411483
 21
257.9849857614
 31
0.0
  0
LINE
  5
8D
330
1F
100
AcDbEntity
  8
DIM
100
AcDbLine
 10
80.6740411483
 20
332.9849857614
 30
0.0
 11
80.6740411483
 21
341.3183190948
 31
0.0
  0
LINE
  5
8E
330
1F
100
AcDbEntity
  8
DIM
100
AcDbLine
 10
164.0073744817
 20
341.3183190948
 30
0.0
 11
164.0073744817
 21
332.9849857614
 31
0.0
  0
LINE
  5
8F
330
1F
100
AcDbEntity
  8
DIM
100
AcDbLine
 10
247.340707815
 20
341.3183190948
 30
0.0
 11
247.340707815
 21
332.9849857614
 31
0.0
  0
LINE
  5
90
330
1F
100
AcDbEntity
  8
DIM
100
AcDbLine
 10
478.1740411483
 20
16.3183190948
 30
0.0
 11
478.1740411483
 21
332.9849857614
 31
0.0
  0
LINE
  5
91
330
1F
100
AcDbEntity
  8
DIM
100
AcDbLine
 10
486.5073744817
 20
128.4016524281
 30
0.0
 11
486.5073744817
 21
341.3183190948
 31
0.0
  0
LINE
  5
92
330
1F
100
AcDbEntity
  8
DIM
100
AcDbLine
 10
486.5073744817
 20
174.6516524281
 30
0.0
 11
478.1740411483
 21
174.6516524281
 31
0.0
  0
LINE
  5
93
330
1F
100
AcDbEntity
  8
DIM
100
AcDbLine
 10
330.6740411483
 20
341.3183190948
 30
0.0
 11
330.6740411483
 21
332.9849857614
 31
0.0
  0
LINE
  5
94
330
1F
100
AcDbEntity
  8
DIM
100
AcDbLine
 10
414.0073744817
 20
332.9849857614
 30
0.0
 11
414.0073744817
 21
341.3183190948
 31
0.0
  0
LINE
  5
95
330
1F
100
AcDbEntity
  8
DIM
100
AcDbLine
 10
478.1740411483
 20
257.9849857614
 30
0.0
 11
486.5073744817
 21
257.9849857614
 31
0.0
  0
MTEXT
  5
97
330
1F
100
AcDbEntity
  8
DIM
100
AcDbMText
 10
25.7201410576
 20
322.6404447497
 30
0.0
 40
7.0555555556
 41
0.0
 71
     1
 72
     1
  1
SK 40 ER 40 160 AD+B/6.3G15000 SL
  7
SLDTEXTSTYLE0
 73
     1
 44
1.0
  0
MTEXT
  5
99
330
1F
100
AcDbEntity
  8
DIM
 62
     7
100
AcDbMText
 10
329.5546310777
 20
13.0032525438
 30
0.0
 40
2.4976666667
 41
0.0
 71
     1
 72
     1
  1
WEIGHT:
  7
SLDTEXTSTYLE1
 73
     1
 44
1.0
  0
MTEXT
  5
9A
330
1F
100
AcDbEntity
  8
DIM
 62
     7
100
AcDbMText
 10
480.9951279247
 20
136.5676891804
 30
0.0
 40
3.0868055556
 41
0.0
 71
     1
 72
     1
  1
C
  7
SLDTEXTSTYLE1
 73
     1
 44
1.0
  0
MTEXT
  5
9B
330
1F
100
AcDbEntity
  8
DIM
 62
     7
100
AcDbMText
 10
471.7393010324
 20
24.7566366394
 30
0.0
 40
4.8506944444
 41
0.0
 71
     1
 72
     1
  1
A4
  7
SLDTEXTSTYLE1
 73
     1
 44
1.0
  0
MTEXT
  5
9C
330
1F
100
AcDbEntity
  8
DIM
 62
     7
100
AcDbMText
 10
454.2851589261
 20
339.098346434
 30
0.0
 40
3.0868055556
 41
0.0
 71
     1
 72
     1
  1
6
  7
SLDTEXTSTYLE1
 73
     1
 44
1.0
  0
MTEXT
  5
9D
330
1F
100
AcDbEntity
  8
DIM
 62
     7
100
AcDbMText
 10
370.9518255928
 20
339.098346434
 30
0.0
 40
3.0868055556
 41
0.0
 71
     1
 72
     1
  1
5
  7
SLDTEXTSTYLE1
 73
     1
 44
1.0
  0
MTEXT
  5
9E
330
1F
100
AcDbEntity
  8
DIM
 62
     7
100
AcDbMText
 10
480.9518322594
 20
301.598346434
 30
0.0
 40
3.0868055556
 41
0.0
 71
     1
 72
     1
  1
A
  7
SLDTEXTSTYLE1
 73
     1
 44
1.0
  0
MTEXT
  5
9F
330
1F
100
AcDbEntity
  8
DIM
 62
     7
100
AcDbMText
 10
480.9518322594
 20
218.2650131007
 30
0.0
 40
3.0868055556
 41
0.0
 71
     1
 72
     1
  1
B
  7
SLDTEXTSTYLE1
 73
     1
 44
1.0
  0
MTEXT
  5
A0
330
1F
100
AcDbEntity
  8
DIM
 62
     7
100
AcDbMText
 10
287.6184922594
 20
339.098346434
 30
0.0
 40
3.0868055556
 41
0.0
 71
     1
 72
     1
  1
4
  7
SLDTEXTSTYLE1
 73
     1
 44
1.0
  0
MTEXT
  5
A1
330
1F
100
AcDbEntity
  8
DIM
 62
     7
100
AcDbMText
 10
38.3129367039
 20
339.098346434
 30
0.0
 40
3.0868055556
 41
0.0
 71
     1
 72
     1
  1
1
  7
SLDTEXTSTYLE1
 73
     1
 44
1.0
  0
MTEXT
  5
A2
330
1F
100
AcDbEntity
  8
DIM
 62
     7
100
AcDbMText
 10
120.9518255928
 20
339.098346434
 30
0.0
 40
3.0868055556
 41
0.0
 71
     1
 72
     1
  1
2
  7
SLDTEXTSTYLE1
 73
     1
 44
1.0
  0
MTEXT
  5
A3
330
1F
100
AcDbEntity
  8
DIM
 62
     7
100
AcDbMText
 10
204.2851589261
 20
339.098346434
 30
0.0
 40
3.0868055556
 41
0.0
 71
     1
 72
     1
  1
3
  7
SLDTEXTSTYLE1
 73
     1
 44
1.0
  0
MTEXT
  5
A4
330
1F
100
AcDbEntity
  8
DIM
 62
     7
100
AcDbMText
 10
10.9518189261
 20
301.598346434
 30
0.0
 40
3.0868055556
 41
0.0
 71
     1
 72
     1
  1
A
  7
SLDTEXTSTYLE1
 73
     1
 44
1.0
  0
MTEXT
  5
A5
330
1F
100
AcDbEntity
  8
DIM
 62
     7
100
AcDbMText
 10
120.9518255928
 20
14.098346434
 30
0.0
 40
3.0868055556
 41
0.0
 71
     1
 72
     1
  1
2
  7
SLDTEXTSTYLE1
 73
     1
 44
1.0
  0
MTEXT
  5
A6
330
1F
100
AcDbEntity
  8
DIM
 62
     7
100
AcDbMText
 10
38.3129367039
 20
14.098346434
 30
0.0
 40
3.0868055556
 41
0.0
 71
     1
 72
     1
  1
1
  7
SLDTEXTSTYLE1
 73
     1
 44
1.0
  0
MTEXT
  5
A7
330
1F
100
AcDbEntity
  8
DIM
 62
     7
100
AcDbMText
 10
10.9518189261
 20
51.598346434
 30
0.0
 40
3.0868055556
 41
0.0
 71
     1
 72
     1
  1
D
  7
SLDTEXTSTYLE1
 73
     1
 44
1.0
  0
MTEXT
  5
A8
330
1F
100
AcDbEntity
  8
DIM
 62
     7
100
AcDbMText
 10
10.9518189261
 20
134.9316797674
 30
0.0
 40
3.0868055556
 41
0.0
 71
     1
 72
     1
  1
C
  7
SLDTEXTSTYLE1
 73
     1
 44
1.0
  0
MTEXT
  5
A9
330
1F
100
AcDbEntity
  8
DIM
 62
     7
100
AcDbMText
 10
10.9518189261
 20
218.2650131007
 30
0.0
 40
3.0868055556
 41
0.0
 71
     1
 72
     1
  1
B
  7
SLDTEXTSTYLE1
 73
     1
 44
1.0
  0
MTEXT
  5
AA
330
1F
100
AcDbEntity
  8
DIM
 62
     7
100
AcDbMText
 10
480.9951279247
 20
136.5676891804
 30
0.0
 40
3.0868055556
 41
0.0
 71
     1
 72
     1
  1
C
  7
SLDTEXTSTYLE1
 73
     1
 44
1.0
  0
MTEXT
  5
AC
330
1F
100
AcDbEntity
  8
DIM
 62
     7
100
AcDbMText
 10
427.5422763542
 20
12.8184645523
 30
0.0
 40
2.5
 41
0.0
 71
     1
 72
     1
  1
SHEET 1 OF 1
  7
SLDTEXTSTYLE2
 73
     1
 44
1.0
  0
MTEXT
  5
AD
330
1F
100
AcDbEntity
  8
DIM
 62
     7
100
AcDbMText
 10
250.6196339724
 20
13.0889458061
 30
0.0
 40
2.5
 41
0.0
 71
     1
 72
     1
  1
MATERIAL:
  7
SLDTEXTSTYLE1
 73
     1
 44
1.0
  0
MTEXT
  5
AE
330
1F
100
AcDbEntity
  8
DIM
 62
     7
100
AcDbMText
 10
454.2851589261
 20
339.098346434
 30
0.0
 40
3.0868055556
 41
0.0
 71
     1
 72
     1
  1
6
  7
SLDTEXTSTYLE1
 73
     1
 44
1.0
  0
MTEXT
  5
AF
330
1F
100
AcDbEntity
  8
DIM
 62
     7
100
AcDbMText
 10
370.9518255928
 20
339.098346434
 30
0.0
 40
3.0868055556
 41
0.0
 71
     1
 72
     1
  1
5
  7
SLDTEXTSTYLE1
 73
     1
 44
1.0
  0
MTEXT
  5
B0
330
1F
100
AcDbEntity
  8
DIM
 62
     7
100
AcDbMText
 10
480.9518322594
 20
301.598346434
 30
0.0
 40
3.0868055556
 41
0.0
 71
     1
 72
     1
  1
A
  7
SLDTEXTSTYLE1
 73
     1
 44
1.0
  0
MTEXT
  5
B1
330
1F
100
AcDbEntity
  8
DIM
 62
     7
100
AcDbMText
 10
480.9518322594
 20
218.2650131007
 30
0.0
 40
3.0868055556
 41
0.0
 71
     1
 72
     1
  1
B
  7
SLDTEXTSTYLE1
 73
     1
 44
1.0
  0
MTEXT
  5
B2
330
1F
100
AcDbEntity
  8
DIM
 62
     7
100
AcDbMText
 10
287.6184922594
 20
339.098346434
 30
0.0
 40
3.0868055556
 41
0.0
 71
     1
 72
     1
  1
4
  7
SLDTEXTSTYLE1
 73
     1
 44
1.0
  0
MTEXT
  5
B3
330
1F
100
AcDbEntity
  8
DIM
 62
     7
100
AcDbMText
 10
38.3129367039
 20
339.098346434
 30
0.0
 40
3.0868055556
 41
0.0
 71
     1
 72
     1
  1
1
  7
SLDTEXTSTYLE1
 73
     1
 44
1.0
  0
MTEXT
  5
B4
330
1F
100
AcDbEntity
  8
DIM
 62
     7
100
AcDbMText
 10
120.9518255928
 20
339.098346434
 30
0.0
 40
3.0868055556
 41
0.0
 71
     1
 72
     1
  1
2
  7
SLDTEXTSTYLE1
 73
     1
 44
1.0
  0
MTEXT
  5
B5
330
1F
100
AcDbEntity
  8
DIM
 62
     7
100
AcDbMText
 10
204.2851589261
 20
339.098346434
 30
0.0
 40
3.0868055556
 41
0.0
 71
     1
 72
     1
  1
3
  7
SLDTEXTSTYLE1
 73
     1
 44
1.0
  0
MTEXT
  5
B6
330
1F
100
AcDbEntity
  8
DIM
 62
     7
100
AcDbMText
 10
10.9518189261
 20
301.598346434
 30
0.0
 40
3.0868055556
 41
0.0
 71
     1
 72
     1
  1
A
  7
SLDTEXTSTYLE1
 73
     1
 44
1.0
  0
MTEXT
  5
B7
330
1F
100
AcDbEntity
  8
DIM
 62
     7
100
AcDbMText
 10
120.9518255928
 20
14.098346434
 30
0.0
 40
3.0868055556
 41
0.0
 71
     1
 72
     1
  1
2
  7
SLDTEXTSTYLE1
 73
     1
 44
1.0
  0
MTEXT
  5
B8
330
1F
100
AcDbEntity
  8
DIM
 62
     7
100
AcDbMText
 10
38.3129367039
 20
14.098346434
 30
0.0
 40
3.0868055556
 41
0.0
 71
     1
 72
     1
  1
1
  7
SLDTEXTSTYLE1
 73
     1
 44
1.0
  0
MTEXT
  5
B9
330
1F
100
AcDbEntity
  8
DIM
 62
     7
100
AcDbMText
 10
10.9518189261
 20
51.598346434
 30
0.0
 40
3.0868055556
 41
0.0
 71
     1
 72
     1
  1
D
  7
SLDTEXTSTYLE1
 73
     1
 44
1.0
  0
MTEXT
  5
BA
330
1F
100
AcDbEntity
  8
DIM
 62
     7
100
AcDbMText
 10
10.9518189261
 20
134.9316797674
 30
0.0
 40
3.0868055556
 41
0.0
 71
     1
 72
     1
  1
C
  7
SLDTEXTSTYLE1
 73
     1
 44
1.0
  0
MTEXT
  5
BB
330
1F
100
AcDbEntity
  8
DIM
 62
     7
100
AcDbMText
 10
10.9518189261
 20
218.2650131007
 30
0.0
 40
3.0868055556
 41
0.0
 71
     1
 72
     1
  1
B
  7
SLDTEXTSTYLE1
 73
     1
 44
1.0
  0
SPLINE
  5
BC
330
1F
100
AcDbEntity
  8
0
  6
Continuous
 62
     7
370
    15
100
AcDbSpline
210
0.0
220
0.0
230
1.0
 70
     8
 71
     3
 72
    38
 73
    34
 74
     0
 42
0.000000001
 43
0.00000001
 40
0.0
 40
0.0
 40
0.0
 40
0.0
 40
0.0625
 40
0.0625
 40
0.125
 40
0.125
 40
0.1875
 40
0.1875
 40
0.25
 40
0.25
 40
0.3125
 40
0.3125
 40
0.375
 40
0.375
 40
0.4375
 40
0.4375
 40
0.5
 40
0.5
 40
0.5625
 40
0.5625
 40
0.625
 40
0.625
 40
0.6875
 40
0.6875
 40
0.75
 40
0.75
 40
0.8125
 40
0.8125
 40
0.875
 40
0.875
 40
0.9375
 40
0.9375
 40
1.0
 40
1.0
 40
1.0
 40
1.0
 10
92.855128870923
 20
184.933412396422
 30
0.0
 10
92.855128870923
 20
184.4590306219453
 30
0.0
 10
92.8257052382671
 20
183.9547051000937
 30
0.0
 10
92.68304520114766
 20
182.8895101562612
 30
0.0
 10
92.56974079539972
 20
182.3284871964152
 30
0.0
 10
92.22970393945711
 20
181.1626465474612
 30
0.0
 10
92.00278681634566
 20
180.5576732258161
 30
0.0
 10
91.40485377299966
 20
179.3311439061236
 30
0.0
 10
91.03350285694468
 20
178.7095235152869
 30
0.0
 10
90.12268984995552
 20
177.4951061726265
 30
0.0
 10
89.58279371805256
 20
176.9024823596055
 30
0.0
 10
88.32940745710545
 20
175.8086179864078
 30
0.0
 10
87.61559037916011
 20
175.3078943149974
 30
0.0
 10
86.03978932900587
 20
174.4674670882428
 30
0.0
 10
85.17789142443746
 20
174.1285113499256
 30
0.0
 10
83.36704426261286
 20
173.6686136580305
 30
0.0
 10
82.41872983250556
 20
173.5482498089798
 30
0.0
 10
80.52120273461149
 20
173.5482498089798
 30
0.0
 10
79.57288830450419
 20
173.6686136580305
 30
0.0
 10
77.76204114267959
 20
174.1285113499256
 30
0.0
 10
76.9001432381112
 20
174.4674670882428
 30
0.0
 10
75.32434218795694
 20
175.3078943149974
 30
0.0
 10
74.61052511001161
 20
175.8086179864078
 30
0.0
 10
73.3571388490645
 20
176.9024823596055
 30
0.0
 10
72.81724271716153
 20
177.4951061726265
 30
0.0
 10
71.90642971017238
 20
178.7095235152869
 30
0.0
 10
71.5350787941174
 20
179.3311439061236
 30
0.0
 10
70.93714575077139
 20
180.557673225816
 30
0.0
 10
70.71022862765994
 20
181.1626465474612
 30
0.0
 10
70.37019177171732
 20
182.3284871964152
 30
0.0
 10
70.2568873659694
 20
182.8895101562612
 30
0.0
 10
70.11422732884995
 20
183.9547051000937
 30
0.0
 10
70.08480369619406
 20
184.4590306219453
 30
0.0
 10
70.08480369619406
 20
184.933412396422
 30
0.0
  0
SPLINE
  5
BD
330
1F
100
AcDbEntity
  8
0
  6
Continuous
 62
     7
370
    15
100
AcDbSpline
210
0.0
220
0.0
230
1.0
 70
     8
 71
     3
 72
    38
 73
    34
 74
     0
 42
0.000000001
 43
0.00000001
 40
0.0
 40
0.0
 40
0.0
 40
0.0
 40
0.0624999999999999
 40
0.0624999999999999
 40
0.1249999999999999
 40
0.1249999999999999
 40
0.1874999999999999
 40
0.1874999999999999
 40
0.2499999999999999
 40
0.2499999999999999
 40
0.3124999999999999
 40
0.3124999999999999
 40
0.3749999999999999
 40
0.3749999999999999
 40
0.4374999999999999
 40
0.4374999999999999
 40
0.4999999999999999
 40
0.4999999999999999
 40
0.5624999999999999
 40
0.5624999999999999
 40
0.625
 40
0.625
 40
0.6875
 40
0.6875
 40
0.75
 40
0.75
 40
0.8125
 40
0.8125
 40
0.875
 40
0.875
 40
0.9375
 40
0.9375
 40
1.0
 40
1.0
 40
1.0
 40
1.0
 10
70.08480369619406
 20
184.933412396422
 30
0.0
 10
70.08480369619406
 20
185.4077941708988
 30
0.0
 10
70.11422732884995
 20
185.9121196927503
 30
0.0
 10
70.2568873659694
 20
186.9773146365828
 30
0.0
 10
70.37019177171733
 20
187.5383375964288
 30
0.0
 10
70.71022862765996
 20
188.7041782453828
 30
0.0
 10
70.93714575077139
 20
189.309151567028
 30
0.0
 10
71.5350787941174
 20
190.5356808867205
 30
0.0
 10
71.90642971017238
 20
191.1573012775571
 30
0.0
 10
72.81724271716153
 20
192.3717186202176
 30
0.0
 10
73.3571388490645
 20
192.9643424332385
 30
0.0
 10
74.61052511001161
 20
194.0582068064362
 30
0.0
 10
75.32434218795694
 20
194.5589304778466
 30
0.0
 10
76.9001432381112
 20
195.3993577046013
 30
0.0
 10
77.76204114267959
 20
195.7383134429184
 30
0.0
 10
79.57288830450419
 20
196.1982111348136
 30
0.0
 10
80.52120273461149
 20
196.3185749838642
 30
0.0
 10
82.41872983250556
 20
196.3185749838642
 30
0.0
 10
83.36704426261286
 20
196.1982111348136
 30
0.0
 10
85.17789142443746
 20
195.7383134429184
 30
0.0
 10
86.03978932900587
 20
195.3993577046013
 30
0.0
 10
87.61559037916011
 20
194.5589304778466
 30
0.0
 10
88.32940745710545
 20
194.0582068064362
 30
0.0
 10
89.58279371805256
 20
192.9643424332385
 30
0.0
 10
90.12268984995552
 20
192.3717186202176
 30
0.0
 10
91.03350285694468
 20
191.1573012775571
 30
0.0
 10
91.40485377299966
 20
190.5356808867205
 30
0.0
 10
92.00278681634566
 20
189.309151567028
 30
0.0
 10
92.22970393945711
 20
188.7041782453828
 30
0.0
 10
92.56974079539972
 20
187.5383375964288
 30
0.0
 10
92.68304520114765
 20
186.9773146365828
 30
0.0
 10
92.8257052382671
 20
185.9121196927503
 30
0.0
 10
92.855128870923
 20
185.4077941708988
 30
0.0
 10
92.855128870923
 20
184.933412396422
 30
0.0
  0
SPLINE
  5
BE
330
1F
100
AcDbEntity
  8
0
  6
Continuous
 62
     7
370
    15
100
AcDbSpline
210
0.0
220
0.0
230
1.0
 70
    24
 71
     3
 72
    14
 73
    10
 74
     0
 42
0.000000001
 43
0.00000001
 40
0.0
 40
0.0
 40
0.0
 40
0.0
 40
0.25
 40
0.25
 40
0.5
 40
0.5
 40
0.75
 40
0.75
 40
1.0
 40
1.0
 40
1.0
 40
1.0
 10
92.85512887096208
 20
184.933412396422
 30
0.0
 10
92.96414541999212
 20
184.933412396422
 30
0.0
 10
93.08022341157637
 20
184.933412396422
 30
0.0
 10
93.3060524508744
 20
184.933412396422
 30
0.0
 10
93.41533081052488
 20
184.933412396422
 30
0.0
 10
93.60312552139949
 20
184.933412396422
 30
0.0
 10
93.68122011730487
 20
184.933412396422
 30
0.0
 10
93.79406607709045
 20
184.933412396422
 30
0.0
 10
93.82892967447047
 20
184.933412396422
 30
0.0
 10
93.84466165943185
 20
184.933412396422
 30
0.0
  0
ARC
  5
BF
330
1F
100
AcDbEntity
  8
0
  6
Continuous
 62
     7
370
    15
100
AcDbCircle
 10
81.4699662836
 20
184.9334123964
 30
0.0
 40
12.37469537590596
100
AcDbArc
 50
180.0000000026
 51
359.9999999868
  0
SPLINE
  5
C0
330
1F
100
AcDbEntity
  8
0
  6
Continuous
 62
     7
370
    15
100
AcDbSpline
210
0.0
220
0.0
230
1.0
 70
    24
 71
     3
 72
    14
 73
    10
 74
     0
 42
0.000000001
 43
0.00000001
 40
0.0
 40
0.0
 40
0.0
 40
0.0
 40
0.25
 40
0.25
 40
0.5
 40
0.5
 40
0.75
 40
0.75
 40
1.0
 40
1.0
 40
1.0
 40
1.0
 10
70.08480369615498
 20
184.933412396422
 30
0.0
 10
69.9757871471241
 20
184.933412396422
 30
0.0
 10
69.85970915553892
 20
184.933412396422
 30
0.0
 10
69.63388011623928
 20
184.933412396422
 30
0.0
 10
69.52460175658815
 20
184.933412396422
 30
0.0
 10
69.33680704571302
 20
184.933412396422
 30
0.0
 10
69.25871244980779
 20
184.933412396422
 30
0.0
 10
69.14586649002327
 20
184.933412396422
 30
0.0
 10
69.11100289264414
 20
184.933412396422
 30
0.0
 10
69.09527090768376
 20
184.933412396422
 30
0.0
  0
ARC
  5
C1
330
1F
100
AcDbEntity
  8
0
  6
Continuous
 62
     7
370
    15
100
AcDbCircle
 10
81.4699662836
 20
184.9334123964
 30
0.0
 40
12.37469537590596
100
AcDbArc
 50
359.9999999868
 51
180.0000000026
  0
CIRCLE
  5
C2
330
1F
100
AcDbEntity
  8
0
  6
Continuous
 62
     7
370
    15
100
AcDbCircle
 10
81.4699662836
 20
184.9334123964
 30
0.0
 40
22.22499999999999
  0
SPLINE
  5
C3
330
1F
100
AcDbEntity
  8
0
  6
Continuous
 62
     7
370
    15
100
AcDbSpline
210
0.0
220
0.0
230
1.0
 70
     8
 71
     3
 72
    47
 73
    43
 74
     0
 42
0.000000001
 43
0.00000001
 40
0.0
 40
0.0
 40
0.0
 40
0.0
 40
0.0064865025304972
 40
0.012963809852073
 40
0.0194345943986053
 40
0.0259015366904969
 40
0.0323673220268025
 40
0.0388346371477183
 40
0.0453061668881103
 40
0.0517845908428884
 40
0.0582725800648599
 40
0.0891441960336896
 40
0.1200232680065205
 40
0.1521817332807755
 40
0.1843476847365887
 40
0.2171904233651775
 40
0.2500408074748665
 40
0.282883546321449
 40
0.3157339306503827
 40
0.3478923965272001
 40
0.3800583485857348
 40
0.410929964066402
 40
0.4418090356813762
 40
0.5000011037081269
 40
0.5581931717348777
 40
0.5890647877051908
 40
0.6199438596765361
 40
0.6521023249515937
 40
0.6842682764065996
 40
0.7171110150353992
 40
0.7499613991448758
 40
0.7828041379923278
 40
0.8156545223204007
 40
0.8478129881975721
 40
0.8799789402557395
 40
0.9108505557359757
 40
0.9417296273513857
 40
0.9533981518071717
 40
0.965043798634132
 40
0.9766822122394823
 40
0.9883290661781213
 40
1.0
 40
1.0
 40
1.0
 40
1.0
 10
59.06996628354646
 20
184.933412396422
 30
0.0
 10
59.0708533065194
 20
185.0854967237491
 30
0.0
 10
59.0726260950293
 20
185.3894497849989
 30
0.0
 10
59.08699473609676
 20
185.8449317149455
 30
0.0
 10
59.10994034854578
 20
186.2995798504963
 30
0.0
 10
59.14230010933242
 20
186.7533940326704
 30
0.0
 10
59.18384991067787
 20
187.206373843024
 30
0.0
 10
59.2346500402675
 20
187.6585197041368
 30
0.0
 10
59.29468316635037
 20
188.1098289372432
 30
0.0
 10
59.36395809203677
 20
188.5603104589944
 30
0.0
 10
59.54073333862289
 20
189.5728345252922
 30
0.0
 10
59.90788593036854
 20
191.1330264150928
 30
0.0
 10
60.61994624517536
 20
193.2199626503146
 30
0.0
 10
61.54614152714355
 20
195.2551197218886
 30
0.0
 10
62.69759335500029
 20
197.2253346768896
 30
0.0
 10
64.05211710231644
 20
199.0822968262154
 30
0.0
 10
65.60273827554198
 20
200.8003867940898
 30
0.0
 10
67.32094207778957
 20
202.3511477347963
 30
0.0
 10
69.17774292814316
 20
203.70559132192
 30
0.0
 10
71.14811772458168
 20
204.8571552983794
 30
0.0
 10
73.18302851783619
 20
205.7833087077719
 30
0.0
 10
75.2704046915686
 20
206.4954234816278
 30
0.0
 10
78.01137994271834
 20
207.1409199759763
 30
0.0
 10
81.46996616556322
 20
207.4591719937439
 30
0.0
 10
84.92837788421197
 20
207.1409354466856
 30
0.0
 10
87.66935851118936
 20
206.4954731590896
 30
0.0
 10
89.75657871611457
 20
205.7834379253404
 30
0.0
 10
91.79165667160173
 20
204.8572356622119
 30
0.0
 10
93.76189320654548
 20
203.7057857137
 30
0.0
 10
95.61884946886968
 20
202.3512615485523
 30
0.0
 10
97.33694097508156
 20
200.8006401283685
 30
0.0
 10
98.88770169138236
 20
199.0824377347168
 30
0.0
 10
100.2421446424922
 20
197.2256315339429
 30
0.0
 10
101.3937113311812
 20
195.2552763362756
 30
0.0
 10
102.3198546950479
 20
193.2202936792953
 30
0.0
 10
103.032005544194
 20
191.1331753943474
 30
0.0
 10
103.4270202494734
 20
189.4546166135803
 30
0.0
 10
103.635477068083
 20
188.201038884593
 30
0.0
 10
103.7403994425711
 20
187.388072953424
 30
0.0
 10
103.8147892011039
 20
186.5723332971772
 30
0.0
 10
103.8613590438295
 20
185.7537994085372
 30
0.0
 10
103.8670952291032
 20
185.2070629356159
 30
0.0
 10
103.8699662835706
 20
184.933412396422
 30
0.0
  0
SPLINE
  5
C4
330
1F
100
AcDbEntity
  8
0
  6
Continuous
 62
     7
370
    15
100
AcDbSpline
210
0.0
220
0.0
230
1.0
 70
     8
 71
     3
 72
    47
 73
    43
 74
     0
 42
0.000000001
 43
0.00000001
 40
0.0
 40
0.0
 40
0.0
 40
0.0
 40
0.0064865025307663
 40
0.0129638098525436
 40
0.0194345943992101
 40
0.0259015366911689
 40
0.0323673220274745
 40
0.0388346371483234
 40
0.045306166888582
 40
0.0517845908431606
 40
0.0582725800648672
 40
0.0891441960344757
 40
0.1200232680065222
 40
0.1521817332802239
 40
0.1843476847365824
 40
0.2171904233643379
 40
0.250040807474865
 40
0.2828835463211989
 40
0.3157339306503821
 40
0.3478923965259775
 40
0.3800583485857232
 40
0.4109299640649397
 40
0.4418090356813723
 40
0.5000011037081227
 40
0.558193171734873
 40
0.5890647877039732
 40
0.6199438596765295
 40
0.6521023249504556
 40
0.6842682764065957
 40
0.7171110150351447
 40
0.7499613991448784
 40
0.782804137992006
 40
0.8156545223203957
 40
0.8478129881970667
 40
0.8799789402557394
 40
0.9108505557356688
 40
0.9417296273513824
 40
0.9533981518069745
 40
0.9650437986338376
 40
0.9766822122391875
 40
0.9883290661779248
 40
1.0
 40
1.0
 40
1.0
 40
1.0
 10
103.8699662835706
 20
184.933412396422
 30
0.0
 10
103.8690792605977
 20
184.7813280690886
 30
0.0
 10
103.8673064720878
 20
184.4773750078278
 30
0.0
 10
103.8529378310204
 20
184.021893077867
 30
0.0
 10
103.8299922185714
 20
183.5672449423067
 30
0.0
 10
103.7976324577848
 20
183.1134307601279
 30
0.0
 10
103.7560826564394
 20
182.6604509497743
 30
0.0
 10
103.7052825268499
 20
182.2083050886663
 30
0.0
 10
103.645249400767
 20
181.7569958555692
 30
0.0
 10
103.5759744750808
 20
181.3065143338322
 30
0.0
 10
103.3991992284849
 20
180.2939902675286
 30
0.0
 10
103.032046636738
 20
178.7337983777353
 30
0.0
 10
102.3199863219416
 20
176.6468621425234
 30
0.0
 10
101.3937910399711
 20
174.6117050709711
 30
0.0
 10
100.2423392121352
 20
172.6414901159814
 30
0.0
 10
98.88781546481712
 20
170.7845279666406
 30
0.0
 10
97.33719429159243
 20
169.0664379987728
 30
0.0
 10
95.61899048933282
 20
167.5156770580509
 30
0.0
 10
93.76218963900352
 20
166.1612334709413
 30
0.0
 10
91.79181484255511
 20
165.0096694944889
 30
0.0
 10
89.75690404933933
 20
164.083516085095
 30
0.0
 10
87.66952787558385
 20
163.3714013112172
 30
0.0
 10
84.92855262443176
 20
162.7259048168756
 30
0.0
 10
81.46996640155436
 20
162.4076527990989
 30
0.0
 10
78.01155468293322
 20
162.7258893461551
 30
0.0
 10
75.27057405595573
 20
163.3713516337483
 30
0.0
 10
73.18335385105371
 20
164.0833868674836
 30
0.0
 10
71.14827589553741
 20
165.0095891306166
 30
0.0
 10
69.17803936059967
 20
166.1610390791276
 30
0.0
 10
67.32108309824747
 20
167.515563244282
 30
0.0
 10
65.60299159204492
 20
169.0661846644661
 30
0.0
 10
64.05223087574544
 20
170.7843870581262
 30
0.0
 10
62.69778792463521
 20
172.6411932588847
 30
0.0
 10
61.54622123593648
 20
174.6115484565554
 30
0.0
 10
60.62007787207648
 20
176.6465311135313
 30
0.0
 10
59.90792702292754
 20
178.7336493984905
 30
0.0
 10
59.51291231764752
 20
180.4122081792525
 30
0.0
 10
59.3044554990334
 20
181.6657859082394
 30
0.0
 10
59.19953312454567
 20
182.4787518394016
 30
0.0
 10
59.12514336601287
 20
183.2944914956484
 30
0.0
 10
59.07857352328745
 20
184.1130253842953
 30
0.0
 10
59.07283733801383
 20
184.6597618572236
 30
0.0
 10
59.06996628354646
 20
184.933412396422
 30
0.0
  0
CIRCLE
  5
C5
330
1F
100
AcDbEntity
  8
0
  6
Continuous
 62
     7
370
    15
100
AcDbCircle
 10
81.4699662836
 20
184.9334123964
 30
0.0
 40
30.75000000000003
  0
CIRCLE
  5
C6
330
1F
100
AcDbEntity
  8
0
  6
Continuous
 62
     7
370
    15
100
AcDbCircle
 10
81.4699662836
 20
184.9334123964
 30
0.0
 40
31.75000000000004
  0
INSERT
  5
D2
330
1F
100
AcDbEntity
  8
DIM
100
AcDbBlockReference
  2
SW_CENTERMARKSYMBOL_0
 10
81.4699662836
 20
184.9334123964
 30
0.0
  0
LINE
  5
D3
330
1F
100
AcDbEntity
  8
0
  6
Continuous
 62
     7
370
    15
100
AcDbLine
 10
263.0726834994
 20
153.1834113831
 30
0.0
 11
264.0726818007
 21
154.1834115471
 31
0.0
  0
LINE
  5
D4
330
1F
100
AcDbEntity
  8
0
  6
Continuous
 62
     7
370
    15
100
AcDbLine
 10
264.0726818007
 20
215.6834132458
 30
0.0
 11
263.0726834994
 21
216.6834134097
 31
0.0
  0
LINE
  5
D5
330
1F
100
AcDbEntity
  8
0
  6
Continuous
 62
     7
370
    15
100
AcDbLine
 10
259.5945196461
 20
153.1834113831
 30
0.0
 11
263.0726834994
 21
153.1834113831
 31
0.0
  0
LINE
  5
D6
330
1F
100
AcDbEntity
  8
0
  6
Continuous
 62
     7
370
    15
100
AcDbLine
 10
263.0726834994
 20
216.6834134097
 30
0.0
 11
259.5945196461
 21
216.6834134097
 31
0.0
  0
LINE
  5
D7
330
1F
100
AcDbEntity
  8
0
  6
Continuous
 62
     7
370
    15
100
AcDbLine
 10
249.1726824318
 20
153.1834113831
 30
0.0
 11
252.5508459893
 21
153.1834113831
 31
0.0
  0
LINE
  5
D8
330
1F
100
AcDbEntity
  8
0
  6
Continuous
 62
     7
370
    15
100
AcDbLine
 10
252.5508459893
 20
216.6834134097
 30
0.0
 11
249.1726824318
 21
216.6834134097
 31
0.0
  0
LINE
  5
D9
330
1F
100
AcDbEntity
  8
0
  6
Continuous
 62
     7
370
    15
100
AcDbLine
 10
249.1726824318
 20
216.6834134097
 30
0.0
 11
248.1726825007
 21
215.6834132458
 31
0.0
  0
LINE
  5
DA
330
1F
100
AcDbEntity
  8
0
  6
Continuous
 62
     7
370
    15
100
AcDbLine
 10
248.1726825007
 20
154.1834115471
 30
0.0
 11
249.1726824318
 21
153.1834113831
 31
0.0
  0
LINE
  5
DB
330
1F
100
AcDbEntity
  8
0
  6
Continuous
 62
     7
370
    15
100
AcDbLine
 10
400.3538852793
 20
153.4334118898
 30
0.0
 11
404.9726790052
 21
161.4334132011
 31
0.0
  0
LINE
  5
DC
330
1F
100
AcDbEntity
  8
0
  6
Continuous
 62
     7
370
    15
100
AcDbLine
 10
404.9726790052
 20
208.4334115918
 30
0.0
 11
400.3538852793
 21
216.4334129031
 31
0.0
  0
LINE
  5
DD
330
1F
100
AcDbEntity
  8
0
  6
Continuous
 62
     7
370
    15
100
AcDbLine
 10
381.4726835352
 20
153.4334118898
 30
0.0
 11
400.3538852793
 21
153.4334118898
 31
0.0
  0
LINE
  5
DE
330
1F
100
AcDbEntity
  8
0
  6
Continuous
 62
     7
370
    15
100
AcDbLine
 10
400.3538852793
 20
216.4334129031
 30
0.0
 11
381.4726835352
 21
216.4334129031
 31
0.0
  0
LINE
  5
DF
330
1F
100
AcDbEntity
  8
0
  6
Continuous
 62
     7
370
    15
100
AcDbLine
 10
381.4726835352
 20
216.4334129031
 30
0.0
 11
379.4726794821
 21
214.4334125752
 31
0.0
  0
LINE
  5
E0
330
1F
100
AcDbEntity
  8
0
  6
Continuous
 62
     7
370
    15
100
AcDbLine
 10
379.4726794821
 20
155.4334122176
 30
0.0
 11
381.4726835352
 21
153.4334118898
 31
0.0
  0
LINE
  5
E1
330
1F
100
AcDbEntity
  8
0
  6
Continuous
 62
     7
370
    15
100
AcDbLine
 10
254.1726827857
 20
156.9334115322
 30
0.0
 11
257.9726828497
 21
156.9334115322
 31
0.0
  0
LINE
  5
E2
330
1F
100
AcDbEntity
  8
0
  6
Continuous
 62
     7
370
    15
100
AcDbLine
 10
257.9726828497
 20
212.9334132607
 30
0.0
 11
254.1726827857
 21
212.9334132607
 31
0.0
  0
LINE
  5
E3
330
1F
100
AcDbEntity
  8
0
  6
Continuous
 62
     7
370
    15
100
AcDbLine
 10
371.9726866346
 20
159.1834123666
 30
0.0
 11
379.4726794821
 21
159.1834123666
 31
0.0
  0
LINE
  5
E4
330
1F
100
AcDbEntity
  8
0
  6
Continuous
 62
     7
370
    15
100
AcDbLine
 10
379.4726794821
 20
210.6834124262
 30
0.0
 11
371.9726866346
 21
210.6834124262
 31
0.0
  0
LINE
  5
E5
330
1F
100
AcDbEntity
  8
0
  6
Continuous
 62
     7
370
    15
100
AcDbLine
 10
371.9726866346
 20
210.6834124262
 30
0.0
 11
364.4669046861
 21
207.1834127839
 31
0.0
  0
LINE
  5
E6
330
1F
100
AcDbEntity
  8
0
  6
Continuous
 62
     7
370
    15
100
AcDbLine
 10
364.4669046861
 20
162.683412009
 30
0.0
 11
371.9726866346
 21
159.1834123666
 31
0.0
  0
ARC
  5
E7
330
1F
100
AcDbEntity
  8
0
  6
Continuous
 62
     7
370
    15
100
AcDbCircle
 10
247.7726825812
 20
162.5334123961
 30
0.0
 40
0.4000000002708646
100
AcDbArc
 50
0.0
 51
89.9999999705
  0
ARC
  5
E8
330
1F
100
AcDbEntity
  8
0
  6
Continuous
 62
     7
370
    15
100
AcDbCircle
 10
247.7726825812
 20
207.3334123967
 30
0.0
 40
0.4000000002708646
100
AcDbArc
 50
270.0000000295
 51
0.0
  0
LINE
  5
E9
330
1F
100
AcDbEntity
  8
0
  6
Continuous
 62
     7
370
    15
100
AcDbLine
 10
264.0726818007
 20
162.683412009
 30
0.0
 11
364.4669046861
 21
162.683412009
 31
0.0
  0
LINE
  5
EA
330
1F
100
AcDbEntity
  8
0
  6
Continuous
 62
     7
370
    15
100
AcDbLine
 10
364.4669046861
 20
207.1834127839
 30
0.0
 11
264.0726818007
 21
207.1834127839
 31
0.0
  0
LINE
  5
EB
330
1F
100
AcDbEntity
  8
0
  6
Continuous
 62
     7
370
    15
100
AcDbLine
 10
244.9726825815
 20
162.7084124322
 30
0.0
 11
245.4551966456
 21
162.9334125156
 31
0.0
  0
LINE
  5
EC
330
1F
100
AcDbEntity
  8
0
  6
Continuous
 62
     7
370
    15
100
AcDbLine
 10
245.4551966456
 20
206.9334122772
 30
0.0
 11
244.9726825815
 21
207.1584123607
 31
0.0
  0
LINE
  5
ED
330
1F
100
AcDbEntity
  8
0
  6
Continuous
 62
     7
370
    15
100
AcDbLine
 10
244.9726825815
 20
207.1584123607
 30
0.0
 11
177.4283712965
 21
197.3081077869
 31
0.0
  0
LINE
  5
EE
330
1F
100
AcDbEntity
  8
0
  6
Continuous
 62
     7
370
    15
100
AcDbLine
 10
177.4283712965
 20
172.558717006
 30
0.0
 11
244.9726825815
 21
162.7084124322
 31
0.0
  0
LINE
  5
EF
330
1F
100
AcDbEntity
  8
0
  6
Continuous
 62
     7
370
    15
100
AcDbLine
 10
245.4551966456
 20
162.9334125156
 30
0.0
 11
247.7726824817
 21
162.9334125156
 31
0.0
  0
LINE
  5
F0
330
1F
100
AcDbEntity
  8
0
  6
Continuous
 62
     7
370
    15
100
AcDbLine
 10
247.7726824817
 20
206.9334122772
 30
0.0
 11
245.4551966456
 21
206.9334122772
 31
0.0
  0
SPLINE
  5
F1
330
1F
100
AcDbEntity
  8
0
  6
Continuous
 62
     7
370
    15
100
AcDbSpline
210
0.0
220
0.0
230
1.0
 70
     8
 71
     3
 72
    11
 73
     7
 74
     0
 42
0.000000001
 43
0.00000001
 40
0.0
 40
0.0
 40
0.0
 40
0.0
 40
0.2418860895924856
 40
0.4999977846006939
 40
0.7581134239561622
 40
1.0
 40
1.0
 40
1.0
 40
1.0
 10
177.4283712964883
 20
197.3081077868849
 30
0.0
 10
177.3162186662438
 20
197.2800530204259
 30
0.0
 10
177.0843902599315
 20
197.2220615869351
 30
0.0
 10
176.8007804423759
 20
196.9860714834357
 30
0.0
 10
176.6081899132703
 20
196.6713740242345
 30
0.0
 10
176.5842574145543
 20
196.4336019793553
 30
0.0
 10
176.5726795655121
 20
196.3185747573882
 30
0.0
  0
SPLINE
  5
F2
330
1F
100
AcDbEntity
  8
0
  6
Continuous
 62
     7
370
    15
100
AcDbSpline
210
0.0
220
0.0
230
1.0
 70
     8
 71
     3
 72
    11
 73
     7
 74
     0
 42
0.000000001
 43
0.00000001
 40
0.0
 40
0.0
 40
0.0
 40
0.0
 40
0.2418865760438377
 40
0.5000022153993059
 40
0.7581139104075142
 40
1.0
 40
1.0
 40
1.0
 40
1.0
 10
176.5726795655121
 20
173.5482500354558
 30
0.0
 10
176.5842574145543
 20
173.4332228134887
 30
0.0
 10
176.6081899132703
 20
173.1954507686095
 30
0.0
 10
176.8007804423759
 20
172.8807533094083
 30
0.0
 10
177.0843902599315
 20
172.644763205909
 30
0.0
 10
177.3162186662438
 20
172.5867717724181
 30
0.0
 10
177.4283712964883
 20
172.5587170059592
 30
0.0
  0
LINE
  5
F3
330
1F
100
AcDbEntity
  8
0
  6
Continuous
 62
     7
370
    15
100
AcDbLine
 10
257.9726828497
 20
155.9925149615
 30
0.0
 11
259.5945196461
 21
153.1834113831
 31
0.0
  0
LINE
  5
F4
330
1F
100
AcDbEntity
  8
0
  6
Continuous
 62
     7
370
    15
100
AcDbLine
 10
252.5508459893
 20
153.1834113831
 30
0.0
 11
254.1726827857
 21
155.9925149615
 31
0.0
  0
LINE
  5
F5
330
1F
100
AcDbEntity
  8
0
  6
Continuous
 62
     7
370
    15
100
AcDbLine
 10
254.1726827857
 20
213.8743098314
 30
0.0
 11
252.5508459893
 21
216.6834134097
 31
0.0
  0
LINE
  5
F6
330
1F
100
AcDbEntity
  8
0
  6
Continuous
 62
     7
370
    15
100
AcDbLine
 10
259.5945196461
 20
216.6834134097
 30
0.0
 11
257.9726828497
 21
213.8743098314
 31
0.0
  0
LINE
  5
F7
330
1F
100
AcDbEntity
  8
0
  6
Continuous
 62
     7
370
    15
100
AcDbLine
 10
263.0726834994
 20
184.9334123964
 30
0.0
 11
263.0726834994
 21
216.6834134097
 31
0.0
  0
LINE
  5
F8
330
1F
100
AcDbEntity
  8
0
  6
Continuous
 62
     7
370
    15
100
AcDbLine
 10
263.0726834994
 20
153.1834113831
 30
0.0
 11
263.0726834994
 21
184.9334123964
 31
0.0
  0
LINE
  5
F9
330
1F
100
AcDbEntity
  8
0
  6
Continuous
 62
     7
370
    15
100
AcDbLine
 10
264.0726818007
 20
184.9334123964
 30
0.0
 11
264.0726818007
 21
215.6834132458
 31
0.0
  0
LINE
  5
FA
330
1F
100
AcDbEntity
  8
0
  6
Continuous
 62
     7
370
    15
100
AcDbLine
 10
264.0726818007
 20
154.1834115471
 30
0.0
 11
264.0726818007
 21
184.9334123964
 31
0.0
  0
LINE
  5
FB
330
1F
100
AcDbEntity
  8
0
  6
Continuous
 62
     7
370
    15
100
AcDbLine
 10
259.5945196461
 20
154.4037457044
 30
0.0
 11
259.5945196461
 21
215.4963813211
 31
0.0
  0
LINE
  5
FC
330
1F
100
AcDbEntity
  8
0
  6
Continuous
 62
     7
370
    15
100
AcDbLine
 10
259.5945196461
 20
215.4963813211
 30
0.0
 11
259.5945196461
 21
216.6834134097
 31
0.0
  0
LINE
  5
FD
330
1F
100
AcDbEntity
  8
0
  6
Continuous
 62
     7
370
    15
100
AcDbLine
 10
259.5945196461
 20
153.1834113831
 30
0.0
 11
259.5945196461
 21
154.4037457044
 31
0.0
  0
LINE
  5
FE
330
1F
100
AcDbEntity
  8
0
  6
Continuous
 62
     7
370
    15
100
AcDbLine
 10
249.1726824318
 20
184.9334123964
 30
0.0
 11
249.1726824318
 21
216.6834134097
 31
0.0
  0
LINE
  5
FF
330
1F
100
AcDbEntity
  8
0
  6
Continuous
 62
     7
370
    15
100
AcDbLine
 10
249.1726824318
 20
153.1834113831
 30
0.0
 11
249.1726824318
 21
184.9334123964
 31
0.0
  0
LINE
  5
100
330
1F
100
AcDbEntity
  8
0
  6
Continuous
 62
     7
370
    15
100
AcDbLine
 10
252.5508459893
 20
215.4963813211
 30
0.0
 11
252.5508459893
 21
154.4037457044
 31
0.0
  0
LINE
  5
101
330
1F
100
AcDbEntity
  8
0
  6
Continuous
 62
     7
370
    15
100
AcDbLine
 10
252.5508459893
 20
153.1834113831
 30
0.0
 11
252.5508459893
 21
154.4037457044
 31
0.0
  0
LINE
  5
102
330
1F
100
AcDbEntity
  8
0
  6
Continuous
 62
     7
370
    15
100
AcDbLine
 10
252.5508459893
 20
215.4963813211
 30
0.0
 11
252.5508459893
 21
216.6834134097
 31
0.0
  0
LINE
  5
103
330
1F
100
AcDbEntity
  8
0
  6
Continuous
 62
     7
370
    15
100
AcDbLine
 10
248.1726825007
 20
184.9334123964
 30
0.0
 11
248.1726825007
 21
215.6834132458
 31
0.0
  0
LINE
  5
104
330
1F
100
AcDbEntity
  8
0
  6
Continuous
 62
     7
370
    15
100
AcDbLine
 10
248.1726825007
 20
154.1834115471
 30
0.0
 11
248.1726825007
 21
184.9334123964
 31
0.0
  0
SPLINE
  5
105
330
1F
100
AcDbEntity
  8
0
  6
Continuous
 62
     7
370
    15
100
AcDbSpline
210
0.0
220
0.0
230
1.0
 70
     8
 71
     3
 72
     8
 73
     4
 74
     0
 42
0.000000001
 43
0.00000001
 40
0.0000000000030808
 40
0.0000000000030808
 40
0.0000000000030808
 40
0.0000000000030808
 40
0.0025330788436741
 40
0.0025330788436741
 40
0.0025330788436741
 40
0.0025330788436741
 10
257.9726825792621
 20
212.7322071882211
 30
0.0
 10
258.3821814665058
 20
213.470620243171
 30
0.0
 10
258.7926413634854
 20
214.2085008727161
 30
0.0
 10
259.2038725309054
 20
214.9459506034209
 30
0.0
  0
SPLINE
  5
106
330
1F
100
AcDbEntity
  8
0
  6
Continuous
 62
     7
370
    15
100
AcDbSpline
210
0.0
220
0.0
230
1.0
 70
     8
 71
     3
 72
     8
 73
     4
 74
     0
 42
0.000000001
 43
0.00000001
 40
0.0000000000000943
 40
0.0000000000000943
 40
0.0000000000000943
 40
0.0000000000000943
 40
0.0008709497180574
 40
0.0008709497180574
 40
0.0008709497180574
 40
0.0008709497180574
 10
259.594519223485
 20
215.496381590483
 30
0.0
 10
259.4639454000052
 20
215.3130319395454
 30
0.0
 10
259.3337212634249
 20
215.1295575328362
 30
0.0
 10
259.2038725293194
 20
214.9459505903922
 30
0.0
  0
SPLINE
  5
107
330
1F
100
AcDbEntity
  8
0
  6
Continuous
 62
     7
370
    15
100
AcDbSpline
210
0.0
220
0.0
230
1.0
 70
     8
 71
     3
 72
     8
 73
     4
 74
     0
 42
0.000000001
 43
0.00000001
 40
0.0
 40
0.0
 40
0.0
 40
0.0
 40
0.000837255014098
 40
0.000837255014098
 40
0.000837255014098
 40
0.000837255014098
 10
259.2745003636714
 20
154.7942370795708
 30
0.0
 10
259.3804045149092
 20
154.6639131977413
 30
0.0
 10
259.4870936500216
 20
154.5337511922844
 30
0.0
 10
259.5945192247368
 20
154.4037449076321
 30
0.0
  0
SPLINE
  5
108
330
1F
100
AcDbEntity
  8
0
  6
Continuous
 62
     7
370
    15
100
AcDbSpline
210
0.0
220
0.0
230
1.0
 70
     8
 71
     3
 72
     8
 73
     4
 74
     0
 42
0.000000001
 43
0.00000001
 40
0.0
 40
0.0
 40
0.0
 40
0.0
 40
0.0026780796328414
 40
0.0026780796328414
 40
0.0026780796328414
 40
0.0026780796328414
 10
257.9726825810715
 20
157.1346175999886
 30
0.0
 10
258.4056223678834
 20
156.3539356481058
 30
0.0
 10
258.8396357751986
 20
155.5738484944344
 30
0.0
 10
259.2745003587772
 20
154.7942370765157
 30
0.0
  0
LINE
  5
109
330
1F
100
AcDbEntity
  8
0
  6
Continuous
 62
     7
370
    15
100
AcDbLine
 10
257.9726828497
 20
212.7322066064
 30
0.0
 11
257.9726828497
 21
157.1346181865
 31
0.0
  0
SPLINE
  5
10A
330
1F
100
AcDbEntity
  8
0
  6
Continuous
 62
     7
370
    15
100
AcDbSpline
210
0.0
220
0.0
230
1.0
 70
     8
 71
     3
 72
     8
 73
     4
 74
     0
 42
0.000000001
 43
0.00000001
 40
0.0
 40
0.0
 40
0.0
 40
0.0
 40
0.0025330787426472
 40
0.0025330787426472
 40
0.0025330787426472
 40
0.0025330787426472
 10
252.9414926953937
 20
214.945950489934
 30
0.0
 10
253.352723841458
 20
214.2085007973387
 30
0.0
 10
253.7631837178418
 20
213.4706202063259
 30
0.0
 10
254.1726825838975
 20
212.7322071895789
 30
0.0
  0
LINE
  5
10B
330
1F
100
AcDbEntity
  8
0
  6
Continuous
 62
     7
370
    15
100
AcDbLine
 10
254.1726827857
 20
157.1346181865
 30
0.0
 11
254.1726827857
 21
212.7322066064
 31
0.0
  0
SPLINE
  5
10C
330
1F
100
AcDbEntity
  8
0
  6
Continuous
 62
     7
370
    15
100
AcDbSpline
210
0.0
220
0.0
230
1.0
 70
     8
 71
     3
 72
     8
 73
     4
 74
     0
 42
0.000000001
 43
0.00000001
 40
0.0000000000190573
 40
0.0000000000190573
 40
0.0000000000190573
 40
0.0000000000190573
 40
0.0026780796338977
 40
0.0026780796338977
 40
0.0026780796338977
 40
0.0026780796338977
 10
252.8708648210811
 20
154.7942370649097
 30
0.0
 10
253.3057294047408
 20
155.5738484831035
 30
0.0
 10
253.7397427945591
 20
156.3539356468276
 30
0.0
 10
254.1726825815072
 20
157.1346175989548
 30
0.0
  0
SPLINE
  5
10D
330
1F
100
AcDbEntity
  8
0
  6
Continuous
 62
     7
370
    15
100
AcDbSpline
210
0.0
220
0.0
230
1.0
 70
     8
 71
     3
 72
     8
 73
     4
 74
     0
 42
0.000000001
 43
0.00000001
 40
0.0
 40
0.0
 40
0.0
 40
0.0
 40
0.0008372550072646
 40
0.0008372550072646
 40
0.0008372550072646
 40
0.0008372550072646
 10
252.5508459407162
 20
154.403744910274
 30
0.0
 10
252.658271514359
 20
154.5337511936441
 30
0.0
 10
252.7649606481938
 20
154.6639131981569
 30
0.0
 10
252.8708647983895
 20
154.7942370786978
 30
0.0
  0
SPLINE
  5
10E
330
1F
100
AcDbEntity
  8
0
  6
Continuous
 62
     7
370
    15
100
AcDbSpline
210
0.0
220
0.0
230
1.0
 70
     8
 71
     3
 72
     8
 73
     4
 74
     0
 42
0.000000001
 43
0.00000001
 40
0.0000000000001874
 40
0.0000000000001874
 40
0.0000000000001874
 40
0.0000000000001874
 40
0.0008709498335747
 40
0.0008709498335747
 40
0.0008709498335747
 40
0.0008709498335747
 10
252.9414926853694
 20
214.9459505173243
 30
0.0
 10
252.8116439341405
 20
215.1295574841568
 30
0.0
 10
252.6814197803338
 20
215.3130319152183
 30
0.0
 10
252.5508459395349
 20
215.4963815904752
 30
0.0
  0
LINE
  5
10F
330
1F
100
AcDbEntity
  8
0
  6
Continuous
 62
     7
370
    15
100
AcDbLine
 10
404.9726790052
 20
184.9334123964
 30
0.0
 11
404.9726790052
 21
208.4334115918
 31
0.0
  0
LINE
  5
110
330
1F
100
AcDbEntity
  8
0
  6
Continuous
 62
     7
370
    15
100
AcDbLine
 10
404.9726790052
 20
161.4334132011
 30
0.0
 11
404.9726790052
 21
184.9334123964
 31
0.0
  0
LINE
  5
111
330
1F
100
AcDbEntity
  8
0
  6
Continuous
 62
     7
370
    15
100
AcDbLine
 10
400.3538852793
 20
184.9334123964
 30
0.0
 11
400.3538852793
 21
216.4334129031
 31
0.0
  0
LINE
  5
112
330
1F
100
AcDbEntity
  8
0
  6
Continuous
 62
     7
370
    15
100
AcDbLine
 10
400.3538852793
 20
153.4334118898
 30
0.0
 11
400.3538852793
 21
184.9334123964
 31
0.0
  0
LINE
  5
113
330
1F
100
AcDbEntity
  8
0
  6
Continuous
 62
     7
370
    15
100
AcDbLine
 10
381.4726835352
 20
184.9334123964
 30
0.0
 11
381.4726835352
 21
216.4334129031
 31
0.0
  0
LINE
  5
114
330
1F
100
AcDbEntity
  8
0
  6
Continuous
 62
     7
370
    15
100
AcDbLine
 10
381.4726835352
 20
153.4334118898
 30
0.0
 11
381.4726835352
 21
184.9334123964
 31
0.0
  0
LINE
  5
115
330
1F
100
AcDbEntity
  8
0
  6
Continuous
 62
     7
370
    15
100
AcDbLine
 10
379.4726794821
 20
184.9334123964
 30
0.0
 11
379.4726794821
 21
214.4334125752
 31
0.0
  0
LINE
  5
116
330
1F
100
AcDbEntity
  8
0
  6
Continuous
 62
     7
370
    15
100
AcDbLine
 10
379.4726794821
 20
155.4334122176
 30
0.0
 11
379.4726794821
 21
184.9334123964
 31
0.0
  0
LINE
  5
117
330
1F
100
AcDbEntity
  8
0
  6
Continuous
 62
     7
370
    15
100
AcDbLine
 10
371.9726866346
 20
184.9334123964
 30
0.0
 11
371.9726866346
 21
210.6834124262
 31
0.0
  0
LINE
  5
118
330
1F
100
AcDbEntity
  8
0
  6
Continuous
 62
     7
370
    15
100
AcDbLine
 10
371.9726866346
 20
159.1834123666
 30
0.0
 11
371.9726866346
 21
184.9334123964
 31
0.0
  0
LINE
  5
119
330
1F
100
AcDbEntity
  8
0
  6
Continuous
 62
     7
370
    15
100
AcDbLine
 10
364.4669046861
 20
184.9334123964
 30
0.0
 11
364.4669046861
 21
207.1834127839
 31
0.0
  0
LINE
  5
11A
330
1F
100
AcDbEntity
  8
0
  6
Continuous
 62
     7
370
    15
100
AcDbLine
 10
364.4669046861
 20
162.683412009
 30
0.0
 11
364.4669046861
 21
184.9334123964
 31
0.0
  0
LINE
  5
11B
330
1F
100
AcDbEntity
  8
0
  6
Continuous
 62
     7
370
    15
100
AcDbLine
 10
245.4551966456
 20
184.9334123964
 30
0.0
 11
245.4551966456
 21
206.9334122772
 31
0.0
  0
LINE
  5
11C
330
1F
100
AcDbEntity
  8
0
  6
Continuous
 62
     7
370
    15
100
AcDbLine
 10
245.4551966456
 20
162.9334125156
 30
0.0
 11
245.4551966456
 21
184.9334123964
 31
0.0
  0
LINE
  5
11D
330
1F
100
AcDbEntity
  8
0
  6
Continuous
 62
     7
370
    15
100
AcDbLine
 10
244.9726825815
 20
162.7084124322
 30
0.0
 11
244.9726825815
 21
207.1584123607
 31
0.0
  0
SPLINE
  5
11E
330
1F
100
AcDbEntity
  8
0
  6
Continuous
 62
     7
370
    15
100
AcDbSpline
210
0.0
220
0.0
230
1.0
 70
    24
 71
     3
 72
    14
 73
    10
 74
     0
 42
0.000000001
 43
0.00000001
 40
0.0
 40
0.0
 40
0.0
 40
0.0
 40
0.25
 40
0.25
 40
0.5
 40
0.5
 40
0.75
 40
0.75
 40
1.0
 40
1.0
 40
1.0
 40
1.0
 10
176.5726825817924
 20
184.933412396422
 30
0.0
 10
176.572682581554
 20
184.933412396422
 30
0.0
 10
176.5909867631959
 20
184.933412396422
 30
0.0
 10
176.6720926870366
 20
184.933412396422
 30
0.0
 10
176.7350767842649
 20
184.933412396422
 30
0.0
 10
176.8974709876877
 20
184.933412396422
 30
0.0
 10
176.9965163838315
 20
184.933412396422
 30
0.0
 10
177.2082773701939
 20
184.933412396422
 30
0.0
 10
177.3204989047437
 20
184.933412396422
 30
0.0
 10
177.4283743545122
 20
184.933412396422
 30
0.0
  0
SPLINE
  5
11F
330
1F
100
AcDbEntity
  8
0
  6
Continuous
 62
     7
370
    15
100
AcDbSpline
210
0.0
220
0.0
230
1.0
 70
    24
 71
     3
 72
    22
 73
    18
 74
     0
 42
0.000000001
 43
0.00000001
 40
0.0
 40
0.0
 40
0.0
 40
0.0
 40
0.1249999999999999
 40
0.1249999999999999
 40
0.2499999999999998
 40
0.2499999999999998
 40
0.3749999999999998
 40
0.3749999999999998
 40
0.4999999999999997
 40
0.4999999999999997
 40
0.6249999999999998
 40
0.6249999999999998
 40
0.7499999999999999
 40
0.7499999999999999
 40
0.875
 40
0.875
 40
1.0
 40
1.0
 40
1.0
 40
1.0
 10
176.5726825817924
 20
196.3185749838642
 30
0.0
 10
176.5726825817924
 20
196.318574983854
 30
0.0
 10
176.5726825817923
 20
196.1982111347945
 30
0.0
 10
176.5726825817924
 20
195.7383134428857
 30
0.0
 10
176.5726825817924
 20
195.3993577045636
 30
0.0
 10
176.5726825817924
 20
194.5589304778031
 30
0.0
 10
176.5726825817924
 20
194.0582068063917
 30
0.0
 10
176.5726825817924
 20
192.964342433195
 30
0.0
 10
176.5726825817924
 20
192.3717186201759
 30
0.0
 10
176.5726825817924
 20
191.1573012775206
 30
0.0
 10
176.5726825817924
 20
190.5356808866873
 30
0.0
 10
176.5726825817923
 20
189.3091515670019
 30
0.0
 10
176.5726825817924
 20
188.7041782453605
 30
0.0
 10
176.5726825817924
 20
187.5383375964136
 30
0.0
 10
176.5726825817923
 20
186.9773146365711
 30
0.0
 10
176.5726825817924
 20
185.9121196927449
 30
0.0
 10
176.5726825817924
 20
185.4077941708962
 30
0.0
 10
176.5726825817924
 20
184.933412396422
 30
0.0
  0
SPLINE
  5
120
330
1F
100
AcDbEntity
  8
0
  6
Continuous
 62
     7
370
    15
100
AcDbSpline
210
0.0
220
0.0
230
1.0
 70
    24
 71
     3
 72
    22
 73
    18
 74
     0
 42
0.000000001
 43
0.00000001
 40
0.0
 40
0.0
 40
0.0
 40
0.0
 40
0.125
 40
0.125
 40
0.25
 40
0.25
 40
0.375
 40
0.375
 40
0.5
 40
0.5
 40
0.625
 40
0.625
 40
0.75
 40
0.75
 40
0.875
 40
0.875
 40
1.0
 40
1.0
 40
1.0
 40
1.0
 10
176.5726825817924
 20
184.933412396422
 30
0.0
 10
176.5726825817924
 20
184.4590306219427
 30
0.0
 10
176.5726825817923
 20
183.9547051000883
 30
0.0
 10
176.5726825817924
 20
182.8895101562495
 30
0.0
 10
176.5726825817924
 20
182.3284871964001
 30
0.0
 10
176.5726825817924
 20
181.1626465474388
 30
0.0
 10
176.5726825817924
 20
180.55767322579
 30
0.0
 10
176.5726825817924
 20
179.3311439060904
 30
0.0
 10
176.5726825817924
 20
178.7095235152505
 30
0.0
 10
176.5726825817924
 20
177.4951061725847
 30
0.0
 10
176.5726825817924
 20
176.9024823595619
 30
0.0
 10
176.5726825817924
 20
175.8086179863633
 30
0.0
 10
176.5726825817924
 20
175.3078943149539
 30
0.0
 10
176.5726825817924
 20
174.4674670882051
 30
0.0
 10
176.5726825817924
 20
174.1285113498928
 30
0.0
 10
176.5726825817924
 20
173.6686136580115
 30
0.0
 10
176.5726825817924
 20
173.5482498089696
 30
0.0
 10
176.5726825817924
 20
173.5482498089798
 30
0.0
  0
LINE
  5
121
330
1F
100
AcDbEntity
  8
0
  6
Continuous
 62
     7
370
    15
100
AcDbLine
 10
257.9726828497
 20
155.9925149615
 30
0.0
 11
257.9726828497
 21
157.1346181865
 31
0.0
  0
LINE
  5
122
330
1F
100
AcDbEntity
  8
0
  6
Continuous
 62
     7
370
    15
100
AcDbLine
 10
254.1726827857
 20
155.9925149615
 30
0.0
 11
254.1726827857
 21
157.1346181865
 31
0.0
  0
LINE
  5
123
330
1F
100
AcDbEntity
  8
0
  6
Continuous
 62
     7
370
    15
100
AcDbLine
 10
254.1726827857
 20
212.7322066064
 30
0.0
 11
254.1726827857
 21
213.8743098314
 31
0.0
  0
LINE
  5
124
330
1F
100
AcDbEntity
  8
0
  6
Continuous
 62
     7
370
    15
100
AcDbLine
 10
257.9726828497
 20
212.7322066064
 30
0.0
 11
257.9726828497
 21
213.8743098314
 31
0.0
  0
LINE
  5
125
330
1F
100
AcDbEntity
  8
0
  6
Continuous
 62
     8
370
    15
100
AcDbLine
 10
247.7726824817
 20
184.9334123964
 30
0.0
 11
247.7726824817
 21
206.9334122772
 31
0.0
  0
LINE
  5
126
330
1F
100
AcDbEntity
  8
0
  6
Continuous
 62
     8
370
    15
100
AcDbLine
 10
247.7726824817
 20
162.9334125156
 30
0.0
 11
247.7726824817
 21
184.9334123964
 31
0.0
  0
LINE
  5
127
330
1F
100
AcDbEntity
  8
0
  6
Continuous
 62
     8
370
    15
100
AcDbLine
 10
177.4283712965
 20
184.9334123936
 30
0.0
 11
177.4283712965
 21
172.558717006
 31
0.0
  0
LINE
  5
128
330
1F
100
AcDbEntity
  8
0
  6
Continuous
 62
     8
370
    15
100
AcDbLine
 10
177.4283712965
 20
197.3081077869
 30
0.0
 11
177.4283712965
 21
184.9334123936
 31
0.0
  0
DIMENSION
  5
129
330
1F
100
AcDbEntity
  8
DIM
100
AcDbDimension
  2
_D
 10
167.8746024967
 20
153.1834123964
 30
0.0
 11
167.8746024967
 21
184.9334123964
 31
0.0
 70
   160
  1
%%c<>
 71
     2
 42
-1.0
  3
SLDDIMSTYLE0
100
AcDbAlignedDimension
 13
249.1726825815
 23
216.6834123964
 33
0.0
 14
249.1726825815
 24
153.1834123964
 34
0.0
 50
90.0
100
AcDbRotatedDimension
  0
DIMENSION
  5
135
330
1F
100
AcDbEntity
  8
DIM
100
AcDbDimension
  2
_D_1
 10
404.9726825811
 20
142.9116256081
 30
0.0
 11
324.9726825813
 21
142.9116256081
 31
0.0
 70
   160
  1
<>
 71
     2
 42
-1.0
  3
SLDDIMSTYLE1
100
AcDbAlignedDimension
 13
244.9726825815
 23
162.7084123964
 33
0.0
 14
404.9726825811
 24
161.4334123966
 34
0.0
100
AcDbRotatedDimension
  0
DIMENSION
  5
140
330
1F
100
AcDbEntity
  8
DIM
100
AcDbDimension
  2
_D_2
 10
176.5726825817
 20
132.4814035663
 30
0.0
 11
290.7726825814
 21
132.4814035663
 31
0.0
 70
   160
  1
<>
 71
     2
 42
-1.0
  3
SLDDIMSTYLE0
100
AcDbAlignedDimension
 13
404.9726825811
 23
161.4334123966
 33
0.0
 14
176.5726825817
 24
184.9334123964
 34
0.0
100
AcDbRotatedDimension
  0
DIMENSION
  5
14A
330
1F
100
AcDbEntity
  8
DIM
100
AcDbDimension
  2
_D_3
 10
417.8744240083
 20
153.4334123964
 30
0.0
 11
417.8744240083
 21
184.9334123964
 31
0.0
 70
   160
  1
%%c<>
 71
     2
 42
-1.0
  3
SLDDIMSTYLE1
100
AcDbAlignedDimension
 13
400.3538804275
 23
216.4334123964
 33
0.0
 14
400.3538804275
 24
153.4334123964
 34
0.0
 50
90.0
100
AcDbRotatedDimension
  0
LINE
  5
155
330
1F
100
AcDbEntity
  8
DIM
  6
CENTERX2
 48
1.2
370
     0
100
AcDbLine
 10
175.6990394767
 20
184.9334123964
 30
0.0
 11
411.1595421021
 21
184.9334123964
 31
0.0
  0
ENDSEC
  0
SECTION
  2
OBJECTS
  0
DICTIONARY
  5
C
330
0
100
AcDbDictionary
281
     1
  3
ACAD_GROUP
350
D
  3
ACAD_LAYOUT
350
1A
  3
ACAD_MLINESTYLE
350
17
  3
ACAD_PLOTSETTINGS
350
19
  3
ACAD_PLOTSTYLENAME
350
E
  3
ACAD_SCALELIST
350
47
  0
DICTIONARY
  5
D
102
{ACAD_REACTORS
330
C
102
}
330
C
100
AcDbDictionary
281
     1
  0
DICTIONARY
  5
1A
102
{ACAD_REACTORS
330
C
102
}
330
C
100
AcDbDictionary
281
     1
  3
Layout1
350
1E
  3
Layout2
350
26
  3
Model
350
22
  0
DICTIONARY
  5
17
102
{ACAD_REACTORS
330
C
102
}
330
C
100
AcDbDictionary
281
     1
  3
Standard
350
18
  0
DICTIONARY
  5
19
102
{ACAD_REACTORS
330
C
102
}
330
C
100
AcDbDictionary
281
     1
  0
ACDBDICTIONARYWDFLT
  5
E
102
{ACAD_REACTORS
330
C
102
}
330
C
100
AcDbDictionary
281
     1
  3
Normal
350
F
100
AcDbDictionaryWithDefault
340
F
  0
DICTIONARY
  5
47
102
{ACAD_REACTORS
330
C
102
}
330
C
100
AcDbDictionary
281
     1
  3
A0
350
48
  3
A1
350
49
  3
A2
350
4A
  3
A3
350
4B
  3
A4
350
4C
  3
A5
350
4D
  3
A6
350
4E
  3
A7
350
4F
  3
A8
350
50
  3
A9
350
51
  3
B0
350
52
  3
B1
350
53
  3
B2
350
54
  3
B3
350
55
  3
B4
350
56
  3
B5
350
57
  3
B6
350
58
  3
B7
350
59
  3
B8
350
5A
  3
B9
350
5B
  3
C0
350
5C
  3
C1
350
5D
  3
C2
350
5E
  3
C3
350
5F
  3
C4
350
60
  3
C5
350
61
  3
C6
350
62
  3
C7
350
63
  3
C8
350
64
  3
C9
350
65
  3
D0
350
66
  3
D1
350
67
  3
D2
350
68
  0
LAYOUT
  5
1E
102
{ACAD_REACTORS
330
1A
102
}
330
1A
100
AcDbPlotSettings
  1

  2
none_device
  4

  6

 40
0.0
 41
0.0
 42
0.0
 43
0.0
 44
0.0
 45
0.0
 46
0.0
 47
0.0
 48
0.0
 49
0.0
140
0.0
141
0.0
142
1.0
143
1.0
 70
   688
 72
     1
 73
     0
 74
     5
  7

 75
    16
147
1.0
148
0.0
149
0.0
100
AcDbLayout
  1
Layout1
 70
     1
 71
     1
 10
0.0
 20
0.0
 11
420.0
 21
297.0
 12
0.0
 22
0.0
 32
0.0
 14
1.0000000000E+20
 24
1.0000000000E+20
 34
1.0000000000E+20
 15
-1.0000000000E+20
 25
-1.0000000000E+20
 35
-1.0000000000E+20
146
0.0
 13
0.0
 23
0.0
 33
0.0
 16
1.0
 26
0.0
 36
0.0
 17
0.0
 27
1.0
 37
0.0
 76
     0
330
1B
  0
LAYOUT
  5
26
102
{ACAD_REACTORS
330
1A
102
}
330
1A
100
AcDbPlotSettings
  1

  2
none_device
  4

  6

 40
0.0
 41
0.0
 42
0.0
 43
0.0
 44
0.0
 45
0.0
 46
0.0
 47
0.0
 48
0.0
 49
0.0
140
0.0
141
0.0
142
1.0
143
1.0
 70
   688
 72
     1
 73
     0
 74
     5
  7

 75
    16
147
1.0
148
0.0
149
0.0
100
AcDbLayout
  1
Layout2
 70
     1
 71
     2
 10
0.0
 20
0.0
 11
0.0
 21
0.0
 12
0.0
 22
0.0
 32
0.0
 14
0.0
 24
0.0
 34
0.0
 15
0.0
 25
0.0
 35
0.0
146
0.0
 13
0.0
 23
0.0
 33
0.0
 16
1.0
 26
0.0
 36
0.0
 17
0.0
 27
1.0
 37
0.0
 76
     0
330
23
  0
LAYOUT
  5
22
102
{ACAD_REACTORS
330
1A
102
}
330
1A
100
AcDbPlotSettings
  1

  2
none_device
  4
Letter_(8.50_x_11.00_Inches)
  6

 40
6.35
 41
6.35
 42
6.35000508
 43
6.35000508
 44
215.9
 45
279.4
 46
0.0
 47
0.0
 48
0.0
 49
0.0
140
0.0
141
0.0
142
1.0
143
1.0
 70
  1712
 72
     1
 73
     0
 74
     0
  7

 75
     0
147
1.0
148
0.0
149
0.0
100
AcDbLayout
  1
Model
 70
     1
 71
     0
 10
0.0
 20
0.0
 11
495.0
 21
350.0
 12
0.0
 22
0.0
 32
0.0
 14
0.0
 24
0.0
 34
0.0
 15
495.0
 25
350.0
 35
0.0
146
0.0
 13
0.0
 23
0.0
 33
0.0
 16
1.0
 26
0.0
 36
0.0
 17
0.0
 27
1.0
 37
0.0
 76
     0
330
1F
331
29
  0
MLINESTYLE
  5
18
102
{ACAD_REACTORS
330
17
102
}
330
17
100
AcDbMlineStyle
  2
Standard
 70
     0
  3

 62
   256
 51
90.0
 52
90.0
 71
     2
 49
0.5
 62
   256
  6
BYLAYER
 49
-0.5
 62
   256
  6
BYLAYER
  0
ACDBPLACEHOLDER
  5
F
102
{ACAD_REACTORS
330
E
102
}
330
E
  0
SCALE
  5
48
102
{ACAD_REACTORS
330
47
102
}
330
47
100
AcDbScale
 70
     0
300
1:1
140
1.0
141
1.0
290
     1
  0
SCALE
  5
49
102
{ACAD_REACTORS
330
47
102
}
330
47
100
AcDbScale
 70
     0
300
1:2
140
1.0
141
2.0
290
     0
  0
SCALE
  5
4A
102
{ACAD_REACTORS
330
47
102
}
330
47
100
AcDbScale
 70
     0
300
1:4
140
1.0
141
4.0
290
     0
  0
SCALE
  5
4B
102
{ACAD_REACTORS
330
47
102
}
330
47
100
AcDbScale
 70
     0
300
1:5
140
1.0
141
5.0
290
     0
  0
SCALE
  5
4C
102
{ACAD_REACTORS
330
47
102
}
330
47
100
AcDbScale
 70
     0
300
1:8
140
1.0
141
8.0
290
     0
  0
SCALE
  5
4D
102
{ACAD_REACTORS
330
47
102
}
330
47
100
AcDbScale
 70
     0
300
1:10
140
1.0
141
10.0
290
     0
  0
SCALE
  5
4E
102
{ACAD_REACTORS
330
47
102
}
330
47
100
AcDbScale
 70
     0
300
1:16
140
1.0
141
16.0
290
     0
  0
SCALE
  5
4F
102
{ACAD_REACTORS
330
47
102
}
330
47
100
AcDbScale
 70
     0
300
1:20
140
1.0
141
20.0
290
     0
  0
SCALE
  5
50
102
{ACAD_REACTORS
330
47
102
}
330
47
100
AcDbScale
 70
     0
300
1:30
140
1.0
141
30.0
290
     0
  0
SCALE
  5
51
102
{ACAD_REACTORS
330
47
102
}
330
47
100
AcDbScale
 70
     0
300
1:40
140
1.0
141
40.0
290
     0
  0
SCALE
  5
52
102
{ACAD_REACTORS
330
47
102
}
330
47
100
AcDbScale
 70
     0
300
1:50
140
1.0
141
50.0
290
     0
  0
SCALE
  5
53
102
{ACAD_REACTORS
330
47
102
}
330
47
100
AcDbScale
 70
     0
300
1:100
140
1.0
141
100.0
290
     0
  0
SCALE
  5
54
102
{ACAD_REACTORS
330
47
102
}
330
47
100
AcDbScale
 70
     0
300
2:1
140
2.0
141
1.0
290
     0
  0
SCALE
  5
55
102
{ACAD_REACTORS
330
47
102
}
330
47
100
AcDbScale
 70
     0
300
4:1
140
4.0
141
1.0
290
     0
  0
SCALE
  5
56
102
{ACAD_REACTORS
330
47
102
}
330
47
100
AcDbScale
 70
     0
300
8:1
140
8.0
141
1.0
290
     0
  0
SCALE
  5
57
102
{ACAD_REACTORS
330
47
102
}
330
47
100
AcDbScale
 70
     0
300
10:1
140
10.0
141
1.0
290
     0
  0
SCALE
  5
58
102
{ACAD_REACTORS
330
47
102
}
330
47
100
AcDbScale
 70
     0
300
100:1
140
100.0
141
1.0
290
     0
  0
SCALE
  5
59
102
{ACAD_REACTORS
330
47
102
}
330
47
100
AcDbScale
 70
     0
300
1/128" = 1'-0"
140
0.0078125
141
12.0
290
     0
  0
SCALE
  5
5A
102
{ACAD_REACTORS
330
47
102
}
330
47
100
AcDbScale
 70
     0
300
1/64" = 1'-0"
140
0.015625
141
12.0
290
     0
  0
SCALE
  5
5B
102
{ACAD_REACTORS
330
47
102
}
330
47
100
AcDbScale
 70
     0
300
1/32" = 1'-0"
140
0.03125
141
12.0
290
     0
  0
SCALE
  5
5C
102
{ACAD_REACTORS
330
47
102
}
330
47
100
AcDbScale
 70
     0
300
1/16" = 1'-0"
140
0.0625
141
12.0
290
     0
  0
SCALE
  5
5D
102
{ACAD_REACTORS
330
47
102
}
330
47
100
AcDbScale
 70
     0
300
3/32" = 1'-0"
140
0.09375
141
12.0
290
     0
  0
SCALE
  5
5E
102
{ACAD_REACTORS
330
47
102
}
330
47
100
AcDbScale
 70
     0
300
1/8" = 1'-0"
140
0.125
141
12.0
290
     0
  0
SCALE
  5
5F
102
{ACAD_REACTORS
330
47
102
}
330
47
100
AcDbScale
 70
     0
300
3/16" = 1'-0"
140
0.1875
141
12.0
290
     0
  0
SCALE
  5
60
102
{ACAD_REACTORS
330
47
102
}
330
47
100
AcDbScale
 70
     0
300
1/4" = 1'-0"
140
0.25
141
12.0
290
     0
  0
SCALE
  5
61
102
{ACAD_REACTORS
330
47
102
}
330
47
100
AcDbScale
 70
     0
300
3/8" = 1'-0"
140
0.375
141
12.0
290
     0
  0
SCALE
  5
62
102
{ACAD_REACTORS
330
47
102
}
330
47
100
AcDbScale
 70
     0
300
1/2" = 1'-0"
140
0.5
141
12.0
290
     0
  0
SCALE
  5
63
102
{ACAD_REACTORS
330
47
102
}
330
47
100
AcDbScale
 70
     0
300
3/4" = 1'-0"
140
0.75
141
12.0
290
     0
  0
SCALE
  5
64
102
{ACAD_REACTORS
330
47
102
}
330
47
100
AcDbScale
 70
     0
300
1" = 1'-0"
140
1.0
141
12.0
290
     0
  0
SCALE
  5
65
102
{ACAD_REACTORS
330
47
102
}
330
47
100
AcDbScale
 70
     0
300
1-1/2" = 1'-0"
140
1.5
141
12.0
290
     0
  0
SCALE
  5
66
102
{ACAD_REACTORS
330
47
102
}
330
47
100
AcDbScale
 70
     0
300
3" = 1'-0"
140
3.0
141
12.0
290
     0
  0
SCALE
  5
67
102
{ACAD_REACTORS
330
47
102
}
330
47
100
AcDbScale
 70
     0
300
6" = 1'-0"
140
6.0
141
12.0
290
     0
  0
SCALE
  5
68
102
{ACAD_REACTORS
330
47
102
}
330
47
100
AcDbScale
 70
     0
300
1'-0" = 1'-0"
140
12.0
141
12.0
290
     0
  0
ENDSEC
  0
EOF
