  0
SECTION
  2
HEADER
  9
$ACADVER
  1
AC1015
  9
$ACADMAINTVER
 70
     6
  9
$DWGCODEPAGE
  3
ANSI_1252
  9
$INSBASE
 10
0.0
 20
0.0
 30
0.0
  9
$EXTMIN
 10
0.0
 20
0.0
 30
0.0
  9
$EXTMAX
 10
386.1
 20
273.0
 30
0.0
  9
$LIMMIN
 10
0.0
 20
0.0
  9
$LIMMAX
 10
386.1
 20
273.0
  9
$ORTHOMODE
 70
     0
  9
$REGENMODE
 70
     1
  9
$FILLMODE
 70
     1
  9
$QTEXTMODE
 70
     0
  9
$MIRRTEXT
 70
     1
  9
$LTSCALE
 40
1.3
  9
$ATTMODE
 70
     1
  9
$TEXTSIZE
 40
5.0447222222
  9
$TRACEWID
 40
1.0
  9
$TEXTSTYLE
  7
Standard
  9
$CLAYER
  8
0
  9
$CELTYPE
  6
ByLayer
  9
$CECOLOR
 62
   256
  9
$CELTSCALE
 40
1.0
  9
$DISPSILH
 70
     0
  9
$DIMSCALE
 40
1.0
  9
$DIMASZ
 40
4.2926
  9
$DIMEXO
 40
1.3
  9
$DIMDLI
 40
3.75
  9
$DIMRND
 40
0.0
  9
$DIMDLE
 40
0.0
  9
$DIMEXE
 40
1.3
  9
$DIMTP
 40
0.0
  9
$DIMTM
 40
0.0
  9
$DIMTXT
 40
5.0447222222
  9
$DIMCEN
 40
2.5
  9
$DIMTSZ
 40
0.0
  9
$DIMTOL
 70
     0
  9
$DIMLIM
 70
     0
  9
$DIMTIH
 70
     1
  9
$DIMTOH
 70
     1
  9
$DIMSE1
 70
     0
  9
$DIMSE2
 70
     0
  9
$DIMTAD
 70
     1
  9
$DIMZIN
 70
     0
  9
$DIMBLK
  1

  9
$DIMASO
 70
     1
  9
$DIMSHO
 70
     1
  9
$DIMPOST
  1

  9
$DIMAPOST
  1

  9
$DIMALT
 70
     0
  9
$DIMALTD
 70
     3
  9
$DIMALTF
 40
0.0393700787
  9
$DIMLFAC
 40
1.0
  9
$DIMTOFL
 70
     1
  9
$DIMTVP
 40
0.0
  9
$DIMTIX
 70
     0
  9
$DIMSOXD
 70
     0
  9
$DIMSAH
 70
     0
  9
$DIMBLK1
  1

  9
$DIMBLK2
  1

  9
$DIMSTYLE
  2
ISO-25
  9
$DIMCLRD
 70
     0
  9
$DIMCLRE
 70
     0
  9
$DIMCLRT
 70
     0
  9
$DIMTFAC
 40
1.0
  9
$DIMGAP
 40
1.9812
  9
$DIMJUST
 70
     0
  9
$DIMSD1
 70
     0
  9
$DIMSD2
 70
     0
  9
$DIMTOLJ
 70
     0
  9
$DIMTZIN
 70
     0
  9
$DIMALTZ
 70
     0
  9
$DIMALTTZ
 70
     0
  9
$DIMUPT
 70
     0
  9
$DIMDEC
 70
     2
  9
$DIMTDEC
 70
     2
  9
$DIMALTU
 70
     2
  9
$DIMALTTD
 70
     3
  9
$DIMTXSTY
  7
Standard
  9
$DIMAUNIT
 70
     0
  9
$DIMADEC
 70
     2
  9
$DIMALTRND
 40
0.0
  9
$DIMAZIN
 70
     0
  9
$DIMDSEP
 70
    44
  9
$DIMATFIT
 70
     3
  9
$DIMFRAC
 70
     0
  9
$DIMLDRBLK
  1

  9
$DIMLUNIT
 70
     2
  9
$DIMLWD
 70
    -2
  9
$DIMLWE
 70
    -2
  9
$DIMTMOVE
 70
     0
  9
$LUNITS
 70
     2
  9
$LUPREC
 70
     2
  9
$SKETCHINC
 40
1.0
  9
$FILLETRAD
 40
10.0
  9
$AUNITS
 70
     1
  9
$AUPREC
 70
     2
  9
$MENU
  1
.
  9
$ELEVATION
 40
0.0
  9
$PELEVATION
 40
0.0
  9
$THICKNESS
 40
0.0
  9
$LIMCHECK
 70
     0
  9
$CHAMFERA
 40
0.0
  9
$CHAMFERB
 40
0.0
  9
$CHAMFERC
 40
0.0
  9
$CHAMFERD
 40
0.0
  9
$SKPOLY
 70
     0
  9
$TDCREATE
 40
2458606.648586516
  9
$TDUCREATE
 40
2458606.41941985
  9
$TDUPDATE
 40
2458606.648587558
  9
$TDUUPDATE
 40
2458606.419420891
  9
$TDINDWG
 40
0.0000000116
  9
$TDUSRTIMER
 40
0.0000000116
  9
$USRTIMER
 70
     1
  9
$ANGBASE
 50
0.0
  9
$ANGDIR
 70
     0
  9
$PDMODE
 70
     0
  9
$PDSIZE
 40
-1.0
  9
$PLINEWID
 40
0.0
  9
$SPLFRAME
 70
     0
  9
$SPLINETYPE
 70
     6
  9
$SPLINESEGS
 70
     8
  9
$HANDSEED
  5
1BB
  9
$SURFTAB1
 70
     6
  9
$SURFTAB2
 70
     6
  9
$SURFTYPE
 70
     6
  9
$SURFU
 70
     6
  9
$SURFV
 70
     6
  9
$UCSBASE
  2

  9
$UCSNAME
  2

  9
$UCSORG
 10
0.0
 20
0.0
 30
0.0
  9
$UCSXDIR
 10
1.0
 20
0.0
 30
0.0
  9
$UCSYDIR
 10
0.0
 20
1.0
 30
0.0
  9
$UCSORTHOREF
  2

  9
$UCSORTHOVIEW
 70
     0
  9
$UCSORGTOP
 10
0.0
 20
0.0
 30
0.0
  9
$UCSORGBOTTOM
 10
0.0
 20
0.0
 30
0.0
  9
$UCSORGLEFT
 10
0.0
 20
0.0
 30
0.0
  9
$UCSORGRIGHT
 10
0.0
 20
0.0
 30
0.0
  9
$UCSORGFRONT
 10
0.0
 20
0.0
 30
0.0
  9
$UCSORGBACK
 10
0.0
 20
0.0
 30
0.0
  9
$PUCSBASE
  2

  9
$PUCSNAME
  2

  9
$PUCSORG
 10
0.0
 20
0.0
 30
0.0
  9
$PUCSXDIR
 10
1.0
 20
0.0
 30
0.0
  9
$PUCSYDIR
 10
0.0
 20
1.0
 30
0.0
  9
$PUCSORTHOREF
  2

  9
$PUCSORTHOVIEW
 70
     0
  9
$PUCSORGTOP
 10
0.0
 20
0.0
 30
0.0
  9
$PUCSORGBOTTOM
 10
0.0
 20
0.0
 30
0.0
  9
$PUCSORGLEFT
 10
0.0
 20
0.0
 30
0.0
  9
$PUCSORGRIGHT
 10
0.0
 20
0.0
 30
0.0
  9
$PUCSORGFRONT
 10
0.0
 20
0.0
 30
0.0
  9
$PUCSORGBACK
 10
0.0
 20
0.0
 30
0.0
  9
$USERI1
 70
     0
  9
$USERI2
 70
     0
  9
$USERI3
 70
     0
  9
$USERI4
 70
     0
  9
$USERI5
 70
     0
  9
$USERR1
 40
0.0
  9
$USERR2
 40
0.0
  9
$USERR3
 40
0.0
  9
$USERR4
 40
0.0
  9
$USERR5
 40
0.0
  9
$WORLDVIEW
 70
     1
  9
$SHADEDGE
 70
     3
  9
$SHADEDIF
 70
    70
  9
$TILEMODE
 70
     1
  9
$MAXACTVP
 70
    64
  9
$PINSBASE
 10
0.0
 20
0.0
 30
0.0
  9
$PLIMCHECK
 70
     0
  9
$PEXTMIN
 10
1.0000000000E+20
 20
1.0000000000E+20
 30
1.0000000000E+20
  9
$PEXTMAX
 10
-1.0000000000E+20
 20
-1.0000000000E+20
 30
-1.0000000000E+20
  9
$PLIMMIN
 10
0.0
 20
0.0
  9
$PLIMMAX
 10
420.0
 20
297.0
  9
$UNITMODE
 70
     0
  9
$VISRETAIN
 70
     1
  9
$PLINEGEN
 70
     0
  9
$PSLTSCALE
 70
     1
  9
$TREEDEPTH
 70
  3020
  9
$CMLSTYLE
  2
Standard
  9
$CMLJUST
 70
     0
  9
$CMLSCALE
 40
20.0
  9
$PROXYGRAPHICS
 70
     1
  9
$MEASUREMENT
 70
     1
  9
$CELWEIGHT
370
    -1
  9
$ENDCAPS
280
     0
  9
$JOINSTYLE
280
     0
  9
$LWDISPLAY
290
     1
  9
$INSUNITS
 70
     4
  9
$HYPERLINKBASE
  1

  9
$STYLESHEET
  1

  9
$XEDIT
290
     1
  9
$CEPSNTYPE
380
     0
  9
$PSTYLEMODE
290
     1
  9
$FINGERPRINTGUID
  2
{060B491D-5A91-4AC6-B5D6-D111917DD654}
  9
$VERSIONGUID
  2
{FAEB1C32-E019-11D5-929B-00C0DF256EC4}
  9
$EXTNAMES
290
     1
  9
$PSVPSCALE
 40
0.0
  9
$OLESTARTUP
290
     0
  0
ENDSEC
  0
SECTION
  2
CLASSES
  0
CLASS
  1
ACDBDICTIONARYWDFLT
  2
AcDbDictionaryWithDefault
  3
ObjectDBX Classes
 90
        0
280
     0
281
     0
  0
CLASS
  1
VISUALSTYLE
  2
AcDbVisualStyle
  3
ObjectDBX Classes
 90
     4095
280
     0
281
     0
  0
CLASS
  1
MATERIAL
  2
AcDbMaterial
  3
ObjectDBX Classes
 90
     1153
280
     0
281
     0
  0
CLASS
  1
SCALE
  2
AcDbScale
  3
ObjectDBX Classes
 90
     1153
280
     0
281
     0
  0
CLASS
  1
SUN
  2
AcDbSun
  3
SCENEOE
 90
     1153
280
     0
281
     0
  0
CLASS
  1
ACDBPLACEHOLDER
  2
AcDbPlaceHolder
  3
ObjectDBX Classes
 90
        0
280
     0
281
     0
  0
CLASS
  1
LAYOUT
  2
AcDbLayout
  3
ObjectDBX Classes
 90
        0
280
     0
281
     0
  0
ENDSEC
  0
SECTION
  2
TABLES
  0
TABLE
  2
VPORT
  5
8
330
0
100
AcDbSymbolTable
 70
     1
  0
VPORT
  5
29
330
8
100
AcDbSymbolTableRecord
100
AcDbViewportTableRecord
  2
*Active
 70
     0
 10
0.0
 20
0.0
 11
1.0
 21
1.0
 12
193.05
 22
136.5
 13
0.0
 23
0.0
 14
10.0
 24
10.0
 15
10.0
 25
10.0
 16
0.0
 26
0.0
 36
1.0
 17
0.0
 27
0.0
 37
0.0
 40
273.0
 41
1.4142857143
 42
50.0
 43
0.0
 44
0.0
 50
0.0
 51
0.0
 71
     0
 72
  2000
 73
     1
 74
     3
 75
     0
 76
     0
 77
     0
 78
     0
281
     0
 65
     1
110
0.0
120
0.0
130
0.0
111
1.0
121
0.0
131
0.0
112
0.0
122
1.0
132
0.0
 79
     0
146
0.0
  0
ENDTAB
  0
TABLE
  2
LTYPE
  5
5
330
0
100
AcDbSymbolTable
 70
     6
  0
LTYPE
  5
14
330
5
100
AcDbSymbolTableRecord
100
AcDbLinetypeTableRecord
  2
ByBlock
 70
     0
  3

 72
    65
 73
     0
 40
0.0
  0
LTYPE
  5
15
330
5
100
AcDbSymbolTableRecord
100
AcDbLinetypeTableRecord
  2
ByLayer
 70
     0
  3

 72
    65
 73
     0
 40
0.0
  0
LTYPE
  5
16
330
5
100
AcDbSymbolTableRecord
100
AcDbLinetypeTableRecord
  2
Continuous
 70
     0
  3
Solid line
 72
    65
 73
     0
 40
0.0
  0
LTYPE
  5
6A
330
5
100
AcDbSymbolTableRecord
100
AcDbLinetypeTableRecord
  2
HIDDEN
 70
     0
  3
Hidden __ __ __ __ __ __ __ __ __ __ __ __ __ __
 72
    65
 73
     2
 40
1.905
 49
1.27
 74
     0
 49
-0.635
 74
     0
  0
LTYPE
  5
6B
330
5
100
AcDbSymbolTableRecord
100
AcDbLinetypeTableRecord
  2
PHANTOM
 70
     0
  3
Phantom ______  __  __  ______  __  __  ______
 72
    65
 73
     6
 40
12.7
 49
6.35
 74
     0
 49
-1.27
 74
     0
 49
1.27
 74
     0
 49
-1.27
 74
     0
 49
1.27
 74
     0
 49
-1.27
 74
     0
  0
LTYPE
  5
6C
330
5
100
AcDbSymbolTableRecord
100
AcDbLinetypeTableRecord
  2
CENTER
 70
     0
  3
Center ____ _ ____ _ ____ _ ____ _ ____ _ ____
 72
    65
 73
     4
 40
10.16
 49
6.35
 74
     0
 49
-1.27
 74
     0
 49
1.27
 74
     0
 49
-1.27
 74
     0
  0
LTYPE
  5
6D
330
5
100
AcDbSymbolTableRecord
100
AcDbLinetypeTableRecord
  2
CENTERX2
 70
     0
  3
Center (2x) ________  __  ________  __  _____
 72
    65
 73
     4
 40
20.32
 49
12.7
 74
     0
 49
-2.54
 74
     0
 49
2.54
 74
     0
 49
-2.54
 74
     0
  0
LTYPE
  5
6E
330
5
100
AcDbSymbolTableRecord
100
AcDbLinetypeTableRecord
  2
DOT2
 70
     0
  3
Dot (.5x) ........................................
 72
    65
 73
     2
 40
0.635
 49
0.0
 74
     0
 49
-0.635
 74
     0
  0
ENDTAB
  0
TABLE
  2
LAYER
  5
2
330
0
100
AcDbSymbolTable
 70
     8
  0
LAYER
  5
10
330
2
100
AcDbSymbolTableRecord
100
AcDbLayerTableRecord
  2
0
 70
     0
 62
     7
  6
Continuous
370
    -3
390
F
  0
LAYER
  5
6F
330
2
100
AcDbSymbolTableRecord
100
AcDbLayerTableRecord
  2
FORMAT
 70
     0
 62
     7
  6
Continuous
370
    -3
390
F
  0
LAYER
  5
70
330
2
100
AcDbSymbolTableRecord
100
AcDbLayerTableRecord
  2
SLD-0
 70
     0
 62
     2
  6
Continuous
370
    -3
390
F
  0
LAYER
  5
71
330
2
100
AcDbSymbolTableRecord
100
AcDbLayerTableRecord
  2
DIM
 70
     0
 62
   179
  6
Continuous
370
    -3
390
F
  0
LAYER
  5
72
330
2
100
AcDbSymbolTableRecord
100
AcDbLayerTableRecord
  2
SLD-DEFPOINTS
 70
     0
 62
   179
  6
Continuous
370
    -3
390
F
  0
LAYER
  5
73
330
2
100
AcDbSymbolTableRecord
100
AcDbLayerTableRecord
  2
HAT
 70
     0
 62
   135
  6
Continuous
370
    -3
390
F
  0
LAYER
  5
74
330
2
100
AcDbSymbolTableRecord
100
AcDbLayerTableRecord
  2
JOB
 70
     0
 62
   201
  6
Continuous
370
    -3
390
F
  0
LAYER
  5
75
330
2
100
AcDbSymbolTableRecord
100
AcDbLayerTableRecord
  2
INSPECTION_REPORT
 70
     0
 62
   255
  6
Continuous
370
    -3
390
F
  0
ENDTAB
  0
TABLE
  2
STYLE
  5
3
330
0
100
AcDbSymbolTable
 70
     4
  0
STYLE
  5
11
330
3
100
AcDbSymbolTableRecord
100
AcDbTextStyleTableRecord
  2
Standard
 70
     0
 40
0.0
 41
1.0
 50
0.0
 71
     0
 42
5.0447222222
  3
txt
  4

  0
STYLE
  5
96
330
3
100
AcDbSymbolTableRecord
100
AcDbTextStyleTableRecord
  2
SLDTEXTSTYLE0
 70
     0
 40
0.0
 41
0.7
 50
0.0
 71
     0
 42
5.0447222222
  3
TXT
  4

  0
STYLE
  5
98
330
3
100
AcDbSymbolTableRecord
100
AcDbTextStyleTableRecord
  2
SLDTEXTSTYLE1
 70
     0
 40
0.0
 41
0.75
 50
0.0
 71
     0
 42
5.0447222222
  3
TXT
  4

  0
STYLE
  5
AB
330
3
100
AcDbSymbolTableRecord
100
AcDbTextStyleTableRecord
  2
SLDTEXTSTYLE2
 70
     0
 40
0.0
 41
0.6875
 50
0.0
 71
     0
 42
5.0447222222
  3
TXT
  4

  0
ENDTAB
  0
TABLE
  2
VIEW
  5
6
330
0
100
AcDbSymbolTable
 70
     0
  0
ENDTAB
  0
TABLE
  2
UCS
  5
7
330
0
100
AcDbSymbolTable
 70
     0
  0
ENDTAB
  0
TABLE
  2
APPID
  5
9
330
0
100
AcDbSymbolTable
 70
     1
  0
APPID
  5
12
330
9
100
AcDbSymbolTableRecord
100
AcDbRegAppTableRecord
  2
ACAD
 70
     0
  0
ENDTAB
  0
TABLE
  2
DIMSTYLE
  5
A
330
0
100
AcDbSymbolTable
 70
     4
100
AcDbDimStyleTable
  0
DIMSTYLE
105
27
330
A
100
AcDbSymbolTableRecord
100
AcDbDimStyleTableRecord
  2
ISO-25
 70
     0
 41
2.5
 42
0.625
 43
3.75
 44
1.25
 73
     0
 74
     0
 77
     1
 78
     8
140
2.5
141
2.5
143
0.0393700787
147
0.625
171
     3
172
     1
178
     0
271
     2
272
     2
274
     3
278
    44
283
     0
284
     8
340
11
  0
DIMSTYLE
105
174
102
{ACAD_REACTORS
330
173
330
199
330
1AF
102
}
330
A
100
AcDbSymbolTableRecord
100
AcDbDimStyleTableRecord
  2
SLDDIMSTYLE0
 70
     0
 41
4.2926
 44
0.0
 45
0.000000001
 73
     0
 74
     0
 77
     1
 78
    12
 79
     3
140
3.7835416667
147
0.9458854167
173
     1
178
     0
271
     2
272
     2
276
     2
284
    12
340
96
  0
DIMSTYLE
105
180
102
{ACAD_REACTORS
330
17F
330
1A3
102
}
330
A
100
AcDbSymbolTableRecord
100
AcDbDimStyleTableRecord
  2
SLDDIMSTYLE1
 70
     0
 41
4.2926
 44
0.0
 45
0.000000001
 73
     0
 74
     0
 77
     1
 78
    12
 79
     3
140
3.7835416667
147
0.9458854167
172
     1
173
     1
178
     0
271
     2
272
     2
276
     2
284
    12
289
     0
340
96
  0
DIMSTYLE
105
18E
102
{ACAD_REACTORS
330
18D
102
}
330
A
100
AcDbSymbolTableRecord
100
AcDbDimStyleTableRecord
  2
SLDDIMSTYLE2
 70
     0
 41
4.2926
 44
0.0
 45
0.000000001
 73
     0
 74
     0
 77
     1
 78
     4
 79
     1
140
3.7835416667
147
0.9458854167
173
     1
178
     0
271
     2
272
     2
276
     2
284
    12
340
96
  0
ENDTAB
  0
TABLE
  2
BLOCK_RECORD
  5
1
330
0
100
AcDbSymbolTable
 70
     8
  0
BLOCK_RECORD
  5
1F
330
1
100
AcDbSymbolTableRecord
100
AcDbBlockTableRecord
  2
*Model_Space
340
22
  0
BLOCK_RECORD
  5
1B
330
1
100
AcDbSymbolTableRecord
100
AcDbBlockTableRecord
  2
*Paper_Space
340
1E
  0
BLOCK_RECORD
  5
23
330
1
100
AcDbSymbolTableRecord
100
AcDbBlockTableRecord
  2
*Paper_Space0
340
26
  0
BLOCK_RECORD
  5
E8
330
1
100
AcDbSymbolTableRecord
100
AcDbBlockTableRecord
  2
SW_CENTERMARKSYMBOL_0
340
0
102
{BLKREFS
331
F3
102
}
  0
BLOCK_RECORD
  5
175
330
1
100
AcDbSymbolTableRecord
100
AcDbBlockTableRecord
  2
_D
340
0
  0
BLOCK_RECORD
  5
181
330
1
100
AcDbSymbolTableRecord
100
AcDbBlockTableRecord
  2
_D_1
340
0
  0
BLOCK_RECORD
  5
18F
330
1
100
AcDbSymbolTableRecord
100
AcDbBlockTableRecord
  2
_D_2
340
0
  0
BLOCK_RECORD
  5
19A
330
1
100
AcDbSymbolTableRecord
100
AcDbBlockTableRecord
  2
_D_3
340
0
  0
BLOCK_RECORD
  5
1A4
330
1
100
AcDbSymbolTableRecord
100
AcDbBlockTableRecord
  2
_D_4
340
0
  0
BLOCK_RECORD
  5
1B0
330
1
100
AcDbSymbolTableRecord
100
AcDbBlockTableRecord
  2
_D_5
340
0
  0
ENDTAB
  0
ENDSEC
  0
SECTION
  2
BLOCKS
  0
BLOCK
  5
20
330
1F
100
AcDbEntity
  8
0
100
AcDbBlockBegin
  2
*Model_Space
 70
     0
 10
0.0
 20
0.0
 30
0.0
  3
*Model_Space
  1
*Model_Space
  0
ENDBLK
  5
21
330
1F
100
AcDbEntity
  8
0
100
AcDbBlockEnd
  0
BLOCK
  5
1C
330
1B
100
AcDbEntity
 67
     1
  8
0
100
AcDbBlockBegin
  2
*Paper_Space
 70
     0
 10
0.0
 20
0.0
 30
0.0
  3
*Paper_Space
  1
*Paper_Space
  0
ENDBLK
  5
1D
330
1B
100
AcDbEntity
 67
     1
  8
0
100
AcDbBlockEnd
  0
BLOCK
  5
24
330
23
100
AcDbEntity
  8
0
100
AcDbBlockBegin
  2
*Paper_Space0
 70
     0
 10
0.0
 20
0.0
 30
0.0
  3
*Paper_Space0
  1
*Paper_Space0
  0
ENDBLK
  5
25
330
23
100
AcDbEntity
  8
0
100
AcDbBlockEnd
  0
BLOCK
  5
E9
330
E8
100
AcDbEntity
  8
0
100
AcDbBlockBegin
  2
SW_CENTERMARKSYMBOL_0
 70
     0
 10
0.0
 20
0.0
 30
0.0
  3
SW_CENTERMARKSYMBOL_0
  1
SW_CENTERMARKSYMBOL_0
  0
LINE
  5
EB
330
E8
100
AcDbEntity
  8
DIM
 62
     0
100
AcDbLine
 10
0.0
 20
0.0
 30
0.0
 11
0.0
 21
2.5
 31
0.0
  0
LINE
  5
EC
330
E8
100
AcDbEntity
  8
DIM
 62
     0
100
AcDbLine
 10
0.0
 20
0.0
 30
0.0
 11
-2.5
 21
0.0
 31
0.0
  0
LINE
  5
ED
330
E8
100
AcDbEntity
  8
DIM
 62
     0
100
AcDbLine
 10
0.0
 20
0.0
 30
0.0
 11
0.0
 21
-2.5
 31
0.0
  0
LINE
  5
EE
330
E8
100
AcDbEntity
  8
DIM
 62
     0
100
AcDbLine
 10
0.0
 20
0.0
 30
0.0
 11
2.5
 21
0.0
 31
0.0
  0
LINE
  5
EF
330
E8
100
AcDbEntity
  8
DIM
 62
     0
100
AcDbLine
 10
0.0
 20
5.0
 30
0.0
 11
0.0
 21
51.1328427125
 31
0.0
  0
LINE
  5
F0
330
E8
100
AcDbEntity
  8
DIM
 62
     0
100
AcDbLine
 10
-5.0
 20
0.0
 30
0.0
 11
-51.1328427125
 21
0.0
 31
0.0
  0
LINE
  5
F1
330
E8
100
AcDbEntity
  8
DIM
 62
     0
100
AcDbLine
 10
0.0
 20
-5.0
 30
0.0
 11
0.0
 21
-51.1328427125
 31
0.0
  0
LINE
  5
F2
330
E8
100
AcDbEntity
  8
DIM
 62
     0
100
AcDbLine
 10
5.0
 20
0.0
 30
0.0
 11
51.1328427125
 21
0.0
 31
0.0
  0
ENDBLK
  5
EA
330
E8
100
AcDbEntity
  8
0
100
AcDbBlockEnd
  0
BLOCK
  5
176
330
175
100
AcDbEntity
  8
0
100
AcDbBlockBegin
  2
_D
 70
     0
 10
0.0
 20
0.0
 30
0.0
  3
_D
  1
_D
  0
SOLID
  5
178
330
175
100
AcDbEntity
  8
DIM
100
AcDbTrace
 10
337.3642657317
 20
151.6334278037
 30
0.0
 11
336.7038657317
 21
147.3408278037
 31
0.0
 12
338.0246657317
 22
147.3408278037
 32
0.0
 13
338.0246657317
 23
147.3408278037
 33
0.0
  0
SOLID
  5
179
330
175
100
AcDbEntity
  8
DIM
100
AcDbTrace
 10
337.3642657317
 20
113.6334278037
 30
0.0
 11
338.0246657317
 21
117.9260278037
 31
0.0
 12
336.7038657317
 22
117.9260278037
 32
0.0
 13
336.7038657317
 23
117.9260278037
 33
0.0
  0
LINE
  5
17A
330
175
100
AcDbEntity
  8
DIM
100
AcDbLine
 10
297.6642657317
 20
151.6334278037
 30
0.0
 11
338.6642657317
 21
151.6334278037
 31
0.0
  0
LINE
  5
17B
330
175
100
AcDbEntity
  8
DIM
100
AcDbLine
 10
297.6642657317
 20
113.6334278037
 30
0.0
 11
338.6642657317
 21
113.6334278037
 31
0.0
  0
LINE
  5
17C
330
175
100
AcDbEntity
  8
DIM
100
AcDbLine
 10
337.3642657317
 20
151.6334278037
 30
0.0
 11
337.3642657317
 21
113.6334278037
 31
0.0
  0
MTEXT
  5
17D
330
175
100
AcDbEntity
  8
DIM
100
AcDbMText
 10
332.4870239244
 20
127.1506204673
 30
0.0
 40
3.7835416667
 41
0.0
 71
     1
 72
     1
  1
%%c
  7
SLDTEXTSTYLE0
 11
-7.044195017643634E-15
 21
1.0
 31
0.0
 73
     1
 44
1.0
  0
MTEXT
  5
17E
330
175
100
AcDbEntity
  8
DIM
100
AcDbMText
 10
332.4870239244
 20
133.0014471368
 30
0.0
 40
3.7835416667
 41
0.0
 71
     1
 72
     1
  1
38
  7
SLDTEXTSTYLE0
 11
-7.044195017643634E-15
 21
1.0
 31
0.0
 73
     1
 44
1.0
  0
ENDBLK
  5
177
330
175
100
AcDbEntity
  8
0
100
AcDbBlockEnd
  0
BLOCK
  5
182
330
181
100
AcDbEntity
  8
0
100
AcDbBlockBegin
  2
_D_1
 70
     0
 10
0.0
 20
0.0
 30
0.0
  3
_D_1
  1
_D_1
  0
SOLID
  5
184
330
181
100
AcDbEntity
  8
DIM
100
AcDbTrace
 10
331.0482502916
 20
140.6334278037
 30
0.0
 11
331.7086502916
 21
144.9260278037
 31
0.0
 12
330.3878502916
 22
144.9260278037
 32
0.0
 13
330.3878502916
 23
144.9260278037
 33
0.0
  0
SOLID
  5
185
330
181
100
AcDbEntity
  8
DIM
100
AcDbTrace
 10
331.0482502916
 20
124.6334278037
 30
0.0
 11
330.3878502916
 21
120.3408278037
 31
0.0
 12
331.7086502916
 22
120.3408278037
 32
0.0
 13
331.7086502916
 23
120.3408278037
 33
0.0
  0
LINE
  5
186
330
181
100
AcDbEntity
  8
DIM
100
AcDbLine
 10
315.1735180029
 20
140.6334278037
 30
0.0
 11
332.3482502916
 21
140.6334278037
 31
0.0
  0
LINE
  5
187
330
181
100
AcDbEntity
  8
DIM
100
AcDbLine
 10
315.1735180029
 20
124.6334278037
 30
0.0
 11
332.3482502916
 21
124.6334278037
 31
0.0
  0
LINE
  5
188
330
181
100
AcDbEntity
  8
DIM
100
AcDbLine
 10
331.0482502916
 20
140.6334278037
 30
0.0
 11
331.0482502916
 21
148.8884278037
 31
0.0
  0
LINE
  5
189
330
181
100
AcDbEntity
  8
DIM
100
AcDbLine
 10
331.0482502916
 20
140.6334278037
 30
0.0
 11
331.0482502916
 21
124.6334278037
 31
0.0
  0
LINE
  5
18A
330
181
100
AcDbEntity
  8
DIM
100
AcDbLine
 10
331.0482502916
 20
124.6334278037
 30
0.0
 11
331.0482502916
 21
116.3784278037
 31
0.0
  0
MTEXT
  5
18B
330
181
100
AcDbEntity
  8
DIM
100
AcDbMText
 10
326.1710084844
 20
127.1506204673
 30
0.0
 40
3.7835416667
 41
0.0
 71
     1
 72
     1
  1
%%c
  7
SLDTEXTSTYLE0
 11
-7.044195017643634E-15
 21
1.0
 31
0.0
 73
     1
 44
1.0
  0
MTEXT
  5
18C
330
181
100
AcDbEntity
  8
DIM
100
AcDbMText
 10
326.1710084844
 20
133.0014471368
 30
0.0
 40
3.7835416667
 41
0.0
 71
     1
 72
     1
  1
16
  7
SLDTEXTSTYLE0
 11
-7.044195017643634E-15
 21
1.0
 31
0.0
 73
     1
 44
1.0
  0
ENDBLK
  5
183
330
181
100
AcDbEntity
  8
0
100
AcDbBlockEnd
  0
BLOCK
  5
190
330
18F
100
AcDbEntity
  8
0
100
AcDbBlockBegin
  2
_D_2
 70
     0
 10
0.0
 20
0.0
 30
0.0
  3
_D_2
  1
_D_2
  0
SOLID
  5
192
330
18F
100
AcDbEntity
  8
DIM
100
AcDbTrace
 10
141.4173177968
 20
181.3834278037
 30
0.0
 11
140.7569177968
 21
177.0908278037
 31
0.0
 12
142.0777177968
 22
177.0908278037
 32
0.0
 13
142.0777177968
 23
177.0908278037
 33
0.0
  0
SOLID
  5
193
330
18F
100
AcDbEntity
  8
DIM
100
AcDbTrace
 10
141.4173177968
 20
83.8834278037
 30
0.0
 11
142.0777177968
 21
88.1760278037
 31
0.0
 12
140.7569177968
 22
88.1760278037
 32
0.0
 13
140.7569177968
 23
88.1760278037
 33
0.0
  0
LINE
  5
194
330
18F
100
AcDbEntity
  8
DIM
100
AcDbLine
 10
255.4299511567
 20
181.3834278037
 30
0.0
 11
140.1173177968
 21
181.3834278037
 31
0.0
  0
LINE
  5
195
330
18F
100
AcDbEntity
  8
DIM
100
AcDbLine
 10
255.4299511567
 20
83.8834278037
 30
0.0
 11
140.1173177968
 21
83.8834278037
 31
0.0
  0
LINE
  5
196
330
18F
100
AcDbEntity
  8
DIM
100
AcDbLine
 10
141.4173177968
 20
181.3834278037
 30
0.0
 11
141.4173177968
 21
83.8834278037
 31
0.0
  0
MTEXT
  5
197
330
18F
100
AcDbEntity
  8
DIM
100
AcDbMText
 10
136.5400759895
 20
123.9205968039
 30
0.0
 40
3.7835416667
 41
0.0
 71
     1
 72
     1
  1
%%c
  7
SLDTEXTSTYLE0
 11
-7.044195017643634E-15
 21
1.0
 31
0.0
 73
     1
 44
1.0
  0
MTEXT
  5
198
330
18F
100
AcDbEntity
  8
DIM
100
AcDbMText
 10
136.5400759895
 20
129.7714234733
 30
0.0
 40
3.7835416667
 41
0.0
 71
     1
 72
     1
  1
97.50
  7
SLDTEXTSTYLE0
 11
-7.044195017643634E-15
 21
1.0
 31
0.0
 73
     1
 44
1.0
  0
ENDBLK
  5
191
330
18F
100
AcDbEntity
  8
0
100
AcDbBlockEnd
  0
BLOCK
  5
19B
330
19A
100
AcDbEntity
  8
0
100
AcDbBlockBegin
  2
_D_3
 70
     0
 10
0.0
 20
0.0
 30
0.0
  3
_D_3
  1
_D_3
  0
SOLID
  5
19D
330
19A
100
AcDbEntity
  8
DIM
100
AcDbTrace
 10
297.3642657317
 20
76.8412998954
 30
0.0
 11
293.0716657317
 21
77.5016998954
 31
0.0
 12
293.0716657317
 22
76.1808998954
 32
0.0
 13
293.0716657317
 23
76.1808998954
 33
0.0
  0
SOLID
  5
19E
330
19A
100
AcDbEntity
  8
DIM
100
AcDbTrace
 10
252.3642657317
 20
76.8412998954
 30
0.0
 11
256.6568657317
 21
76.1808998954
 31
0.0
 12
256.6568657317
 22
77.5016998954
 32
0.0
 13
256.6568657317
 23
77.5016998954
 33
0.0
  0
LINE
  5
19F
330
19A
100
AcDbEntity
  8
DIM
100
AcDbLine
 10
297.3642657317
 20
113.3334278037
 30
0.0
 11
297.3642657317
 21
75.5412998954
 31
0.0
  0
LINE
  5
1A0
330
19A
100
AcDbEntity
  8
DIM
100
AcDbLine
 10
252.3642657317
 20
96.4084278037
 30
0.0
 11
252.3642657317
 21
75.5412998954
 31
0.0
  0
LINE
  5
1A1
330
19A
100
AcDbEntity
  8
DIM
100
AcDbLine
 10
297.3642657317
 20
76.8412998954
 30
0.0
 11
252.3642657317
 21
76.8412998954
 31
0.0
  0
MTEXT
  5
1A2
330
19A
100
AcDbEntity
  8
DIM
100
AcDbMText
 10
272.3068717301
 20
81.7185417027
 30
0.0
 40
3.7835416667
 41
0.0
 71
     1
 72
     1
  1
45
  7
SLDTEXTSTYLE0
 73
     1
 44
1.0
  0
ENDBLK
  5
19C
330
19A
100
AcDbEntity
  8
0
100
AcDbBlockEnd
  0
BLOCK
  5
1A5
330
1A4
100
AcDbEntity
  8
0
100
AcDbBlockBegin
  2
_D_4
 70
     0
 10
0.0
 20
0.0
 30
0.0
  3
_D_4
  1
_D_4
  0
SOLID
  5
1A7
330
1A4
100
AcDbEntity
  8
DIM
100
AcDbTrace
 10
297.3642657317
 20
76.8412998954
 30
0.0
 11
293.0716657317
 21
77.5016998954
 31
0.0
 12
293.0716657317
 22
76.1808998954
 32
0.0
 13
293.0716657317
 23
76.1808998954
 33
0.0
  0
SOLID
  5
1A8
330
1A4
100
AcDbEntity
  8
DIM
100
AcDbTrace
 10
314.3642657317
 20
76.8412998954
 30
0.0
 11
318.6568657317
 21
76.1808998954
 31
0.0
 12
318.6568657317
 22
77.5016998954
 32
0.0
 13
318.6568657317
 23
77.5016998954
 33
0.0
  0
LINE
  5
1A9
330
1A4
100
AcDbEntity
  8
DIM
100
AcDbLine
 10
297.3642657317
 20
113.3334278037
 30
0.0
 11
297.3642657317
 21
75.5412998954
 31
0.0
  0
LINE
  5
1AA
330
1A4
100
AcDbEntity
  8
DIM
100
AcDbLine
 10
314.3642657317
 20
124.1834278037
 30
0.0
 11
314.3642657317
 21
75.5412998954
 31
0.0
  0
LINE
  5
1AB
330
1A4
100
AcDbEntity
  8
DIM
100
AcDbLine
 10
297.3642657317
 20
76.8412998954
 30
0.0
 11
289.1092657317
 21
76.8412998954
 31
0.0
  0
LINE
  5
1AC
330
1A4
100
AcDbEntity
  8
DIM
100
AcDbLine
 10
297.3642657317
 20
76.8412998954
 30
0.0
 11
314.3642657317
 21
76.8412998954
 31
0.0
  0
LINE
  5
1AD
330
1A4
100
AcDbEntity
  8
DIM
100
AcDbLine
 10
314.3642657317
 20
76.8412998954
 30
0.0
 11
322.6192657317
 21
76.8412998954
 31
0.0
  0
MTEXT
  5
1AE
330
1A4
100
AcDbEntity
  8
DIM
100
AcDbMText
 10
303.3068717301
 20
81.7185417027
 30
0.0
 40
3.7835416667
 41
0.0
 71
     1
 72
     1
  1
17
  7
SLDTEXTSTYLE0
 73
     1
 44
1.0
  0
ENDBLK
  5
1A6
330
1A4
100
AcDbEntity
  8
0
100
AcDbBlockEnd
  0
BLOCK
  5
1B1
330
1B0
100
AcDbEntity
  8
0
100
AcDbBlockBegin
  2
_D_5
 70
     0
 10
0.0
 20
0.0
 30
0.0
  3
_D_5
  1
_D_5
  0
SOLID
  5
1B3
330
1B0
100
AcDbEntity
  8
DIM
100
AcDbTrace
 10
324.3642657317
 20
63.0833278037
 30
0.0
 11
320.0716657317
 21
63.7437278037
 31
0.0
 12
320.0716657317
 22
62.4229278037
 32
0.0
 13
320.0716657317
 23
62.4229278037
 33
0.0
  0
SOLID
  5
1B4
330
1B0
100
AcDbEntity
  8
DIM
100
AcDbTrace
 10
150.6142657317
 20
63.0833278037
 30
0.0
 11
154.9068657317
 21
62.4229278037
 31
0.0
 12
154.9068657317
 22
63.7437278037
 32
0.0
 13
154.9068657317
 23
63.7437278037
 33
0.0
  0
LINE
  5
1B5
330
1B0
100
AcDbEntity
  8
DIM
100
AcDbLine
 10
324.3642657317
 20
122.3334278037
 30
0.0
 11
324.3642657317
 21
61.7833278037
 31
0.0
  0
LINE
  5
1B6
330
1B0
100
AcDbEntity
  8
DIM
100
AcDbLine
 10
150.6142657317
 20
131.3334278037
 30
0.0
 11
150.6142657317
 21
61.7833278037
 31
0.0
  0
LINE
  5
1B7
330
1B0
100
AcDbEntity
  8
DIM
100
AcDbLine
 10
324.3642657317
 20
63.0833278037
 30
0.0
 11
150.6142657317
 21
63.0833278037
 31
0.0
  0
MTEXT
  5
1B8
330
1B0
100
AcDbEntity
  8
DIM
100
AcDbMText
 10
230.4231510658
 20
67.960569611
 30
0.0
 40
3.7835416667
 41
0.0
 71
     1
 72
     1
  1
173.75
  7
SLDTEXTSTYLE0
 73
     1
 44
1.0
  0
ENDBLK
  5
1B2
330
1B0
100
AcDbEntity
  8
0
100
AcDbBlockEnd
  0
ENDSEC
  0
SECTION
  2
ENTITIES
  0
LINE
  5
76
330
1F
100
AcDbEntity
  8
DIM
100
AcDbLine
 10
136.1157520957
 20
12.7282888939
 30
0.0
 11
136.1157520957
 21
6.2282888939
 31
0.0
  0
LINE
  5
77
330
1F
100
AcDbEntity
  8
DIM
100
AcDbLine
 10
330.8104822039
 20
12.7282888939
 30
0.0
 11
330.8104822039
 21
6.2282888939
 31
0.0
  0
LINE
  5
78
330
1F
100
AcDbEntity
  8
DIM
100
AcDbLine
 10
308.6872229111
 20
12.7282888939
 30
0.0
 11
308.6872229111
 21
6.2282888939
 31
0.0
  0
LINE
  5
79
330
1F
100
AcDbEntity
  8
DIM
100
AcDbLine
 10
362.5757520957
 20
6.2282888939
 30
0.0
 11
362.5757520957
 21
12.7282888939
 31
0.0
  0
LINE
  5
7A
330
1F
100
AcDbEntity
  8
DIM
100
AcDbLine
 10
146.2557520957
 20
12.7282888939
 30
0.0
 11
146.2557520957
 21
6.2282888939
 31
0.0
  0
LINE
  5
7B
330
1F
100
AcDbEntity
  8
DIM
100
AcDbLine
 10
171.2039902596
 20
12.7282888939
 30
0.0
 11
171.2039902596
 21
6.2282888939
 31
0.0
  0
LINE
  5
7C
330
1F
100
AcDbEntity
  8
DIM
100
AcDbLine
 10
379.4757520957
 20
6.2282888939
 30
0.0
 11
379.4757520957
 21
100.1532888939
 31
0.0
  0
LINE
  5
7D
330
1F
100
AcDbEntity
  8
DIM
100
AcDbLine
 10
371.5647061031
 20
78.0532888939
 30
0.0
 11
379.4757520957
 21
78.0532888939
 31
0.0
  0
LINE
  5
7E
330
1F
100
AcDbEntity
  8
DIM
100
AcDbLine
 10
193.8343561083
 20
11.7532888939
 30
0.0
 11
193.8343561083
 21
6.2282888939
 31
0.0
  0
LINE
  5
7F
330
1F
100
AcDbEntity
  8
DIM
100
AcDbLine
 10
255.7931339086
 20
12.7282888939
 30
0.0
 11
255.7931339086
 21
6.2282888939
 31
0.0
  0
LINE
  5
80
330
1F
100
AcDbEntity
  8
DIM
100
AcDbLine
 10
193.8343561083
 20
12.7282888939
 30
0.0
 11
193.8343561083
 21
11.7532888939
 31
0.0
  0
LINE
  5
81
330
1F
100
AcDbEntity
  8
DIM
100
AcDbLine
 10
372.9757520957
 20
22.8031952939
 30
0.0
 11
379.4757520957
 21
22.8031952939
 31
0.0
  0
LINE
  5
82
330
1F
100
AcDbEntity
  8
DIM
100
AcDbLine
 10
372.9757520957
 20
259.7282888939
 30
0.0
 11
12.8757520957
 21
259.7282888939
 31
0.0
  0
LINE
  5
83
330
1F
100
AcDbEntity
  8
DIM
100
AcDbLine
 10
379.4757520957
 20
266.2282888939
 30
0.0
 11
6.3757520957
 21
266.2282888939
 31
0.0
  0
LINE
  5
84
330
1F
100
AcDbEntity
  8
DIM
100
AcDbLine
 10
12.8757520957
 20
259.7282888939
 30
0.0
 11
12.8757520957
 21
12.7282888939
 31
0.0
  0
LINE
  5
85
330
1F
100
AcDbEntity
  8
DIM
100
AcDbLine
 10
6.3757520957
 20
266.2282888939
 30
0.0
 11
6.3757520957
 21
6.2282888939
 31
0.0
  0
LINE
  5
86
330
1F
100
AcDbEntity
  8
DIM
100
AcDbLine
 10
12.8757520957
 20
71.2282888939
 30
0.0
 11
6.3757520957
 21
71.2282888939
 31
0.0
  0
LINE
  5
87
330
1F
100
AcDbEntity
  8
DIM
100
AcDbLine
 10
6.3757520957
 20
136.2282888939
 30
0.0
 11
12.8757520957
 21
136.2282888939
 31
0.0
  0
LINE
  5
88
330
1F
100
AcDbEntity
  8
DIM
100
AcDbLine
 10
6.3757520957
 20
6.2282888939
 30
0.0
 11
379.4757520957
 21
6.2282888939
 31
0.0
  0
LINE
  5
89
330
1F
100
AcDbEntity
  8
DIM
100
AcDbLine
 10
12.8757520957
 20
12.7282888939
 30
0.0
 11
379.4757520957
 21
12.7282888939
 31
0.0
  0
LINE
  5
8A
330
1F
100
AcDbEntity
  8
DIM
100
AcDbLine
 10
62.9257520957
 20
6.2282888939
 30
0.0
 11
62.9257520957
 21
12.7282888939
 31
0.0
  0
LINE
  5
8B
330
1F
100
AcDbEntity
  8
DIM
100
AcDbLine
 10
127.9257520957
 20
12.7282888939
 30
0.0
 11
127.9257520957
 21
6.2282888939
 31
0.0
  0
LINE
  5
8C
330
1F
100
AcDbEntity
  8
DIM
100
AcDbLine
 10
12.8757520957
 20
201.2282888939
 30
0.0
 11
6.3757520957
 21
201.2282888939
 31
0.0
  0
LINE
  5
8D
330
1F
100
AcDbEntity
  8
DIM
100
AcDbLine
 10
62.9257520957
 20
259.7282888939
 30
0.0
 11
62.9257520957
 21
266.2282888939
 31
0.0
  0
LINE
  5
8E
330
1F
100
AcDbEntity
  8
DIM
100
AcDbLine
 10
127.9257520957
 20
266.2282888939
 30
0.0
 11
127.9257520957
 21
259.7282888939
 31
0.0
  0
LINE
  5
8F
330
1F
100
AcDbEntity
  8
DIM
100
AcDbLine
 10
192.9257520957
 20
266.2282888939
 30
0.0
 11
192.9257520957
 21
259.7282888939
 31
0.0
  0
LINE
  5
90
330
1F
100
AcDbEntity
  8
DIM
100
AcDbLine
 10
372.9757520957
 20
12.7282888939
 30
0.0
 11
372.9757520957
 21
259.7282888939
 31
0.0
  0
LINE
  5
91
330
1F
100
AcDbEntity
  8
DIM
100
AcDbLine
 10
379.4757520957
 20
100.1532888939
 30
0.0
 11
379.4757520957
 21
266.2282888939
 31
0.0
  0
LINE
  5
92
330
1F
100
AcDbEntity
  8
DIM
100
AcDbLine
 10
379.4757520957
 20
136.2282888939
 30
0.0
 11
372.9757520957
 21
136.2282888939
 31
0.0
  0
LINE
  5
93
330
1F
100
AcDbEntity
  8
DIM
100
AcDbLine
 10
257.9257520957
 20
266.2282888939
 30
0.0
 11
257.9257520957
 21
259.7282888939
 31
0.0
  0
LINE
  5
94
330
1F
100
AcDbEntity
  8
DIM
100
AcDbLine
 10
322.9257520957
 20
259.7282888939
 30
0.0
 11
322.9257520957
 21
266.2282888939
 31
0.0
  0
LINE
  5
95
330
1F
100
AcDbEntity
  8
DIM
100
AcDbLine
 10
372.9757520957
 20
201.2282888939
 30
0.0
 11
379.4757520957
 21
201.2282888939
 31
0.0
  0
MTEXT
  5
97
330
1F
100
AcDbEntity
  8
DIM
100
AcDbMText
 10
20.9685714825
 20
252.0284640891
 30
0.0
 40
5.5033333333
 41
0.0
 71
     1
 72
     1
  1
SK 50 FMH-K16 045 AD+B/6.3G15000 SL SP.S
  7
SLDTEXTSTYLE0
 73
     1
 44
1.0
  0
MTEXT
  5
99
330
1F
100
AcDbEntity
  8
DIM
 62
     7
100
AcDbMText
 10
257.0526122406
 20
10.1425369842
 30
0.0
 40
1.94818
 41
0.0
 71
     1
 72
     1
  1
WEIGHT:
  7
SLDTEXTSTYLE1
 73
     1
 44
1.0
  0
MTEXT
  5
9A
330
1F
100
AcDbEntity
  8
DIM
 62
     7
100
AcDbMText
 10
375.1761997812
 20
106.5227975607
 30
0.0
 40
2.4077083333
 41
0.0
 71
     1
 72
     1
  1
C
  7
SLDTEXTSTYLE1
 73
     1
 44
1.0
  0
MTEXT
  5
9B
330
1F
100
AcDbEntity
  8
DIM
 62
     7
100
AcDbMText
 10
367.9566548053
 20
19.3101765787
 30
0.0
 40
3.7835416667
 41
0.0
 71
     1
 72
     1
  1
A4
  7
SLDTEXTSTYLE1
 73
     1
 44
1.0
  0
MTEXT
  5
9C
330
1F
100
AcDbEntity
  8
DIM
 62
     7
100
AcDbMText
 10
354.3424239624
 20
264.4967102185
 30
0.0
 40
2.4077083333
 41
0.0
 71
     1
 72
     1
  1
6
  7
SLDTEXTSTYLE1
 73
     1
 44
1.0
  0
MTEXT
  5
9D
330
1F
100
AcDbEntity
  8
DIM
 62
     7
100
AcDbMText
 10
289.3424239624
 20
264.4967102185
 30
0.0
 40
2.4077083333
 41
0.0
 71
     1
 72
     1
  1
5
  7
SLDTEXTSTYLE1
 73
     1
 44
1.0
  0
MTEXT
  5
9E
330
1F
100
AcDbEntity
  8
DIM
 62
     7
100
AcDbMText
 10
375.1424291624
 20
235.2467102185
 30
0.0
 40
2.4077083333
 41
0.0
 71
     1
 72
     1
  1
A
  7
SLDTEXTSTYLE1
 73
     1
 44
1.0
  0
MTEXT
  5
9F
330
1F
100
AcDbEntity
  8
DIM
 62
     7
100
AcDbMText
 10
375.1424291624
 20
170.2467102185
 30
0.0
 40
2.4077083333
 41
0.0
 71
     1
 72
     1
  1
B
  7
SLDTEXTSTYLE1
 73
     1
 44
1.0
  0
MTEXT
  5
A0
330
1F
100
AcDbEntity
  8
DIM
 62
     7
100
AcDbMText
 10
224.3424239624
 20
264.4967102185
 30
0.0
 40
2.4077083333
 41
0.0
 71
     1
 72
     1
  1
4
  7
SLDTEXTSTYLE1
 73
     1
 44
1.0
  0
MTEXT
  5
A1
330
1F
100
AcDbEntity
  8
DIM
 62
     7
100
AcDbMText
 10
29.884090629
 20
264.4967102185
 30
0.0
 40
2.4077083333
 41
0.0
 71
     1
 72
     1
  1
1
  7
SLDTEXTSTYLE1
 73
     1
 44
1.0
  0
MTEXT
  5
A2
330
1F
100
AcDbEntity
  8
DIM
 62
     7
100
AcDbMText
 10
94.3424239624
 20
264.4967102185
 30
0.0
 40
2.4077083333
 41
0.0
 71
     1
 72
     1
  1
2
  7
SLDTEXTSTYLE1
 73
     1
 44
1.0
  0
MTEXT
  5
A3
330
1F
100
AcDbEntity
  8
DIM
 62
     7
100
AcDbMText
 10
159.3424239624
 20
264.4967102185
 30
0.0
 40
2.4077083333
 41
0.0
 71
     1
 72
     1
  1
3
  7
SLDTEXTSTYLE1
 73
     1
 44
1.0
  0
MTEXT
  5
A4
330
1F
100
AcDbEntity
  8
DIM
 62
     7
100
AcDbMText
 10
8.5424187624
 20
235.2467102185
 30
0.0
 40
2.4077083333
 41
0.0
 71
     1
 72
     1
  1
A
  7
SLDTEXTSTYLE1
 73
     1
 44
1.0
  0
MTEXT
  5
A5
330
1F
100
AcDbEntity
  8
DIM
 62
     7
100
AcDbMText
 10
94.3424239624
 20
10.9967102185
 30
0.0
 40
2.4077083333
 41
0.0
 71
     1
 72
     1
  1
2
  7
SLDTEXTSTYLE1
 73
     1
 44
1.0
  0
MTEXT
  5
A6
330
1F
100
AcDbEntity
  8
DIM
 62
     7
100
AcDbMText
 10
29.884090629
 20
10.9967102185
 30
0.0
 40
2.4077083333
 41
0.0
 71
     1
 72
     1
  1
1
  7
SLDTEXTSTYLE1
 73
     1
 44
1.0
  0
MTEXT
  5
A7
330
1F
100
AcDbEntity
  8
DIM
 62
     7
100
AcDbMText
 10
8.5424187624
 20
40.2467102185
 30
0.0
 40
2.4077083333
 41
0.0
 71
     1
 72
     1
  1
D
  7
SLDTEXTSTYLE1
 73
     1
 44
1.0
  0
MTEXT
  5
A8
330
1F
100
AcDbEntity
  8
DIM
 62
     7
100
AcDbMText
 10
8.5424187624
 20
105.2467102185
 30
0.0
 40
2.4077083333
 41
0.0
 71
     1
 72
     1
  1
C
  7
SLDTEXTSTYLE1
 73
     1
 44
1.0
  0
MTEXT
  5
A9
330
1F
100
AcDbEntity
  8
DIM
 62
     7
100
AcDbMText
 10
8.5424187624
 20
170.2467102185
 30
0.0
 40
2.4077083333
 41
0.0
 71
     1
 72
     1
  1
B
  7
SLDTEXTSTYLE1
 73
     1
 44
1.0
  0
MTEXT
  5
AA
330
1F
100
AcDbEntity
  8
DIM
 62
     7
100
AcDbMText
 10
375.1761997812
 20
106.5227975607
 30
0.0
 40
2.4077083333
 41
0.0
 71
     1
 72
     1
  1
C
  7
SLDTEXTSTYLE1
 73
     1
 44
1.0
  0
MTEXT
  5
AC
330
1F
100
AcDbEntity
  8
DIM
 62
     7
100
AcDbMText
 10
333.4829755563
 20
9.9984023508
 30
0.0
 40
1.95
 41
0.0
 71
     1
 72
     1
  1
SHEET 1 OF 1
  7
SLDTEXTSTYLE2
 73
     1
 44
1.0
  0
MTEXT
  5
AD
330
1F
100
AcDbEntity
  8
DIM
 62
     7
100
AcDbMText
 10
195.4833144985
 20
10.2093777287
 30
0.0
 40
1.95
 41
0.0
 71
     1
 72
     1
  1
MATERIAL:
  7
SLDTEXTSTYLE1
 73
     1
 44
1.0
  0
MTEXT
  5
AE
330
1F
100
AcDbEntity
  8
DIM
 62
     7
100
AcDbMText
 10
354.3424239624
 20
264.4967102185
 30
0.0
 40
2.4077083333
 41
0.0
 71
     1
 72
     1
  1
6
  7
SLDTEXTSTYLE1
 73
     1
 44
1.0
  0
MTEXT
  5
AF
330
1F
100
AcDbEntity
  8
DIM
 62
     7
100
AcDbMText
 10
289.3424239624
 20
264.4967102185
 30
0.0
 40
2.4077083333
 41
0.0
 71
     1
 72
     1
  1
5
  7
SLDTEXTSTYLE1
 73
     1
 44
1.0
  0
MTEXT
  5
B0
330
1F
100
AcDbEntity
  8
DIM
 62
     7
100
AcDbMText
 10
375.1424291624
 20
235.2467102185
 30
0.0
 40
2.4077083333
 41
0.0
 71
     1
 72
     1
  1
A
  7
SLDTEXTSTYLE1
 73
     1
 44
1.0
  0
MTEXT
  5
B1
330
1F
100
AcDbEntity
  8
DIM
 62
     7
100
AcDbMText
 10
375.1424291624
 20
170.2467102185
 30
0.0
 40
2.4077083333
 41
0.0
 71
     1
 72
     1
  1
B
  7
SLDTEXTSTYLE1
 73
     1
 44
1.0
  0
MTEXT
  5
B2
330
1F
100
AcDbEntity
  8
DIM
 62
     7
100
AcDbMText
 10
224.3424239624
 20
264.4967102185
 30
0.0
 40
2.4077083333
 41
0.0
 71
     1
 72
     1
  1
4
  7
SLDTEXTSTYLE1
 73
     1
 44
1.0
  0
MTEXT
  5
B3
330
1F
100
AcDbEntity
  8
DIM
 62
     7
100
AcDbMText
 10
29.884090629
 20
264.4967102185
 30
0.0
 40
2.4077083333
 41
0.0
 71
     1
 72
     1
  1
1
  7
SLDTEXTSTYLE1
 73
     1
 44
1.0
  0
MTEXT
  5
B4
330
1F
100
AcDbEntity
  8
DIM
 62
     7
100
AcDbMText
 10
94.3424239624
 20
264.4967102185
 30
0.0
 40
2.4077083333
 41
0.0
 71
     1
 72
     1
  1
2
  7
SLDTEXTSTYLE1
 73
     1
 44
1.0
  0
MTEXT
  5
B5
330
1F
100
AcDbEntity
  8
DIM
 62
     7
100
AcDbMText
 10
159.3424239624
 20
264.4967102185
 30
0.0
 40
2.4077083333
 41
0.0
 71
     1
 72
     1
  1
3
  7
SLDTEXTSTYLE1
 73
     1
 44
1.0
  0
MTEXT
  5
B6
330
1F
100
AcDbEntity
  8
DIM
 62
     7
100
AcDbMText
 10
8.5424187624
 20
235.2467102185
 30
0.0
 40
2.4077083333
 41
0.0
 71
     1
 72
     1
  1
A
  7
SLDTEXTSTYLE1
 73
     1
 44
1.0
  0
MTEXT
  5
B7
330
1F
100
AcDbEntity
  8
DIM
 62
     7
100
AcDbMText
 10
94.3424239624
 20
10.9967102185
 30
0.0
 40
2.4077083333
 41
0.0
 71
     1
 72
     1
  1
2
  7
SLDTEXTSTYLE1
 73
     1
 44
1.0
  0
MTEXT
  5
B8
330
1F
100
AcDbEntity
  8
DIM
 62
     7
100
AcDbMText
 10
29.884090629
 20
10.9967102185
 30
0.0
 40
2.4077083333
 41
0.0
 71
     1
 72
     1
  1
1
  7
SLDTEXTSTYLE1
 73
     1
 44
1.0
  0
MTEXT
  5
B9
330
1F
100
AcDbEntity
  8
DIM
 62
     7
100
AcDbMText
 10
8.5424187624
 20
40.2467102185
 30
0.0
 40
2.4077083333
 41
0.0
 71
     1
 72
     1
  1
D
  7
SLDTEXTSTYLE1
 73
     1
 44
1.0
  0
MTEXT
  5
BA
330
1F
100
AcDbEntity
  8
DIM
 62
     7
100
AcDbMText
 10
8.5424187624
 20
105.2467102185
 30
0.0
 40
2.4077083333
 41
0.0
 71
     1
 72
     1
  1
C
  7
SLDTEXTSTYLE1
 73
     1
 44
1.0
  0
MTEXT
  5
BB
330
1F
100
AcDbEntity
  8
DIM
 62
     7
100
AcDbMText
 10
8.5424187624
 20
170.2467102185
 30
0.0
 40
2.4077083333
 41
0.0
 71
     1
 72
     1
  1
B
  7
SLDTEXTSTYLE1
 73
     1
 44
1.0
  0
SPLINE
  5
BC
330
1F
100
AcDbEntity
  8
0
  6
Continuous
 62
     7
370
    15
100
AcDbSpline
210
0.0
220
0.0
230
1.0
 70
     8
 71
     3
 72
    14
 73
    10
 74
     0
 42
0.000000001
 43
0.00000001
 40
0.0
 40
0.0
 40
0.0
 40
0.0
 40
0.25
 40
0.25
 40
0.5
 40
0.5
 40
0.75
 40
0.75
 40
1.0
 40
1.0
 40
1.0
 40
1.0
 10
97.22512149696345
 20
132.6334278037234
 30
0.0
 10
97.22512149696345
 20
127.535693426949
 30
0.0
 10
95.19989507089451
 20
122.6463643222569
 30
0.0
 10
87.99060997788453
 20
115.4370792292469
 30
0.0
 10
83.10128087319251
 20
113.411852803178
 30
0.0
 10
72.90581211964363
 20
113.411852803178
 30
0.0
 10
68.01648301495159
 20
115.4370792292469
 30
0.0
 10
60.80719792194161
 20
122.6463643222569
 30
0.0
 10
58.78197149587267
 20
127.535693426949
 30
0.0
 10
58.78197149587266
 20
132.6334278037234
 30
0.0
  0
SPLINE
  5
BD
330
1F
100
AcDbEntity
  8
0
  6
Continuous
 62
     7
370
    15
100
AcDbSpline
210
0.0
220
0.0
230
1.0
 70
     8
 71
     3
 72
    14
 73
    10
 74
     0
 42
0.000000001
 43
0.00000001
 40
0.0
 40
0.0
 40
0.0
 40
0.0
 40
0.25
 40
0.25
 40
0.5
 40
0.5
 40
0.75
 40
0.75
 40
1.0
 40
1.0
 40
1.0
 40
1.0
 10
58.78197149587267
 20
132.6334278037234
 30
0.0
 10
58.78197149587267
 20
137.7311621804978
 30
0.0
 10
60.80719792194161
 20
142.6204912851899
 30
0.0
 10
68.01648301495159
 20
149.8297763781999
 30
0.0
 10
72.90581211964361
 20
151.8550028042688
 30
0.0
 10
83.10128087319251
 20
151.8550028042688
 30
0.0
 10
87.99060997788453
 20
149.8297763781999
 30
0.0
 10
95.19989507089451
 20
142.6204912851899
 30
0.0
 10
97.22512149696345
 20
137.7311621804979
 30
0.0
 10
97.22512149696345
 20
132.6334278037234
 30
0.0
  0
CIRCLE
  5
BE
330
1F
100
AcDbEntity
  8
0
  6
Continuous
 62
     7
370
    15
100
AcDbCircle
 10
78.0035464964
 20
132.6334278037
 30
0.0
 40
20.21110778703759
  0
CIRCLE
  5
BF
330
1F
100
AcDbEntity
  8
0
  6
Continuous
 62
     7
370
    15
100
AcDbCircle
 10
78.0035464964
 20
132.6334278037
 30
0.0
 40
34.925
  0
SPLINE
  5
C0
330
1F
100
AcDbEntity
  8
0
  6
Continuous
 62
     7
370
    15
100
AcDbSpline
210
0.0
220
0.0
230
1.0
 70
     8
 71
     3
 72
    52
 73
    48
 74
     0
 42
0.000000001
 43
0.00000001
 40
0.0
 40
0.0
 40
0.0
 40
0.0
 40
0.0053074994726554
 40
0.0106084744807156
 40
0.0159043870752884
 40
0.0211967035030982
 40
0.0264868930010475
 40
0.031776426578386
 40
0.0370667757915106
 40
0.0423594115164833
 40
0.0476558027243854
 40
0.0529574152645906
 40
0.0582657106609693
 40
0.0891348494758177
 40
0.1200087595578935
 40
0.1521645941108524
 40
0.1843252192282218
 40
0.2171652710885947
 40
0.2500102154523581
 40
0.2828502674523063
 40
0.3156952119562962
 40
0.3478510468948057
 40
0.380011672397905
 40
0.4108808109142898
 40
0.4417547207534483
 40
0.470875333637603
 40
0.5000007798720159
 40
0.5291213927975412
 40
0.5582468390472084
 40
0.5891159778617261
 40
0.6199898879441322
 40
0.652145722497098
 40
0.6843063476144644
 40
0.7171463994755694
 40
0.7499913438386044
 40
0.7828313958395676
 40
0.8156763403425417
 40
0.8478321752819549
 40
0.8799928007841501
 40
0.9108619393016738
 40
0.941735849139696
 40
0.9514609652020397
 40
0.9611682412334405
 40
0.9708667191333772
 40
0.9805654654081966
 40
0.9902735458123287
 40
1.0
 40
1.0
 40
1.0
 40
1.0
 10
43.00354649641806
 20
132.6334278037234
 30
0.0
 10
43.00447452732851
 20
132.8278899617763
 30
0.0
 10
43.00632944832883
 20
133.216575227182
 30
0.0
 10
43.02135848268045
 20
133.7991381972035
 30
0.0
 10
43.04535711171484
 20
134.3808240845729
 30
0.0
 10
43.07920141579795
 20
134.96163277939
 30
0.0
 10
43.12265695753154
 20
135.5415641278092
 30
0.0
 10
43.1757865185976
 20
136.1206180482339
 30
0.0
 10
43.2385731883198
 20
136.6987942123706
 30
0.0
 10
43.31102178083637
 20
137.2760932097389
 30
0.0
 10
43.39312981832938
 20
137.8525122098865
 30
0.0
 10
43.48490222032304
 20
138.4280611714646
 30
0.0
 10
43.74904172195644
 20
139.9246737749783
 30
0.0
 10
44.31280947486184
 20
142.3203806361464
 30
0.0
 10
45.42542665520057
 20
145.5812517421988
 30
0.0
 10
46.87259287074117
 20
148.7611406244926
 30
0.0
 10
48.67176850014788
 20
151.8396395562483
 30
0.0
 10
50.78818907570822
 20
154.7410994642852
 30
0.0
 10
53.21107426922335
 20
157.4256464402791
 30
0.0
 10
55.89573474784181
 20
159.8486716152256
 30
0.0
 10
58.7970348874021
 20
161.9650108513026
 30
0.0
 10
61.87568798542909
 20
163.7643030434216
 30
0.0
 10
65.05535141943741
 20
165.211411176629
 30
0.0
 10
68.31658771744374
 20
166.3241409936339
 30
0.0
 10
71.56233201617775
 20
167.0880284790301
 30
0.0
 10
74.80119813433367
 20
167.5363064790405
 30
0.0
 10
78.00336952426353
 20
167.6819843438807
 30
0.0
 10
81.2057169949098
 20
167.5363229664322
 30
0.0
 10
84.4444152546237
 20
167.0880927739711
 30
0.0
 10
87.69033586419675
 20
166.3241907148484
 30
0.0
 10
90.9514162647562
 20
165.2115403854897
 30
0.0
 10
94.13124683321129
 20
163.7643834104343
 30
0.0
 10
97.20976167342131
 20
161.9652052432052
 30
0.0
 10
100.1112172295479
 20
159.8487854263576
 30
0.0
 10
102.7957653875574
 20
157.4258997852473
 30
0.0
 10
105.2187902171402
 20
154.7412403327618
 30
0.0
 10
107.3351296513052
 20
151.8399365614089
 30
0.0
 10
109.1344214039432
 20
148.7612966988269
 30
0.0
 10
110.5815310733029
 20
145.5815847534031
 30
0.0
 10
111.6942553969661
 20
142.3205225437278
 30
0.0
 10
112.2951013290089
 20
139.7671084583736
 30
0.0
 10
112.6030414085281
 20
137.9496887527719
 30
0.0
 10
112.7491805194506
 20
136.8922420145434
 30
0.0
 10
112.8629865467117
 20
135.8318047611685
 30
0.0
 10
112.9436818675183
 20
134.7683507870164
 30
0.0
 10
112.994203402934
 20
133.701890418282
 30
0.0
 10
113.0004301696216
 20
132.9898064145563
 30
0.0
 10
113.0035464964181
 20
132.6334278037234
 30
0.0
  0
SPLINE
  5
C1
330
1F
100
AcDbEntity
  8
0
  6
Continuous
 62
     7
370
    15
100
AcDbSpline
210
0.0
220
0.0
230
1.0
 70
     8
 71
     3
 72
    52
 73
    48
 74
     0
 42
0.000000001
 43
0.00000001
 40
0.0
 40
0.0
 40
0.0
 40
0.0
 40
0.0053074994726554
 40
0.0106084744807156
 40
0.0159043870752884
 40
0.0211967035030983
 40
0.0264868930010475
 40
0.0317764265783861
 40
0.0370667757915106
 40
0.0423594115164834
 40
0.0476558027243854
 40
0.0529574152645907
 40
0.0582657106609694
 40
0.0891348494759667
 40
0.1200087595578951
 40
0.1521645941111445
 40
0.1843252192282232
 40
0.2171652710889209
 40
0.25001021545236
 40
0.2828502674525652
 40
0.315695211956297
 40
0.3478510468951538
 40
0.3800116723979077
 40
0.41088081091547
 40
0.4417547207534571
 40
0.4708753336379863
 40
0.5000007798720127
 40
0.5291213927971703
 40
0.5582468390472111
 40
0.5891159778626601
 40
0.6199898879441411
 40
0.6521457224976949
 40
0.6843063476144631
 40
0.7171463994753853
 40
0.7499913438386053
 40
0.7828313958393156
 40
0.8156763403425399
 40
0.8478321752809374
 40
0.8799928007841432
 40
0.9108619393011222
 40
0.9417358491396983
 40
0.9514609652021586
 40
0.9611682412336295
 40
0.9708667191335897
 40
0.9805654654083855
 40
0.9902735458124469
 40
1.0
 40
1.0
 40
1.0
 40
1.0
 10
113.0035464964181
 20
132.6334278037234
 30
0.0
 10
113.0026184655076
 20
132.4389656456705
 30
0.0
 10
113.0007635445073
 20
132.0502803802648
 30
0.0
 10
112.9857345101557
 20
131.4677174102433
 30
0.0
 10
112.9617358811213
 20
130.8860315228739
 30
0.0
 10
112.9278915770382
 20
130.3052228280568
 30
0.0
 10
112.8844360353046
 20
129.7252914796376
 30
0.0
 10
112.8313064742385
 20
129.1462375592129
 30
0.0
 10
112.7685198045163
 20
128.5680613950763
 30
0.0
 10
112.6960712119998
 20
127.9907623977079
 30
0.0
 10
112.6139631745068
 20
127.4143433975603
 30
0.0
 10
112.5221907725131
 20
126.8387944359822
 30
0.0
 10
112.2580512708787
 20
125.3421818324632
 30
0.0
 10
111.6942835179755
 20
122.9464749712944
 30
0.0
 10
110.5816663376291
 20
119.6856038652332
 30
0.0
 10
109.1345001220901
 20
116.5057149829447
 30
0.0
 10
107.3353244926758
 20
113.4272160511798
 30
0.0
 10
105.2189039171208
 20
110.525756143152
 30
0.0
 10
102.7960187235978
 20
107.8412091671526
 30
0.0
 10
100.1113582449858
 20
105.4181839922165
 30
0.0
 10
97.21005810541533
 20
103.3018447561326
 30
0.0
 10
94.13140500739755
 20
101.5025525640153
 30
0.0
 10
90.95174157334613
 20
100.0554444307993
 30
0.0
 10
87.69050527535376
 20
98.94271461379128
 30
0.0
 10
84.44476097660258
 20
98.17882712840382
 30
0.0
 10
81.20589485848632
 20
97.73054912842817
 30
0.0
 10
78.00372346857253
 20
97.58487126356427
 30
0.0
 10
74.80137599793862
 20
97.73053264100278
 30
0.0
 10
71.56267773819293
 20
98.17876283348264
 30
0.0
 10
68.31675712860357
 20
98.94266489259714
 30
0.0
 10
65.05567672802762
 20
100.0553152219772
 30
0.0
 10
61.87584615961347
 20
101.502472197038
 30
0.0
 10
58.797331319401
 20
103.3016503642477
 30
0.0
 10
55.89587576329218
 20
105.4180701810835
 30
0.0
 10
53.21132760528947
 20
107.8409558221878
 30
0.0
 10
50.78830277570611
 20
110.5256152746811
 30
0.0
 10
48.67196334155453
 20
113.4269190459979
 30
0.0
 10
46.87267158891785
 20
116.505558908591
 30
0.0
 10
45.42556191955589
 20
119.6852708539909
 30
0.0
 10
44.31283759585917
 20
122.9463330636948
 30
0.0
 10
43.71199166382866
 20
125.4997471490574
 30
0.0
 10
43.40405158430844
 20
127.3171668546863
 30
0.0
 10
43.25791247338584
 20
128.3746135929226
 30
0.0
 10
43.14410644612467
 20
129.4350508463
 30
0.0
 10
43.06341112531801
 20
130.4985048204495
 30
0.0
 10
43.01288958990222
 20
131.5649651891761
 30
0.0
 10
43.00666282321452
 20
132.2770491928948
 30
0.0
 10
43.00354649641806
 20
132.6334278037234
 30
0.0
  0
SPLINE
  5
C2
330
1F
100
AcDbEntity
  8
0
  6
Continuous
 62
     7
370
    15
100
AcDbSpline
210
0.0
220
0.0
230
1.0
 70
    24
 71
     3
 72
     8
 73
     4
 74
     0
 42
0.000000001
 43
0.00000001
 40
0.0
 40
0.0
 40
0.0
 40
0.0
 40
1.0
 40
1.0
 40
1.0
 40
1.0
 10
48.00354649641805
 20
169.9330892872904
 30
0.0
 10
48.00354649641805
 20
169.8295802430561
 30
0.0
 10
48.00354649641806
 20
169.7001566812239
 30
0.0
 10
48.00354649641806
 20
169.5694128803041
 30
0.0
  0
ARC
  5
C3
330
1F
100
AcDbEntity
  8
0
  6
Continuous
 62
     7
370
    15
100
AcDbCircle
 10
78.0035464964
 20
132.6334278037
 30
0.0
 40
47.58431457505077
100
AcDbArc
 50
129.0840578538
 51
140.9159421462
  0
SPLINE
  5
C4
330
1F
100
AcDbEntity
  8
0
  6
Continuous
 62
     7
370
    15
100
AcDbSpline
210
0.0
220
0.0
230
1.0
 70
    24
 71
     3
 72
     8
 73
     4
 74
     0
 42
0.000000001
 43
0.00000001
 40
0.0
 40
0.0
 40
0.0
 40
0.0
 40
1.0
 40
1.0
 40
1.0
 40
1.0
 10
41.0675614198374
 20
162.6334278037234
 30
0.0
 10
40.93685727023052
 20
162.6334278037234
 30
0.0
 10
40.80732030321435
 20
162.6334278037234
 30
0.0
 10
40.70388501285102
 20
162.6334278037234
 30
0.0
  0
ARC
  5
C5
330
1F
100
AcDbEntity
  8
0
  6
Continuous
 62
     7
370
    15
100
AcDbCircle
 10
78.0035464964
 20
132.6334278037
 30
0.0
 40
47.86715728752539
100
AcDbArc
 50
128.8096103904
 51
141.1903896096
  0
SPLINE
  5
C6
330
1F
100
AcDbEntity
  8
0
  6
Continuous
 62
     7
370
    15
100
AcDbSpline
210
0.0
220
0.0
230
1.0
 70
     8
 71
     3
 72
    10
 73
     6
 74
     0
 42
0.000000001
 43
0.00000001
 40
0.0
 40
0.0
 40
0.0
 40
0.0
 40
0.5
 40
0.5
 40
1.0
 40
1.0
 40
1.0
 40
1.0
 10
123.6178479114062
 20
146.1834278037234
 30
0.0
 10
123.6817996002493
 20
146.1834278037234
 30
0.0
 10
123.7433639387004
 20
146.1695819276986
 30
0.0
 10
123.8539892895495
 20
146.1274161515112
 30
0.0
 10
123.9036759812189
 20
146.0989254512482
 30
0.0
 10
123.9472455578847
 20
146.0662705161981
 30
0.0
  0
ARC
  5
C7
330
1F
100
AcDbEntity
  8
0
  6
Continuous
 62
     7
370
    15
100
AcDbCircle
 10
78.0035464964
 20
132.6334278037
 30
0.0
 40
47.86715728752539
100
AcDbArc
 50
343.7023380383
 51
16.2976619617
  0
SPLINE
  5
C8
330
1F
100
AcDbEntity
  8
0
  6
Continuous
 62
     7
370
    15
100
AcDbSpline
210
0.0
220
0.0
230
1.0
 70
     8
 71
     3
 72
    10
 73
     6
 74
     0
 42
0.000000001
 43
0.00000001
 40
0.0
 40
0.0
 40
0.0
 40
0.0
 40
0.5
 40
0.5
 40
1.0
 40
1.0
 40
1.0
 40
1.0
 10
123.9472455578847
 20
119.2005850912488
 30
0.0
 10
123.903705166466
 20
119.1679520302315
 30
0.0
 10
123.8551505623482
 20
119.1399711439653
 30
0.0
 10
123.7437010265864
 20
119.0973142935903
 30
0.0
 10
123.6817427739972
 20
119.0834278037234
 30
0.0
 10
123.6178479114062
 20
119.0834278037234
 30
0.0
  0
ARC
  5
C9
330
1F
100
AcDbEntity
  8
0
  6
Continuous
 62
     7
370
    15
100
AcDbCircle
 10
78.0035464964
 20
132.6334278037
 30
0.0
 40
47.58431457505077
100
AcDbArc
 50
343.4556342686
 51
16.5443657314
  0
ARC
  5
CA
330
1F
100
AcDbEntity
  8
0
  6
Continuous
 62
     7
370
    15
100
AcDbCircle
 10
78.0035464964
 20
132.6334278037
 30
0.0
 40
47.58431457505078
100
AcDbArc
 50
163.4556342686
 51
196.5443657314
  0
SPLINE
  5
CB
330
1F
100
AcDbEntity
  8
0
  6
Continuous
 62
     7
370
    15
100
AcDbSpline
210
0.0
220
0.0
230
1.0
 70
     8
 71
     3
 72
    10
 73
     6
 74
     0
 42
0.000000001
 43
0.00000001
 40
0.0
 40
0.0
 40
0.0
 40
0.0
 40
0.5
 40
0.5
 40
1.0
 40
1.0
 40
1.0
 40
1.0
 10
32.38924508142991
 20
119.0834278037235
 30
0.0
 10
32.32529339258679
 20
119.0834278037235
 30
0.0
 10
32.26372905413567
 20
119.0972736797483
 30
0.0
 10
32.15310370328663
 20
119.1394394559356
 30
0.0
 10
32.10341701161722
 20
119.1679301561987
 30
0.0
 10
32.05984743495139
 20
119.2005850912488
 30
0.0
  0
ARC
  5
CC
330
1F
100
AcDbEntity
  8
0
  6
Continuous
 62
     7
370
    15
100
AcDbCircle
 10
78.0035464964
 20
132.6334278037
 30
0.0
 40
47.86715728752539
100
AcDbArc
 50
163.7023380383
 51
196.2976619617
  0
SPLINE
  5
CD
330
1F
100
AcDbEntity
  8
0
  6
Continuous
 62
     7
370
    15
100
AcDbSpline
210
0.0
220
0.0
230
1.0
 70
     8
 71
     3
 72
    10
 73
     6
 74
     0
 42
0.000000001
 43
0.00000001
 40
0.0
 40
0.0
 40
0.0
 40
0.0
 40
0.5
 40
0.5
 40
1.0
 40
1.0
 40
1.0
 40
1.0
 10
32.38924508142993
 20
146.1834278037234
 30
0.0
 10
32.32529339258679
 20
146.1834278037234
 30
0.0
 10
32.26372905413564
 20
146.1695819276986
 30
0.0
 10
32.15310370328665
 20
146.1274161515112
 30
0.0
 10
32.10341701161722
 20
146.0989254512482
 30
0.0
 10
32.05984743495139
 20
146.0662705161981
 30
0.0
  0
SPLINE
  5
CE
330
1F
100
AcDbEntity
  8
0
  6
Continuous
 62
     7
370
    15
100
AcDbSpline
210
0.0
220
0.0
230
1.0
 70
     8
 71
     3
 72
    40
 73
    36
 74
     0
 42
0.000000001
 43
0.00000001
 40
0.0
 40
0.0
 40
0.0
 40
0.0
 40
0.0076138096090706
 40
0.015222703696619
 40
0.0228283796622113
 40
0.0304325370604607
 40
0.0380368764641707
 40
0.0456430983240686
 40
0.0532529018289472
 40
0.0608679837700325
 40
0.0919930035882894
 40
0.1231236538966525
 40
0.1547321881285151
 40
0.1863461940165317
 40
0.2182020912711853
 40
0.2500635030030784
 40
0.3137495787501998
 40
0.3769416086590435
 40
0.439168148565131
 40
0.5000004350472922
 40
0.5608327215294534
 40
0.6230592614355407
 40
0.6862512913443847
 40
0.7499373670915059
 40
0.7817932643700992
 40
0.813654676120411
 40
0.8452632104154371
 40
0.8768772163635395
 40
0.9080022357785864
 40
0.9391328857746177
 40
0.9513123423166135
 40
0.963481817855821
 40
0.9756482751522532
 40
0.9878186821461872
 40
1.0
 40
1.0
 40
1.0
 40
1.0
 10
123.6178479114062
 20
146.1834278037234
 30
0.0
 10
123.5493485005739
 20
146.4104405614461
 30
0.0
 10
123.4123939025432
 20
146.8643195160823
 30
0.0
 10
123.1941638134062
 20
147.5409867372526
 30
0.0
 10
122.9666681920106
 20
148.2142574378195
 30
0.0
 10
122.7289832278425
 20
148.8838569686097
 30
0.0
 10
122.4813560818007
 20
149.5498591089601
 30
0.0
 10
122.2237216517492
 20
150.2122426439789
 30
0.0
 10
121.9560934714016
 20
150.8710180789918
 30
0.0
 10
121.3929008214118
 20
152.200121814232
 30
0.0
 10
120.4678821492459
 20
154.1714225856419
 30
0.0
 10
119.0654694367952
 20
156.7382676650564
 30
0.0
 10
117.4999298286869
 20
159.2272174914637
 30
0.0
 10
115.7694183734334
 20
161.6322469035592
 30
0.0
 10
113.8877639362688
 20
163.9313572612985
 30
0.0
 10
111.1859341691707
 20
166.8399511352497
 30
0.0
 10
107.4865704316517
 20
170.1405299817086
 30
0.0
 10
102.6262935265129
 20
173.4925792992827
 30
0.0
 10
97.47000582565832
 20
176.1808900882594
 30
0.0
 10
92.09684201014727
 20
178.2015187555322
 30
0.0
 10
86.5211053368806
 20
179.5671651568279
 30
0.0
 10
80.74743178974553
 20
180.2592718873797
 30
0.0
 10
74.84336513507223
 20
180.2364179546545
 30
0.0
 10
69.92673740965684
 20
179.6006669426048
 30
0.0
 10
66.05459161770955
 20
178.7252919163648
 30
0.0
 10
63.20366416620985
 20
177.8899861310421
 30
0.0
 10
60.41736634810913
 20
176.8818201403568
 30
0.0
 10
57.72018091816771
 20
175.7113797458449
 30
0.0
 10
55.11333818667935
 20
174.3843944330711
 30
0.0
 10
53.11436626097333
 20
173.2073744055226
 30
0.0
 10
51.66390202708833
 20
172.2683007198707
 30
0.0
 10
50.72416976907513
 20
171.6276589165212
 30
0.0
 10
49.80060769257862
 20
170.9644771752264
 30
0.0
 10
48.89165120848634
 20
170.2806619873313
 30
0.0
 10
48.29966981342585
 20
169.806566722559
 30
0.0
 10
48.00354649641807
 20
169.5694128803041
 30
0.0
  0
SPLINE
  5
CF
330
1F
100
AcDbEntity
  8
0
  6
Continuous
 62
     7
370
    15
100
AcDbSpline
210
0.0
220
0.0
230
1.0
 70
     8
 71
     3
 72
    48
 73
    44
 74
     0
 42
0.000000001
 43
0.00000001
 40
0.0
 40
0.0
 40
0.0
 40
0.0
 40
0.0054347037870314
 40
0.0108647463485207
 40
0.0162911759177293
 40
0.0217150428226928
 40
0.0271373988806366
 40
0.0325592967880729
 40
0.0379817895083434
 40
0.0434059296583851
 40
0.0488327688965038
 40
0.0542633573129332
 40
0.059698742824938
 40
0.0907177254008823
 40
0.1217409090757531
 40
0.1535986684470912
 40
0.1854607425290452
 40
0.2177550902622351
 40
0.2500538118399259
 40
0.2823481596244854
 40
0.3146468812542022
 40
0.346504640772552
 40
0.3783667150011477
 40
0.440359683087698
 40
0.5000005600694972
 40
0.5596414370512967
 40
0.621634405137847
 40
0.6534921645093787
 40
0.6853542385911302
 40
0.7176485863248414
 40
0.749947307902022
 40
0.7822416556872713
 40
0.8145403773162883
 40
0.8463981368333431
 40
0.87826021106323
 40
0.9092791938585987
 40
0.9403023777537969
 40
0.9502622131370424
 40
0.9602093142102202
 40
0.970150156833966
 40
0.98009122909965
 40
0.9900390186493149
 40
0.9999999999999999
 40
0.9999999999999999
 40
0.9999999999999999
 40
0.9999999999999999
 10
32.38924508142993
 20
119.0834278037234
 30
0.0
 10
32.45300557851835
 20
118.8718884672955
 30
0.0
 10
32.58047188672347
 20
118.4489912270616
 30
0.0
 10
32.78273541774612
 20
117.8183169848338
 30
0.0
 10
32.99297998624661
 20
117.1907395051512
 30
0.0
 10
33.21200545099087
 20
116.5664964536982
 30
0.0
 10
33.43959765432006
 20
115.9455243059033
 30
0.0
 10
33.67581394179961
 20
115.3278401318533
 30
0.0
 10
33.92063882465279
 20
114.7134395650151
 30
0.0
 10
34.17407676955888
 20
114.1023234253087
 30
0.0
 10
34.43612521255409
 20
113.4944932092221
 30
0.0
 10
34.70678974009332
 20
112.889942502128
 30
0.0
 10
35.42406898046423
 20
111.3456439069497
 30
0.0
 10
36.69558250760412
 20
108.9112014379197
 30
0.0
 10
38.72934765794542
 20
105.6762557788345
 30
0.0
 10
41.03657071985688
 20
102.5867767813136
 30
0.0
 10
43.62353638567008
 20
99.65818696870103
 30
0.0
 10
46.45426580597335
 20
96.93828304432277
 30
0.0
 10
49.51493139404501
 20
94.45202113463893
 30
0.0
 10
52.76996025740141
 20
92.22592995724494
 30
0.0
 10
56.18310365211404
 20
90.2869695011558
 30
0.0
 10
59.72749767890059
 20
88.64097324478092
 30
0.0
 10
64.52773248086346
 20
86.87348731746009
 30
0.0
 10
70.62765477540657
 20
85.4281259108127
 30
0.0
 10
78.00354653826145
 20
84.86327144412606
 30
0.0
 10
85.37943804675562
 20
85.42812598052024
 30
0.0
 10
91.47918953215056
 20
86.8734464551392
 30
0.0
 10
96.27943194641452
 20
88.64090618986208
 30
0.0
 10
99.82367556609424
 20
90.28680768027317
 30
0.0
 10
103.2369807034402
 20
92.22583536324707
 30
0.0
 10
106.4918766924843
 20
94.4518085608964
 30
0.0
 10
109.5526933327178
 20
96.93816431533452
 30
0.0
 10
112.3833116801569
 20
99.6579319815288
 30
0.0
 10
114.9704131632481
 20
102.586640353326
 30
0.0
 10
117.2775433176564
 20
105.6759663435775
 30
0.0
 10
119.3114476090999
 20
108.9110673941151
 30
0.0
 10
120.6681517230648
 20
111.5086792633275
 30
0.0
 10
121.5295857180273
 20
113.3915666933673
 30
0.0
 10
122.0061325116874
 20
114.5076216677922
 30
0.0
 10
122.453879041065
 20
115.6347158028112
 30
0.0
 10
122.8721181818099
 20
116.7730807264715
 30
0.0
 10
123.2635313861258
 20
117.921912207758
 30
0.0
 10
123.4996902423738
 20
118.6960849462164
 30
0.0
 10
123.6178479114062
 20
119.0834278037234
 30
0.0
  0
SPLINE
  5
D0
330
1F
100
AcDbEntity
  8
0
  6
Continuous
 62
     7
370
    15
100
AcDbSpline
210
0.0
220
0.0
230
1.0
 70
     8
 71
     3
 72
    27
 73
    23
 74
     0
 42
0.000000001
 43
0.00000001
 40
0.0
 40
0.0
 40
0.0
 40
0.0
 40
0.0385569892848211
 40
0.0770658329194701
 40
0.1155353026399639
 40
0.1539741971376514
 40
0.1923913361118491
 40
0.2307955542506346
 40
0.2691956951601454
 40
0.3076006052631416
 40
0.3460191276878565
 40
0.3844600961682111
 40
0.4229323289763935
 40
0.461444622908547
 40
0.5000057473438686
 40
0.5715713334491092
 40
0.6429967682524639
 40
0.7143384572505677
 40
0.7856530046539444
 40
0.8569970792753662
 40
0.9284272796518032
 40
1.0
 40
1.0
 40
1.0
 40
1.0
 10
41.0675614198374
 20
162.6334278037234
 30
0.0
 10
40.91669208400747
 20
162.4460226195515
 30
0.0
 10
40.61514180107812
 20
162.071446261814
 30
0.0
 10
40.17385612157236
 20
161.5013355683964
 30
0.0
 10
39.74106900028688
 20
160.9256937330251
 30
0.0
 10
39.31754498412462
 20
160.3438998974843
 30
0.0
 10
38.90307960586502
 20
159.7561202868053
 30
0.0
 10
38.49772768804589
 20
159.1623105177246
 30
0.0
 10
38.10147464065641
 20
158.5624825912869
 30
0.0
 10
37.71432445105858
 20
157.9566334040877
 30
0.0
 10
37.33627613130552
 20
157.3447639465157
 30
0.0
 10
36.96732998762202
 20
156.7268739548063
 30
0.0
 10
36.60748608786474
 20
156.1029641073999
 30
0.0
 10
36.25674411981718
 20
155.4730325811015
 30
0.0
 10
35.81781336188554
 20
154.6559814321191
 30
0.0
 10
35.30317213675985
 20
153.6466258393622
 30
0.0
 10
34.72928091850638
 20
152.4384624383504
 30
0.0
 10
34.19030363521737
 20
151.2160377594726
 30
0.0
 10
33.68601206419964
 20
149.9794283314493
 30
0.0
 10
33.21727575519489
 20
148.7283768897789
 30
0.0
 10
32.78084586263906
 20
147.4638513475755
 30
0.0
 10
32.5198653748681
 20
146.6105191351214
 30
0.0
 10
32.38924508142993
 20
146.1834278037234
 30
0.0
  0
ARC
  5
D1
330
1F
100
AcDbEntity
  8
0
  6
Continuous
 62
     7
370
    15
100
AcDbCircle
 10
78.0035464964
 20
132.6334278037
 30
0.0
 40
47.86715728752539
100
AcDbArc
 50
196.2976619617
 51
343.7023380383
  0
ARC
  5
D2
330
1F
100
AcDbEntity
  8
0
  6
Continuous
 62
     7
370
    15
100
AcDbCircle
 10
78.0035464964
 20
132.6334278037
 30
0.0
 40
47.86715728752539
100
AcDbArc
 50
16.2976619617
 51
128.8096103904
  0
ARC
  5
D3
330
1F
100
AcDbEntity
  8
0
  6
Continuous
 62
     7
370
    15
100
AcDbCircle
 10
78.0035464964
 20
132.6334278037
 30
0.0
 40
47.86715728752539
100
AcDbArc
 50
141.1903896096
 51
163.7023380383
  0
ARC
  5
D4
330
1F
100
AcDbEntity
  8
0
  6
Continuous
 62
     7
370
    15
100
AcDbCircle
 10
78.0035464964
 20
132.6334278037
 30
0.0
 40
48.63284271247463
100
AcDbArc
 50
141.9122882504
 51
164.0342140175
  0
ARC
  5
D5
330
1F
100
AcDbEntity
  8
0
  6
Continuous
 62
     7
370
    15
100
AcDbCircle
 10
78.0035464964
 20
132.6334278037
 30
0.0
 40
48.63284271247462
100
AcDbArc
 50
128.0877117496
 51
141.9122882504
  0
ARC
  5
D6
330
1F
100
AcDbEntity
  8
0
  6
Continuous
 62
     7
370
    15
100
AcDbCircle
 10
78.0035464964
 20
132.6334278037
 30
0.0
 40
48.63284271247461
100
AcDbArc
 50
15.8741097166
 51
128.0877117496
  0
ARC
  5
D7
330
1F
100
AcDbEntity
  8
0
  6
Continuous
 62
     7
370
    15
100
AcDbCircle
 10
78.0035464964
 20
132.6334278037
 30
0.0
 40
48.63284271247461
100
AcDbArc
 50
344.1258902834
 51
15.8741097166
  0
ARC
  5
D8
330
1F
100
AcDbEntity
  8
0
  6
Continuous
 62
     7
370
    15
100
AcDbCircle
 10
78.0035464964
 20
132.6334278037
 30
0.0
 40
48.63284271247462
100
AcDbArc
 50
195.9657859825
 51
344.1258902834
  0
ARC
  5
D9
330
1F
100
AcDbEntity
  8
0
  6
Continuous
 62
     7
370
    15
100
AcDbCircle
 10
78.0035464964
 20
132.6334278037
 30
0.0
 40
48.63284271247462
100
AcDbArc
 50
164.0342140175
 51
195.9657859825
  0
SPLINE
  5
DA
330
1F
100
AcDbEntity
  8
0
  6
Continuous
 62
     7
370
    15
100
AcDbSpline
210
0.0
220
0.0
230
1.0
 70
    24
 71
     3
 72
     8
 73
     4
 74
     0
 42
0.000000001
 43
0.00000001
 40
0.0
 40
0.0
 40
0.0
 40
0.0
 40
1.0
 40
1.0
 40
1.0
 40
1.0
 10
48.00354649641807
 20
171.0594931760719
 30
0.0
 10
48.00354649641807
 20
171.0594931760719
 30
0.0
 10
48.00354649641806
 20
170.9979776276404
 30
0.0
 10
48.00354649641806
 20
170.9107499448593
 30
0.0
  0
SPLINE
  5
DB
330
1F
100
AcDbEntity
  8
0
  6
Continuous
 62
     7
370
    15
100
AcDbSpline
210
0.0
220
0.0
230
1.0
 70
    24
 71
     3
 72
     8
 73
     4
 74
     0
 42
0.000000001
 43
0.00000001
 40
0.0
 40
0.0
 40
0.0
 40
0.0
 40
1.0
 40
1.0
 40
1.0
 40
1.0
 10
39.72622435528213
 20
162.6334278037234
 30
0.0
 10
39.63894993906803
 20
162.6334278037234
 30
0.0
 10
39.57748112406955
 20
162.6334278037234
 30
0.0
 10
39.57748112406954
 20
162.6334278037234
 30
0.0
  0
ARC
  5
DC
330
1F
100
AcDbEntity
  8
0
  6
Continuous
 62
     7
370
    15
100
AcDbCircle
 10
78.0035464964
 20
132.6334278037
 30
0.0
 40
48.75
100
AcDbArc
 50
127.9798724449
 51
142.0201275551
  0
SPLINE
  5
DD
330
1F
100
AcDbEntity
  8
0
  6
Continuous
 62
     7
370
    15
100
AcDbSpline
210
0.0
220
0.0
230
1.0
 70
    24
 71
     3
 72
    10
 73
     6
 74
     0
 42
0.000000001
 43
0.00000001
 40
0.0
 40
0.0
 40
0.0
 40
0.0
 40
0.5
 40
0.5
 40
1.0
 40
1.0
 40
1.0
 40
1.0
 10
31.24666119199365
 20
119.2563179916153
 30
0.0
 10
31.22371967175656
 20
119.2161246593521
 30
0.0
 10
31.20359858153697
 20
119.1808726945155
 30
0.0
 10
31.17432930748042
 20
119.1295931958118
 30
0.0
 10
31.16558270996665
 20
119.1142692374861
 30
0.0
 10
31.16558270996666
 20
119.1142692374861
 30
0.0
  0
ARC
  5
DE
330
1F
100
AcDbEntity
  8
0
  6
Continuous
 62
     7
370
    15
100
AcDbCircle
 10
78.0035464964
 20
132.6334278037
 30
0.0
 40
48.75000000000001
100
AcDbArc
 50
163.8999153276
 51
196.1000846724
  0
SPLINE
  5
DF
330
1F
100
AcDbEntity
  8
0
  6
Continuous
 62
     7
370
    15
100
AcDbSpline
210
0.0
220
0.0
230
1.0
 70
    24
 71
     3
 72
    10
 73
     6
 74
     0
 42
0.000000001
 43
0.00000001
 40
0.0
 40
0.0
 40
0.0
 40
0.0
 40
0.5
 40
0.5
 40
1.0
 40
1.0
 40
1.0
 40
1.0
 10
31.24666119199367
 20
146.0105376158315
 30
0.0
 10
31.22371967175656
 20
146.0507309480947
 30
0.0
 10
31.20359858153697
 20
146.0859829129313
 30
0.0
 10
31.17432930748042
 20
146.137262411635
 30
0.0
 10
31.16558270996666
 20
146.1525863699607
 30
0.0
 10
31.16558270996667
 20
146.1525863699607
 30
0.0
  0
SPLINE
  5
E0
330
1F
100
AcDbEntity
  8
0
  6
Continuous
 62
     7
370
    15
100
AcDbSpline
210
0.0
220
0.0
230
1.0
 70
    24
 71
     3
 72
     8
 73
     4
 74
     0
 42
0.000000001
 43
0.00000001
 40
0.0
 40
0.0
 40
0.0
 40
0.0
 40
1.0
 40
1.0
 40
1.0
 40
1.0
 10
124.8765749506267
 20
146.0305059751361
 30
0.0
 10
124.8765749506267
 20
146.0305059751361
 30
0.0
 10
124.8394783575605
 20
145.9934093820699
 30
0.0
 10
124.7817760194635
 20
145.9357070439729
 30
0.0
  0
ARC
  5
E1
330
1F
100
AcDbEntity
  8
0
  6
Continuous
 62
     7
370
    15
100
AcDbCircle
 10
78.0035464964
 20
132.6334278037
 30
0.0
 40
48.74999999999999
100
AcDbArc
 50
344.0491974398
 51
15.9508025602
  0
SPLINE
  5
E2
330
1F
100
AcDbEntity
  8
0
  6
Continuous
 62
     7
370
    15
100
AcDbSpline
210
0.0
220
0.0
230
1.0
 70
    24
 71
     3
 72
     8
 73
     4
 74
     0
 42
0.000000001
 43
0.00000001
 40
0.0
 40
0.0
 40
0.0
 40
0.0
 40
1.0
 40
1.0
 40
1.0
 40
1.0
 10
124.8765749506267
 20
119.2363496323107
 30
0.0
 10
124.8765749506267
 20
119.2363496323107
 30
0.0
 10
124.8394783575605
 20
119.2734462253769
 30
0.0
 10
124.7817760194635
 20
119.3311485634739
 30
0.0
  0
ARC
  5
E3
330
1F
100
AcDbEntity
  8
0
  6
Continuous
 62
     7
370
    15
100
AcDbCircle
 10
78.0035464964
 20
132.6334278037
 30
0.0
 40
48.75
100
AcDbArc
 50
196.1000846724
 51
344.0491974398
  0
ARC
  5
E4
330
1F
100
AcDbEntity
  8
0
  6
Continuous
 62
     7
370
    15
100
AcDbCircle
 10
78.0035464964
 20
132.6334278037
 30
0.0
 40
48.75000000000001
100
AcDbArc
 50
142.0201275551
 51
163.8999153276
  0
ARC
  5
E5
330
1F
100
AcDbEntity
  8
0
  6
Continuous
 62
     7
370
    15
100
AcDbCircle
 10
78.0035464964
 20
132.6334278037
 30
0.0
 40
48.74999999999999
100
AcDbArc
 50
15.9508025602
 51
127.9798724449
  0
ARC
  5
E6
330
1F
100
AcDbEntity
  8
0
  6
Continuous
 62
     7
370
    15
100
AcDbCircle
 10
78.0035464964
 20
132.6334278037
 30
0.0
 40
48.75
100
AcDbArc
 50
180.0
 51
196.1000846724
  0
ARC
  5
E7
330
1F
100
AcDbEntity
  8
0
  6
Continuous
 62
     7
370
    15
100
AcDbCircle
 10
78.0035464964
 20
132.6334278037
 30
0.0
 40
48.75000000000001
100
AcDbArc
 50
163.8999153276
 51
180.0
  0
INSERT
  5
F3
330
1F
100
AcDbEntity
  8
DIM
100
AcDbBlockReference
  2
SW_CENTERMARKSYMBOL_0
 10
78.0035464964
 20
132.6334278037
 30
0.0
  0
LINE
  5
F4
330
1F
100
AcDbEntity
  8
0
  6
Continuous
 62
     7
370
    15
100
AcDbLine
 10
266.7118609959
 20
83.8834278037
 30
0.0
 11
270.2985803068
 21
83.8834278037
 31
0.0
  0
LINE
  5
F5
330
1F
100
AcDbEntity
  8
0
  6
Continuous
 62
     7
370
    15
100
AcDbLine
 10
270.2985803068
 20
181.3834278037
 30
0.0
 11
266.7118609959
 21
181.3834278037
 31
0.0
  0
LINE
  5
F6
330
1F
100
AcDbEntity
  8
0
  6
Continuous
 62
     7
370
    15
100
AcDbLine
 10
266.7118609959
 20
181.3834278037
 30
0.0
 11
265.3642657317
 21
179.0493243381
 31
0.0
  0
LINE
  5
F7
330
1F
100
AcDbEntity
  8
0
  6
Continuous
 62
     7
370
    15
100
AcDbLine
 10
265.3642657317
 20
86.2175312693
 30
0.0
 11
266.7118609959
 21
83.8834278037
 31
0.0
  0
LINE
  5
F8
330
1F
100
AcDbEntity
  8
0
  6
Continuous
 62
     7
370
    15
100
AcDbLine
 10
260.2166704675
 20
83.8834278037
 30
0.0
 11
261.5642657317
 21
86.2175312693
 31
0.0
  0
LINE
  5
F9
330
1F
100
AcDbEntity
  8
0
  6
Continuous
 62
     7
370
    15
100
AcDbLine
 10
261.5642657317
 20
179.0493243381
 30
0.0
 11
260.2166704675
 21
181.3834278037
 31
0.0
  0
LINE
  5
FA
330
1F
100
AcDbEntity
  8
0
  6
Continuous
 62
     7
370
    15
100
AcDbLine
 10
256.7299511567
 20
83.8834278037
 30
0.0
 11
260.2166704675
 21
83.8834278037
 31
0.0
  0
LINE
  5
FB
330
1F
100
AcDbEntity
  8
0
  6
Continuous
 62
     7
370
    15
100
AcDbLine
 10
260.2166704675
 20
181.3834278037
 30
0.0
 11
256.7299511567
 21
181.3834278037
 31
0.0
  0
LINE
  5
FC
330
1F
100
AcDbEntity
  8
0
  6
Continuous
 62
     7
370
    15
100
AcDbLine
 10
270.5814230192
 20
84.0005850912
 30
0.0
 11
271.3471084442
 21
84.7662705162
 31
0.0
  0
LINE
  5
FD
330
1F
100
AcDbEntity
  8
0
  6
Continuous
 62
     7
370
    15
100
AcDbLine
 10
271.3471084442
 20
180.5005850912
 30
0.0
 11
270.5814230192
 21
181.2662705162
 31
0.0
  0
LINE
  5
FE
330
1F
100
AcDbEntity
  8
0
  6
Continuous
 62
     7
370
    15
100
AcDbLine
 10
256.4471084442
 20
181.2662705162
 30
0.0
 11
255.6814230192
 21
180.5005850912
 31
0.0
  0
LINE
  5
FF
330
1F
100
AcDbEntity
  8
0
  6
Continuous
 62
     7
370
    15
100
AcDbLine
 10
255.6814230192
 20
84.7662705162
 30
0.0
 11
256.4471084442
 21
84.0005850912
 31
0.0
  0
ARC
  5
100
330
1F
100
AcDbEntity
  8
0
  6
Continuous
 62
     7
370
    15
100
AcDbCircle
 10
270.2985803068
 20
84.2834278037
 30
0.0
 40
0.4000000000000057
100
AcDbArc
 50
270.0
 51
315.0
  0
ARC
  5
101
330
1F
100
AcDbEntity
  8
0
  6
Continuous
 62
     7
370
    15
100
AcDbCircle
 10
256.7299511567
 20
84.2834278037
 30
0.0
 40
0.4000000000000093
100
AcDbArc
 50
225.0
 51
270.0
  0
ARC
  5
102
330
1F
100
AcDbEntity
  8
0
  6
Continuous
 62
     7
370
    15
100
AcDbCircle
 10
270.2985803068
 20
180.9834278037
 30
0.0
 40
0.4000000000000057
100
AcDbArc
 50
45.0
 51
90.0
  0
ARC
  5
103
330
1F
100
AcDbEntity
  8
0
  6
Continuous
 62
     7
370
    15
100
AcDbCircle
 10
256.7299511567
 20
180.9834278037
 30
0.0
 40
0.4000000000000193
100
AcDbArc
 50
90.0
 51
135.0
  0
ARC
  5
104
330
1F
100
AcDbEntity
  8
0
  6
Continuous
 62
     7
370
    15
100
AcDbCircle
 10
271.0642657317
 20
85.0491132287
 30
0.0
 40
0.3999999999999791
100
AcDbArc
 50
315.0
 51
0.0
  0
ARC
  5
105
330
1F
100
AcDbEntity
  8
0
  6
Continuous
 62
     7
370
    15
100
AcDbCircle
 10
271.0642657317
 20
180.2177423788
 30
0.0
 40
0.3999999999999791
100
AcDbArc
 50
0.0
 51
45.0
  0
ARC
  5
106
330
1F
100
AcDbEntity
  8
0
  6
Continuous
 62
     7
370
    15
100
AcDbCircle
 10
255.9642657317
 20
85.0491132287
 30
0.0
 40
0.4000000000000057
100
AcDbArc
 50
180.0
 51
225.0
  0
ARC
  5
107
330
1F
100
AcDbEntity
  8
0
  6
Continuous
 62
     7
370
    15
100
AcDbCircle
 10
255.9642657317
 20
180.2177423788
 30
0.0
 40
0.4000000000000057
100
AcDbArc
 50
135.0
 51
180.0
  0
LINE
  5
108
330
1F
100
AcDbEntity
  8
0
  6
Continuous
 62
     7
370
    15
100
AcDbLine
 10
261.5642657317
 20
87.1334278037
 30
0.0
 11
265.3642657317
 21
87.1334278037
 31
0.0
  0
LINE
  5
109
330
1F
100
AcDbEntity
  8
0
  6
Continuous
 62
     7
370
    15
100
AcDbLine
 10
265.3642657317
 20
178.1334278037
 30
0.0
 11
261.5642657317
 21
178.1334278037
 31
0.0
  0
ARC
  5
10A
330
1F
100
AcDbEntity
  8
0
  6
Continuous
 62
     7
370
    15
100
AcDbCircle
 10
255.0642657317
 20
97.6334278037
 30
0.0
 40
0.5
100
AcDbArc
 50
0.0
 51
90.0
  0
ARC
  5
10B
330
1F
100
AcDbEntity
  8
0
  6
Continuous
 62
     7
370
    15
100
AcDbCircle
 10
255.0642657317
 20
167.6334278037
 30
0.0
 40
0.5
100
AcDbArc
 50
270.0
 51
0.0
  0
LINE
  5
10C
330
1F
100
AcDbEntity
  8
0
  6
Continuous
 62
     7
370
    15
100
AcDbLine
 10
252.3642657317
 20
167.5584278037
 30
0.0
 11
151.4699575044
 21
152.8445355908
 31
0.0
  0
LINE
  5
10D
330
1F
100
AcDbEntity
  8
0
  6
Continuous
 62
     7
370
    15
100
AcDbLine
 10
151.4699575044
 20
112.4223200167
 30
0.0
 11
252.3642657317
 21
97.7084278037
 31
0.0
  0
LINE
  5
10E
330
1F
100
AcDbEntity
  8
0
  6
Continuous
 62
     7
370
    15
100
AcDbLine
 10
252.3642657317
 20
97.7084278037
 30
0.0
 11
253.2756811729
 21
98.1334278037
 31
0.0
  0
LINE
  5
10F
330
1F
100
AcDbEntity
  8
0
  6
Continuous
 62
     7
370
    15
100
AcDbLine
 10
253.2756811729
 20
167.1334278037
 30
0.0
 11
252.3642657317
 21
167.5584278037
 31
0.0
  0
LINE
  5
110
330
1F
100
AcDbEntity
  8
0
  6
Continuous
 62
     7
370
    15
100
AcDbLine
 10
253.2756811729
 20
98.1334278037
 30
0.0
 11
255.0642657317
 21
98.1334278037
 31
0.0
  0
LINE
  5
111
330
1F
100
AcDbEntity
  8
0
  6
Continuous
 62
     7
370
    15
100
AcDbLine
 10
255.0642657317
 20
167.1334278037
 30
0.0
 11
253.2756811729
 21
167.1334278037
 31
0.0
  0
ARC
  5
112
330
1F
100
AcDbEntity
  8
0
  6
Continuous
 62
     7
370
    15
100
AcDbCircle
 10
274.4642657317
 20
154.6334278037
 30
0.0
 40
3.0
100
AcDbArc
 50
180.0
 51
270.0
  0
ARC
  5
113
330
1F
100
AcDbEntity
  8
0
  6
Continuous
 62
     7
370
    15
100
AcDbCircle
 10
274.4642657317
 20
110.6334278037
 30
0.0
 40
3.0
100
AcDbArc
 50
90.0
 51
180.0
  0
ARC
  5
114
330
1F
100
AcDbEntity
  8
0
  6
Continuous
 62
     7
370
    15
100
AcDbCircle
 10
151.6142657317
 20
113.4118528032
 30
0.0
 40
1.0
100
AcDbArc
 50
180.0
 51
261.7027777778
  0
ARC
  5
115
330
1F
100
AcDbEntity
  8
0
  6
Continuous
 62
     7
370
    15
100
AcDbCircle
 10
151.6142657317
 20
151.8550028043
 30
0.0
 40
1.0
100
AcDbArc
 50
98.2972222222
 51
180.0
  0
LINE
  5
116
330
1F
100
AcDbEntity
  8
0
  6
Continuous
 62
     7
370
    15
100
AcDbLine
 10
296.3642657317
 20
113.6334278037
 30
0.0
 11
297.3642657317
 21
114.6334278037
 31
0.0
  0
LINE
  5
117
330
1F
100
AcDbEntity
  8
0
  6
Continuous
 62
     7
370
    15
100
AcDbLine
 10
297.3642657317
 20
150.6334278037
 30
0.0
 11
296.3642657317
 21
151.6334278037
 31
0.0
  0
LINE
  5
118
330
1F
100
AcDbEntity
  8
0
  6
Continuous
 62
     7
370
    15
100
AcDbLine
 10
274.4642657317
 20
113.6334278037
 30
0.0
 11
296.3642657317
 21
113.6334278037
 31
0.0
  0
LINE
  5
119
330
1F
100
AcDbEntity
  8
0
  6
Continuous
 62
     7
370
    15
100
AcDbLine
 10
296.3642657317
 20
151.6334278037
 30
0.0
 11
274.4642657317
 21
151.6334278037
 31
0.0
  0
LINE
  5
11A
330
1F
100
AcDbEntity
  8
0
  6
Continuous
 62
     7
370
    15
100
AcDbLine
 10
323.3642657317
 20
122.6334278037
 30
0.0
 11
324.3642657317
 21
123.6334278037
 31
0.0
  0
LINE
  5
11B
330
1F
100
AcDbEntity
  8
0
  6
Continuous
 62
     7
370
    15
100
AcDbLine
 10
324.3642657317
 20
141.6334278037
 30
0.0
 11
323.3642657317
 21
142.6334278037
 31
0.0
  0
LINE
  5
11C
330
1F
100
AcDbEntity
  8
0
  6
Continuous
 62
     7
370
    15
100
AcDbLine
 10
318.3642657317
 20
122.6334278037
 30
0.0
 11
323.3642657317
 21
122.6334278037
 31
0.0
  0
LINE
  5
11D
330
1F
100
AcDbEntity
  8
0
  6
Continuous
 62
     7
370
    15
100
AcDbLine
 10
323.3642657317
 20
142.6334278037
 30
0.0
 11
318.3642657317
 21
142.6334278037
 31
0.0
  0
LINE
  5
11E
330
1F
100
AcDbEntity
  8
0
  6
Continuous
 62
     7
370
    15
100
AcDbLine
 10
318.3642657317
 20
142.6334278037
 30
0.0
 11
317.3642657317
 21
141.6334278037
 31
0.0
  0
LINE
  5
11F
330
1F
100
AcDbEntity
  8
0
  6
Continuous
 62
     7
370
    15
100
AcDbLine
 10
317.3642657317
 20
123.6334278037
 30
0.0
 11
318.3642657317
 21
122.6334278037
 31
0.0
  0
LINE
  5
120
330
1F
100
AcDbEntity
  8
0
  6
Continuous
 62
     7
370
    15
100
AcDbLine
 10
313.8735180029
 20
124.6334278037
 30
0.0
 11
314.3642657317
 21
125.4834278037
 31
0.0
  0
LINE
  5
121
330
1F
100
AcDbEntity
  8
0
  6
Continuous
 62
     7
370
    15
100
AcDbLine
 10
314.3642657317
 20
139.7834278037
 30
0.0
 11
313.8735180029
 21
140.6334278037
 31
0.0
  0
LINE
  5
122
330
1F
100
AcDbEntity
  8
0
  6
Continuous
 62
     7
370
    15
100
AcDbLine
 10
297.3642657317
 20
124.6334278037
 30
0.0
 11
313.8735180029
 21
124.6334278037
 31
0.0
  0
LINE
  5
123
330
1F
100
AcDbEntity
  8
0
  6
Continuous
 62
     7
370
    15
100
AcDbLine
 10
313.8735180029
 20
140.6334278037
 30
0.0
 11
297.3642657317
 21
140.6334278037
 31
0.0
  0
ARC
  5
124
330
1F
100
AcDbEntity
  8
0
  6
Continuous
 62
     7
370
    15
100
AcDbCircle
 10
316.8642657317
 20
128.1334278037
 30
0.0
 40
0.5
100
AcDbArc
 50
0.0
 51
90.0
  0
ARC
  5
125
330
1F
100
AcDbEntity
  8
0
  6
Continuous
 62
     7
370
    15
100
AcDbCircle
 10
316.8642657317
 20
137.1334278037
 30
0.0
 40
0.5
100
AcDbArc
 50
270.0
 51
0.0
  0
LINE
  5
126
330
1F
100
AcDbEntity
  8
0
  6
Continuous
 62
     7
370
    15
100
AcDbLine
 10
314.3642657317
 20
128.6334278037
 30
0.0
 11
316.8642657317
 21
128.6334278037
 31
0.0
  0
LINE
  5
127
330
1F
100
AcDbEntity
  8
0
  6
Continuous
 62
     7
370
    15
100
AcDbLine
 10
316.8642657317
 20
136.6334278037
 30
0.0
 11
314.3642657317
 21
136.6334278037
 31
0.0
  0
LINE
  5
128
330
1F
100
AcDbEntity
  8
0
  6
Continuous
 62
     7
370
    15
100
AcDbLine
 10
270.2985803068
 20
119.2363496323
 30
0.0
 11
270.2985803068
 21
146.0305059751
 31
0.0
  0
LINE
  5
129
330
1F
100
AcDbEntity
  8
0
  6
Continuous
 62
     7
370
    15
100
AcDbLine
 10
266.7118609959
 20
83.8834278037
 30
0.0
 11
266.7118609959
 21
181.3834278037
 31
0.0
  0
SPLINE
  5
12A
330
1F
100
AcDbEntity
  8
0
  6
Continuous
 62
     7
370
    15
100
AcDbSpline
210
0.0
220
0.0
230
1.0
 70
     8
 71
     3
 72
     8
 73
     4
 74
     0
 42
0.000000001
 43
0.00000001
 40
0.0
 40
0.0
 40
0.0
 40
0.0
 40
1.0
 40
1.0
 40
1.0
 40
1.0
 10
270.2985803067565
 20
146.0305059751361
 30
0.0
 10
270.4070972982075
 20
146.0305059751361
 30
0.0
 10
270.5101381500699
 20
145.9934093820699
 30
0.0
 10
270.5814230192311
 20
145.9357070439729
 30
0.0
  0
LINE
  5
12B
330
1F
100
AcDbEntity
  8
0
  6
Continuous
 62
     7
370
    15
100
AcDbLine
 10
270.5814230192
 20
119.3311485635
 30
0.0
 11
270.5814230192
 21
145.935707044
 31
0.0
  0
SPLINE
  5
12C
330
1F
100
AcDbEntity
  8
0
  6
Continuous
 62
     7
370
    15
100
AcDbSpline
210
0.0
220
0.0
230
1.0
 70
     8
 71
     3
 72
     8
 73
     4
 74
     0
 42
0.000000001
 43
0.00000001
 40
0.0
 40
0.0
 40
0.0
 40
0.0
 40
1.0
 40
1.0
 40
1.0
 40
1.0
 10
270.5814230192311
 20
119.3311485634739
 30
0.0
 10
270.5101072070491
 20
119.2734211782012
 30
0.0
 10
270.4072060494124
 20
119.2363496323107
 30
0.0
 10
270.2985803067565
 20
119.2363496323107
 30
0.0
  0
LINE
  5
12D
330
1F
100
AcDbEntity
  8
0
  6
Continuous
 62
     7
370
    15
100
AcDbLine
 10
265.3642657317
 20
179.0493243381
 30
0.0
 11
265.3642657317
 21
86.2175312693
 31
0.0
  0
LINE
  5
12E
330
1F
100
AcDbEntity
  8
0
  6
Continuous
 62
     7
370
    15
100
AcDbLine
 10
261.5642657317
 20
132.6334278037
 30
0.0
 11
261.5642657317
 21
179.0493243381
 31
0.0
  0
LINE
  5
12F
330
1F
100
AcDbEntity
  8
0
  6
Continuous
 62
     7
370
    15
100
AcDbLine
 10
261.5642657317
 20
86.2175312693
 30
0.0
 11
261.5642657317
 21
132.6334278037
 31
0.0
  0
LINE
  5
130
330
1F
100
AcDbEntity
  8
0
  6
Continuous
 62
     7
370
    15
100
AcDbLine
 10
260.2166704675
 20
132.6334278037
 30
0.0
 11
260.2166704675
 21
181.3834278037
 31
0.0
  0
LINE
  5
131
330
1F
100
AcDbEntity
  8
0
  6
Continuous
 62
     7
370
    15
100
AcDbLine
 10
260.2166704675
 20
83.8834278037
 30
0.0
 11
260.2166704675
 21
132.6334278037
 31
0.0
  0
LINE
  5
132
330
1F
100
AcDbEntity
  8
0
  6
Continuous
 62
     7
370
    15
100
AcDbLine
 10
256.7299511567
 20
119.2363496323
 30
0.0
 11
256.7299511567
 21
146.0305059751
 31
0.0
  0
SPLINE
  5
133
330
1F
100
AcDbEntity
  8
0
  6
Continuous
 62
     7
370
    15
100
AcDbSpline
210
0.0
220
0.0
230
1.0
 70
     8
 71
     3
 72
     8
 73
     4
 74
     0
 42
0.000000001
 43
0.00000001
 40
0.0
 40
0.0
 40
0.0
 40
0.0
 40
1.0
 40
1.0
 40
1.0
 40
1.0
 10
256.729951156655
 20
146.0305059751361
 30
0.0
 10
256.6214341652039
 20
146.0305059751361
 30
0.0
 10
256.5183933133416
 20
145.9934093820699
 30
0.0
 10
256.4471084441803
 20
145.9357070439729
 30
0.0
  0
SPLINE
  5
134
330
1F
100
AcDbEntity
  8
0
  6
Continuous
 62
     7
370
    15
100
AcDbSpline
210
0.0
220
0.0
230
1.0
 70
     8
 71
     3
 72
     8
 73
     4
 74
     0
 42
0.000000001
 43
0.00000001
 40
0.0
 40
0.0
 40
0.0
 40
0.0
 40
1.0
 40
1.0
 40
1.0
 40
1.0
 10
256.729951156655
 20
119.2363496323107
 30
0.0
 10
256.6214341652039
 20
119.2363496323107
 30
0.0
 10
256.5183933133416
 20
119.2734462253769
 30
0.0
 10
256.4471084441803
 20
119.3311485634739
 30
0.0
  0
LINE
  5
135
330
1F
100
AcDbEntity
  8
0
  6
Continuous
 62
     7
370
    15
100
AcDbLine
 10
256.4471084442
 20
119.3311485635
 30
0.0
 11
256.4471084442
 21
145.935707044
 31
0.0
  0
LINE
  5
136
330
1F
100
AcDbEntity
  8
0
  6
Continuous
 62
     7
370
    15
100
AcDbLine
 10
271.3471084442
 20
119.7834278037
 30
0.0
 11
271.3471084442
 21
145.4834278037
 31
0.0
  0
LINE
  5
137
330
1F
100
AcDbEntity
  8
0
  6
Continuous
 62
     7
370
    15
100
AcDbLine
 10
255.6814230192
 20
119.2005850912
 30
0.0
 11
255.6814230192
 21
146.0662705162
 31
0.0
  0
SPLINE
  5
138
330
1F
100
AcDbEntity
  8
0
  6
Continuous
 62
     7
370
    15
100
AcDbSpline
210
0.0
220
0.0
230
1.0
 70
    24
 71
     3
 72
     8
 73
     4
 74
     0
 42
0.000000001
 43
0.00000001
 40
0.0
 40
0.0
 40
0.0
 40
0.0
 40
1.0
 40
1.0
 40
1.0
 40
1.0
 10
271.4642657317057
 20
145.4834278037234
 30
0.0
 10
271.4642657317057
 20
145.4834278037234
 30
0.0
 10
271.4227219977533
 20
145.4834278037234
 30
0.0
 10
271.3471084441803
 20
145.4834278037234
 30
0.0
  0
LINE
  5
139
330
1F
100
AcDbEntity
  8
0
  6
Continuous
 62
     7
370
    15
100
AcDbLine
 10
271.4642657265
 20
119.783403051
 30
0.0
 11
271.4642657265
 21
145.4834525565
 31
0.0
  0
SPLINE
  5
13A
330
1F
100
AcDbEntity
  8
0
  6
Continuous
 62
     7
370
    15
100
AcDbSpline
210
0.0
220
0.0
230
1.0
 70
    24
 71
     3
 72
     8
 73
     4
 74
     0
 42
0.000000001
 43
0.00000001
 40
0.0
 40
0.0
 40
0.0
 40
0.0
 40
1.0
 40
1.0
 40
1.0
 40
1.0
 10
271.3471084441803
 20
119.7834278037234
 30
0.0
 10
271.4226964749349
 20
119.7834278037234
 30
0.0
 10
271.4642657317057
 20
119.7834278037234
 30
0.0
 10
271.4642657317057
 20
119.7834278037234
 30
0.0
  0
SPLINE
  5
13B
330
1F
100
AcDbEntity
  8
0
  6
Continuous
 62
     7
370
    15
100
AcDbSpline
210
0.0
220
0.0
230
1.0
 70
    24
 71
     3
 72
    10
 73
     6
 74
     0
 42
0.000000001
 43
0.00000001
 40
0.0
 40
0.0
 40
0.0
 40
0.0
 40
0.5
 40
0.5
 40
1.0
 40
1.0
 40
1.0
 40
1.0
 10
255.5642657317057
 20
146.1834278037234
 30
0.0
 10
255.5642657317057
 20
146.1834278037234
 30
0.0
 10
255.5781116077305
 20
146.1695819276986
 30
0.0
 10
255.6202773839179
 20
146.1274161515112
 30
0.0
 10
255.6487680841811
 20
146.0989254512482
 30
0.0
 10
255.6814230192311
 20
146.0662705161981
 30
0.0
  0
SPLINE
  5
13C
330
1F
100
AcDbEntity
  8
0
  6
Continuous
 62
     7
370
    15
100
AcDbSpline
210
0.0
220
0.0
230
1.0
 70
    24
 71
     3
 72
    10
 73
     6
 74
     0
 42
0.000000001
 43
0.00000001
 40
0.0
 40
0.0
 40
0.0
 40
0.0
 40
0.5
 40
0.5
 40
1.0
 40
1.0
 40
1.0
 40
1.0
 10
255.6814230192311
 20
119.2005850912488
 30
0.0
 10
255.6487899582138
 20
119.1679520302315
 30
0.0
 10
255.6208090719476
 20
119.1399711439653
 30
0.0
 10
255.5781522215726
 20
119.0973142935903
 30
0.0
 10
255.5642657317057
 20
119.0834278037234
 30
0.0
 10
255.5642657317057
 20
119.0834278037234
 30
0.0
  0
LINE
  5
13D
330
1F
100
AcDbEntity
  8
0
  6
Continuous
 62
     7
370
    15
100
AcDbLine
 10
255.5642657317
 20
119.0834278037
 30
0.0
 11
255.5642657317
 21
146.1834278037
 31
0.0
  0
SPLINE
  5
13E
330
1F
100
AcDbEntity
  8
0
  6
Continuous
 62
     7
370
    15
100
AcDbSpline
210
0.0
220
0.0
230
1.0
 70
    24
 71
     3
 72
    36
 73
    32
 74
     0
 42
0.000000001
 43
0.00000001
 40
0.0
 40
0.0
 40
0.0
 40
0.0
 40
0.010855060115309
 40
0.021700603247601
 40
0.0325387683476148
 40
0.0433716987364442
 40
0.0542015408431699
 40
0.0650304429332853
 40
0.0758605538316704
 40
0.0866940216439018
 40
0.0975329924797007
 40
0.1083796091823073
 40
0.1192360100675244
 40
0.181247834122235
 40
0.2432679244012066
 40
0.3069990489490812
 40
0.370738668921532
 40
0.4353656024873025
 40
0.5000011508910791
 40
0.5646280845655833
 40
0.6292636330748704
 40
0.6929947579300935
 40
0.7567343782029041
 40
0.8187462027125846
 40
0.8807662934441524
 40
0.9006583299602414
 40
0.9205248324912559
 40
0.9403790153804057
 40
0.9602341175685198
 40
0.9801033761588329
 40
1.0
 40
1.0
 40
1.0
 40
1.0
 10
271.4642657317057
 20
119.7834278037234
 30
0.0
 10
271.4642657317057
 20
119.5686409293611
 30
0.0
 10
271.4642657317057
 20
119.1392554912506
 30
0.0
 10
271.4642657317057
 20
118.4987589811501
 30
0.0
 10
271.4642657317057
 20
117.8613087697213
 30
0.0
 10
271.4642657317057
 20
117.227135115249
 30
0.0
 10
271.4642657317057
 20
116.5961764832608
 30
0.0
 10
271.4642657317057
 20
115.9684494146765
 30
0.0
 10
271.4642657317057
 20
115.3439496955978
 30
0.0
 10
271.4642657317057
 20
114.7226780900727
 30
0.0
 10
271.4642657317057
 20
114.1046361907678
 30
0.0
 10
271.4642657317057
 20
113.4898172786263
 30
0.0
 10
271.4642657317057
 20
111.9179596219676
 30
0.0
 10
271.4642657317057
 20
109.4383103279354
 30
0.0
 10
271.4642657317057
 20
106.1396372694624
 30
0.0
 10
271.4642657317057
 20
102.9862603442814
 30
0.0
 10
271.4642657317057
 20
99.99418763571485
 30
0.0
 10
271.4642657317057
 20
97.21344142709943
 30
0.0
 10
271.4642657317057
 20
94.67014212002314
 30
0.0
 10
271.4642657317057
 20
92.3921306349549
 30
0.0
 10
271.4642657317057
 20
90.40769813923608
 30
0.0
 10
271.4642657317057
 20
88.72294490216613
 30
0.0
 10
271.4642657317057
 20
87.36008440861531
 30
0.0
 10
271.4642657317057
 20
86.30790608795958
 30
0.0
 10
271.4642657317057
 20
85.73440463590498
 30
0.0
 10
271.4642657317057
 20
85.43837723522114
 30
0.0
 10
271.4642657317057
 20
85.29636214977532
 30
0.0
 10
271.4642657317057
 20
85.1857599572136
 30
0.0
 10
271.4642657317057
 20
85.1073304279996
 30
0.0
 10
271.4642657317057
 20
85.05821431619489
 30
0.0
 10
271.4642657317057
 20
85.052148315971
 30
0.0
 10
271.4642657317057
 20
85.04911322867265
 30
0.0
  0
SPLINE
  5
13F
330
1F
100
AcDbEntity
  8
0
  6
Continuous
 62
     7
370
    15
100
AcDbSpline
210
0.0
220
0.0
230
1.0
 70
    24
 71
     3
 72
    23
 73
    19
 74
     0
 42
0.000000001
 43
0.00000001
 40
0.0
 40
0.0
 40
0.0
 40
0.0
 40
0.049344142439785
 40
0.1126391337887782
 40
0.1752432992499413
 40
0.2371050695636289
 40
0.2989591199343767
 40
0.3615634382303971
 40
0.4248659973704123
 40
0.4891594850324235
 40
0.5537405807095876
 40
0.6185525319731143
 40
0.6833570688697037
 40
0.7479382231567704
 40
0.812239066728002
 40
0.8755340580753496
 40
0.9381401318495213
 40
1.0
 40
1.0
 40
1.0
 40
1.0
 10
271.4642657317057
 20
180.1882542796903
 30
0.0
 10
271.4642657317057
 20
180.181307198461
 30
0.0
 10
271.4642657317057
 20
180.1654489187681
 30
0.0
 10
271.4642657317057
 20
179.7586975058535
 30
0.0
 10
271.4642657317057
 20
179.0488822919603
 30
0.0
 10
271.4642657317057
 20
178.0324753664607
 30
0.0
 10
271.4642657317057
 20
176.7256058813404
 30
0.0
 10
271.4642657317057
 20
175.1188938723766
 30
0.0
 10
271.4642657317057
 20
173.2060487396674
 30
0.0
 10
271.4642657317057
 20
170.99448282801
 30
0.0
 10
271.4642657317057
 20
168.4969765887296
 30
0.0
 10
271.4642657317057
 20
165.7400534369028
 30
0.0
 10
271.4642657317057
 20
162.7497361755627
 30
0.0
 10
271.4642657317057
 20
159.5555088732071
 30
0.0
 10
271.4642657317057
 20
156.1996292382437
 30
0.0
 10
271.4642657317057
 20
152.7165448799716
 30
0.0
 10
271.4642657317057
 20
149.1511343811034
 30
0.0
 10
271.4642657317057
 20
146.7011004664634
 30
0.0
 10
271.4642657317057
 20
145.4834278037234
 30
0.0
  0
SPLINE
  5
140
330
1F
100
AcDbEntity
  8
0
  6
Continuous
 62
     7
370
    15
100
AcDbSpline
210
0.0
220
0.0
230
1.0
 70
    24
 71
     3
 72
    36
 73
    32
 74
     0
 42
0.000000001
 43
0.00000001
 40
0.0
 40
0.0
 40
0.0
 40
0.0
 40
0.0108663901693764
 40
0.0217235992689927
 40
0.0325737239461297
 40
0.0434188649567969
 40
0.0542611259538548
 40
0.0651026122666534
 40
0.0759454296758007
 40
0.0867916831866139
 40
0.0976434758048303
 40
0.1085029073181251
 40
0.1193720730869558
 40
0.1813968254495411
 40
0.2434299782169203
 40
0.3071319268850098
 40
0.3708425031356519
 40
0.4354174425596918
 40
0.5000011278075956
 40
0.5645760673346892
 40
0.6291597526862437
 40
0.6928617016453169
 40
0.7565722781921671
 40
0.8185970309917204
 40
0.88063018420144
 40
0.9005456124940234
 40
0.9204355775907559
 40
0.9403130284544624
 40
0.9601909385042273
 40
0.9800822802606719
 40
1.0
 40
1.0
 40
1.0
 40
1.0
 10
255.5642657317057
 20
85.04911322867264
 30
0.0
 10
255.5642657317057
 20
85.04999427555452
 30
0.0
 10
255.5642657317057
 20
85.05175562491718
 30
0.0
 10
255.5642657317057
 20
85.06605087176389
 30
0.0
 10
255.5642657317057
 20
85.08887976828925
 30
0.0
 10
255.5642657317057
 20
85.12107688722445
 30
0.0
 10
255.5642657317057
 20
85.16241880279381
 30
0.0
 10
255.5642657317057
 20
85.21296536075951
 30
0.0
 10
255.5642657317057
 20
85.27270046419044
 30
0.0
 10
255.5642657317057
 20
85.341628636463
 30
0.0
 10
255.5642657317057
 20
85.41974781832096
 30
0.0
 10
255.5642657317057
 20
85.50706163931338
 30
0.0
 10
255.5642657317057
 20
85.75489835372255
 30
0.0
 10
255.5642657317057
 20
86.28054616875349
 30
0.0
 10
255.5642657317057
 20
87.30893717527692
 30
0.0
 10
255.5642657317057
 20
88.64088698857105
 30
0.0
 10
255.5642657317057
 20
90.28681290328527
 30
0.0
 10
255.5642657317057
 20
92.22583395556131
 30
0.0
 10
255.5642657317057
 20
94.45180893806021
 30
0.0
 10
255.5642657317057
 20
96.93816421421752
 30
0.0
 10
255.5642657317057
 20
99.65793200821498
 30
0.0
 10
255.5642657317057
 20
102.5866403462084
 30
0.0
 10
255.5642657317057
 20
105.6759663454333
 30
0.0
 10
255.5642657317057
 20
108.9110673936066
 30
0.0
 10
255.5642657317057
 20
111.5086792633663
 30
0.0
 10
255.5642657317057
 20
113.3915666933619
 30
0.0
 10
255.5642657317057
 20
114.5076216677936
 30
0.0
 10
255.5642657317057
 20
115.6347158028108
 30
0.0
 10
255.5642657317057
 20
116.7730807264716
 30
0.0
 10
255.5642657317057
 20
117.921912207758
 30
0.0
 10
255.5642657317057
 20
118.6960849462164
 30
0.0
 10
255.5642657317057
 20
119.0834278037234
 30
0.0
  0
SPLINE
  5
141
330
1F
100
AcDbEntity
  8
0
  6
Continuous
 62
     7
370
    15
100
AcDbSpline
210
0.0
220
0.0
230
1.0
 70
    24
 71
     3
 72
    23
 73
    19
 74
     0
 42
0.000000001
 43
0.00000001
 40
0.0
 40
0.0
 40
0.0
 40
0.0
 40
0.0621371780016823
 40
0.1250125041989178
 40
0.18858029616004
 40
0.253127189537456
 40
0.3179582992717379
 40
0.3830175621109775
 40
0.4480693138239227
 40
0.5129004819881641
 40
0.5774548282112543
 40
0.6410149507156808
 40
0.70389205390056
 40
0.7660351298220105
 40
0.8281703793520515
 40
0.8910476401564842
 40
0.9546154321206017
 40
1.0
 40
1.0
 40
1.0
 40
1.0
 10
255.5642657317057
 20
146.1834278037234
 30
0.0
 10
255.5642657317057
 20
147.3863829636282
 30
0.0
 10
255.5642657317057
 20
149.8065835877156
 30
0.0
 10
255.5642657317057
 20
153.3234280566061
 30
0.0
 10
255.5642657317057
 20
156.75476941963
 30
0.0
 10
255.5642657317057
 20
160.0565640827047
 30
0.0
 10
255.5642657317057
 20
163.1954645786584
 30
0.0
 10
255.5642657317057
 20
166.1304202256689
 30
0.0
 10
255.5642657317057
 20
168.832996056118
 30
0.0
 10
255.5642657317057
 20
171.2781574688909
 30
0.0
 10
255.5642657317057
 20
173.440280766257
 30
0.0
 10
255.5642657317057
 20
175.3072059503145
 30
0.0
 10
255.5642657317057
 20
176.8720605493278
 30
0.0
 10
255.5642657317057
 20
178.1407070131192
 30
0.0
 10
255.5642657317057
 20
179.1227962984273
 30
0.0
 10
255.5642657317057
 20
179.8008423965656
 30
0.0
 10
255.5642657317057
 20
180.1769715274663
 30
0.0
 10
255.5642657317057
 20
180.1817818100801
 30
0.0
 10
255.5642657317057
 20
180.1837855537175
 30
0.0
  0
LINE
  5
142
330
1F
100
AcDbEntity
  8
0
  6
Continuous
 62
     7
370
    15
100
AcDbLine
 10
252.3642657317
 20
97.7084278037
 30
0.0
 11
252.3642657317
 21
167.5584278037
 31
0.0
  0
LINE
  5
143
330
1F
100
AcDbEntity
  8
0
  6
Continuous
 62
     7
370
    15
100
AcDbLine
 10
253.2756811729
 20
132.6334278037
 30
0.0
 11
253.2756811729
 21
167.1334278037
 31
0.0
  0
LINE
  5
144
330
1F
100
AcDbEntity
  8
0
  6
Continuous
 62
     7
370
    15
100
AcDbLine
 10
253.2756811729
 20
98.1334278037
 30
0.0
 11
253.2756811729
 21
132.6334278037
 31
0.0
  0
SPLINE
  5
145
330
1F
100
AcDbEntity
  8
0
  6
Continuous
 62
     7
370
    15
100
AcDbSpline
210
0.0
220
0.0
230
1.0
 70
    24
 71
     3
 72
    10
 73
     6
 74
     0
 42
0.000000001
 43
0.00000001
 40
0.0
 40
0.0
 40
0.0
 40
0.0
 40
0.4999999999999997
 40
0.4999999999999997
 40
0.9999999999999999
 40
0.9999999999999999
 40
0.9999999999999999
 40
0.9999999999999999
 10
150.6142657317058
 20
151.8550028042688
 30
0.0
 10
150.6142657317058
 20
151.8550028042687
 30
0.0
 10
150.6142657317058
 20
149.8297763781997
 30
0.0
 10
150.6142657317058
 20
142.6204912851897
 30
0.0
 10
150.6142657317058
 20
137.7311621804978
 30
0.0
 10
150.6142657317058
 20
132.6334278037234
 30
0.0
  0
SPLINE
  5
146
330
1F
100
AcDbEntity
  8
0
  6
Continuous
 62
     7
370
    15
100
AcDbSpline
210
0.0
220
0.0
230
1.0
 70
    24
 71
     3
 72
    10
 73
     6
 74
     0
 42
0.000000001
 43
0.00000001
 40
0.0
 40
0.0
 40
0.0
 40
0.0
 40
0.4999999999999999
 40
0.4999999999999999
 40
0.9999999999999999
 40
0.9999999999999999
 40
0.9999999999999999
 40
0.9999999999999999
 10
150.6142657317058
 20
132.6334278037234
 30
0.0
 10
150.6142657317058
 20
127.535693426949
 30
0.0
 10
150.6142657317058
 20
122.6463643222567
 30
0.0
 10
150.6142657317058
 20
115.4370792292468
 30
0.0
 10
150.6142657317058
 20
113.4118528031779
 30
0.0
 10
150.6142657317058
 20
113.411852803178
 30
0.0
  0
LINE
  5
147
330
1F
100
AcDbEntity
  8
0
  6
Continuous
 62
     7
370
    15
100
AcDbLine
 10
297.3642657317
 20
132.6334278037
 30
0.0
 11
297.3642657317
 21
150.6334278037
 31
0.0
  0
LINE
  5
148
330
1F
100
AcDbEntity
  8
0
  6
Continuous
 62
     7
370
    15
100
AcDbLine
 10
297.3642657317
 20
114.6334278037
 30
0.0
 11
297.3642657317
 21
132.6334278037
 31
0.0
  0
LINE
  5
149
330
1F
100
AcDbEntity
  8
0
  6
Continuous
 62
     7
370
    15
100
AcDbLine
 10
296.3642657317
 20
132.6334278037
 30
0.0
 11
296.3642657317
 21
151.6334278037
 31
0.0
  0
LINE
  5
14A
330
1F
100
AcDbEntity
  8
0
  6
Continuous
 62
     7
370
    15
100
AcDbLine
 10
296.3642657317
 20
113.6334278037
 30
0.0
 11
296.3642657317
 21
132.6334278037
 31
0.0
  0
LINE
  5
14B
330
1F
100
AcDbEntity
  8
0
  6
Continuous
 62
     7
370
    15
100
AcDbLine
 10
324.3642657317
 20
132.6334278037
 30
0.0
 11
324.3642657317
 21
141.6334278037
 31
0.0
  0
LINE
  5
14C
330
1F
100
AcDbEntity
  8
0
  6
Continuous
 62
     7
370
    15
100
AcDbLine
 10
324.3642657317
 20
123.6334278037
 30
0.0
 11
324.3642657317
 21
132.6334278037
 31
0.0
  0
LINE
  5
14D
330
1F
100
AcDbEntity
  8
0
  6
Continuous
 62
     7
370
    15
100
AcDbLine
 10
323.3642657317
 20
132.6334278037
 30
0.0
 11
323.3642657317
 21
142.6334278037
 31
0.0
  0
LINE
  5
14E
330
1F
100
AcDbEntity
  8
0
  6
Continuous
 62
     7
370
    15
100
AcDbLine
 10
323.3642657317
 20
122.6334278037
 30
0.0
 11
323.3642657317
 21
132.6334278037
 31
0.0
  0
LINE
  5
14F
330
1F
100
AcDbEntity
  8
0
  6
Continuous
 62
     7
370
    15
100
AcDbLine
 10
318.3642657317
 20
122.6334278037
 30
0.0
 11
318.3642657317
 21
142.6334278037
 31
0.0
  0
LINE
  5
150
330
1F
100
AcDbEntity
  8
0
  6
Continuous
 62
     7
370
    15
100
AcDbLine
 10
317.3642657317
 20
123.6334278037
 30
0.0
 11
317.3642657317
 21
141.6334278037
 31
0.0
  0
LINE
  5
151
330
1F
100
AcDbEntity
  8
0
  6
Continuous
 62
     7
370
    15
100
AcDbLine
 10
313.8735180029
 20
132.6334278037
 30
0.0
 11
313.8735180029
 21
140.6334278037
 31
0.0
  0
LINE
  5
152
330
1F
100
AcDbEntity
  8
0
  6
Continuous
 62
     7
370
    15
100
AcDbLine
 10
313.8735180029
 20
124.6334278037
 30
0.0
 11
313.8735180029
 21
132.6334278037
 31
0.0
  0
LINE
  5
153
330
1F
100
AcDbEntity
  8
0
  6
Continuous
 62
     7
370
    15
100
AcDbLine
 10
314.3642657317
 20
125.4834278037
 30
0.0
 11
314.3642657317
 21
139.7834278037
 31
0.0
  0
LINE
  5
154
330
1F
100
AcDbEntity
  8
0
  6
Continuous
 62
     7
370
    15
100
AcDbLine
 10
297.3642657317
 20
122.6334278037
 30
0.0
 11
302.1142657317
 21
122.6334278037
 31
0.0
  0
LINE
  5
155
330
1F
100
AcDbEntity
  8
0
  6
Continuous
 62
     7
370
    15
100
AcDbLine
 10
302.1142657317
 20
123.1334278037
 30
0.0
 11
297.3642657317
 21
123.1334278037
 31
0.0
  0
LINE
  5
156
330
1F
100
AcDbEntity
  8
0
  6
Continuous
 62
     7
370
    15
100
AcDbLine
 10
302.1142657317
 20
123.1334278037
 30
0.0
 11
302.1142657317
 21
122.6334278037
 31
0.0
  0
LINE
  5
157
330
1F
100
AcDbEntity
  8
0
  6
Continuous
 62
     7
370
    15
100
AcDbLine
 10
302.1142657317
 20
115.6334278037
 30
0.0
 11
297.3642657317
 21
115.6334278037
 31
0.0
  0
LINE
  5
158
330
1F
100
AcDbEntity
  8
0
  6
Continuous
 62
     7
370
    15
100
AcDbLine
 10
302.1142657317
 20
122.6334278037
 30
0.0
 11
302.1142657317
 21
115.6334278037
 31
0.0
  0
LINE
  5
159
330
1F
100
AcDbEntity
  8
0
  6
Continuous
 62
     7
370
    15
100
AcDbLine
 10
297.3642657317
 20
115.1334278037
 30
0.0
 11
302.1142657317
 21
115.1334278037
 31
0.0
  0
LINE
  5
15A
330
1F
100
AcDbEntity
  8
0
  6
Continuous
 62
     7
370
    15
100
AcDbLine
 10
302.1142657317
 20
115.6334278037
 30
0.0
 11
302.1142657317
 21
115.1334278037
 31
0.0
  0
LINE
  5
15B
330
1F
100
AcDbEntity
  8
0
  6
Continuous
 62
     7
370
    15
100
AcDbLine
 10
302.1142657317
 20
150.1334278037
 30
0.0
 11
302.1142657317
 21
149.6334278037
 31
0.0
  0
LINE
  5
15C
330
1F
100
AcDbEntity
  8
0
  6
Continuous
 62
     7
370
    15
100
AcDbLine
 10
297.3642657317
 20
149.6334278037
 30
0.0
 11
302.1142657317
 21
149.6334278037
 31
0.0
  0
LINE
  5
15D
330
1F
100
AcDbEntity
  8
0
  6
Continuous
 62
     7
370
    15
100
AcDbLine
 10
302.1142657317
 20
150.1334278037
 30
0.0
 11
297.3642657317
 21
150.1334278037
 31
0.0
  0
LINE
  5
15E
330
1F
100
AcDbEntity
  8
0
  6
Continuous
 62
     7
370
    15
100
AcDbLine
 10
302.1142657317
 20
149.6334278037
 30
0.0
 11
302.1142657317
 21
142.6334278037
 31
0.0
  0
LINE
  5
15F
330
1F
100
AcDbEntity
  8
0
  6
Continuous
 62
     7
370
    15
100
AcDbLine
 10
302.1142657317
 20
142.6334278037
 30
0.0
 11
297.3642657317
 21
142.6334278037
 31
0.0
  0
LINE
  5
160
330
1F
100
AcDbEntity
  8
0
  6
Continuous
 62
     7
370
    15
100
AcDbLine
 10
297.3642657317
 20
142.1334278037
 30
0.0
 11
302.1142657317
 21
142.1334278037
 31
0.0
  0
LINE
  5
161
330
1F
100
AcDbEntity
  8
0
  6
Continuous
 62
     7
370
    15
100
AcDbLine
 10
302.1142657317
 20
142.6334278037
 30
0.0
 11
302.1142657317
 21
142.1334278037
 31
0.0
  0
LINE
  5
162
330
1F
100
AcDbEntity
  8
0
  6
Continuous
 62
     8
370
    15
100
AcDbLine
 10
270.2985803068
 20
146.0305059751
 30
0.0
 11
270.2985803068
 21
181.3834278037
 31
0.0
  0
LINE
  5
163
330
1F
100
AcDbEntity
  8
0
  6
Continuous
 62
     8
370
    15
100
AcDbLine
 10
270.2985803068
 20
83.8834278037
 30
0.0
 11
270.2985803068
 21
119.2363496323
 31
0.0
  0
LINE
  5
164
330
1F
100
AcDbEntity
  8
0
  6
Continuous
 62
     8
370
    15
100
AcDbLine
 10
256.7299511567
 20
83.8834278037
 30
0.0
 11
256.7299511567
 21
119.2363496323
 31
0.0
  0
LINE
  5
165
330
1F
100
AcDbEntity
  8
0
  6
Continuous
 62
     8
370
    15
100
AcDbLine
 10
256.7299511567
 20
181.3834278037
 30
0.0
 11
256.7299511567
 21
146.0305059751
 31
0.0
  0
LINE
  5
166
330
1F
100
AcDbEntity
  8
0
  6
Continuous
 62
     8
370
    15
100
AcDbLine
 10
271.3471084442
 20
180.5005850912
 30
0.0
 11
271.3471084442
 21
145.4834278037
 31
0.0
  0
LINE
  5
167
330
1F
100
AcDbEntity
  8
0
  6
Continuous
 62
     8
370
    15
100
AcDbLine
 10
271.3471084442
 20
119.7834278037
 30
0.0
 11
271.3471084442
 21
84.7662705162
 31
0.0
  0
LINE
  5
168
330
1F
100
AcDbEntity
  8
0
  6
Continuous
 62
     8
370
    15
100
AcDbLine
 10
270.5814230192
 20
145.935707044
 30
0.0
 11
270.5814230192
 21
181.2662705162
 31
0.0
  0
LINE
  5
169
330
1F
100
AcDbEntity
  8
0
  6
Continuous
 62
     8
370
    15
100
AcDbLine
 10
270.5814230192
 20
119.3311485635
 30
0.0
 11
270.5814230192
 21
84.0005850912
 31
0.0
  0
LINE
  5
16A
330
1F
100
AcDbEntity
  8
0
  6
Continuous
 62
     8
370
    15
100
AcDbLine
 10
255.6814230192
 20
84.7662705162
 30
0.0
 11
255.6814230192
 21
119.2005850912
 31
0.0
  0
LINE
  5
16B
330
1F
100
AcDbEntity
  8
0
  6
Continuous
 62
     8
370
    15
100
AcDbLine
 10
255.6814230192
 20
146.0662705162
 30
0.0
 11
255.6814230192
 21
180.5005850912
 31
0.0
  0
LINE
  5
16C
330
1F
100
AcDbEntity
  8
0
  6
Continuous
 62
     8
370
    15
100
AcDbLine
 10
256.4471084442
 20
145.935707044
 30
0.0
 11
256.4471084442
 21
181.2662705162
 31
0.0
  0
LINE
  5
16D
330
1F
100
AcDbEntity
  8
0
  6
Continuous
 62
     8
370
    15
100
AcDbLine
 10
256.4471084442
 20
84.0005850912
 30
0.0
 11
256.4471084442
 21
119.3311485635
 31
0.0
  0
LINE
  5
16E
330
1F
100
AcDbEntity
  8
0
  6
Continuous
 62
     8
370
    15
100
AcDbLine
 10
255.0642657317
 20
98.1334278037
 30
0.0
 11
255.0642657317
 21
167.1334278037
 31
0.0
  0
LINE
  5
16F
330
1F
100
AcDbEntity
  8
0
  6
Continuous
 62
     8
370
    15
100
AcDbLine
 10
151.4699575044
 20
152.8445355908
 30
0.0
 11
151.4699575044
 21
112.4223200167
 31
0.0
  0
LINE
  5
170
330
1F
100
AcDbEntity
  8
0
  6
Continuous
 62
     8
370
    15
100
AcDbLine
 10
274.4642657317
 20
151.6334278037
 30
0.0
 11
274.4642657317
 21
113.6334278037
 31
0.0
  0
LINE
  5
171
330
1F
100
AcDbEntity
  8
0
  6
Continuous
 62
     8
370
    15
100
AcDbLine
 10
316.8642657317
 20
132.6334278037
 30
0.0
 11
316.8642657317
 21
136.6334278037
 31
0.0
  0
LINE
  5
172
330
1F
100
AcDbEntity
  8
0
  6
Continuous
 62
     8
370
    15
100
AcDbLine
 10
316.8642657317
 20
128.6334278037
 30
0.0
 11
316.8642657317
 21
132.6334278037
 31
0.0
  0
DIMENSION
  5
173
330
1F
100
AcDbEntity
  8
DIM
100
AcDbDimension
  2
_D
 10
337.3642657317
 20
113.6334278037
 30
0.0
 11
337.3642657317
 21
132.6334278037
 31
0.0
 70
   160
  1
%%c<>
 71
     2
 42
-1.0
  3
SLDDIMSTYLE0
100
AcDbAlignedDimension
 13
296.3642657317
 23
151.6334278037
 33
0.0
 14
296.3642657317
 24
113.6334278037
 34
0.0
 50
90.0
100
AcDbRotatedDimension
  0
DIMENSION
  5
17F
330
1F
100
AcDbEntity
  8
DIM
100
AcDbDimension
  2
_D_1
 10
331.0482502916
 20
124.6334278037
 30
0.0
 11
331.0482502916
 21
132.6334278037
 31
0.0
 70
   160
  1
%%c<>
 71
     2
 42
-1.0
  3
SLDDIMSTYLE1
100
AcDbAlignedDimension
 13
313.8735180029
 23
140.6334278037
 33
0.0
 14
313.8735180029
 24
124.6334278037
 34
0.0
 50
90.0
100
AcDbRotatedDimension
  0
DIMENSION
  5
18D
330
1F
100
AcDbEntity
  8
DIM
100
AcDbDimension
  2
_D_2
 10
141.4173177968
 20
83.8834278037
 30
0.0
 11
141.4173177968
 21
132.6334278037
 31
0.0
 70
   160
  1
%%c<>
 71
     2
 42
-1.0
  3
SLDDIMSTYLE2
100
AcDbAlignedDimension
 13
256.7299511567
 23
181.3834278037
 33
0.0
 14
256.7299511567
 24
83.8834278037
 34
0.0
 50
90.0
100
AcDbRotatedDimension
  0
DIMENSION
  5
199
330
1F
100
AcDbEntity
  8
DIM
100
AcDbDimension
  2
_D_3
 10
252.3642657317
 20
76.8412998954
 30
0.0
 11
274.8642657317
 21
76.8412998954
 31
0.0
 70
   160
  1
<>
 71
     2
 42
-1.0
  3
SLDDIMSTYLE0
100
AcDbAlignedDimension
 13
297.3642657317
 23
114.6334278037
 33
0.0
 14
252.3642657317
 24
97.7084278037
 34
0.0
100
AcDbRotatedDimension
  0
DIMENSION
  5
1A3
330
1F
100
AcDbEntity
  8
DIM
100
AcDbDimension
  2
_D_4
 10
314.3642657317
 20
76.8412998954
 30
0.0
 11
305.8642657317
 21
76.8412998954
 31
0.0
 70
   160
  1
<>
 71
     2
 42
-1.0
  3
SLDDIMSTYLE1
100
AcDbAlignedDimension
 13
297.3642657317
 23
114.6334278037
 33
0.0
 14
314.3642657317
 24
125.4834278037
 34
0.0
100
AcDbRotatedDimension
  0
DIMENSION
  5
1AF
330
1F
100
AcDbEntity
  8
DIM
100
AcDbDimension
  2
_D_5
 10
150.6142657317
 20
63.0833278037
 30
0.0
 11
237.4892657317
 21
63.0833278037
 31
0.0
 70
   160
  1
<>
 71
     2
 42
-1.0
  3
SLDDIMSTYLE0
100
AcDbAlignedDimension
 13
324.3642657317
 23
123.6334278037
 33
0.0
 14
150.6142657317
 24
132.6334278037
 34
0.0
 50
0.0
100
AcDbRotatedDimension
  0
LINE
  5
1B9
330
1F
100
AcDbEntity
  8
DIM
  6
CENTERX2
 48
1.5384615385
370
     0
100
AcDbLine
 10
326.9642657317
 20
132.6334278037
 30
0.0
 11
285.1857556843
 21
132.6334278037
 31
0.0
  0
LINE
  5
1BA
330
1F
100
AcDbEntity
  8
DIM
  6
CENTERX2
 48
1.5384615385
370
     0
100
AcDbLine
 10
274.3499365375
 20
132.6334278037
 30
0.0
 11
148.8699575044
 21
132.6334278037
 31
0.0
  0
ENDSEC
  0
SECTION
  2
OBJECTS
  0
DICTIONARY
  5
C
330
0
100
AcDbDictionary
281
     1
  3
ACAD_GROUP
350
D
  3
ACAD_LAYOUT
350
1A
  3
ACAD_MLINESTYLE
350
17
  3
ACAD_PLOTSETTINGS
350
19
  3
ACAD_PLOTSTYLENAME
350
E
  3
ACAD_SCALELIST
350
47
  0
DICTIONARY
  5
D
102
{ACAD_REACTORS
330
C
102
}
330
C
100
AcDbDictionary
281
     1
  0
DICTIONARY
  5
1A
102
{ACAD_REACTORS
330
C
102
}
330
C
100
AcDbDictionary
281
     1
  3
Layout1
350
1E
  3
Layout2
350
26
  3
Model
350
22
  0
DICTIONARY
  5
17
102
{ACAD_REACTORS
330
C
102
}
330
C
100
AcDbDictionary
281
     1
  3
Standard
350
18
  0
DICTIONARY
  5
19
102
{ACAD_REACTORS
330
C
102
}
330
C
100
AcDbDictionary
281
     1
  0
ACDBDICTIONARYWDFLT
  5
E
102
{ACAD_REACTORS
330
C
102
}
330
C
100
AcDbDictionary
281
     1
  3
Normal
350
F
100
AcDbDictionaryWithDefault
340
F
  0
DICTIONARY
  5
47
102
{ACAD_REACTORS
330
C
102
}
330
C
100
AcDbDictionary
281
     1
  3
A0
350
48
  3
A1
350
49
  3
A2
350
4A
  3
A3
350
4B
  3
A4
350
4C
  3
A5
350
4D
  3
A6
350
4E
  3
A7
350
4F
  3
A8
350
50
  3
A9
350
51
  3
B0
350
52
  3
B1
350
53
  3
B2
350
54
  3
B3
350
55
  3
B4
350
56
  3
B5
350
57
  3
B6
350
58
  3
B7
350
59
  3
B8
350
5A
  3
B9
350
5B
  3
C0
350
5C
  3
C1
350
5D
  3
C2
350
5E
  3
C3
350
5F
  3
C4
350
60
  3
C5
350
61
  3
C6
350
62
  3
C7
350
63
  3
C8
350
64
  3
C9
350
65
  3
D0
350
66
  3
D1
350
67
  3
D2
350
68
  0
LAYOUT
  5
1E
102
{ACAD_REACTORS
330
1A
102
}
330
1A
100
AcDbPlotSettings
  1

  2
none_device
  4

  6

 40
0.0
 41
0.0
 42
0.0
 43
0.0
 44
0.0
 45
0.0
 46
0.0
 47
0.0
 48
0.0
 49
0.0
140
0.0
141
0.0
142
1.0
143
1.0
 70
   688
 72
     1
 73
     0
 74
     5
  7

 75
    16
147
1.0
148
0.0
149
0.0
100
AcDbLayout
  1
Layout1
 70
     1
 71
     1
 10
0.0
 20
0.0
 11
420.0
 21
297.0
 12
0.0
 22
0.0
 32
0.0
 14
1.0000000000E+20
 24
1.0000000000E+20
 34
1.0000000000E+20
 15
-1.0000000000E+20
 25
-1.0000000000E+20
 35
-1.0000000000E+20
146
0.0
 13
0.0
 23
0.0
 33
0.0
 16
1.0
 26
0.0
 36
0.0
 17
0.0
 27
1.0
 37
0.0
 76
     0
330
1B
  0
LAYOUT
  5
26
102
{ACAD_REACTORS
330
1A
102
}
330
1A
100
AcDbPlotSettings
  1

  2
none_device
  4

  6

 40
0.0
 41
0.0
 42
0.0
 43
0.0
 44
0.0
 45
0.0
 46
0.0
 47
0.0
 48
0.0
 49
0.0
140
0.0
141
0.0
142
1.0
143
1.0
 70
   688
 72
     1
 73
     0
 74
     5
  7

 75
    16
147
1.0
148
0.0
149
0.0
100
AcDbLayout
  1
Layout2
 70
     1
 71
     2
 10
0.0
 20
0.0
 11
0.0
 21
0.0
 12
0.0
 22
0.0
 32
0.0
 14
0.0
 24
0.0
 34
0.0
 15
0.0
 25
0.0
 35
0.0
146
0.0
 13
0.0
 23
0.0
 33
0.0
 16
1.0
 26
0.0
 36
0.0
 17
0.0
 27
1.0
 37
0.0
 76
     0
330
23
  0
LAYOUT
  5
22
102
{ACAD_REACTORS
330
1A
102
}
330
1A
100
AcDbPlotSettings
  1

  2
none_device
  4
Letter_(8.50_x_11.00_Inches)
  6

 40
6.35
 41
6.35
 42
6.35000508
 43
6.35000508
 44
215.9
 45
279.4
 46
0.0
 47
0.0
 48
0.0
 49
0.0
140
0.0
141
0.0
142
1.0
143
1.0
 70
  1712
 72
     1
 73
     0
 74
     0
  7

 75
     0
147
1.0
148
0.0
149
0.0
100
AcDbLayout
  1
Model
 70
     1
 71
     0
 10
0.0
 20
0.0
 11
386.1
 21
273.0
 12
0.0
 22
0.0
 32
0.0
 14
0.0
 24
0.0
 34
0.0
 15
386.1
 25
273.0
 35
0.0
146
0.0
 13
0.0
 23
0.0
 33
0.0
 16
1.0
 26
0.0
 36
0.0
 17
0.0
 27
1.0
 37
0.0
 76
     0
330
1F
331
29
  0
MLINESTYLE
  5
18
102
{ACAD_REACTORS
330
17
102
}
330
17
100
AcDbMlineStyle
  2
Standard
 70
     0
  3

 62
   256
 51
90.0
 52
90.0
 71
     2
 49
0.5
 62
   256
  6
BYLAYER
 49
-0.5
 62
   256
  6
BYLAYER
  0
ACDBPLACEHOLDER
  5
F
102
{ACAD_REACTORS
330
E
102
}
330
E
  0
SCALE
  5
48
102
{ACAD_REACTORS
330
47
102
}
330
47
100
AcDbScale
 70
     0
300
1:1
140
1.0
141
1.0
290
     1
  0
SCALE
  5
49
102
{ACAD_REACTORS
330
47
102
}
330
47
100
AcDbScale
 70
     0
300
1:2
140
1.0
141
2.0
290
     0
  0
SCALE
  5
4A
102
{ACAD_REACTORS
330
47
102
}
330
47
100
AcDbScale
 70
     0
300
1:4
140
1.0
141
4.0
290
     0
  0
SCALE
  5
4B
102
{ACAD_REACTORS
330
47
102
}
330
47
100
AcDbScale
 70
     0
300
1:5
140
1.0
141
5.0
290
     0
  0
SCALE
  5
4C
102
{ACAD_REACTORS
330
47
102
}
330
47
100
AcDbScale
 70
     0
300
1:8
140
1.0
141
8.0
290
     0
  0
SCALE
  5
4D
102
{ACAD_REACTORS
330
47
102
}
330
47
100
AcDbScale
 70
     0
300
1:10
140
1.0
141
10.0
290
     0
  0
SCALE
  5
4E
102
{ACAD_REACTORS
330
47
102
}
330
47
100
AcDbScale
 70
     0
300
1:16
140
1.0
141
16.0
290
     0
  0
SCALE
  5
4F
102
{ACAD_REACTORS
330
47
102
}
330
47
100
AcDbScale
 70
     0
300
1:20
140
1.0
141
20.0
290
     0
  0
SCALE
  5
50
102
{ACAD_REACTORS
330
47
102
}
330
47
100
AcDbScale
 70
     0
300
1:30
140
1.0
141
30.0
290
     0
  0
SCALE
  5
51
102
{ACAD_REACTORS
330
47
102
}
330
47
100
AcDbScale
 70
     0
300
1:40
140
1.0
141
40.0
290
     0
  0
SCALE
  5
52
102
{ACAD_REACTORS
330
47
102
}
330
47
100
AcDbScale
 70
     0
300
1:50
140
1.0
141
50.0
290
     0
  0
SCALE
  5
53
102
{ACAD_REACTORS
330
47
102
}
330
47
100
AcDbScale
 70
     0
300
1:100
140
1.0
141
100.0
290
     0
  0
SCALE
  5
54
102
{ACAD_REACTORS
330
47
102
}
330
47
100
AcDbScale
 70
     0
300
2:1
140
2.0
141
1.0
290
     0
  0
SCALE
  5
55
102
{ACAD_REACTORS
330
47
102
}
330
47
100
AcDbScale
 70
     0
300
4:1
140
4.0
141
1.0
290
     0
  0
SCALE
  5
56
102
{ACAD_REACTORS
330
47
102
}
330
47
100
AcDbScale
 70
     0
300
8:1
140
8.0
141
1.0
290
     0
  0
SCALE
  5
57
102
{ACAD_REACTORS
330
47
102
}
330
47
100
AcDbScale
 70
     0
300
10:1
140
10.0
141
1.0
290
     0
  0
SCALE
  5
58
102
{ACAD_REACTORS
330
47
102
}
330
47
100
AcDbScale
 70
     0
300
100:1
140
100.0
141
1.0
290
     0
  0
SCALE
  5
59
102
{ACAD_REACTORS
330
47
102
}
330
47
100
AcDbScale
 70
     0
300
1/128" = 1'-0"
140
0.0078125
141
12.0
290
     0
  0
SCALE
  5
5A
102
{ACAD_REACTORS
330
47
102
}
330
47
100
AcDbScale
 70
     0
300
1/64" = 1'-0"
140
0.015625
141
12.0
290
     0
  0
SCALE
  5
5B
102
{ACAD_REACTORS
330
47
102
}
330
47
100
AcDbScale
 70
     0
300
1/32" = 1'-0"
140
0.03125
141
12.0
290
     0
  0
SCALE
  5
5C
102
{ACAD_REACTORS
330
47
102
}
330
47
100
AcDbScale
 70
     0
300
1/16" = 1'-0"
140
0.0625
141
12.0
290
     0
  0
SCALE
  5
5D
102
{ACAD_REACTORS
330
47
102
}
330
47
100
AcDbScale
 70
     0
300
3/32" = 1'-0"
140
0.09375
141
12.0
290
     0
  0
SCALE
  5
5E
102
{ACAD_REACTORS
330
47
102
}
330
47
100
AcDbScale
 70
     0
300
1/8" = 1'-0"
140
0.125
141
12.0
290
     0
  0
SCALE
  5
5F
102
{ACAD_REACTORS
330
47
102
}
330
47
100
AcDbScale
 70
     0
300
3/16" = 1'-0"
140
0.1875
141
12.0
290
     0
  0
SCALE
  5
60
102
{ACAD_REACTORS
330
47
102
}
330
47
100
AcDbScale
 70
     0
300
1/4" = 1'-0"
140
0.25
141
12.0
290
     0
  0
SCALE
  5
61
102
{ACAD_REACTORS
330
47
102
}
330
47
100
AcDbScale
 70
     0
300
3/8" = 1'-0"
140
0.375
141
12.0
290
     0
  0
SCALE
  5
62
102
{ACAD_REACTORS
330
47
102
}
330
47
100
AcDbScale
 70
     0
300
1/2" = 1'-0"
140
0.5
141
12.0
290
     0
  0
SCALE
  5
63
102
{ACAD_REACTORS
330
47
102
}
330
47
100
AcDbScale
 70
     0
300
3/4" = 1'-0"
140
0.75
141
12.0
290
     0
  0
SCALE
  5
64
102
{ACAD_REACTORS
330
47
102
}
330
47
100
AcDbScale
 70
     0
300
1" = 1'-0"
140
1.0
141
12.0
290
     0
  0
SCALE
  5
65
102
{ACAD_REACTORS
330
47
102
}
330
47
100
AcDbScale
 70
     0
300
1-1/2" = 1'-0"
140
1.5
141
12.0
290
     0
  0
SCALE
  5
66
102
{ACAD_REACTORS
330
47
102
}
330
47
100
AcDbScale
 70
     0
300
3" = 1'-0"
140
3.0
141
12.0
290
     0
  0
SCALE
  5
67
102
{ACAD_REACTORS
330
47
102
}
330
47
100
AcDbScale
 70
     0
300
6" = 1'-0"
140
6.0
141
12.0
290
     0
  0
SCALE
  5
68
102
{ACAD_REACTORS
330
47
102
}
330
47
100
AcDbScale
 70
     0
300
1'-0" = 1'-0"
140
12.0
141
12.0
290
     0
  0
ENDSEC
  0
EOF
