  0
SECTION
  2
HEADER
  9
$ACADVER
  1
AC1015
  9
$ACADMAINTVER
 70
     6
  9
$DWGCODEPAGE
  3
ANSI_1252
  9
$INSBASE
 10
0.0
 20
0.0
 30
0.0
  9
$EXTMIN
 10
0.0
 20
0.0
 30
0.0
  9
$EXTMAX
 10
445.5
 20
315.0
 30
0.0
  9
$LIMMIN
 10
0.0
 20
0.0
  9
$LIMMAX
 10
445.5
 20
315.0
  9
$ORTHOMODE
 70
     0
  9
$REGENMODE
 70
     1
  9
$FILLMODE
 70
     1
  9
$QTEXTMODE
 70
     0
  9
$MIRRTEXT
 70
     1
  9
$LTSCALE
 40
1.5
  9
$ATTMODE
 70
     1
  9
$TEXTSIZE
 40
5.8208333333
  9
$TRACEWID
 40
1.0
  9
$TEXTSTYLE
  7
Standard
  9
$CLAYER
  8
0
  9
$CELTYPE
  6
ByLayer
  9
$CECOLOR
 62
   256
  9
$CELTSCALE
 40
1.0
  9
$DISPSILH
 70
     0
  9
$DIMSCALE
 40
1.0
  9
$DIMASZ
 40
4.953
  9
$DIMEXO
 40
1.5
  9
$DIMDLI
 40
3.75
  9
$DIMRND
 40
0.0
  9
$DIMDLE
 40
0.0
  9
$DIMEXE
 40
1.5
  9
$DIMTP
 40
0.0
  9
$DIMTM
 40
0.0
  9
$DIMTXT
 40
5.8208333333
  9
$DIMCEN
 40
2.5
  9
$DIMTSZ
 40
0.0
  9
$DIMTOL
 70
     0
  9
$DIMLIM
 70
     0
  9
$DIMTIH
 70
     1
  9
$DIMTOH
 70
     1
  9
$DIMSE1
 70
     0
  9
$DIMSE2
 70
     0
  9
$DIMTAD
 70
     1
  9
$DIMZIN
 70
     0
  9
$DIMBLK
  1

  9
$DIMASO
 70
     1
  9
$DIMSHO
 70
     1
  9
$DIMPOST
  1

  9
$DIMAPOST
  1

  9
$DIMALT
 70
     0
  9
$DIMALTD
 70
     3
  9
$DIMALTF
 40
0.0393700787
  9
$DIMLFAC
 40
1.0
  9
$DIMTOFL
 70
     1
  9
$DIMTVP
 40
0.0
  9
$DIMTIX
 70
     0
  9
$DIMSOXD
 70
     0
  9
$DIMSAH
 70
     0
  9
$DIMBLK1
  1

  9
$DIMBLK2
  1

  9
$DIMSTYLE
  2
ISO-25
  9
$DIMCLRD
 70
     0
  9
$DIMCLRE
 70
     0
  9
$DIMCLRT
 70
     0
  9
$DIMTFAC
 40
1.0
  9
$DIMGAP
 40
2.286
  9
$DIMJUST
 70
     0
  9
$DIMSD1
 70
     0
  9
$DIMSD2
 70
     0
  9
$DIMTOLJ
 70
     0
  9
$DIMTZIN
 70
     0
  9
$DIMALTZ
 70
     0
  9
$DIMALTTZ
 70
     0
  9
$DIMUPT
 70
     0
  9
$DIMDEC
 70
     2
  9
$DIMTDEC
 70
     2
  9
$DIMALTU
 70
     2
  9
$DIMALTTD
 70
     3
  9
$DIMTXSTY
  7
Standard
  9
$DIMAUNIT
 70
     0
  9
$DIMADEC
 70
     2
  9
$DIMALTRND
 40
0.0
  9
$DIMAZIN
 70
     0
  9
$DIMDSEP
 70
    44
  9
$DIMATFIT
 70
     3
  9
$DIMFRAC
 70
     0
  9
$DIMLDRBLK
  1

  9
$DIMLUNIT
 70
     2
  9
$DIMLWD
 70
    -2
  9
$DIMLWE
 70
    -2
  9
$DIMTMOVE
 70
     0
  9
$LUNITS
 70
     2
  9
$LUPREC
 70
     2
  9
$SKETCHINC
 40
1.0
  9
$FILLETRAD
 40
10.0
  9
$AUNITS
 70
     1
  9
$AUPREC
 70
     2
  9
$MENU
  1
.
  9
$ELEVATION
 40
0.0
  9
$PELEVATION
 40
0.0
  9
$THICKNESS
 40
0.0
  9
$LIMCHECK
 70
     0
  9
$CHAMFERA
 40
0.0
  9
$CHAMFERB
 40
0.0
  9
$CHAMFERC
 40
0.0
  9
$CHAMFERD
 40
0.0
  9
$SKPOLY
 70
     0
  9
$TDCREATE
 40
2458606.649595324
  9
$TDUCREATE
 40
2458606.420428657
  9
$TDUPDATE
 40
2458606.649596366
  9
$TDUUPDATE
 40
2458606.420429699
  9
$TDINDWG
 40
0.0000000116
  9
$TDUSRTIMER
 40
0.0000000116
  9
$USRTIMER
 70
     1
  9
$ANGBASE
 50
0.0
  9
$ANGDIR
 70
     0
  9
$PDMODE
 70
     0
  9
$PDSIZE
 40
-1.0
  9
$PLINEWID
 40
0.0
  9
$SPLFRAME
 70
     0
  9
$SPLINETYPE
 70
     6
  9
$SPLINESEGS
 70
     8
  9
$HANDSEED
  5
1BA
  9
$SURFTAB1
 70
     6
  9
$SURFTAB2
 70
     6
  9
$SURFTYPE
 70
     6
  9
$SURFU
 70
     6
  9
$SURFV
 70
     6
  9
$UCSBASE
  2

  9
$UCSNAME
  2

  9
$UCSORG
 10
0.0
 20
0.0
 30
0.0
  9
$UCSXDIR
 10
1.0
 20
0.0
 30
0.0
  9
$UCSYDIR
 10
0.0
 20
1.0
 30
0.0
  9
$UCSORTHOREF
  2

  9
$UCSORTHOVIEW
 70
     0
  9
$UCSORGTOP
 10
0.0
 20
0.0
 30
0.0
  9
$UCSORGBOTTOM
 10
0.0
 20
0.0
 30
0.0
  9
$UCSORGLEFT
 10
0.0
 20
0.0
 30
0.0
  9
$UCSORGRIGHT
 10
0.0
 20
0.0
 30
0.0
  9
$UCSORGFRONT
 10
0.0
 20
0.0
 30
0.0
  9
$UCSORGBACK
 10
0.0
 20
0.0
 30
0.0
  9
$PUCSBASE
  2

  9
$PUCSNAME
  2

  9
$PUCSORG
 10
0.0
 20
0.0
 30
0.0
  9
$PUCSXDIR
 10
1.0
 20
0.0
 30
0.0
  9
$PUCSYDIR
 10
0.0
 20
1.0
 30
0.0
  9
$PUCSORTHOREF
  2

  9
$PUCSORTHOVIEW
 70
     0
  9
$PUCSORGTOP
 10
0.0
 20
0.0
 30
0.0
  9
$PUCSORGBOTTOM
 10
0.0
 20
0.0
 30
0.0
  9
$PUCSORGLEFT
 10
0.0
 20
0.0
 30
0.0
  9
$PUCSORGRIGHT
 10
0.0
 20
0.0
 30
0.0
  9
$PUCSORGFRONT
 10
0.0
 20
0.0
 30
0.0
  9
$PUCSORGBACK
 10
0.0
 20
0.0
 30
0.0
  9
$USERI1
 70
     0
  9
$USERI2
 70
     0
  9
$USERI3
 70
     0
  9
$USERI4
 70
     0
  9
$USERI5
 70
     0
  9
$USERR1
 40
0.0
  9
$USERR2
 40
0.0
  9
$USERR3
 40
0.0
  9
$USERR4
 40
0.0
  9
$USERR5
 40
0.0
  9
$WORLDVIEW
 70
     1
  9
$SHADEDGE
 70
     3
  9
$SHADEDIF
 70
    70
  9
$TILEMODE
 70
     1
  9
$MAXACTVP
 70
    64
  9
$PINSBASE
 10
0.0
 20
0.0
 30
0.0
  9
$PLIMCHECK
 70
     0
  9
$PEXTMIN
 10
1.0000000000E+20
 20
1.0000000000E+20
 30
1.0000000000E+20
  9
$PEXTMAX
 10
-1.0000000000E+20
 20
-1.0000000000E+20
 30
-1.0000000000E+20
  9
$PLIMMIN
 10
0.0
 20
0.0
  9
$PLIMMAX
 10
420.0
 20
297.0
  9
$UNITMODE
 70
     0
  9
$VISRETAIN
 70
     1
  9
$PLINEGEN
 70
     0
  9
$PSLTSCALE
 70
     1
  9
$TREEDEPTH
 70
  3020
  9
$CMLSTYLE
  2
Standard
  9
$CMLJUST
 70
     0
  9
$CMLSCALE
 40
20.0
  9
$PROXYGRAPHICS
 70
     1
  9
$MEASUREMENT
 70
     1
  9
$CELWEIGHT
370
    -1
  9
$ENDCAPS
280
     0
  9
$JOINSTYLE
280
     0
  9
$LWDISPLAY
290
     1
  9
$INSUNITS
 70
     4
  9
$HYPERLINKBASE
  1

  9
$STYLESHEET
  1

  9
$XEDIT
290
     1
  9
$CEPSNTYPE
380
     0
  9
$PSTYLEMODE
290
     1
  9
$FINGERPRINTGUID
  2
{26A1BF64-B1C8-4E9C-AD73-8D89C30119F3}
  9
$VERSIONGUID
  2
{FAEB1C32-E019-11D5-929B-00C0DF256EC4}
  9
$EXTNAMES
290
     1
  9
$PSVPSCALE
 40
0.0
  9
$OLESTARTUP
290
     0
  0
ENDSEC
  0
SECTION
  2
CLASSES
  0
CLASS
  1
ACDBDICTIONARYWDFLT
  2
AcDbDictionaryWithDefault
  3
ObjectDBX Classes
 90
        0
280
     0
281
     0
  0
CLASS
  1
VISUALSTYLE
  2
AcDbVisualStyle
  3
ObjectDBX Classes
 90
     4095
280
     0
281
     0
  0
CLASS
  1
MATERIAL
  2
AcDbMaterial
  3
ObjectDBX Classes
 90
     1153
280
     0
281
     0
  0
CLASS
  1
SCALE
  2
AcDbScale
  3
ObjectDBX Classes
 90
     1153
280
     0
281
     0
  0
CLASS
  1
SUN
  2
AcDbSun
  3
SCENEOE
 90
     1153
280
     0
281
     0
  0
CLASS
  1
ACDBPLACEHOLDER
  2
AcDbPlaceHolder
  3
ObjectDBX Classes
 90
        0
280
     0
281
     0
  0
CLASS
  1
LAYOUT
  2
AcDbLayout
  3
ObjectDBX Classes
 90
        0
280
     0
281
     0
  0
ENDSEC
  0
SECTION
  2
TABLES
  0
TABLE
  2
VPORT
  5
8
330
0
100
AcDbSymbolTable
 70
     1
  0
VPORT
  5
29
330
8
100
AcDbSymbolTableRecord
100
AcDbViewportTableRecord
  2
*Active
 70
     0
 10
0.0
 20
0.0
 11
1.0
 21
1.0
 12
222.75
 22
157.5
 13
0.0
 23
0.0
 14
10.0
 24
10.0
 15
10.0
 25
10.0
 16
0.0
 26
0.0
 36
1.0
 17
0.0
 27
0.0
 37
0.0
 40
315.0
 41
1.4142857143
 42
50.0
 43
0.0
 44
0.0
 50
0.0
 51
0.0
 71
     0
 72
  2000
 73
     1
 74
     3
 75
     0
 76
     0
 77
     0
 78
     0
281
     0
 65
     1
110
0.0
120
0.0
130
0.0
111
1.0
121
0.0
131
0.0
112
0.0
122
1.0
132
0.0
 79
     0
146
0.0
  0
ENDTAB
  0
TABLE
  2
LTYPE
  5
5
330
0
100
AcDbSymbolTable
 70
     6
  0
LTYPE
  5
14
330
5
100
AcDbSymbolTableRecord
100
AcDbLinetypeTableRecord
  2
ByBlock
 70
     0
  3

 72
    65
 73
     0
 40
0.0
  0
LTYPE
  5
15
330
5
100
AcDbSymbolTableRecord
100
AcDbLinetypeTableRecord
  2
ByLayer
 70
     0
  3

 72
    65
 73
     0
 40
0.0
  0
LTYPE
  5
16
330
5
100
AcDbSymbolTableRecord
100
AcDbLinetypeTableRecord
  2
Continuous
 70
     0
  3
Solid line
 72
    65
 73
     0
 40
0.0
  0
LTYPE
  5
6A
330
5
100
AcDbSymbolTableRecord
100
AcDbLinetypeTableRecord
  2
HIDDEN
 70
     0
  3
Hidden __ __ __ __ __ __ __ __ __ __ __ __ __ __
 72
    65
 73
     2
 40
1.905
 49
1.27
 74
     0
 49
-0.635
 74
     0
  0
LTYPE
  5
6B
330
5
100
AcDbSymbolTableRecord
100
AcDbLinetypeTableRecord
  2
PHANTOM
 70
     0
  3
Phantom ______  __  __  ______  __  __  ______
 72
    65
 73
     6
 40
12.7
 49
6.35
 74
     0
 49
-1.27
 74
     0
 49
1.27
 74
     0
 49
-1.27
 74
     0
 49
1.27
 74
     0
 49
-1.27
 74
     0
  0
LTYPE
  5
6C
330
5
100
AcDbSymbolTableRecord
100
AcDbLinetypeTableRecord
  2
CENTER
 70
     0
  3
Center ____ _ ____ _ ____ _ ____ _ ____ _ ____
 72
    65
 73
     4
 40
10.16
 49
6.35
 74
     0
 49
-1.27
 74
     0
 49
1.27
 74
     0
 49
-1.27
 74
     0
  0
LTYPE
  5
6D
330
5
100
AcDbSymbolTableRecord
100
AcDbLinetypeTableRecord
  2
CENTERX2
 70
     0
  3
Center (2x) ________  __  ________  __  _____
 72
    65
 73
     4
 40
20.32
 49
12.7
 74
     0
 49
-2.54
 74
     0
 49
2.54
 74
     0
 49
-2.54
 74
     0
  0
LTYPE
  5
6E
330
5
100
AcDbSymbolTableRecord
100
AcDbLinetypeTableRecord
  2
DOT2
 70
     0
  3
Dot (.5x) ........................................
 72
    65
 73
     2
 40
0.635
 49
0.0
 74
     0
 49
-0.635
 74
     0
  0
ENDTAB
  0
TABLE
  2
LAYER
  5
2
330
0
100
AcDbSymbolTable
 70
     8
  0
LAYER
  5
10
330
2
100
AcDbSymbolTableRecord
100
AcDbLayerTableRecord
  2
0
 70
     0
 62
     7
  6
Continuous
370
    -3
390
F
  0
LAYER
  5
6F
330
2
100
AcDbSymbolTableRecord
100
AcDbLayerTableRecord
  2
FORMAT
 70
     0
 62
     7
  6
Continuous
370
    -3
390
F
  0
LAYER
  5
70
330
2
100
AcDbSymbolTableRecord
100
AcDbLayerTableRecord
  2
SLD-0
 70
     0
 62
     2
  6
Continuous
370
    -3
390
F
  0
LAYER
  5
71
330
2
100
AcDbSymbolTableRecord
100
AcDbLayerTableRecord
  2
DIM
 70
     0
 62
   179
  6
Continuous
370
    -3
390
F
  0
LAYER
  5
72
330
2
100
AcDbSymbolTableRecord
100
AcDbLayerTableRecord
  2
SLD-DEFPOINTS
 70
     0
 62
   179
  6
Continuous
370
    -3
390
F
  0
LAYER
  5
73
330
2
100
AcDbSymbolTableRecord
100
AcDbLayerTableRecord
  2
HAT
 70
     0
 62
   135
  6
Continuous
370
    -3
390
F
  0
LAYER
  5
74
330
2
100
AcDbSymbolTableRecord
100
AcDbLayerTableRecord
  2
JOB
 70
     0
 62
   201
  6
Continuous
370
    -3
390
F
  0
LAYER
  5
75
330
2
100
AcDbSymbolTableRecord
100
AcDbLayerTableRecord
  2
INSPECTION_REPORT
 70
     0
 62
   255
  6
Continuous
370
    -3
390
F
  0
ENDTAB
  0
TABLE
  2
STYLE
  5
3
330
0
100
AcDbSymbolTable
 70
     4
  0
STYLE
  5
11
330
3
100
AcDbSymbolTableRecord
100
AcDbTextStyleTableRecord
  2
Standard
 70
     0
 40
0.0
 41
1.0
 50
0.0
 71
     0
 42
5.8208333333
  3
txt
  4

  0
STYLE
  5
96
330
3
100
AcDbSymbolTableRecord
100
AcDbTextStyleTableRecord
  2
SLDTEXTSTYLE0
 70
     0
 40
0.0
 41
0.7
 50
0.0
 71
     0
 42
5.8208333333
  3
TXT
  4

  0
STYLE
  5
98
330
3
100
AcDbSymbolTableRecord
100
AcDbTextStyleTableRecord
  2
SLDTEXTSTYLE1
 70
     0
 40
0.0
 41
0.75
 50
0.0
 71
     0
 42
5.8208333333
  3
TXT
  4

  0
STYLE
  5
AB
330
3
100
AcDbSymbolTableRecord
100
AcDbTextStyleTableRecord
  2
SLDTEXTSTYLE2
 70
     0
 40
0.0
 41
0.6875
 50
0.0
 71
     0
 42
5.8208333333
  3
TXT
  4

  0
ENDTAB
  0
TABLE
  2
VIEW
  5
6
330
0
100
AcDbSymbolTable
 70
     0
  0
ENDTAB
  0
TABLE
  2
UCS
  5
7
330
0
100
AcDbSymbolTable
 70
     0
  0
ENDTAB
  0
TABLE
  2
APPID
  5
9
330
0
100
AcDbSymbolTable
 70
     1
  0
APPID
  5
12
330
9
100
AcDbSymbolTableRecord
100
AcDbRegAppTableRecord
  2
ACAD
 70
     0
  0
ENDTAB
  0
TABLE
  2
DIMSTYLE
  5
A
330
0
100
AcDbSymbolTable
 70
     4
100
AcDbDimStyleTable
  0
DIMSTYLE
105
27
330
A
100
AcDbSymbolTableRecord
100
AcDbDimStyleTableRecord
  2
ISO-25
 70
     0
 41
2.5
 42
0.625
 43
3.75
 44
1.25
 73
     0
 74
     0
 77
     1
 78
     8
140
2.5
141
2.5
143
0.0393700787
147
0.625
171
     3
172
     1
178
     0
271
     2
272
     2
274
     3
278
    44
283
     0
284
     8
340
11
  0
DIMSTYLE
105
174
102
{ACAD_REACTORS
330
173
330
18D
102
}
330
A
100
AcDbSymbolTableRecord
100
AcDbDimStyleTableRecord
  2
SLDDIMSTYLE0
 70
     0
 41
4.953
 44
0.0
 45
0.000000001
 73
     0
 74
     0
 77
     1
 78
    12
 79
     3
140
4.365625
144
1.0
147
1.09140625
172
     1
173
     1
178
     0
271
     2
272
     2
276
     2
284
    12
289
     0
340
96
  0
DIMSTYLE
105
182
102
{ACAD_REACTORS
330
181
330
199
330
1A3
102
}
330
A
100
AcDbSymbolTableRecord
100
AcDbDimStyleTableRecord
  2
SLDDIMSTYLE1
 70
     0
 41
4.953
 44
0.0
 45
0.000000001
 73
     0
 74
     0
 77
     1
 78
    12
 79
     3
140
4.365625
144
1.0
147
1.09140625
173
     1
178
     0
271
     2
272
     2
276
     2
284
    12
340
96
  0
DIMSTYLE
105
1AE
102
{ACAD_REACTORS
330
1AD
102
}
330
A
100
AcDbSymbolTableRecord
100
AcDbDimStyleTableRecord
  2
SLDDIMSTYLE2
 70
     0
 41
4.953
 44
0.0
 45
0.000000001
 73
     0
 74
     0
 77
     1
 78
     4
 79
     1
140
4.365625
144
1.0
147
1.09140625
173
     1
178
     0
271
     2
272
     2
276
     2
284
    12
340
96
  0
ENDTAB
  0
TABLE
  2
BLOCK_RECORD
  5
1
330
0
100
AcDbSymbolTable
 70
     8
  0
BLOCK_RECORD
  5
1F
330
1
100
AcDbSymbolTableRecord
100
AcDbBlockTableRecord
  2
*Model_Space
340
22
  0
BLOCK_RECORD
  5
1B
330
1
100
AcDbSymbolTableRecord
100
AcDbBlockTableRecord
  2
*Paper_Space
340
1E
  0
BLOCK_RECORD
  5
23
330
1
100
AcDbSymbolTableRecord
100
AcDbBlockTableRecord
  2
*Paper_Space0
340
26
  0
BLOCK_RECORD
  5
E8
330
1
100
AcDbSymbolTableRecord
100
AcDbBlockTableRecord
  2
SW_CENTERMARKSYMBOL_0
340
0
102
{BLKREFS
331
F3
102
}
  0
BLOCK_RECORD
  5
175
330
1
100
AcDbSymbolTableRecord
100
AcDbBlockTableRecord
  2
_D
340
0
  0
BLOCK_RECORD
  5
183
330
1
100
AcDbSymbolTableRecord
100
AcDbBlockTableRecord
  2
_D_1
340
0
  0
BLOCK_RECORD
  5
18E
330
1
100
AcDbSymbolTableRecord
100
AcDbBlockTableRecord
  2
_D_2
340
0
  0
BLOCK_RECORD
  5
19A
330
1
100
AcDbSymbolTableRecord
100
AcDbBlockTableRecord
  2
_D_3
340
0
  0
BLOCK_RECORD
  5
1A4
330
1
100
AcDbSymbolTableRecord
100
AcDbBlockTableRecord
  2
_D_4
340
0
  0
BLOCK_RECORD
  5
1AF
330
1
100
AcDbSymbolTableRecord
100
AcDbBlockTableRecord
  2
_D_5
340
0
  0
ENDTAB
  0
ENDSEC
  0
SECTION
  2
BLOCKS
  0
BLOCK
  5
20
330
1F
100
AcDbEntity
  8
0
100
AcDbBlockBegin
  2
*Model_Space
 70
     0
 10
0.0
 20
0.0
 30
0.0
  3
*Model_Space
  1
*Model_Space
  0
ENDBLK
  5
21
330
1F
100
AcDbEntity
  8
0
100
AcDbBlockEnd
  0
BLOCK
  5
1C
330
1B
100
AcDbEntity
 67
     1
  8
0
100
AcDbBlockBegin
  2
*Paper_Space
 70
     0
 10
0.0
 20
0.0
 30
0.0
  3
*Paper_Space
  1
*Paper_Space
  0
ENDBLK
  5
1D
330
1B
100
AcDbEntity
 67
     1
  8
0
100
AcDbBlockEnd
  0
BLOCK
  5
24
330
23
100
AcDbEntity
  8
0
100
AcDbBlockBegin
  2
*Paper_Space0
 70
     0
 10
0.0
 20
0.0
 30
0.0
  3
*Paper_Space0
  1
*Paper_Space0
  0
ENDBLK
  5
25
330
23
100
AcDbEntity
  8
0
100
AcDbBlockEnd
  0
BLOCK
  5
E9
330
E8
100
AcDbEntity
  8
0
100
AcDbBlockBegin
  2
SW_CENTERMARKSYMBOL_0
 70
     0
 10
0.0
 20
0.0
 30
0.0
  3
SW_CENTERMARKSYMBOL_0
  1
SW_CENTERMARKSYMBOL_0
  0
LINE
  5
EB
330
E8
100
AcDbEntity
  8
DIM
 62
     0
100
AcDbLine
 10
0.0
 20
0.0
 30
0.0
 11
0.0
 21
2.5
 31
0.0
  0
LINE
  5
EC
330
E8
100
AcDbEntity
  8
DIM
 62
     0
100
AcDbLine
 10
0.0
 20
0.0
 30
0.0
 11
-2.5
 21
0.0
 31
0.0
  0
LINE
  5
ED
330
E8
100
AcDbEntity
  8
DIM
 62
     0
100
AcDbLine
 10
0.0
 20
0.0
 30
0.0
 11
0.0
 21
-2.5
 31
0.0
  0
LINE
  5
EE
330
E8
100
AcDbEntity
  8
DIM
 62
     0
100
AcDbLine
 10
0.0
 20
0.0
 30
0.0
 11
2.5
 21
0.0
 31
0.0
  0
LINE
  5
EF
330
E8
100
AcDbEntity
  8
DIM
 62
     0
100
AcDbLine
 10
0.0
 20
5.0
 30
0.0
 11
0.0
 21
51.1328427125
 31
0.0
  0
LINE
  5
F0
330
E8
100
AcDbEntity
  8
DIM
 62
     0
100
AcDbLine
 10
-5.0
 20
0.0
 30
0.0
 11
-51.1328427125
 21
0.0
 31
0.0
  0
LINE
  5
F1
330
E8
100
AcDbEntity
  8
DIM
 62
     0
100
AcDbLine
 10
0.0
 20
-5.0
 30
0.0
 11
0.0
 21
-51.1328427125
 31
0.0
  0
LINE
  5
F2
330
E8
100
AcDbEntity
  8
DIM
 62
     0
100
AcDbLine
 10
5.0
 20
0.0
 30
0.0
 11
51.1328427125
 21
0.0
 31
0.0
  0
ENDBLK
  5
EA
330
E8
100
AcDbEntity
  8
0
100
AcDbBlockEnd
  0
BLOCK
  5
176
330
175
100
AcDbEntity
  8
0
100
AcDbBlockBegin
  2
_D
 70
     0
 10
0.0
 20
0.0
 30
0.0
  3
_D
  1
_D
  0
SOLID
  5
178
330
175
100
AcDbEntity
  8
DIM
100
AcDbTrace
 10
399.5721125226
 20
145.0385705428
 30
0.0
 11
398.8101125226
 21
140.0855705428
 31
0.0
 12
400.3341125226
 22
140.0855705428
 32
0.0
 13
400.3341125226
 23
140.0855705428
 33
0.0
  0
SOLID
  5
179
330
175
100
AcDbEntity
  8
DIM
100
AcDbTrace
 10
399.5721125226
 20
161.0385705428
 30
0.0
 11
400.3341125226
 21
165.9915705428
 31
0.0
 12
398.8101125226
 22
165.9915705428
 32
0.0
 13
398.8101125226
 23
165.9915705428
 33
0.0
  0
LINE
  5
17A
330
175
100
AcDbEntity
  8
DIM
100
AcDbLine
 10
382.4874128204
 20
145.0385705428
 30
0.0
 11
401.0721125226
 21
145.0385705428
 31
0.0
  0
LINE
  5
17B
330
175
100
AcDbEntity
  8
DIM
100
AcDbLine
 10
382.4874128204
 20
161.0385705428
 30
0.0
 11
401.0721125226
 21
161.0385705428
 31
0.0
  0
LINE
  5
17C
330
175
100
AcDbEntity
  8
DIM
100
AcDbLine
 10
399.5721125226
 20
145.0385705428
 30
0.0
 11
399.5721125226
 21
135.5135705428
 31
0.0
  0
LINE
  5
17D
330
175
100
AcDbEntity
  8
DIM
100
AcDbLine
 10
399.5721125226
 20
145.0385705428
 30
0.0
 11
399.5721125226
 21
161.0385705428
 31
0.0
  0
LINE
  5
17E
330
175
100
AcDbEntity
  8
DIM
100
AcDbLine
 10
399.5721125226
 20
161.0385705428
 30
0.0
 11
399.5721125226
 21
170.5635705428
 31
0.0
  0
MTEXT
  5
17F
330
175
100
AcDbEntity
  8
DIM
100
AcDbMText
 10
393.9445258219
 20
146.7122543854
 30
0.0
 40
4.365625
 41
0.0
 71
     1
 72
     1
  1
%%c
  7
SLDTEXTSTYLE0
 11
6.123233995736766E-17
 21
1.0
 31
0.0
 73
     1
 44
1.0
  0
MTEXT
  5
180
330
175
100
AcDbEntity
  8
DIM
100
AcDbMText
 10
393.9445258219
 20
153.4632082348
 30
0.0
 40
4.365625
 41
0.0
 71
     1
 72
     1
  1
16
  7
SLDTEXTSTYLE0
 11
6.123233995736766E-17
 21
1.0
 31
0.0
 73
     1
 44
1.0
  0
ENDBLK
  5
177
330
175
100
AcDbEntity
  8
0
100
AcDbBlockEnd
  0
BLOCK
  5
184
330
183
100
AcDbEntity
  8
0
100
AcDbBlockBegin
  2
_D_1
 70
     0
 10
0.0
 20
0.0
 30
0.0
  3
_D_1
  1
_D_1
  0
SOLID
  5
186
330
183
100
AcDbEntity
  8
DIM
100
AcDbTrace
 10
409.5669299425
 20
172.0385705428
 30
0.0
 11
408.8049299425
 21
167.0855705428
 31
0.0
 12
410.3289299425
 22
167.0855705428
 32
0.0
 13
410.3289299425
 23
167.0855705428
 33
0.0
  0
SOLID
  5
187
330
183
100
AcDbEntity
  8
DIM
100
AcDbTrace
 10
409.5669299425
 20
134.0385705428
 30
0.0
 11
410.3289299425
 21
138.9915705428
 31
0.0
 12
408.8049299425
 22
138.9915705428
 32
0.0
 13
408.8049299425
 23
138.9915705428
 33
0.0
  0
LINE
  5
188
330
183
100
AcDbEntity
  8
DIM
100
AcDbLine
 10
364.9781605492
 20
172.0385705428
 30
0.0
 11
411.0669299425
 21
172.0385705428
 31
0.0
  0
LINE
  5
189
330
183
100
AcDbEntity
  8
DIM
100
AcDbLine
 10
364.9781605492
 20
134.0385705428
 30
0.0
 11
411.0669299425
 21
134.0385705428
 31
0.0
  0
LINE
  5
18A
330
183
100
AcDbEntity
  8
DIM
100
AcDbLine
 10
409.5669299425
 20
172.0385705428
 30
0.0
 11
409.5669299425
 21
134.0385705428
 31
0.0
  0
MTEXT
  5
18B
330
183
100
AcDbEntity
  8
DIM
100
AcDbMText
 10
403.9393432418
 20
146.7122543854
 30
0.0
 40
4.365625
 41
0.0
 71
     1
 72
     1
  1
%%c
  7
SLDTEXTSTYLE0
 11
-7.044195017643634E-15
 21
1.0
 31
0.0
 73
     1
 44
1.0
  0
MTEXT
  5
18C
330
183
100
AcDbEntity
  8
DIM
100
AcDbMText
 10
403.9393432418
 20
153.4632082348
 30
0.0
 40
4.365625
 41
0.0
 71
     1
 72
     1
  1
38
  7
SLDTEXTSTYLE0
 11
-7.044195017643634E-15
 21
1.0
 31
0.0
 73
     1
 44
1.0
  0
ENDBLK
  5
185
330
183
100
AcDbEntity
  8
0
100
AcDbBlockEnd
  0
BLOCK
  5
18F
330
18E
100
AcDbEntity
  8
0
100
AcDbBlockBegin
  2
_D_2
 70
     0
 10
0.0
 20
0.0
 30
0.0
  3
_D_2
  1
_D_2
  0
SOLID
  5
191
330
18E
100
AcDbEntity
  8
DIM
100
AcDbTrace
 10
381.4781605492
 20
90.043448869
 30
0.0
 11
386.4311605492
 21
89.281448869
 31
0.0
 12
386.4311605492
 22
90.805448869
 32
0.0
 13
386.4311605492
 23
90.805448869
 33
0.0
  0
SOLID
  5
192
330
18E
100
AcDbEntity
  8
DIM
100
AcDbTrace
 10
364.4781605492
 20
90.043448869
 30
0.0
 11
359.5251605492
 21
90.805448869
 31
0.0
 12
359.5251605492
 22
89.281448869
 32
0.0
 13
359.5251605492
 23
89.281448869
 33
0.0
  0
LINE
  5
193
330
18E
100
AcDbEntity
  8
DIM
100
AcDbLine
 10
381.4781605492
 20
144.3885705428
 30
0.0
 11
381.4781605492
 21
88.543448869
 31
0.0
  0
LINE
  5
194
330
18E
100
AcDbEntity
  8
DIM
100
AcDbLine
 10
364.4781605492
 20
134.0385705428
 30
0.0
 11
364.4781605492
 21
88.543448869
 31
0.0
  0
LINE
  5
195
330
18E
100
AcDbEntity
  8
DIM
100
AcDbLine
 10
381.4781605492
 20
90.043448869
 30
0.0
 11
391.0031605492
 21
90.043448869
 31
0.0
  0
LINE
  5
196
330
18E
100
AcDbEntity
  8
DIM
100
AcDbLine
 10
381.4781605492
 20
90.043448869
 30
0.0
 11
364.4781605492
 21
90.043448869
 31
0.0
  0
LINE
  5
197
330
18E
100
AcDbEntity
  8
DIM
100
AcDbLine
 10
364.4781605492
 20
90.043448869
 30
0.0
 11
354.9531605492
 21
90.043448869
 31
0.0
  0
MTEXT
  5
198
330
18E
100
AcDbEntity
  8
DIM
100
AcDbMText
 10
370.0273213165
 20
95.6710355696
 30
0.0
 40
4.365625
 41
0.0
 71
     1
 72
     1
  1
17
  7
SLDTEXTSTYLE0
 73
     1
 44
1.0
  0
ENDBLK
  5
190
330
18E
100
AcDbEntity
  8
0
100
AcDbBlockEnd
  0
BLOCK
  5
19B
330
19A
100
AcDbEntity
  8
0
100
AcDbBlockBegin
  2
_D_3
 70
     0
 10
0.0
 20
0.0
 30
0.0
  3
_D_3
  1
_D_3
  0
SOLID
  5
19D
330
19A
100
AcDbEntity
  8
DIM
100
AcDbTrace
 10
364.4781605492
 20
90.043448869
 30
0.0
 11
359.5251605492
 21
90.805448869
 31
0.0
 12
359.5251605492
 22
89.281448869
 32
0.0
 13
359.5251605492
 23
89.281448869
 33
0.0
  0
SOLID
  5
19E
330
19A
100
AcDbEntity
  8
DIM
100
AcDbTrace
 10
264.4781605492
 20
90.043448869
 30
0.0
 11
269.4311605492
 21
89.281448869
 31
0.0
 12
269.4311605492
 22
90.805448869
 32
0.0
 13
269.4311605492
 23
90.805448869
 33
0.0
  0
LINE
  5
19F
330
19A
100
AcDbEntity
  8
DIM
100
AcDbLine
 10
364.4781605492
 20
133.5385705428
 30
0.0
 11
364.4781605492
 21
88.543448869
 31
0.0
  0
LINE
  5
1A0
330
19A
100
AcDbEntity
  8
DIM
100
AcDbLine
 10
264.4781605492
 20
116.6135705428
 30
0.0
 11
264.4781605492
 21
88.543448869
 31
0.0
  0
LINE
  5
1A1
330
19A
100
AcDbEntity
  8
DIM
100
AcDbLine
 10
364.4781605492
 20
90.043448869
 30
0.0
 11
264.4781605492
 21
90.043448869
 31
0.0
  0
MTEXT
  5
1A2
330
19A
100
AcDbEntity
  8
DIM
100
AcDbMText
 10
310.0519017002
 20
95.6710355696
 30
0.0
 40
4.365625
 41
0.0
 71
     1
 72
     1
  1
100
  7
SLDTEXTSTYLE0
 73
     1
 44
1.0
  0
ENDBLK
  5
19C
330
19A
100
AcDbEntity
  8
0
100
AcDbBlockEnd
  0
BLOCK
  5
1A5
330
1A4
100
AcDbEntity
  8
0
100
AcDbBlockBegin
  2
_D_4
 70
     0
 10
0.0
 20
0.0
 30
0.0
  3
_D_4
  1
_D_4
  0
SOLID
  5
1A7
330
1A4
100
AcDbEntity
  8
DIM
100
AcDbTrace
 10
391.4781605492
 20
80.2884705428
 30
0.0
 11
386.5251605492
 21
81.0504705428
 31
0.0
 12
386.5251605492
 22
79.5264705428
 32
0.0
 13
386.5251605492
 23
79.5264705428
 33
0.0
  0
SOLID
  5
1A8
330
1A4
100
AcDbEntity
  8
DIM
100
AcDbTrace
 10
162.7281605492
 20
80.2884705428
 30
0.0
 11
167.6811605492
 21
79.5264705428
 31
0.0
 12
167.6811605492
 22
81.0504705428
 32
0.0
 13
167.6811605492
 23
81.0504705428
 33
0.0
  0
LINE
  5
1A9
330
1A4
100
AcDbEntity
  8
DIM
100
AcDbLine
 10
391.4781605492
 20
142.5385705428
 30
0.0
 11
391.4781605492
 21
78.7884705428
 31
0.0
  0
LINE
  5
1AA
330
1A4
100
AcDbEntity
  8
DIM
100
AcDbLine
 10
162.7281605492
 20
151.5385705428
 30
0.0
 11
162.7281605492
 21
78.7884705428
 31
0.0
  0
LINE
  5
1AB
330
1A4
100
AcDbEntity
  8
DIM
100
AcDbLine
 10
391.4781605492
 20
80.2884705428
 30
0.0
 11
162.7281605492
 21
80.2884705428
 31
0.0
  0
MTEXT
  5
1AC
330
1A4
100
AcDbEntity
  8
DIM
100
AcDbMText
 10
268.9499513192
 20
85.9160572434
 30
0.0
 40
4.365625
 41
0.0
 71
     1
 72
     1
  1
228.75
  7
SLDTEXTSTYLE0
 73
     1
 44
1.0
  0
ENDBLK
  5
1A6
330
1A4
100
AcDbEntity
  8
0
100
AcDbBlockEnd
  0
BLOCK
  5
1B0
330
1AF
100
AcDbEntity
  8
0
100
AcDbBlockBegin
  2
_D_5
 70
     0
 10
0.0
 20
0.0
 30
0.0
  3
_D_5
  1
_D_5
  0
SOLID
  5
1B2
330
1AF
100
AcDbEntity
  8
DIM
100
AcDbTrace
 10
155.0216347685
 20
104.2885705428
 30
0.0
 11
155.7836347685
 21
109.2415705428
 31
0.0
 12
154.2596347685
 22
109.2415705428
 32
0.0
 13
154.2596347685
 23
109.2415705428
 33
0.0
  0
SOLID
  5
1B3
330
1AF
100
AcDbEntity
  8
DIM
100
AcDbTrace
 10
155.0216347685
 20
201.7885705428
 30
0.0
 11
154.2596347685
 21
196.8355705428
 31
0.0
 12
155.7836347685
 22
196.8355705428
 32
0.0
 13
155.7836347685
 23
196.8355705428
 33
0.0
  0
LINE
  5
1B4
330
1AF
100
AcDbEntity
  8
DIM
100
AcDbLine
 10
267.3438459741
 20
104.2885705428
 30
0.0
 11
153.5216347685
 21
104.2885705428
 31
0.0
  0
LINE
  5
1B5
330
1AF
100
AcDbEntity
  8
DIM
100
AcDbLine
 10
267.3438459741
 20
201.7885705428
 30
0.0
 11
153.5216347685
 21
201.7885705428
 31
0.0
  0
LINE
  5
1B6
330
1AF
100
AcDbEntity
  8
DIM
100
AcDbLine
 10
155.0216347685
 20
104.2885705428
 30
0.0
 11
155.0216347685
 21
201.7885705428
 31
0.0
  0
MTEXT
  5
1B7
330
1AF
100
AcDbEntity
  8
DIM
100
AcDbMText
 10
149.3940480678
 20
142.9853040045
 30
0.0
 40
4.365625
 41
0.0
 71
     1
 72
     1
  1
%%c
  7
SLDTEXTSTYLE0
 11
6.123233995736766E-17
 21
1.0
 31
0.0
 73
     1
 44
1.0
  0
MTEXT
  5
1B8
330
1AF
100
AcDbEntity
  8
DIM
100
AcDbMText
 10
149.3940480678
 20
149.7362578539
 30
0.0
 40
4.365625
 41
0.0
 71
     1
 72
     1
  1
97.50
  7
SLDTEXTSTYLE0
 11
6.123233995736766E-17
 21
1.0
 31
0.0
 73
     1
 44
1.0
  0
ENDBLK
  5
1B1
330
1AF
100
AcDbEntity
  8
0
100
AcDbBlockEnd
  0
ENDSEC
  0
SECTION
  2
ENTITIES
  0
LINE
  5
76
330
1F
100
AcDbEntity
  8
DIM
100
AcDbLine
 10
157.0566370335
 20
14.6864871853
 30
0.0
 11
157.0566370335
 21
7.1864871853
 31
0.0
  0
LINE
  5
77
330
1F
100
AcDbEntity
  8
DIM
100
AcDbLine
 10
381.7044025429
 20
14.6864871853
 30
0.0
 11
381.7044025429
 21
7.1864871853
 31
0.0
  0
LINE
  5
78
330
1F
100
AcDbEntity
  8
DIM
100
AcDbLine
 10
356.1775648974
 20
14.6864871853
 30
0.0
 11
356.1775648974
 21
7.1864871853
 31
0.0
  0
LINE
  5
79
330
1F
100
AcDbEntity
  8
DIM
100
AcDbLine
 10
418.3566370335
 20
7.1864871853
 30
0.0
 11
418.3566370335
 21
14.6864871853
 31
0.0
  0
LINE
  5
7A
330
1F
100
AcDbEntity
  8
DIM
100
AcDbLine
 10
168.7566370335
 20
14.6864871853
 30
0.0
 11
168.7566370335
 21
7.1864871853
 31
0.0
  0
LINE
  5
7B
330
1F
100
AcDbEntity
  8
DIM
100
AcDbLine
 10
197.5430656842
 20
14.6864871853
 30
0.0
 11
197.5430656842
 21
7.1864871853
 31
0.0
  0
LINE
  5
7C
330
1F
100
AcDbEntity
  8
DIM
100
AcDbLine
 10
437.8566370335
 20
7.1864871853
 30
0.0
 11
437.8566370335
 21
115.5614871853
 31
0.0
  0
LINE
  5
7D
330
1F
100
AcDbEntity
  8
DIM
100
AcDbLine
 10
428.728507042
 20
90.0614871853
 30
0.0
 11
437.8566370335
 21
90.0614871853
 31
0.0
  0
LINE
  5
7E
330
1F
100
AcDbEntity
  8
DIM
100
AcDbLine
 10
223.6550262788
 20
13.5614871853
 30
0.0
 11
223.6550262788
 21
7.1864871853
 31
0.0
  0
LINE
  5
7F
330
1F
100
AcDbEntity
  8
DIM
100
AcDbLine
 10
295.1459237406
 20
14.6864871853
 30
0.0
 11
295.1459237406
 21
7.1864871853
 31
0.0
  0
LINE
  5
80
330
1F
100
AcDbEntity
  8
DIM
100
AcDbLine
 10
223.6550262788
 20
14.6864871853
 30
0.0
 11
223.6550262788
 21
13.5614871853
 31
0.0
  0
LINE
  5
81
330
1F
100
AcDbEntity
  8
DIM
100
AcDbLine
 10
430.3566370335
 20
26.3113791853
 30
0.0
 11
437.8566370335
 21
26.3113791853
 31
0.0
  0
LINE
  5
82
330
1F
100
AcDbEntity
  8
DIM
100
AcDbLine
 10
430.3566370335
 20
299.6864871853
 30
0.0
 11
14.8566370335
 21
299.6864871853
 31
0.0
  0
LINE
  5
83
330
1F
100
AcDbEntity
  8
DIM
100
AcDbLine
 10
437.8566370335
 20
307.1864871853
 30
0.0
 11
7.3566370335
 21
307.1864871853
 31
0.0
  0
LINE
  5
84
330
1F
100
AcDbEntity
  8
DIM
100
AcDbLine
 10
14.8566370335
 20
299.6864871853
 30
0.0
 11
14.8566370335
 21
14.6864871853
 31
0.0
  0
LINE
  5
85
330
1F
100
AcDbEntity
  8
DIM
100
AcDbLine
 10
7.3566370335
 20
307.1864871853
 30
0.0
 11
7.3566370335
 21
7.1864871853
 31
0.0
  0
LINE
  5
86
330
1F
100
AcDbEntity
  8
DIM
100
AcDbLine
 10
14.8566370335
 20
82.1864871853
 30
0.0
 11
7.3566370335
 21
82.1864871853
 31
0.0
  0
LINE
  5
87
330
1F
100
AcDbEntity
  8
DIM
100
AcDbLine
 10
7.3566370335
 20
157.1864871853
 30
0.0
 11
14.8566370335
 21
157.1864871853
 31
0.0
  0
LINE
  5
88
330
1F
100
AcDbEntity
  8
DIM
100
AcDbLine
 10
7.3566370335
 20
7.1864871853
 30
0.0
 11
437.8566370335
 21
7.1864871853
 31
0.0
  0
LINE
  5
89
330
1F
100
AcDbEntity
  8
DIM
100
AcDbLine
 10
14.8566370335
 20
14.6864871853
 30
0.0
 11
437.8566370335
 21
14.6864871853
 31
0.0
  0
LINE
  5
8A
330
1F
100
AcDbEntity
  8
DIM
100
AcDbLine
 10
72.6066370335
 20
7.1864871853
 30
0.0
 11
72.6066370335
 21
14.6864871853
 31
0.0
  0
LINE
  5
8B
330
1F
100
AcDbEntity
  8
DIM
100
AcDbLine
 10
147.6066370335
 20
14.6864871853
 30
0.0
 11
147.6066370335
 21
7.1864871853
 31
0.0
  0
LINE
  5
8C
330
1F
100
AcDbEntity
  8
DIM
100
AcDbLine
 10
14.8566370335
 20
232.1864871853
 30
0.0
 11
7.3566370335
 21
232.1864871853
 31
0.0
  0
LINE
  5
8D
330
1F
100
AcDbEntity
  8
DIM
100
AcDbLine
 10
72.6066370335
 20
299.6864871853
 30
0.0
 11
72.6066370335
 21
307.1864871853
 31
0.0
  0
LINE
  5
8E
330
1F
100
AcDbEntity
  8
DIM
100
AcDbLine
 10
147.6066370335
 20
307.1864871853
 30
0.0
 11
147.6066370335
 21
299.6864871853
 31
0.0
  0
LINE
  5
8F
330
1F
100
AcDbEntity
  8
DIM
100
AcDbLine
 10
222.6066370335
 20
307.1864871853
 30
0.0
 11
222.6066370335
 21
299.6864871853
 31
0.0
  0
LINE
  5
90
330
1F
100
AcDbEntity
  8
DIM
100
AcDbLine
 10
430.3566370335
 20
14.6864871853
 30
0.0
 11
430.3566370335
 21
299.6864871853
 31
0.0
  0
LINE
  5
91
330
1F
100
AcDbEntity
  8
DIM
100
AcDbLine
 10
437.8566370335
 20
115.5614871853
 30
0.0
 11
437.8566370335
 21
307.1864871853
 31
0.0
  0
LINE
  5
92
330
1F
100
AcDbEntity
  8
DIM
100
AcDbLine
 10
437.8566370335
 20
157.1864871853
 30
0.0
 11
430.3566370335
 21
157.1864871853
 31
0.0
  0
LINE
  5
93
330
1F
100
AcDbEntity
  8
DIM
100
AcDbLine
 10
297.6066370335
 20
307.1864871853
 30
0.0
 11
297.6066370335
 21
299.6864871853
 31
0.0
  0
LINE
  5
94
330
1F
100
AcDbEntity
  8
DIM
100
AcDbLine
 10
372.6066370335
 20
299.6864871853
 30
0.0
 11
372.6066370335
 21
307.1864871853
 31
0.0
  0
LINE
  5
95
330
1F
100
AcDbEntity
  8
DIM
100
AcDbLine
 10
430.3566370335
 20
232.1864871853
 30
0.0
 11
437.8566370335
 21
232.1864871853
 31
0.0
  0
MTEXT
  5
97
330
1F
100
AcDbEntity
  8
DIM
100
AcDbMText
 10
24.1945055567
 20
290.8020739489
 30
0.0
 40
6.35
 41
0.0
 71
     1
 72
     1
  1
SK 50 FMH-K16 100 AD+B/6.3G15000 SL SP.S
  7
SLDTEXTSTYLE0
 73
     1
 44
1.0
  0
MTEXT
  5
99
330
1F
100
AcDbEntity
  8
DIM
 62
     7
100
AcDbMText
 10
296.59916797
 20
11.7029272894
 30
0.0
 40
2.2479
 41
0.0
 71
     1
 72
     1
  1
WEIGHT:
  7
SLDTEXTSTYLE1
 73
     1
 44
1.0
  0
MTEXT
  5
9A
330
1F
100
AcDbEntity
  8
DIM
 62
     7
100
AcDbMText
 10
432.8956151322
 20
122.9109202624
 30
0.0
 40
2.778125
 41
0.0
 71
     1
 72
     1
  1
C
  7
SLDTEXTSTYLE1
 73
     1
 44
1.0
  0
MTEXT
  5
9B
330
1F
100
AcDbEntity
  8
DIM
 62
     7
100
AcDbMText
 10
424.5653709292
 20
22.2809729754
 30
0.0
 40
4.365625
 41
0.0
 71
     1
 72
     1
  1
A4
  7
SLDTEXTSTYLE1
 73
     1
 44
1.0
  0
MTEXT
  5
9C
330
1F
100
AcDbEntity
  8
DIM
 62
     7
100
AcDbMText
 10
408.8566430335
 20
305.1885117906
 30
0.0
 40
2.778125
 41
0.0
 71
     1
 72
     1
  1
6
  7
SLDTEXTSTYLE1
 73
     1
 44
1.0
  0
MTEXT
  5
9D
330
1F
100
AcDbEntity
  8
DIM
 62
     7
100
AcDbMText
 10
333.8566430335
 20
305.1885117906
 30
0.0
 40
2.778125
 41
0.0
 71
     1
 72
     1
  1
5
  7
SLDTEXTSTYLE1
 73
     1
 44
1.0
  0
MTEXT
  5
9E
330
1F
100
AcDbEntity
  8
DIM
 62
     7
100
AcDbMText
 10
432.8566490335
 20
271.4385117906
 30
0.0
 40
2.778125
 41
0.0
 71
     1
 72
     1
  1
A
  7
SLDTEXTSTYLE1
 73
     1
 44
1.0
  0
MTEXT
  5
9F
330
1F
100
AcDbEntity
  8
DIM
 62
     7
100
AcDbMText
 10
432.8566490335
 20
196.4385117906
 30
0.0
 40
2.778125
 41
0.0
 71
     1
 72
     1
  1
B
  7
SLDTEXTSTYLE1
 73
     1
 44
1.0
  0
MTEXT
  5
A0
330
1F
100
AcDbEntity
  8
DIM
 62
     7
100
AcDbMText
 10
258.8566430335
 20
305.1885117906
 30
0.0
 40
2.778125
 41
0.0
 71
     1
 72
     1
  1
4
  7
SLDTEXTSTYLE1
 73
     1
 44
1.0
  0
MTEXT
  5
A1
330
1F
100
AcDbEntity
  8
DIM
 62
     7
100
AcDbMText
 10
34.4816430335
 20
305.1885117906
 30
0.0
 40
2.778125
 41
0.0
 71
     1
 72
     1
  1
1
  7
SLDTEXTSTYLE1
 73
     1
 44
1.0
  0
MTEXT
  5
A2
330
1F
100
AcDbEntity
  8
DIM
 62
     7
100
AcDbMText
 10
108.8566430335
 20
305.1885117906
 30
0.0
 40
2.778125
 41
0.0
 71
     1
 72
     1
  1
2
  7
SLDTEXTSTYLE1
 73
     1
 44
1.0
  0
MTEXT
  5
A3
330
1F
100
AcDbEntity
  8
DIM
 62
     7
100
AcDbMText
 10
183.8566430335
 20
305.1885117906
 30
0.0
 40
2.778125
 41
0.0
 71
     1
 72
     1
  1
3
  7
SLDTEXTSTYLE1
 73
     1
 44
1.0
  0
MTEXT
  5
A4
330
1F
100
AcDbEntity
  8
DIM
 62
     7
100
AcDbMText
 10
9.8566370335
 20
271.4385117906
 30
0.0
 40
2.778125
 41
0.0
 71
     1
 72
     1
  1
A
  7
SLDTEXTSTYLE1
 73
     1
 44
1.0
  0
MTEXT
  5
A5
330
1F
100
AcDbEntity
  8
DIM
 62
     7
100
AcDbMText
 10
108.8566430335
 20
12.6885117906
 30
0.0
 40
2.778125
 41
0.0
 71
     1
 72
     1
  1
2
  7
SLDTEXTSTYLE1
 73
     1
 44
1.0
  0
MTEXT
  5
A6
330
1F
100
AcDbEntity
  8
DIM
 62
     7
100
AcDbMText
 10
34.4816430335
 20
12.6885117906
 30
0.0
 40
2.778125
 41
0.0
 71
     1
 72
     1
  1
1
  7
SLDTEXTSTYLE1
 73
     1
 44
1.0
  0
MTEXT
  5
A7
330
1F
100
AcDbEntity
  8
DIM
 62
     7
100
AcDbMText
 10
9.8566370335
 20
46.4385117906
 30
0.0
 40
2.778125
 41
0.0
 71
     1
 72
     1
  1
D
  7
SLDTEXTSTYLE1
 73
     1
 44
1.0
  0
MTEXT
  5
A8
330
1F
100
AcDbEntity
  8
DIM
 62
     7
100
AcDbMText
 10
9.8566370335
 20
121.4385117906
 30
0.0
 40
2.778125
 41
0.0
 71
     1
 72
     1
  1
C
  7
SLDTEXTSTYLE1
 73
     1
 44
1.0
  0
MTEXT
  5
A9
330
1F
100
AcDbEntity
  8
DIM
 62
     7
100
AcDbMText
 10
9.8566370335
 20
196.4385117906
 30
0.0
 40
2.778125
 41
0.0
 71
     1
 72
     1
  1
B
  7
SLDTEXTSTYLE1
 73
     1
 44
1.0
  0
MTEXT
  5
AA
330
1F
100
AcDbEntity
  8
DIM
 62
     7
100
AcDbMText
 10
432.8956151322
 20
122.9109202624
 30
0.0
 40
2.778125
 41
0.0
 71
     1
 72
     1
  1
C
  7
SLDTEXTSTYLE1
 73
     1
 44
1.0
  0
MTEXT
  5
AC
330
1F
100
AcDbEntity
  8
DIM
 62
     7
100
AcDbMText
 10
384.7880487188
 20
11.5366180971
 30
0.0
 40
2.25
 41
0.0
 71
     1
 72
     1
  1
SHEET 1 OF 1
  7
SLDTEXTSTYLE2
 73
     1
 44
1.0
  0
MTEXT
  5
AD
330
1F
100
AcDbEntity
  8
DIM
 62
     7
100
AcDbMText
 10
225.5576705752
 20
11.7800512255
 30
0.0
 40
2.25
 41
0.0
 71
     1
 72
     1
  1
MATERIAL:
  7
SLDTEXTSTYLE1
 73
     1
 44
1.0
  0
MTEXT
  5
AE
330
1F
100
AcDbEntity
  8
DIM
 62
     7
100
AcDbMText
 10
408.8566430335
 20
305.1885117906
 30
0.0
 40
2.778125
 41
0.0
 71
     1
 72
     1
  1
6
  7
SLDTEXTSTYLE1
 73
     1
 44
1.0
  0
MTEXT
  5
AF
330
1F
100
AcDbEntity
  8
DIM
 62
     7
100
AcDbMText
 10
333.8566430335
 20
305.1885117906
 30
0.0
 40
2.778125
 41
0.0
 71
     1
 72
     1
  1
5
  7
SLDTEXTSTYLE1
 73
     1
 44
1.0
  0
MTEXT
  5
B0
330
1F
100
AcDbEntity
  8
DIM
 62
     7
100
AcDbMText
 10
432.8566490335
 20
271.4385117906
 30
0.0
 40
2.778125
 41
0.0
 71
     1
 72
     1
  1
A
  7
SLDTEXTSTYLE1
 73
     1
 44
1.0
  0
MTEXT
  5
B1
330
1F
100
AcDbEntity
  8
DIM
 62
     7
100
AcDbMText
 10
432.8566490335
 20
196.4385117906
 30
0.0
 40
2.778125
 41
0.0
 71
     1
 72
     1
  1
B
  7
SLDTEXTSTYLE1
 73
     1
 44
1.0
  0
MTEXT
  5
B2
330
1F
100
AcDbEntity
  8
DIM
 62
     7
100
AcDbMText
 10
258.8566430335
 20
305.1885117906
 30
0.0
 40
2.778125
 41
0.0
 71
     1
 72
     1
  1
4
  7
SLDTEXTSTYLE1
 73
     1
 44
1.0
  0
MTEXT
  5
B3
330
1F
100
AcDbEntity
  8
DIM
 62
     7
100
AcDbMText
 10
34.4816430335
 20
305.1885117906
 30
0.0
 40
2.778125
 41
0.0
 71
     1
 72
     1
  1
1
  7
SLDTEXTSTYLE1
 73
     1
 44
1.0
  0
MTEXT
  5
B4
330
1F
100
AcDbEntity
  8
DIM
 62
     7
100
AcDbMText
 10
108.8566430335
 20
305.1885117906
 30
0.0
 40
2.778125
 41
0.0
 71
     1
 72
     1
  1
2
  7
SLDTEXTSTYLE1
 73
     1
 44
1.0
  0
MTEXT
  5
B5
330
1F
100
AcDbEntity
  8
DIM
 62
     7
100
AcDbMText
 10
183.8566430335
 20
305.1885117906
 30
0.0
 40
2.778125
 41
0.0
 71
     1
 72
     1
  1
3
  7
SLDTEXTSTYLE1
 73
     1
 44
1.0
  0
MTEXT
  5
B6
330
1F
100
AcDbEntity
  8
DIM
 62
     7
100
AcDbMText
 10
9.8566370335
 20
271.4385117906
 30
0.0
 40
2.778125
 41
0.0
 71
     1
 72
     1
  1
A
  7
SLDTEXTSTYLE1
 73
     1
 44
1.0
  0
MTEXT
  5
B7
330
1F
100
AcDbEntity
  8
DIM
 62
     7
100
AcDbMText
 10
108.8566430335
 20
12.6885117906
 30
0.0
 40
2.778125
 41
0.0
 71
     1
 72
     1
  1
2
  7
SLDTEXTSTYLE1
 73
     1
 44
1.0
  0
MTEXT
  5
B8
330
1F
100
AcDbEntity
  8
DIM
 62
     7
100
AcDbMText
 10
34.4816430335
 20
12.6885117906
 30
0.0
 40
2.778125
 41
0.0
 71
     1
 72
     1
  1
1
  7
SLDTEXTSTYLE1
 73
     1
 44
1.0
  0
MTEXT
  5
B9
330
1F
100
AcDbEntity
  8
DIM
 62
     7
100
AcDbMText
 10
9.8566370335
 20
46.4385117906
 30
0.0
 40
2.778125
 41
0.0
 71
     1
 72
     1
  1
D
  7
SLDTEXTSTYLE1
 73
     1
 44
1.0
  0
MTEXT
  5
BA
330
1F
100
AcDbEntity
  8
DIM
 62
     7
100
AcDbMText
 10
9.8566370335
 20
121.4385117906
 30
0.0
 40
2.778125
 41
0.0
 71
     1
 72
     1
  1
C
  7
SLDTEXTSTYLE1
 73
     1
 44
1.0
  0
MTEXT
  5
BB
330
1F
100
AcDbEntity
  8
DIM
 62
     7
100
AcDbMText
 10
9.8566370335
 20
196.4385117906
 30
0.0
 40
2.778125
 41
0.0
 71
     1
 72
     1
  1
B
  7
SLDTEXTSTYLE1
 73
     1
 44
1.0
  0
SPLINE
  5
BC
330
1F
100
AcDbEntity
  8
0
  6
Continuous
 62
     7
370
    15
100
AcDbSpline
210
0.0
220
0.0
230
1.0
 70
     8
 71
     3
 72
    14
 73
    10
 74
     0
 42
0.000000001
 43
0.00000001
 40
0.0
 40
0.0
 40
0.0
 40
0.0
 40
0.25
 40
0.25
 40
0.5
 40
0.5
 40
0.75
 40
0.75
 40
1.0
 40
1.0
 40
1.0
 40
1.0
 10
109.225667111797
 20
153.0385705427578
 30
0.0
 10
109.225667111797
 20
147.9408361659833
 30
0.0
 10
107.2004406857281
 20
143.0515070612913
 30
0.0
 10
99.9911555927181
 20
135.8422219682813
 30
0.0
 10
95.10182648802605
 20
133.8169955422124
 30
0.0
 10
84.90635773447717
 20
133.8169955422124
 30
0.0
 10
80.01702862978513
 20
135.8422219682813
 30
0.0
 10
72.80774353677516
 20
143.0515070612913
 30
0.0
 10
70.78251711070621
 20
147.9408361659833
 30
0.0
 10
70.78251711070621
 20
153.0385705427578
 30
0.0
  0
SPLINE
  5
BD
330
1F
100
AcDbEntity
  8
0
  6
Continuous
 62
     7
370
    15
100
AcDbSpline
210
0.0
220
0.0
230
1.0
 70
     8
 71
     3
 72
    14
 73
    10
 74
     0
 42
0.000000001
 43
0.00000001
 40
0.0
 40
0.0
 40
0.0
 40
0.0
 40
0.25
 40
0.25
 40
0.5
 40
0.5
 40
0.75
 40
0.75
 40
1.0
 40
1.0
 40
1.0
 40
1.0
 10
70.78251711070621
 20
153.0385705427578
 30
0.0
 10
70.78251711070621
 20
158.1363049195322
 30
0.0
 10
72.80774353677516
 20
163.0256340242242
 30
0.0
 10
80.01702862978513
 20
170.2349191172342
 30
0.0
 10
84.90635773447717
 20
172.2601455433032
 30
0.0
 10
95.10182648802605
 20
172.2601455433032
 30
0.0
 10
99.9911555927181
 20
170.2349191172342
 30
0.0
 10
107.2004406857281
 20
163.0256340242242
 30
0.0
 10
109.225667111797
 20
158.1363049195322
 30
0.0
 10
109.225667111797
 20
153.0385705427578
 30
0.0
  0
CIRCLE
  5
BE
330
1F
100
AcDbEntity
  8
0
  6
Continuous
 62
     7
370
    15
100
AcDbCircle
 10
90.0040921113
 20
153.0385705428
 30
0.0
 40
20.21110778703758
  0
CIRCLE
  5
BF
330
1F
100
AcDbEntity
  8
0
  6
Continuous
 62
     7
370
    15
100
AcDbCircle
 10
90.0040921113
 20
153.0385705428
 30
0.0
 40
34.925
  0
SPLINE
  5
C0
330
1F
100
AcDbEntity
  8
0
  6
Continuous
 62
     7
370
    15
100
AcDbSpline
210
0.0
220
0.0
230
1.0
 70
     8
 71
     3
 72
    52
 73
    48
 74
     0
 42
0.000000001
 43
0.00000001
 40
0.0
 40
0.0
 40
0.0
 40
0.0
 40
0.0053074994726554
 40
0.0106084744807156
 40
0.0159043870752884
 40
0.0211967035030982
 40
0.0264868930010475
 40
0.031776426578386
 40
0.0370667757915106
 40
0.0423594115164833
 40
0.0476558027243854
 40
0.0529574152645906
 40
0.0582657106609693
 40
0.0891348494758177
 40
0.1200087595578935
 40
0.1521645941108524
 40
0.1843252192282218
 40
0.2171652710885947
 40
0.2500102154523581
 40
0.2828502674523063
 40
0.3156952119562962
 40
0.3478510468948057
 40
0.380011672397905
 40
0.4108808109142898
 40
0.4417547207534483
 40
0.470875333637603
 40
0.5000007798720159
 40
0.5291213927975412
 40
0.5582468390472084
 40
0.5891159778617261
 40
0.6199898879441322
 40
0.652145722497098
 40
0.6843063476144644
 40
0.7171463994755694
 40
0.7499913438386044
 40
0.7828313958395676
 40
0.8156763403425417
 40
0.8478321752819549
 40
0.8799928007841501
 40
0.9108619393016738
 40
0.941735849139696
 40
0.9514609652020397
 40
0.9611682412334405
 40
0.9708667191333772
 40
0.9805654654081966
 40
0.9902735458123287
 40
1.0
 40
1.0
 40
1.0
 40
1.0
 10
55.0040921112516
 20
153.0385705427578
 30
0.0
 10
55.00502014216205
 20
153.2330327008107
 30
0.0
 10
55.00687506316238
 20
153.6217179662164
 30
0.0
 10
55.021904097514
 20
154.2042809362379
 30
0.0
 10
55.04590272654837
 20
154.7859668236073
 30
0.0
 10
55.07974703063149
 20
155.3667755184244
 30
0.0
 10
55.12320257236509
 20
155.9467068668436
 30
0.0
 10
55.17633213343115
 20
156.5257607872683
 30
0.0
 10
55.23911880315333
 20
157.1039369514049
 30
0.0
 10
55.31156739566991
 20
157.6812359487733
 30
0.0
 10
55.39367543316292
 20
158.2576549489209
 30
0.0
 10
55.48544783515658
 20
158.833203910499
 30
0.0
 10
55.74958733678998
 20
160.3298165140127
 30
0.0
 10
56.31335508969538
 20
162.7255233751808
 30
0.0
 10
57.42597227003411
 20
165.9863944812332
 30
0.0
 10
58.87313848557472
 20
169.166283363527
 30
0.0
 10
60.67231411498142
 20
172.2447822952826
 30
0.0
 10
62.78873469054176
 20
175.1462422033195
 30
0.0
 10
65.21161988405689
 20
177.8307891793135
 30
0.0
 10
67.89628036267536
 20
180.25381435426
 30
0.0
 10
70.79758050223565
 20
182.370153590337
 30
0.0
 10
73.87623360026264
 20
184.169445782456
 30
0.0
 10
77.05589703427096
 20
185.6165539156634
 30
0.0
 10
80.3171333322773
 20
186.7292837326683
 30
0.0
 10
83.56287763101129
 20
187.4931712180644
 30
0.0
 10
86.80174374916722
 20
187.9414492180748
 30
0.0
 10
90.00391513909707
 20
188.0871270829151
 30
0.0
 10
93.20626260974335
 20
187.9414657054666
 30
0.0
 10
96.44496086945726
 20
187.4932355130055
 30
0.0
 10
99.69088147903032
 20
186.7293334538827
 30
0.0
 10
102.9519618795897
 20
185.6166831245241
 30
0.0
 10
106.1317924480448
 20
184.1695261494687
 30
0.0
 10
109.2103072882549
 20
182.3703479822396
 30
0.0
 10
112.1117628443814
 20
180.253928165392
 30
0.0
 10
114.7963110023909
 20
177.8310425242817
 30
0.0
 10
117.2193358319737
 20
175.1463830717962
 30
0.0
 10
119.3356752661387
 20
172.2450793004433
 30
0.0
 10
121.1349670187768
 20
169.1664394378612
 30
0.0
 10
122.5820766881364
 20
165.9867274924374
 30
0.0
 10
123.6948010117996
 20
162.7256652827621
 30
0.0
 10
124.2956469438425
 20
160.1722511974079
 30
0.0
 10
124.6035870233616
 20
158.3548314918063
 30
0.0
 10
124.7497261342842
 20
157.2973847535777
 30
0.0
 10
124.8635321615452
 20
156.2369475002029
 30
0.0
 10
124.9442274823518
 20
155.1734935260508
 30
0.0
 10
124.9947490177675
 20
154.1070331573164
 30
0.0
 10
125.0009757844552
 20
153.3949491535907
 30
0.0
 10
125.0040921112516
 20
153.0385705427578
 30
0.0
  0
SPLINE
  5
C1
330
1F
100
AcDbEntity
  8
0
  6
Continuous
 62
     7
370
    15
100
AcDbSpline
210
0.0
220
0.0
230
1.0
 70
     8
 71
     3
 72
    52
 73
    48
 74
     0
 42
0.000000001
 43
0.00000001
 40
0.0
 40
0.0
 40
0.0
 40
0.0
 40
0.0053074994726554
 40
0.0106084744807156
 40
0.0159043870752884
 40
0.0211967035030983
 40
0.0264868930010475
 40
0.0317764265783861
 40
0.0370667757915106
 40
0.0423594115164834
 40
0.0476558027243854
 40
0.0529574152645907
 40
0.0582657106609694
 40
0.0891348494759667
 40
0.1200087595578951
 40
0.1521645941111445
 40
0.1843252192282232
 40
0.2171652710889209
 40
0.25001021545236
 40
0.2828502674525652
 40
0.315695211956297
 40
0.3478510468951538
 40
0.3800116723979077
 40
0.41088081091547
 40
0.4417547207534571
 40
0.4708753336379863
 40
0.5000007798720127
 40
0.5291213927971703
 40
0.5582468390472111
 40
0.5891159778626601
 40
0.6199898879441411
 40
0.6521457224976949
 40
0.6843063476144631
 40
0.7171463994753853
 40
0.7499913438386053
 40
0.7828313958393156
 40
0.8156763403425399
 40
0.8478321752809374
 40
0.8799928007841432
 40
0.9108619393011222
 40
0.9417358491396983
 40
0.9514609652021586
 40
0.9611682412336295
 40
0.9708667191335897
 40
0.9805654654083855
 40
0.9902735458124469
 40
1.0
 40
1.0
 40
1.0
 40
1.0
 10
125.0040921112516
 20
153.0385705427578
 30
0.0
 10
125.0031640803412
 20
152.8441083847048
 30
0.0
 10
125.0013091593409
 20
152.4554231192992
 30
0.0
 10
124.9862801249892
 20
151.8728601492777
 30
0.0
 10
124.9622814959549
 20
151.2911742619083
 30
0.0
 10
124.9284371918717
 20
150.7103655670911
 30
0.0
 10
124.8849816501381
 20
150.130434218672
 30
0.0
 10
124.8318520890721
 20
149.5513802982473
 30
0.0
 10
124.7690654193499
 20
148.9732041341106
 30
0.0
 10
124.6966168268333
 20
148.3959051367422
 30
0.0
 10
124.6145087893403
 20
147.8194861365947
 30
0.0
 10
124.5227363873466
 20
147.2439371750166
 30
0.0
 10
124.2585968857122
 20
145.7473245714975
 30
0.0
 10
123.6948291328091
 20
143.3516177103287
 30
0.0
 10
122.5822119524627
 20
140.0907466042676
 30
0.0
 10
121.1350457369237
 20
136.910857721979
 30
0.0
 10
119.3358701075094
 20
133.8323587902141
 30
0.0
 10
117.2194495319544
 20
130.9308988821863
 30
0.0
 10
114.7965643384314
 20
128.246351906187
 30
0.0
 10
112.1119038598193
 20
125.8233267312509
 30
0.0
 10
109.2106037202489
 20
123.706987495167
 30
0.0
 10
106.1319506222311
 20
121.9076953030497
 30
0.0
 10
102.9522871881797
 20
120.4605871698336
 30
0.0
 10
99.69105089018731
 20
119.3478573528257
 30
0.0
 10
96.44530659143614
 20
118.5839698674382
 30
0.0
 10
93.20644047331987
 20
118.1356918674625
 30
0.0
 10
90.00426908340607
 20
117.9900140025986
 30
0.0
 10
86.80192161277218
 20
118.1356753800372
 30
0.0
 10
83.56322335302647
 20
118.583905572517
 30
0.0
 10
80.31730274343711
 20
119.3478076316315
 30
0.0
 10
77.05622234286116
 20
120.4604579610116
 30
0.0
 10
73.87639177444701
 20
121.9076149360724
 30
0.0
 10
70.79787693423455
 20
123.706793103282
 30
0.0
 10
67.89642137812572
 20
125.8232129201178
 30
0.0
 10
65.21187322012302
 20
128.2460985612221
 30
0.0
 10
62.78884839053966
 20
130.9307580137155
 30
0.0
 10
60.67250895638807
 20
133.8320617850323
 30
0.0
 10
58.8732172037514
 20
136.9107016476253
 30
0.0
 10
57.42610753438943
 20
140.0904135930253
 30
0.0
 10
56.31338321069271
 20
143.3514758027292
 30
0.0
 10
55.7125372786622
 20
145.9048898880917
 30
0.0
 10
55.40459719914199
 20
147.7223095937206
 30
0.0
 10
55.25845808821936
 20
148.7797563319569
 30
0.0
 10
55.14465206095821
 20
149.8401935853343
 30
0.0
 10
55.06395674015156
 20
150.9036475594838
 30
0.0
 10
55.01343520473576
 20
151.9701079282104
 30
0.0
 10
55.00720843804805
 20
152.6821919319292
 30
0.0
 10
55.0040921112516
 20
153.0385705427578
 30
0.0
  0
SPLINE
  5
C2
330
1F
100
AcDbEntity
  8
0
  6
Continuous
 62
     7
370
    15
100
AcDbSpline
210
0.0
220
0.0
230
1.0
 70
    24
 71
     3
 72
     8
 73
     4
 74
     0
 42
0.000000001
 43
0.00000001
 40
0.0
 40
0.0
 40
0.0
 40
0.0
 40
1.0
 40
1.0
 40
1.0
 40
1.0
 10
60.00409211125159
 20
190.3382320263248
 30
0.0
 10
60.00409211125159
 20
190.2347229820904
 30
0.0
 10
60.0040921112516
 20
190.1052994202583
 30
0.0
 10
60.0040921112516
 20
189.9745556193384
 30
0.0
  0
ARC
  5
C3
330
1F
100
AcDbEntity
  8
0
  6
Continuous
 62
     7
370
    15
100
AcDbCircle
 10
90.0040921113
 20
153.0385705428
 30
0.0
 40
47.58431457505077
100
AcDbArc
 50
129.0840578538
 51
140.9159421462
  0
SPLINE
  5
C4
330
1F
100
AcDbEntity
  8
0
  6
Continuous
 62
     7
370
    15
100
AcDbSpline
210
0.0
220
0.0
230
1.0
 70
    24
 71
     3
 72
     8
 73
     4
 74
     0
 42
0.000000001
 43
0.00000001
 40
0.0
 40
0.0
 40
0.0
 40
0.0
 40
1.0
 40
1.0
 40
1.0
 40
1.0
 10
53.06810703467094
 20
183.0385705427578
 30
0.0
 10
52.93740288506405
 20
183.0385705427578
 30
0.0
 10
52.80786591804788
 20
183.0385705427578
 30
0.0
 10
52.70443062768455
 20
183.0385705427578
 30
0.0
  0
ARC
  5
C5
330
1F
100
AcDbEntity
  8
0
  6
Continuous
 62
     7
370
    15
100
AcDbCircle
 10
90.0040921113
 20
153.0385705428
 30
0.0
 40
47.86715728752539
100
AcDbArc
 50
128.8096103904
 51
141.1903896096
  0
SPLINE
  5
C6
330
1F
100
AcDbEntity
  8
0
  6
Continuous
 62
     7
370
    15
100
AcDbSpline
210
0.0
220
0.0
230
1.0
 70
     8
 71
     3
 72
    10
 73
     6
 74
     0
 42
0.000000001
 43
0.00000001
 40
0.0
 40
0.0
 40
0.0
 40
0.0
 40
0.5
 40
0.5
 40
1.0
 40
1.0
 40
1.0
 40
1.0
 10
135.6183935262398
 20
166.5885705427578
 30
0.0
 10
135.6823452150829
 20
166.5885705427578
 30
0.0
 10
135.743909553534
 20
166.5747246667329
 30
0.0
 10
135.854534904383
 20
166.5325588905456
 30
0.0
 10
135.9042215960525
 20
166.5040681902825
 30
0.0
 10
135.9477911727183
 20
166.4714132552324
 30
0.0
  0
ARC
  5
C7
330
1F
100
AcDbEntity
  8
0
  6
Continuous
 62
     7
370
    15
100
AcDbCircle
 10
90.0040921113
 20
153.0385705428
 30
0.0
 40
47.86715728752539
100
AcDbArc
 50
343.7023380383
 51
16.2976619617
  0
SPLINE
  5
C8
330
1F
100
AcDbEntity
  8
0
  6
Continuous
 62
     7
370
    15
100
AcDbSpline
210
0.0
220
0.0
230
1.0
 70
     8
 71
     3
 72
    10
 73
     6
 74
     0
 42
0.000000001
 43
0.00000001
 40
0.0
 40
0.0
 40
0.0
 40
0.0
 40
0.5
 40
0.5
 40
1.0
 40
1.0
 40
1.0
 40
1.0
 10
135.9477911727183
 20
139.6057278302832
 30
0.0
 10
135.9042507812996
 20
139.5730947692659
 30
0.0
 10
135.8556961771818
 20
139.5451138829997
 30
0.0
 10
135.7442466414199
 20
139.5024570326246
 30
0.0
 10
135.6822883888308
 20
139.4885705427578
 30
0.0
 10
135.6183935262398
 20
139.4885705427578
 30
0.0
  0
ARC
  5
C9
330
1F
100
AcDbEntity
  8
0
  6
Continuous
 62
     7
370
    15
100
AcDbCircle
 10
90.0040921113
 20
153.0385705428
 30
0.0
 40
47.58431457505078
100
AcDbArc
 50
343.4556342686
 51
16.5443657314
  0
ARC
  5
CA
330
1F
100
AcDbEntity
  8
0
  6
Continuous
 62
     7
370
    15
100
AcDbCircle
 10
90.0040921113
 20
153.0385705428
 30
0.0
 40
47.58431457505078
100
AcDbArc
 50
163.4556342686
 51
196.5443657314
  0
SPLINE
  5
CB
330
1F
100
AcDbEntity
  8
0
  6
Continuous
 62
     7
370
    15
100
AcDbSpline
210
0.0
220
0.0
230
1.0
 70
     8
 71
     3
 72
    10
 73
     6
 74
     0
 42
0.000000001
 43
0.00000001
 40
0.0
 40
0.0
 40
0.0
 40
0.0
 40
0.5
 40
0.5
 40
1.0
 40
1.0
 40
1.0
 40
1.0
 10
44.38979069626345
 20
139.4885705427578
 30
0.0
 10
44.32583900742033
 20
139.4885705427578
 30
0.0
 10
44.2642746689692
 20
139.5024164187826
 30
0.0
 10
44.15364931812017
 20
139.54458219497
 30
0.0
 10
44.10396262645076
 20
139.5730728952331
 30
0.0
 10
44.06039304978493
 20
139.6057278302831
 30
0.0
  0
ARC
  5
CC
330
1F
100
AcDbEntity
  8
0
  6
Continuous
 62
     7
370
    15
100
AcDbCircle
 10
90.0040921113
 20
153.0385705428
 30
0.0
 40
47.86715728752539
100
AcDbArc
 50
163.7023380383
 51
196.2976619617
  0
SPLINE
  5
CD
330
1F
100
AcDbEntity
  8
0
  6
Continuous
 62
     7
370
    15
100
AcDbSpline
210
0.0
220
0.0
230
1.0
 70
     8
 71
     3
 72
    10
 73
     6
 74
     0
 42
0.000000001
 43
0.00000001
 40
0.0
 40
0.0
 40
0.0
 40
0.0
 40
0.5
 40
0.5
 40
1.0
 40
1.0
 40
1.0
 40
1.0
 10
44.38979069626346
 20
166.5885705427578
 30
0.0
 10
44.32583900742033
 20
166.5885705427578
 30
0.0
 10
44.26427466896918
 20
166.5747246667329
 30
0.0
 10
44.15364931812019
 20
166.5325588905456
 30
0.0
 10
44.10396262645076
 20
166.5040681902825
 30
0.0
 10
44.06039304978493
 20
166.4714132552324
 30
0.0
  0
SPLINE
  5
CE
330
1F
100
AcDbEntity
  8
0
  6
Continuous
 62
     7
370
    15
100
AcDbSpline
210
0.0
220
0.0
230
1.0
 70
     8
 71
     3
 72
    40
 73
    36
 74
     0
 42
0.000000001
 43
0.00000001
 40
0.0
 40
0.0
 40
0.0
 40
0.0
 40
0.0076138096090706
 40
0.015222703696619
 40
0.0228283796622113
 40
0.0304325370604607
 40
0.0380368764641707
 40
0.0456430983240686
 40
0.0532529018289472
 40
0.0608679837700325
 40
0.0919930035882894
 40
0.1231236538966525
 40
0.1547321881285151
 40
0.1863461940165317
 40
0.2182020912711853
 40
0.2500635030030784
 40
0.3137495787501998
 40
0.3769416086590435
 40
0.439168148565131
 40
0.5000004350472922
 40
0.5608327215294534
 40
0.6230592614355407
 40
0.6862512913443847
 40
0.7499373670915059
 40
0.7817932643700992
 40
0.813654676120411
 40
0.8452632104154371
 40
0.8768772163635395
 40
0.9080022357785864
 40
0.9391328857746177
 40
0.9513123423166135
 40
0.963481817855821
 40
0.9756482751522532
 40
0.9878186821461872
 40
1.0
 40
1.0
 40
1.0
 40
1.0
 10
135.6183935262397
 20
166.5885705427578
 30
0.0
 10
135.5498941154075
 20
166.8155833004805
 30
0.0
 10
135.4129395173767
 20
167.2694622551167
 30
0.0
 10
135.1947094282397
 20
167.946129476287
 30
0.0
 10
134.9672138068442
 20
168.6194001768539
 30
0.0
 10
134.7295288426761
 20
169.2889997076441
 30
0.0
 10
134.4819016966343
 20
169.9550018479945
 30
0.0
 10
134.2242672665828
 20
170.6173853830133
 30
0.0
 10
133.9566390862352
 20
171.2761608180262
 30
0.0
 10
133.3934464362453
 20
172.6052645532664
 30
0.0
 10
132.4684277640795
 20
174.5765653246763
 30
0.0
 10
131.0660150516288
 20
177.1434104040908
 30
0.0
 10
129.5004754435205
 20
179.6323602304981
 30
0.0
 10
127.769963988267
 20
182.0373896425936
 30
0.0
 10
125.8883095511023
 20
184.3365000003329
 30
0.0
 10
123.1864797840043
 20
187.245093874284
 30
0.0
 10
119.4871160464853
 20
190.5456727207429
 30
0.0
 10
114.6268391413464
 20
193.8977220383171
 30
0.0
 10
109.4705514404919
 20
196.5860328272938
 30
0.0
 10
104.0973876249808
 20
198.6066614945666
 30
0.0
 10
98.52165095171414
 20
199.9723078958623
 30
0.0
 10
92.74797740457907
 20
200.664414626414
 30
0.0
 10
86.84391074990577
 20
200.6415606936889
 30
0.0
 10
81.92728302449038
 20
200.0058096816391
 30
0.0
 10
78.05513723254309
 20
199.1304346553992
 30
0.0
 10
75.20420978104339
 20
198.2951288700764
 30
0.0
 10
72.41791196294268
 20
197.2869628793912
 30
0.0
 10
69.72072653300125
 20
196.1165224848793
 30
0.0
 10
67.1138838015129
 20
194.7895371721055
 30
0.0
 10
65.11491187580688
 20
193.612517144557
 30
0.0
 10
63.66444764192187
 20
192.6734434589051
 30
0.0
 10
62.72471538390867
 20
192.0328016555556
 30
0.0
 10
61.80115330741216
 20
191.3696199142608
 30
0.0
 10
60.89219682331987
 20
190.6858047263657
 30
0.0
 10
60.3002154282594
 20
190.2117094615934
 30
0.0
 10
60.00409211125162
 20
189.9745556193384
 30
0.0
  0
SPLINE
  5
CF
330
1F
100
AcDbEntity
  8
0
  6
Continuous
 62
     7
370
    15
100
AcDbSpline
210
0.0
220
0.0
230
1.0
 70
     8
 71
     3
 72
    48
 73
    44
 74
     0
 42
0.000000001
 43
0.00000001
 40
0.0
 40
0.0
 40
0.0
 40
0.0
 40
0.0054347037870314
 40
0.0108647463485207
 40
0.0162911759177293
 40
0.0217150428226928
 40
0.0271373988806366
 40
0.0325592967880729
 40
0.0379817895083434
 40
0.0434059296583851
 40
0.0488327688965038
 40
0.0542633573129332
 40
0.059698742824938
 40
0.0907177254008823
 40
0.1217409090757531
 40
0.1535986684470912
 40
0.1854607425290452
 40
0.2177550902622351
 40
0.2500538118399259
 40
0.2823481596244854
 40
0.3146468812542022
 40
0.346504640772552
 40
0.3783667150011477
 40
0.440359683087698
 40
0.5000005600694972
 40
0.5596414370512967
 40
0.621634405137847
 40
0.6534921645093787
 40
0.6853542385911302
 40
0.7176485863248414
 40
0.749947307902022
 40
0.7822416556872713
 40
0.8145403773162883
 40
0.8463981368333431
 40
0.87826021106323
 40
0.9092791938585987
 40
0.9403023777537969
 40
0.9502622131370424
 40
0.9602093142102202
 40
0.970150156833966
 40
0.98009122909965
 40
0.9900390186493149
 40
0.9999999999999999
 40
0.9999999999999999
 40
0.9999999999999999
 40
0.9999999999999999
 10
44.38979069626346
 20
139.4885705427578
 30
0.0
 10
44.45355119335188
 20
139.2770312063298
 30
0.0
 10
44.58101750155701
 20
138.854133966096
 30
0.0
 10
44.78328103257967
 20
138.2234597238681
 30
0.0
 10
44.99352560108014
 20
137.5958822441855
 30
0.0
 10
45.21255106582441
 20
136.9716391927325
 30
0.0
 10
45.4401432691536
 20
136.3506670449377
 30
0.0
 10
45.67635955663314
 20
135.7329828708877
 30
0.0
 10
45.92118443948633
 20
135.1185823040495
 30
0.0
 10
46.17462238439242
 20
134.5074661643431
 30
0.0
 10
46.43667082738763
 20
133.8996359482564
 30
0.0
 10
46.70733535492685
 20
133.2950852411624
 30
0.0
 10
47.42461459529777
 20
131.7507866459841
 30
0.0
 10
48.69612812243765
 20
129.3163441769541
 30
0.0
 10
50.72989327277895
 20
126.0813985178689
 30
0.0
 10
53.03711633469042
 20
122.991919520348
 30
0.0
 10
55.62408200050362
 20
120.0633297077354
 30
0.0
 10
58.45481142080689
 20
117.3434257833571
 30
0.0
 10
61.51547700887855
 20
114.8571638736733
 30
0.0
 10
64.77050587223495
 20
112.6310726962793
 30
0.0
 10
68.18364926694758
 20
110.6921122401902
 30
0.0
 10
71.72804329373415
 20
109.0461159838153
 30
0.0
 10
76.52827809569699
 20
107.2786300564944
 30
0.0
 10
82.62820039024011
 20
105.8332686498471
 30
0.0
 10
90.00409215309499
 20
105.2684141831604
 30
0.0
 10
97.37998366158918
 20
105.8332687195546
 30
0.0
 10
103.4797351469841
 20
107.2785891941736
 30
0.0
 10
108.2799775612481
 20
109.0460489288964
 30
0.0
 10
111.8242211809278
 20
110.6919504193075
 30
0.0
 10
115.2375263182738
 20
112.6309781022815
 30
0.0
 10
118.4924223073179
 20
114.8569512999308
 30
0.0
 10
121.5532389475513
 20
117.3433070543689
 30
0.0
 10
124.3838572949905
 20
120.0630747205632
 30
0.0
 10
126.9709587780817
 20
122.9917830923604
 30
0.0
 10
129.2780889324899
 20
126.0811090826118
 30
0.0
 10
131.3119932239335
 20
129.3162101331494
 30
0.0
 10
132.6686973378984
 20
131.9138220023618
 30
0.0
 10
133.5301313328608
 20
133.7967094324017
 30
0.0
 10
134.006678126521
 20
134.9127644068265
 30
0.0
 10
134.4544246558985
 20
136.0398585418455
 30
0.0
 10
134.8726637966434
 20
137.1782234655059
 30
0.0
 10
135.2640770009594
 20
138.3270549467924
 30
0.0
 10
135.5002358572074
 20
139.1012276852508
 30
0.0
 10
135.6183935262397
 20
139.4885705427578
 30
0.0
  0
SPLINE
  5
D0
330
1F
100
AcDbEntity
  8
0
  6
Continuous
 62
     7
370
    15
100
AcDbSpline
210
0.0
220
0.0
230
1.0
 70
     8
 71
     3
 72
    27
 73
    23
 74
     0
 42
0.000000001
 43
0.00000001
 40
0.0
 40
0.0
 40
0.0
 40
0.0
 40
0.0385569892848211
 40
0.0770658329194701
 40
0.1155353026399639
 40
0.1539741971376514
 40
0.1923913361118491
 40
0.2307955542506346
 40
0.2691956951601454
 40
0.3076006052631416
 40
0.3460191276878565
 40
0.3844600961682111
 40
0.4229323289763935
 40
0.461444622908547
 40
0.5000057473438686
 40
0.5715713334491092
 40
0.6429967682524639
 40
0.7143384572505677
 40
0.7856530046539444
 40
0.8569970792753662
 40
0.9284272796518032
 40
1.0
 40
1.0
 40
1.0
 40
1.0
 10
53.06810703467094
 20
183.0385705427578
 30
0.0
 10
52.91723769884101
 20
182.8511653585859
 30
0.0
 10
52.61568741591166
 20
182.4765890008484
 30
0.0
 10
52.1744017364059
 20
181.9064783074308
 30
0.0
 10
51.74161461512042
 20
181.3308364720594
 30
0.0
 10
51.31809059895816
 20
180.7490426365187
 30
0.0
 10
50.90362522069857
 20
180.1612630258397
 30
0.0
 10
50.49827330287943
 20
179.567453256759
 30
0.0
 10
50.10202025548994
 20
178.9676253303213
 30
0.0
 10
49.71487006589211
 20
178.3617761431221
 30
0.0
 10
49.33682174613906
 20
177.7499066855501
 30
0.0
 10
48.96787560245554
 20
177.1320166938406
 30
0.0
 10
48.60803170269827
 20
176.5081068464343
 30
0.0
 10
48.25728973465071
 20
175.8781753201359
 30
0.0
 10
47.81835897671908
 20
175.0611241711535
 30
0.0
 10
47.30371775159339
 20
174.0517685783966
 30
0.0
 10
46.72982653333992
 20
172.8436051773848
 30
0.0
 10
46.1908492500509
 20
171.621180498507
 30
0.0
 10
45.68655767903318
 20
170.3845710704837
 30
0.0
 10
45.21782137002843
 20
169.1335196288133
 30
0.0
 10
44.7813914774726
 20
167.8689940866099
 30
0.0
 10
44.52041098970163
 20
167.0156618741558
 30
0.0
 10
44.38979069626347
 20
166.5885705427578
 30
0.0
  0
ARC
  5
D1
330
1F
100
AcDbEntity
  8
0
  6
Continuous
 62
     7
370
    15
100
AcDbCircle
 10
90.0040921113
 20
153.0385705428
 30
0.0
 40
47.86715728752539
100
AcDbArc
 50
196.2976619617
 51
343.7023380383
  0
ARC
  5
D2
330
1F
100
AcDbEntity
  8
0
  6
Continuous
 62
     7
370
    15
100
AcDbCircle
 10
90.0040921113
 20
153.0385705428
 30
0.0
 40
47.86715728752541
100
AcDbArc
 50
16.2976619617
 51
128.8096103904
  0
ARC
  5
D3
330
1F
100
AcDbEntity
  8
0
  6
Continuous
 62
     7
370
    15
100
AcDbCircle
 10
90.0040921113
 20
153.0385705428
 30
0.0
 40
47.86715728752539
100
AcDbArc
 50
141.1903896096
 51
163.7023380383
  0
ARC
  5
D4
330
1F
100
AcDbEntity
  8
0
  6
Continuous
 62
     7
370
    15
100
AcDbCircle
 10
90.0040921113
 20
153.0385705428
 30
0.0
 40
48.63284271247463
100
AcDbArc
 50
141.9122882504
 51
164.0342140175
  0
ARC
  5
D5
330
1F
100
AcDbEntity
  8
0
  6
Continuous
 62
     7
370
    15
100
AcDbCircle
 10
90.0040921113
 20
153.0385705428
 30
0.0
 40
48.63284271247463
100
AcDbArc
 50
128.0877117496
 51
141.9122882504
  0
ARC
  5
D6
330
1F
100
AcDbEntity
  8
0
  6
Continuous
 62
     7
370
    15
100
AcDbCircle
 10
90.0040921113
 20
153.0385705428
 30
0.0
 40
48.63284271247463
100
AcDbArc
 50
15.8741097166
 51
128.0877117496
  0
ARC
  5
D7
330
1F
100
AcDbEntity
  8
0
  6
Continuous
 62
     7
370
    15
100
AcDbCircle
 10
90.0040921113
 20
153.0385705428
 30
0.0
 40
48.63284271247462
100
AcDbArc
 50
344.1258902834
 51
15.8741097166
  0
ARC
  5
D8
330
1F
100
AcDbEntity
  8
0
  6
Continuous
 62
     7
370
    15
100
AcDbCircle
 10
90.0040921113
 20
153.0385705428
 30
0.0
 40
48.63284271247463
100
AcDbArc
 50
195.9657859825
 51
344.1258902834
  0
ARC
  5
D9
330
1F
100
AcDbEntity
  8
0
  6
Continuous
 62
     7
370
    15
100
AcDbCircle
 10
90.0040921113
 20
153.0385705428
 30
0.0
 40
48.63284271247462
100
AcDbArc
 50
164.0342140175
 51
195.9657859825
  0
SPLINE
  5
DA
330
1F
100
AcDbEntity
  8
0
  6
Continuous
 62
     7
370
    15
100
AcDbSpline
210
0.0
220
0.0
230
1.0
 70
    24
 71
     3
 72
     8
 73
     4
 74
     0
 42
0.000000001
 43
0.00000001
 40
0.0
 40
0.0
 40
0.0
 40
0.0
 40
1.0
 40
1.0
 40
1.0
 40
1.0
 10
60.00409211125162
 20
191.4646359151063
 30
0.0
 10
60.00409211125162
 20
191.4646359151063
 30
0.0
 10
60.0040921112516
 20
191.4031203666749
 30
0.0
 10
60.0040921112516
 20
191.3158926838937
 30
0.0
  0
SPLINE
  5
DB
330
1F
100
AcDbEntity
  8
0
  6
Continuous
 62
     7
370
    15
100
AcDbSpline
210
0.0
220
0.0
230
1.0
 70
    24
 71
     3
 72
     8
 73
     4
 74
     0
 42
0.000000001
 43
0.00000001
 40
0.0
 40
0.0
 40
0.0
 40
0.0
 40
1.0
 40
1.0
 40
1.0
 40
1.0
 10
51.72676997011567
 20
183.0385705427578
 30
0.0
 10
51.63949555390158
 20
183.0385705427578
 30
0.0
 10
51.5780267389031
 20
183.0385705427577
 30
0.0
 10
51.57802673890308
 20
183.0385705427577
 30
0.0
  0
ARC
  5
DC
330
1F
100
AcDbEntity
  8
0
  6
Continuous
 62
     7
370
    15
100
AcDbCircle
 10
90.0040921113
 20
153.0385705428
 30
0.0
 40
48.75000000000001
100
AcDbArc
 50
127.9798724449
 51
142.0201275551
  0
SPLINE
  5
DD
330
1F
100
AcDbEntity
  8
0
  6
Continuous
 62
     7
370
    15
100
AcDbSpline
210
0.0
220
0.0
230
1.0
 70
    24
 71
     3
 72
    10
 73
     6
 74
     0
 42
0.000000001
 43
0.00000001
 40
0.0
 40
0.0
 40
0.0
 40
0.0
 40
0.5
 40
0.5
 40
1.0
 40
1.0
 40
1.0
 40
1.0
 10
43.24720680682719
 20
139.6614607306497
 30
0.0
 10
43.2242652865901
 20
139.6212673983864
 30
0.0
 10
43.20414419637051
 20
139.5860154335498
 30
0.0
 10
43.17487492231396
 20
139.5347359348461
 30
0.0
 10
43.16612832480018
 20
139.5194119765205
 30
0.0
 10
43.1661283248002
 20
139.5194119765205
 30
0.0
  0
ARC
  5
DE
330
1F
100
AcDbEntity
  8
0
  6
Continuous
 62
     7
370
    15
100
AcDbCircle
 10
90.0040921113
 20
153.0385705428
 30
0.0
 40
48.75000000000001
100
AcDbArc
 50
163.8999153276
 51
196.1000846724
  0
SPLINE
  5
DF
330
1F
100
AcDbEntity
  8
0
  6
Continuous
 62
     7
370
    15
100
AcDbSpline
210
0.0
220
0.0
230
1.0
 70
    24
 71
     3
 72
    10
 73
     6
 74
     0
 42
0.000000001
 43
0.00000001
 40
0.0
 40
0.0
 40
0.0
 40
0.0
 40
0.5
 40
0.5
 40
1.0
 40
1.0
 40
1.0
 40
1.0
 10
43.24720680682721
 20
166.4156803548659
 30
0.0
 10
43.2242652865901
 20
166.4558736871291
 30
0.0
 10
43.20414419637051
 20
166.4911256519657
 30
0.0
 10
43.17487492231396
 20
166.5424051506694
 30
0.0
 10
43.16612832480021
 20
166.5577291089951
 30
0.0
 10
43.16612832480021
 20
166.5577291089951
 30
0.0
  0
SPLINE
  5
E0
330
1F
100
AcDbEntity
  8
0
  6
Continuous
 62
     7
370
    15
100
AcDbSpline
210
0.0
220
0.0
230
1.0
 70
    24
 71
     3
 72
     8
 73
     4
 74
     0
 42
0.000000001
 43
0.00000001
 40
0.0
 40
0.0
 40
0.0
 40
0.0
 40
1.0
 40
1.0
 40
1.0
 40
1.0
 10
136.8771205654603
 20
166.4356487141705
 30
0.0
 10
136.8771205654603
 20
166.4356487141705
 30
0.0
 10
136.8400239723941
 20
166.3985521211042
 30
0.0
 10
136.7823216342971
 20
166.3408497830073
 30
0.0
  0
ARC
  5
E1
330
1F
100
AcDbEntity
  8
0
  6
Continuous
 62
     7
370
    15
100
AcDbCircle
 10
90.0040921113
 20
153.0385705428
 30
0.0
 40
48.75000000000001
100
AcDbArc
 50
344.0491974398
 51
15.9508025602
  0
SPLINE
  5
E2
330
1F
100
AcDbEntity
  8
0
  6
Continuous
 62
     7
370
    15
100
AcDbSpline
210
0.0
220
0.0
230
1.0
 70
    24
 71
     3
 72
     8
 73
     4
 74
     0
 42
0.000000001
 43
0.00000001
 40
0.0
 40
0.0
 40
0.0
 40
0.0
 40
1.0
 40
1.0
 40
1.0
 40
1.0
 10
136.8771205654603
 20
139.6414923713451
 30
0.0
 10
136.8771205654603
 20
139.6414923713451
 30
0.0
 10
136.8400239723941
 20
139.6785889644113
 30
0.0
 10
136.7823216342971
 20
139.7362913025083
 30
0.0
  0
ARC
  5
E3
330
1F
100
AcDbEntity
  8
0
  6
Continuous
 62
     7
370
    15
100
AcDbCircle
 10
90.0040921113
 20
153.0385705428
 30
0.0
 40
48.75000000000001
100
AcDbArc
 50
196.1000846724
 51
344.0491974398
  0
ARC
  5
E4
330
1F
100
AcDbEntity
  8
0
  6
Continuous
 62
     7
370
    15
100
AcDbCircle
 10
90.0040921113
 20
153.0385705428
 30
0.0
 40
48.75000000000001
100
AcDbArc
 50
142.0201275551
 51
163.8999153276
  0
ARC
  5
E5
330
1F
100
AcDbEntity
  8
0
  6
Continuous
 62
     7
370
    15
100
AcDbCircle
 10
90.0040921113
 20
153.0385705428
 30
0.0
 40
48.75000000000001
100
AcDbArc
 50
15.9508025602
 51
127.9798724449
  0
ARC
  5
E6
330
1F
100
AcDbEntity
  8
0
  6
Continuous
 62
     7
370
    15
100
AcDbCircle
 10
90.0040921113
 20
153.0385705428
 30
0.0
 40
48.75000000000001
100
AcDbArc
 50
180.0
 51
196.1000846724
  0
ARC
  5
E7
330
1F
100
AcDbEntity
  8
0
  6
Continuous
 62
     7
370
    15
100
AcDbCircle
 10
90.0040921113
 20
153.0385705428
 30
0.0
 40
48.75000000000001
100
AcDbArc
 50
163.8999153276
 51
180.0
  0
INSERT
  5
F3
330
1F
100
AcDbEntity
  8
DIM
100
AcDbBlockReference
  2
SW_CENTERMARKSYMBOL_0
 10
90.0040921113
 20
153.0385705428
 30
0.0
  0
LINE
  5
F4
330
1F
100
AcDbEntity
  8
0
  6
Continuous
 62
     7
370
    15
100
AcDbLine
 10
278.8257558134
 20
104.2885705428
 30
0.0
 11
282.4124751242
 21
104.2885705428
 31
0.0
  0
LINE
  5
F5
330
1F
100
AcDbEntity
  8
0
  6
Continuous
 62
     7
370
    15
100
AcDbLine
 10
282.4124751242
 20
201.7885705428
 30
0.0
 11
278.8257558134
 21
201.7885705428
 31
0.0
  0
LINE
  5
F6
330
1F
100
AcDbEntity
  8
0
  6
Continuous
 62
     7
370
    15
100
AcDbLine
 10
278.8257558134
 20
201.7885705428
 30
0.0
 11
277.4781605492
 21
199.4544670771
 31
0.0
  0
LINE
  5
F7
330
1F
100
AcDbEntity
  8
0
  6
Continuous
 62
     7
370
    15
100
AcDbLine
 10
277.4781605492
 20
106.6226740084
 30
0.0
 11
278.8257558134
 21
104.2885705428
 31
0.0
  0
LINE
  5
F8
330
1F
100
AcDbEntity
  8
0
  6
Continuous
 62
     7
370
    15
100
AcDbLine
 10
272.330565285
 20
104.2885705428
 30
0.0
 11
273.6781605492
 21
106.6226740084
 31
0.0
  0
LINE
  5
F9
330
1F
100
AcDbEntity
  8
0
  6
Continuous
 62
     7
370
    15
100
AcDbLine
 10
273.6781605492
 20
199.4544670771
 30
0.0
 11
272.330565285
 21
201.7885705428
 31
0.0
  0
LINE
  5
FA
330
1F
100
AcDbEntity
  8
0
  6
Continuous
 62
     7
370
    15
100
AcDbLine
 10
268.8438459741
 20
104.2885705428
 30
0.0
 11
272.330565285
 21
104.2885705428
 31
0.0
  0
LINE
  5
FB
330
1F
100
AcDbEntity
  8
0
  6
Continuous
 62
     7
370
    15
100
AcDbLine
 10
272.330565285
 20
201.7885705428
 30
0.0
 11
268.8438459741
 21
201.7885705428
 31
0.0
  0
LINE
  5
FC
330
1F
100
AcDbEntity
  8
0
  6
Continuous
 62
     7
370
    15
100
AcDbLine
 10
282.6953178367
 20
104.4057278303
 30
0.0
 11
283.4610032617
 21
105.1714132552
 31
0.0
  0
LINE
  5
FD
330
1F
100
AcDbEntity
  8
0
  6
Continuous
 62
     7
370
    15
100
AcDbLine
 10
283.4610032617
 20
200.9057278303
 30
0.0
 11
282.6953178367
 21
201.6714132552
 31
0.0
  0
LINE
  5
FE
330
1F
100
AcDbEntity
  8
0
  6
Continuous
 62
     7
370
    15
100
AcDbLine
 10
268.5610032617
 20
201.6714132552
 30
0.0
 11
267.7953178367
 21
200.9057278303
 31
0.0
  0
LINE
  5
FF
330
1F
100
AcDbEntity
  8
0
  6
Continuous
 62
     7
370
    15
100
AcDbLine
 10
267.7953178367
 20
105.1714132552
 30
0.0
 11
268.5610032617
 21
104.4057278303
 31
0.0
  0
ARC
  5
100
330
1F
100
AcDbEntity
  8
0
  6
Continuous
 62
     7
370
    15
100
AcDbCircle
 10
282.4124751242
 20
104.6885705428
 30
0.0
 40
0.4000000000000093
100
AcDbArc
 50
270.0
 51
315.0
  0
ARC
  5
101
330
1F
100
AcDbEntity
  8
0
  6
Continuous
 62
     7
370
    15
100
AcDbCircle
 10
268.8438459741
 20
104.6885705428
 30
0.0
 40
0.4000000000000093
100
AcDbArc
 50
225.0
 51
270.0
  0
ARC
  5
102
330
1F
100
AcDbEntity
  8
0
  6
Continuous
 62
     7
370
    15
100
AcDbCircle
 10
282.4124751242
 20
201.3885705428
 30
0.0
 40
0.4000000000000193
100
AcDbArc
 50
45.0
 51
90.0
  0
ARC
  5
103
330
1F
100
AcDbEntity
  8
0
  6
Continuous
 62
     7
370
    15
100
AcDbCircle
 10
268.8438459741
 20
201.3885705428
 30
0.0
 40
0.4000000000000193
100
AcDbArc
 50
90.0
 51
135.0
  0
ARC
  5
104
330
1F
100
AcDbEntity
  8
0
  6
Continuous
 62
     7
370
    15
100
AcDbCircle
 10
283.1781605492
 20
105.4542559677
 30
0.0
 40
0.3999999999999791
100
AcDbArc
 50
315.0
 51
0.0
  0
ARC
  5
105
330
1F
100
AcDbEntity
  8
0
  6
Continuous
 62
     7
370
    15
100
AcDbCircle
 10
283.1781605492
 20
200.6228851178
 30
0.0
 40
0.3999999999999791
100
AcDbArc
 50
0.0
 51
45.0
  0
ARC
  5
106
330
1F
100
AcDbEntity
  8
0
  6
Continuous
 62
     7
370
    15
100
AcDbCircle
 10
268.0781605492
 20
105.4542559677
 30
0.0
 40
0.3999999999999791
100
AcDbArc
 50
180.0
 51
225.0
  0
ARC
  5
107
330
1F
100
AcDbEntity
  8
0
  6
Continuous
 62
     7
370
    15
100
AcDbCircle
 10
268.0781605492
 20
200.6228851178
 30
0.0
 40
0.3999999999999791
100
AcDbArc
 50
135.0
 51
180.0
  0
LINE
  5
108
330
1F
100
AcDbEntity
  8
0
  6
Continuous
 62
     7
370
    15
100
AcDbLine
 10
273.6781605492
 20
107.5385705428
 30
0.0
 11
277.4781605492
 21
107.5385705428
 31
0.0
  0
LINE
  5
109
330
1F
100
AcDbEntity
  8
0
  6
Continuous
 62
     7
370
    15
100
AcDbLine
 10
277.4781605492
 20
198.5385705428
 30
0.0
 11
273.6781605492
 21
198.5385705428
 31
0.0
  0
ARC
  5
10A
330
1F
100
AcDbEntity
  8
0
  6
Continuous
 62
     7
370
    15
100
AcDbCircle
 10
267.1781605492
 20
118.0385705428
 30
0.0
 40
0.5
100
AcDbArc
 50
0.0
 51
90.0
  0
ARC
  5
10B
330
1F
100
AcDbEntity
  8
0
  6
Continuous
 62
     7
370
    15
100
AcDbCircle
 10
267.1781605492
 20
188.0385705428
 30
0.0
 40
0.5000000000000284
100
AcDbArc
 50
270.0
 51
0.0
  0
LINE
  5
10C
330
1F
100
AcDbEntity
  8
0
  6
Continuous
 62
     7
370
    15
100
AcDbLine
 10
264.4781605492
 20
187.9635705428
 30
0.0
 11
163.5838523219
 21
173.2496783298
 31
0.0
  0
LINE
  5
10D
330
1F
100
AcDbEntity
  8
0
  6
Continuous
 62
     7
370
    15
100
AcDbLine
 10
163.5838523219
 20
132.8274627557
 30
0.0
 11
264.4781605492
 21
118.1135705428
 31
0.0
  0
LINE
  5
10E
330
1F
100
AcDbEntity
  8
0
  6
Continuous
 62
     7
370
    15
100
AcDbLine
 10
264.4781605492
 20
118.1135705428
 30
0.0
 11
265.3895759904
 21
118.5385705428
 31
0.0
  0
LINE
  5
10F
330
1F
100
AcDbEntity
  8
0
  6
Continuous
 62
     7
370
    15
100
AcDbLine
 10
265.3895759904
 20
187.5385705428
 30
0.0
 11
264.4781605492
 21
187.9635705428
 31
0.0
  0
LINE
  5
110
330
1F
100
AcDbEntity
  8
0
  6
Continuous
 62
     7
370
    15
100
AcDbLine
 10
265.3895759904
 20
118.5385705428
 30
0.0
 11
267.1781605492
 21
118.5385705428
 31
0.0
  0
LINE
  5
111
330
1F
100
AcDbEntity
  8
0
  6
Continuous
 62
     7
370
    15
100
AcDbLine
 10
267.1781605492
 20
187.5385705428
 30
0.0
 11
265.3895759904
 21
187.5385705428
 31
0.0
  0
ARC
  5
112
330
1F
100
AcDbEntity
  8
0
  6
Continuous
 62
     7
370
    15
100
AcDbCircle
 10
286.5781605492
 20
175.0385705428
 30
0.0
 40
3.000000000000057
100
AcDbArc
 50
180.0
 51
270.0
  0
ARC
  5
113
330
1F
100
AcDbEntity
  8
0
  6
Continuous
 62
     7
370
    15
100
AcDbCircle
 10
286.5781605492
 20
131.0385705428
 30
0.0
 40
3.000000000000057
100
AcDbArc
 50
90.0
 51
180.0
  0
ARC
  5
114
330
1F
100
AcDbEntity
  8
0
  6
Continuous
 62
     7
370
    15
100
AcDbCircle
 10
163.7281605492
 20
133.8169955422
 30
0.0
 40
1.000000000000018
100
AcDbArc
 50
180.0
 51
261.7027777778
  0
ARC
  5
115
330
1F
100
AcDbEntity
  8
0
  6
Continuous
 62
     7
370
    15
100
AcDbCircle
 10
163.7281605492
 20
172.2601455433
 30
0.0
 40
1.000000000000018
100
AcDbArc
 50
98.2972222222
 51
180.0
  0
LINE
  5
116
330
1F
100
AcDbEntity
  8
0
  6
Continuous
 62
     7
370
    15
100
AcDbLine
 10
363.4781605492
 20
134.0385705428
 30
0.0
 11
364.4781605492
 21
135.0385705428
 31
0.0
  0
LINE
  5
117
330
1F
100
AcDbEntity
  8
0
  6
Continuous
 62
     7
370
    15
100
AcDbLine
 10
364.4781605492
 20
171.0385705428
 30
0.0
 11
363.4781605492
 21
172.0385705428
 31
0.0
  0
LINE
  5
118
330
1F
100
AcDbEntity
  8
0
  6
Continuous
 62
     7
370
    15
100
AcDbLine
 10
286.5781605492
 20
134.0385705428
 30
0.0
 11
363.4781605492
 21
134.0385705428
 31
0.0
  0
LINE
  5
119
330
1F
100
AcDbEntity
  8
0
  6
Continuous
 62
     7
370
    15
100
AcDbLine
 10
363.4781605492
 20
172.0385705428
 30
0.0
 11
286.5781605492
 21
172.0385705428
 31
0.0
  0
LINE
  5
11A
330
1F
100
AcDbEntity
  8
0
  6
Continuous
 62
     7
370
    15
100
AcDbLine
 10
390.4781605492
 20
143.0385705428
 30
0.0
 11
391.4781605492
 21
144.0385705428
 31
0.0
  0
LINE
  5
11B
330
1F
100
AcDbEntity
  8
0
  6
Continuous
 62
     7
370
    15
100
AcDbLine
 10
391.4781605492
 20
162.0385705428
 30
0.0
 11
390.4781605492
 21
163.0385705428
 31
0.0
  0
LINE
  5
11C
330
1F
100
AcDbEntity
  8
0
  6
Continuous
 62
     7
370
    15
100
AcDbLine
 10
385.4781605492
 20
143.0385705428
 30
0.0
 11
390.4781605492
 21
143.0385705428
 31
0.0
  0
LINE
  5
11D
330
1F
100
AcDbEntity
  8
0
  6
Continuous
 62
     7
370
    15
100
AcDbLine
 10
390.4781605492
 20
163.0385705428
 30
0.0
 11
385.4781605492
 21
163.0385705428
 31
0.0
  0
LINE
  5
11E
330
1F
100
AcDbEntity
  8
0
  6
Continuous
 62
     7
370
    15
100
AcDbLine
 10
385.4781605492
 20
163.0385705428
 30
0.0
 11
384.4781605492
 21
162.0385705428
 31
0.0
  0
LINE
  5
11F
330
1F
100
AcDbEntity
  8
0
  6
Continuous
 62
     7
370
    15
100
AcDbLine
 10
384.4781605492
 20
144.0385705428
 30
0.0
 11
385.4781605492
 21
143.0385705428
 31
0.0
  0
LINE
  5
120
330
1F
100
AcDbEntity
  8
0
  6
Continuous
 62
     7
370
    15
100
AcDbLine
 10
380.9874128204
 20
145.0385705428
 30
0.0
 11
381.4781605492
 21
145.8885705428
 31
0.0
  0
LINE
  5
121
330
1F
100
AcDbEntity
  8
0
  6
Continuous
 62
     7
370
    15
100
AcDbLine
 10
381.4781605492
 20
160.1885705428
 30
0.0
 11
380.9874128204
 21
161.0385705428
 31
0.0
  0
LINE
  5
122
330
1F
100
AcDbEntity
  8
0
  6
Continuous
 62
     7
370
    15
100
AcDbLine
 10
364.4781605492
 20
145.0385705428
 30
0.0
 11
380.9874128204
 21
145.0385705428
 31
0.0
  0
LINE
  5
123
330
1F
100
AcDbEntity
  8
0
  6
Continuous
 62
     7
370
    15
100
AcDbLine
 10
380.9874128204
 20
161.0385705428
 30
0.0
 11
364.4781605492
 21
161.0385705428
 31
0.0
  0
ARC
  5
124
330
1F
100
AcDbEntity
  8
0
  6
Continuous
 62
     7
370
    15
100
AcDbCircle
 10
383.9781605492
 20
148.5385705428
 30
0.0
 40
0.5000000000000568
100
AcDbArc
 50
0.0
 51
90.0
  0
ARC
  5
125
330
1F
100
AcDbEntity
  8
0
  6
Continuous
 62
     7
370
    15
100
AcDbCircle
 10
383.9781605492
 20
157.5385705428
 30
0.0
 40
0.5000000000000568
100
AcDbArc
 50
270.0
 51
0.0
  0
LINE
  5
126
330
1F
100
AcDbEntity
  8
0
  6
Continuous
 62
     7
370
    15
100
AcDbLine
 10
381.4781605492
 20
149.0385705428
 30
0.0
 11
383.9781605492
 21
149.0385705428
 31
0.0
  0
LINE
  5
127
330
1F
100
AcDbEntity
  8
0
  6
Continuous
 62
     7
370
    15
100
AcDbLine
 10
383.9781605492
 20
157.0385705428
 30
0.0
 11
381.4781605492
 21
157.0385705428
 31
0.0
  0
LINE
  5
128
330
1F
100
AcDbEntity
  8
0
  6
Continuous
 62
     7
370
    15
100
AcDbLine
 10
282.4124751242
 20
139.6414923713
 30
0.0
 11
282.4124751242
 21
166.4356487142
 31
0.0
  0
LINE
  5
129
330
1F
100
AcDbEntity
  8
0
  6
Continuous
 62
     7
370
    15
100
AcDbLine
 10
278.8257558134
 20
104.2885705428
 30
0.0
 11
278.8257558134
 21
201.7885705428
 31
0.0
  0
SPLINE
  5
12A
330
1F
100
AcDbEntity
  8
0
  6
Continuous
 62
     7
370
    15
100
AcDbSpline
210
0.0
220
0.0
230
1.0
 70
     8
 71
     3
 72
     8
 73
     4
 74
     0
 42
0.000000001
 43
0.00000001
 40
0.0
 40
0.0
 40
0.0
 40
0.0
 40
1.0
 40
1.0
 40
1.0
 40
1.0
 10
282.412475124231
 20
166.4356487141705
 30
0.0
 10
282.520992115682
 20
166.4356487141705
 30
0.0
 10
282.6240329675443
 20
166.3985521211042
 30
0.0
 10
282.6953178367056
 20
166.3408497830073
 30
0.0
  0
LINE
  5
12B
330
1F
100
AcDbEntity
  8
0
  6
Continuous
 62
     7
370
    15
100
AcDbLine
 10
282.6953178367
 20
139.7362913025
 30
0.0
 11
282.6953178367
 21
166.340849783
 31
0.0
  0
SPLINE
  5
12C
330
1F
100
AcDbEntity
  8
0
  6
Continuous
 62
     7
370
    15
100
AcDbSpline
210
0.0
220
0.0
230
1.0
 70
     8
 71
     3
 72
     8
 73
     4
 74
     0
 42
0.000000001
 43
0.00000001
 40
0.0
 40
0.0
 40
0.0
 40
0.0
 40
1.0
 40
1.0
 40
1.0
 40
1.0
 10
282.6953178367056
 20
139.7362913025083
 30
0.0
 10
282.6240020245237
 20
139.6785639172356
 30
0.0
 10
282.5211008668869
 20
139.6414923713451
 30
0.0
 10
282.412475124231
 20
139.6414923713451
 30
0.0
  0
LINE
  5
12D
330
1F
100
AcDbEntity
  8
0
  6
Continuous
 62
     7
370
    15
100
AcDbLine
 10
277.4781605492
 20
199.4544670771
 30
0.0
 11
277.4781605492
 21
106.6226740084
 31
0.0
  0
LINE
  5
12E
330
1F
100
AcDbEntity
  8
0
  6
Continuous
 62
     7
370
    15
100
AcDbLine
 10
273.6781605492
 20
153.0385705428
 30
0.0
 11
273.6781605492
 21
199.4544670771
 31
0.0
  0
LINE
  5
12F
330
1F
100
AcDbEntity
  8
0
  6
Continuous
 62
     7
370
    15
100
AcDbLine
 10
273.6781605492
 20
106.6226740084
 30
0.0
 11
273.6781605492
 21
153.0385705428
 31
0.0
  0
LINE
  5
130
330
1F
100
AcDbEntity
  8
0
  6
Continuous
 62
     7
370
    15
100
AcDbLine
 10
272.330565285
 20
153.0385705428
 30
0.0
 11
272.330565285
 21
201.7885705428
 31
0.0
  0
LINE
  5
131
330
1F
100
AcDbEntity
  8
0
  6
Continuous
 62
     7
370
    15
100
AcDbLine
 10
272.330565285
 20
104.2885705428
 30
0.0
 11
272.330565285
 21
153.0385705428
 31
0.0
  0
LINE
  5
132
330
1F
100
AcDbEntity
  8
0
  6
Continuous
 62
     7
370
    15
100
AcDbLine
 10
268.8438459741
 20
139.6414923713
 30
0.0
 11
268.8438459741
 21
166.4356487142
 31
0.0
  0
SPLINE
  5
133
330
1F
100
AcDbEntity
  8
0
  6
Continuous
 62
     7
370
    15
100
AcDbSpline
210
0.0
220
0.0
230
1.0
 70
     8
 71
     3
 72
     8
 73
     4
 74
     0
 42
0.000000001
 43
0.00000001
 40
0.0
 40
0.0
 40
0.0
 40
0.0
 40
1.0
 40
1.0
 40
1.0
 40
1.0
 10
268.8438459741295
 20
166.4356487141705
 30
0.0
 10
268.7353289826784
 20
166.4356487141705
 30
0.0
 10
268.6322881308161
 20
166.3985521211042
 30
0.0
 10
268.5610032616548
 20
166.3408497830073
 30
0.0
  0
SPLINE
  5
134
330
1F
100
AcDbEntity
  8
0
  6
Continuous
 62
     7
370
    15
100
AcDbSpline
210
0.0
220
0.0
230
1.0
 70
     8
 71
     3
 72
     8
 73
     4
 74
     0
 42
0.000000001
 43
0.00000001
 40
0.0
 40
0.0
 40
0.0
 40
0.0
 40
1.0
 40
1.0
 40
1.0
 40
1.0
 10
268.8438459741295
 20
139.6414923713451
 30
0.0
 10
268.7353289826785
 20
139.6414923713451
 30
0.0
 10
268.6322881308161
 20
139.6785889644113
 30
0.0
 10
268.5610032616548
 20
139.7362913025083
 30
0.0
  0
LINE
  5
135
330
1F
100
AcDbEntity
  8
0
  6
Continuous
 62
     7
370
    15
100
AcDbLine
 10
268.5610032617
 20
139.7362913025
 30
0.0
 11
268.5610032617
 21
166.340849783
 31
0.0
  0
LINE
  5
136
330
1F
100
AcDbEntity
  8
0
  6
Continuous
 62
     7
370
    15
100
AcDbLine
 10
283.4610032617
 20
140.1885705428
 30
0.0
 11
283.4610032617
 21
165.8885705428
 31
0.0
  0
LINE
  5
137
330
1F
100
AcDbEntity
  8
0
  6
Continuous
 62
     7
370
    15
100
AcDbLine
 10
267.7953178367
 20
139.6057278303
 30
0.0
 11
267.7953178367
 21
166.4714132552
 31
0.0
  0
SPLINE
  5
138
330
1F
100
AcDbEntity
  8
0
  6
Continuous
 62
     7
370
    15
100
AcDbSpline
210
0.0
220
0.0
230
1.0
 70
    24
 71
     3
 72
     8
 73
     4
 74
     0
 42
0.000000001
 43
0.00000001
 40
0.0
 40
0.0
 40
0.0
 40
0.0
 40
1.0
 40
1.0
 40
1.0
 40
1.0
 10
283.5781605491802
 20
165.8885705427578
 30
0.0
 10
283.5781605491802
 20
165.8885705427578
 30
0.0
 10
283.5366168152278
 20
165.8885705427578
 30
0.0
 10
283.4610032616548
 20
165.8885705427578
 30
0.0
  0
LINE
  5
139
330
1F
100
AcDbEntity
  8
0
  6
Continuous
 62
     7
370
    15
100
AcDbLine
 10
283.5781605439
 20
140.18854579
 30
0.0
 11
283.5781605439
 21
165.8885952955
 31
0.0
  0
SPLINE
  5
13A
330
1F
100
AcDbEntity
  8
0
  6
Continuous
 62
     7
370
    15
100
AcDbSpline
210
0.0
220
0.0
230
1.0
 70
    24
 71
     3
 72
     8
 73
     4
 74
     0
 42
0.000000001
 43
0.00000001
 40
0.0
 40
0.0
 40
0.0
 40
0.0
 40
1.0
 40
1.0
 40
1.0
 40
1.0
 10
283.4610032616548
 20
140.1885705427578
 30
0.0
 10
283.5365912924095
 20
140.1885705427578
 30
0.0
 10
283.5781605491802
 20
140.1885705427578
 30
0.0
 10
283.5781605491802
 20
140.1885705427578
 30
0.0
  0
SPLINE
  5
13B
330
1F
100
AcDbEntity
  8
0
  6
Continuous
 62
     7
370
    15
100
AcDbSpline
210
0.0
220
0.0
230
1.0
 70
    24
 71
     3
 72
    10
 73
     6
 74
     0
 42
0.000000001
 43
0.00000001
 40
0.0
 40
0.0
 40
0.0
 40
0.0
 40
0.5
 40
0.5
 40
1.0
 40
1.0
 40
1.0
 40
1.0
 10
267.6781605491802
 20
166.5885705427578
 30
0.0
 10
267.6781605491802
 20
166.5885705427578
 30
0.0
 10
267.692006425205
 20
166.5747246667329
 30
0.0
 10
267.7341722013924
 20
166.5325588905456
 30
0.0
 10
267.7626629016556
 20
166.5040681902825
 30
0.0
 10
267.7953178367056
 20
166.4714132552324
 30
0.0
  0
SPLINE
  5
13C
330
1F
100
AcDbEntity
  8
0
  6
Continuous
 62
     7
370
    15
100
AcDbSpline
210
0.0
220
0.0
230
1.0
 70
    24
 71
     3
 72
    10
 73
     6
 74
     0
 42
0.000000001
 43
0.00000001
 40
0.0
 40
0.0
 40
0.0
 40
0.0
 40
0.5
 40
0.5
 40
1.0
 40
1.0
 40
1.0
 40
1.0
 10
267.7953178367056
 20
139.6057278302832
 30
0.0
 10
267.7626847756883
 20
139.5730947692659
 30
0.0
 10
267.7347038894221
 20
139.5451138829997
 30
0.0
 10
267.6920470390471
 20
139.5024570326246
 30
0.0
 10
267.6781605491802
 20
139.4885705427578
 30
0.0
 10
267.6781605491802
 20
139.4885705427578
 30
0.0
  0
LINE
  5
13D
330
1F
100
AcDbEntity
  8
0
  6
Continuous
 62
     7
370
    15
100
AcDbLine
 10
267.6781605492
 20
139.4885705428
 30
0.0
 11
267.6781605492
 21
166.5885705428
 31
0.0
  0
SPLINE
  5
13E
330
1F
100
AcDbEntity
  8
0
  6
Continuous
 62
     7
370
    15
100
AcDbSpline
210
0.0
220
0.0
230
1.0
 70
    24
 71
     3
 72
    36
 73
    32
 74
     0
 42
0.000000001
 43
0.00000001
 40
0.0
 40
0.0
 40
0.0
 40
0.0
 40
0.010855060115309
 40
0.021700603247601
 40
0.0325387683476148
 40
0.0433716987364442
 40
0.0542015408431699
 40
0.0650304429332853
 40
0.0758605538316704
 40
0.0866940216439018
 40
0.0975329924797007
 40
0.1083796091823073
 40
0.1192360100675244
 40
0.181247834122235
 40
0.2432679244012066
 40
0.3069990489490812
 40
0.370738668921532
 40
0.4353656024873025
 40
0.5000011508910791
 40
0.5646280845655833
 40
0.6292636330748704
 40
0.6929947579300935
 40
0.7567343782029041
 40
0.8187462027125846
 40
0.8807662934441524
 40
0.9006583299602414
 40
0.9205248324912559
 40
0.9403790153804057
 40
0.9602341175685198
 40
0.9801033761588329
 40
1.0
 40
1.0
 40
1.0
 40
1.0
 10
283.5781605491802
 20
140.1885705427578
 30
0.0
 10
283.5781605491802
 20
139.9737836683955
 30
0.0
 10
283.5781605491802
 20
139.5443982302849
 30
0.0
 10
283.5781605491802
 20
138.9039017201845
 30
0.0
 10
283.5781605491802
 20
138.2664515087557
 30
0.0
 10
283.5781605491802
 20
137.6322778542833
 30
0.0
 10
283.5781605491802
 20
137.0013192222952
 30
0.0
 10
283.5781605491802
 20
136.3735921537109
 30
0.0
 10
283.5781605491802
 20
135.7490924346322
 30
0.0
 10
283.5781605491802
 20
135.127820829107
 30
0.0
 10
283.5781605491802
 20
134.5097789298022
 30
0.0
 10
283.5781605491802
 20
133.8949600176607
 30
0.0
 10
283.5781605491802
 20
132.3231023610019
 30
0.0
 10
283.5781605491802
 20
129.8434530669698
 30
0.0
 10
283.5781605491802
 20
126.5447800084968
 30
0.0
 10
283.5781605491802
 20
123.3914030833157
 30
0.0
 10
283.5781605491802
 20
120.3993303747492
 30
0.0
 10
283.5781605491802
 20
117.6185841661338
 30
0.0
 10
283.5781605491802
 20
115.0752848590575
 30
0.0
 10
283.5781605491802
 20
112.7972733739893
 30
0.0
 10
283.5781605491802
 20
110.8128408782704
 30
0.0
 10
283.5781605491802
 20
109.1280876412005
 30
0.0
 10
283.5781605491802
 20
107.7652271476497
 30
0.0
 10
283.5781605491802
 20
106.713048826994
 30
0.0
 10
283.5781605491802
 20
106.1395473749393
 30
0.0
 10
283.5781605491802
 20
105.8435199742555
 30
0.0
 10
283.5781605491802
 20
105.7015048888097
 30
0.0
 10
283.5781605491802
 20
105.590902696248
 30
0.0
 10
283.5781605491802
 20
105.512473167034
 30
0.0
 10
283.5781605491802
 20
105.4633570552292
 30
0.0
 10
283.5781605491802
 20
105.4572910550054
 30
0.0
 10
283.5781605491802
 20
105.454255967707
 30
0.0
  0
SPLINE
  5
13F
330
1F
100
AcDbEntity
  8
0
  6
Continuous
 62
     7
370
    15
100
AcDbSpline
210
0.0
220
0.0
230
1.0
 70
    24
 71
     3
 72
    23
 73
    19
 74
     0
 42
0.000000001
 43
0.00000001
 40
0.0
 40
0.0
 40
0.0
 40
0.0
 40
0.049344142439785
 40
0.1126391337887782
 40
0.1752432992499413
 40
0.2371050695636289
 40
0.2989591199343767
 40
0.3615634382303971
 40
0.4248659973704123
 40
0.4891594850324235
 40
0.5537405807095876
 40
0.6185525319731143
 40
0.6833570688697037
 40
0.7479382231567704
 40
0.812239066728002
 40
0.8755340580753496
 40
0.9381401318495213
 40
1.0
 40
1.0
 40
1.0
 40
1.0
 10
283.5781605491802
 20
200.5933970187246
 30
0.0
 10
283.5781605491802
 20
200.5864499374954
 30
0.0
 10
283.5781605491802
 20
200.5705916578025
 30
0.0
 10
283.5781605491802
 20
200.1638402448879
 30
0.0
 10
283.5781605491802
 20
199.4540250309947
 30
0.0
 10
283.5781605491802
 20
198.437618105495
 30
0.0
 10
283.5781605491802
 20
197.1307486203748
 30
0.0
 10
283.5781605491802
 20
195.5240366114109
 30
0.0
 10
283.5781605491802
 20
193.6111914787018
 30
0.0
 10
283.5781605491802
 20
191.3996255670444
 30
0.0
 10
283.5781605491802
 20
188.902119327764
 30
0.0
 10
283.5781605491802
 20
186.1451961759372
 30
0.0
 10
283.5781605491802
 20
183.154878914597
 30
0.0
 10
283.5781605491802
 20
179.9606516122415
 30
0.0
 10
283.5781605491802
 20
176.604771977278
 30
0.0
 10
283.5781605491802
 20
173.121687619006
 30
0.0
 10
283.5781605491802
 20
169.5562771201378
 30
0.0
 10
283.5781605491802
 20
167.1062432054978
 30
0.0
 10
283.5781605491802
 20
165.8885705427578
 30
0.0
  0
SPLINE
  5
140
330
1F
100
AcDbEntity
  8
0
  6
Continuous
 62
     7
370
    15
100
AcDbSpline
210
0.0
220
0.0
230
1.0
 70
    24
 71
     3
 72
    36
 73
    32
 74
     0
 42
0.000000001
 43
0.00000001
 40
0.0
 40
0.0
 40
0.0
 40
0.0
 40
0.0108663901693764
 40
0.0217235992689927
 40
0.0325737239461297
 40
0.0434188649567969
 40
0.0542611259538548
 40
0.0651026122666534
 40
0.0759454296758007
 40
0.0867916831866139
 40
0.0976434758048303
 40
0.1085029073181251
 40
0.1193720730869558
 40
0.1813968254495411
 40
0.2434299782169203
 40
0.3071319268850098
 40
0.3708425031356519
 40
0.4354174425596918
 40
0.5000011278075956
 40
0.5645760673346892
 40
0.6291597526862437
 40
0.6928617016453169
 40
0.7565722781921671
 40
0.8185970309917204
 40
0.88063018420144
 40
0.9005456124940234
 40
0.9204355775907559
 40
0.9403130284544624
 40
0.9601909385042273
 40
0.9800822802606719
 40
1.0
 40
1.0
 40
1.0
 40
1.0
 10
267.6781605491802
 20
105.454255967707
 30
0.0
 10
267.6781605491802
 20
105.4551370145889
 30
0.0
 10
267.6781605491802
 20
105.4568983639515
 30
0.0
 10
267.6781605491802
 20
105.4711936107983
 30
0.0
 10
267.6781605491802
 20
105.4940225073236
 30
0.0
 10
267.6781605491802
 20
105.5262196262588
 30
0.0
 10
267.6781605491802
 20
105.5675615418282
 30
0.0
 10
267.6781605491802
 20
105.6181080997939
 30
0.0
 10
267.6781605491802
 20
105.6778432032248
 30
0.0
 10
267.6781605491802
 20
105.7467713754973
 30
0.0
 10
267.6781605491802
 20
105.8248905573553
 30
0.0
 10
267.6781605491802
 20
105.9122043783478
 30
0.0
 10
267.6781605491802
 20
106.1600410927569
 30
0.0
 10
267.6781605491802
 20
106.6856889077878
 30
0.0
 10
267.6781605491802
 20
107.7140799143113
 30
0.0
 10
267.6781605491802
 20
109.0460297276054
 30
0.0
 10
267.6781605491802
 20
110.6919556423197
 30
0.0
 10
267.6781605491802
 20
112.6309766945957
 30
0.0
 10
267.6781605491802
 20
114.8569516770946
 30
0.0
 10
267.6781605491802
 20
117.3433069532519
 30
0.0
 10
267.6781605491802
 20
120.0630747472493
 30
0.0
 10
267.6781605491802
 20
122.9917830852428
 30
0.0
 10
267.6781605491802
 20
126.0811090844676
 30
0.0
 10
267.6781605491802
 20
129.316210132641
 30
0.0
 10
267.6781605491802
 20
131.9138220024006
 30
0.0
 10
267.6781605491802
 20
133.7967094323962
 30
0.0
 10
267.6781605491802
 20
134.912764406828
 30
0.0
 10
267.6781605491802
 20
136.0398585418451
 30
0.0
 10
267.6781605491802
 20
137.178223465506
 30
0.0
 10
267.6781605491802
 20
138.3270549467923
 30
0.0
 10
267.6781605491802
 20
139.1012276852508
 30
0.0
 10
267.6781605491802
 20
139.4885705427578
 30
0.0
  0
SPLINE
  5
141
330
1F
100
AcDbEntity
  8
0
  6
Continuous
 62
     7
370
    15
100
AcDbSpline
210
0.0
220
0.0
230
1.0
 70
    24
 71
     3
 72
    23
 73
    19
 74
     0
 42
0.000000001
 43
0.00000001
 40
0.0
 40
0.0
 40
0.0
 40
0.0
 40
0.0621371780016823
 40
0.1250125041989178
 40
0.18858029616004
 40
0.253127189537456
 40
0.3179582992717379
 40
0.3830175621109775
 40
0.4480693138239227
 40
0.5129004819881641
 40
0.5774548282112543
 40
0.6410149507156808
 40
0.70389205390056
 40
0.7660351298220105
 40
0.8281703793520515
 40
0.8910476401564842
 40
0.9546154321206017
 40
1.0
 40
1.0
 40
1.0
 40
1.0
 10
267.6781605491802
 20
166.5885705427578
 30
0.0
 10
267.6781605491802
 20
167.7915257026625
 30
0.0
 10
267.6781605491802
 20
170.21172632675
 30
0.0
 10
267.6781605491802
 20
173.7285707956405
 30
0.0
 10
267.6781605491802
 20
177.1599121586644
 30
0.0
 10
267.6781605491802
 20
180.4617068217391
 30
0.0
 10
267.6781605491802
 20
183.6006073176928
 30
0.0
 10
267.6781605491802
 20
186.5355629647032
 30
0.0
 10
267.6781605491802
 20
189.2381387951523
 30
0.0
 10
267.6781605491802
 20
191.6833002079253
 30
0.0
 10
267.6781605491802
 20
193.8454235052914
 30
0.0
 10
267.6781605491802
 20
195.7123486893488
 30
0.0
 10
267.6781605491802
 20
197.2772032883622
 30
0.0
 10
267.6781605491802
 20
198.5458497521536
 30
0.0
 10
267.6781605491802
 20
199.5279390374616
 30
0.0
 10
267.6781605491802
 20
200.2059851356
 30
0.0
 10
267.6781605491802
 20
200.5821142665007
 30
0.0
 10
267.6781605491802
 20
200.5869245491145
 30
0.0
 10
267.6781605491802
 20
200.5889282927519
 30
0.0
  0
LINE
  5
142
330
1F
100
AcDbEntity
  8
0
  6
Continuous
 62
     7
370
    15
100
AcDbLine
 10
264.4781605492
 20
118.1135705428
 30
0.0
 11
264.4781605492
 21
187.9635705428
 31
0.0
  0
LINE
  5
143
330
1F
100
AcDbEntity
  8
0
  6
Continuous
 62
     7
370
    15
100
AcDbLine
 10
265.3895759904
 20
153.0385705428
 30
0.0
 11
265.3895759904
 21
187.5385705428
 31
0.0
  0
LINE
  5
144
330
1F
100
AcDbEntity
  8
0
  6
Continuous
 62
     7
370
    15
100
AcDbLine
 10
265.3895759904
 20
118.5385705428
 30
0.0
 11
265.3895759904
 21
153.0385705428
 31
0.0
  0
SPLINE
  5
145
330
1F
100
AcDbEntity
  8
0
  6
Continuous
 62
     7
370
    15
100
AcDbSpline
210
0.0
220
0.0
230
1.0
 70
    24
 71
     3
 72
    10
 73
     6
 74
     0
 42
0.000000001
 43
0.00000001
 40
0.0
 40
0.0
 40
0.0
 40
0.0
 40
0.4999999999999997
 40
0.4999999999999997
 40
0.9999999999999999
 40
0.9999999999999999
 40
0.9999999999999999
 40
0.9999999999999999
 10
162.7281605491802
 20
172.2601455433032
 30
0.0
 10
162.7281605491802
 20
172.2601455433031
 30
0.0
 10
162.7281605491802
 20
170.2349191172341
 30
0.0
 10
162.7281605491802
 20
163.025634024224
 30
0.0
 10
162.7281605491802
 20
158.1363049195322
 30
0.0
 10
162.7281605491802
 20
153.0385705427578
 30
0.0
  0
SPLINE
  5
146
330
1F
100
AcDbEntity
  8
0
  6
Continuous
 62
     7
370
    15
100
AcDbSpline
210
0.0
220
0.0
230
1.0
 70
    24
 71
     3
 72
    10
 73
     6
 74
     0
 42
0.000000001
 43
0.00000001
 40
0.0
 40
0.0
 40
0.0
 40
0.0
 40
0.4999999999999999
 40
0.4999999999999999
 40
0.9999999999999999
 40
0.9999999999999999
 40
0.9999999999999999
 40
0.9999999999999999
 10
162.7281605491802
 20
153.0385705427578
 30
0.0
 10
162.7281605491802
 20
147.9408361659833
 30
0.0
 10
162.7281605491802
 20
143.0515070612911
 30
0.0
 10
162.7281605491802
 20
135.8422219682812
 30
0.0
 10
162.7281605491802
 20
133.8169955422123
 30
0.0
 10
162.7281605491802
 20
133.8169955422124
 30
0.0
  0
LINE
  5
147
330
1F
100
AcDbEntity
  8
0
  6
Continuous
 62
     7
370
    15
100
AcDbLine
 10
364.4781605492
 20
153.0385705428
 30
0.0
 11
364.4781605492
 21
171.0385705428
 31
0.0
  0
LINE
  5
148
330
1F
100
AcDbEntity
  8
0
  6
Continuous
 62
     7
370
    15
100
AcDbLine
 10
364.4781605492
 20
135.0385705428
 30
0.0
 11
364.4781605492
 21
153.0385705428
 31
0.0
  0
LINE
  5
149
330
1F
100
AcDbEntity
  8
0
  6
Continuous
 62
     7
370
    15
100
AcDbLine
 10
363.4781605492
 20
153.0385705428
 30
0.0
 11
363.4781605492
 21
172.0385705428
 31
0.0
  0
LINE
  5
14A
330
1F
100
AcDbEntity
  8
0
  6
Continuous
 62
     7
370
    15
100
AcDbLine
 10
363.4781605492
 20
134.0385705428
 30
0.0
 11
363.4781605492
 21
153.0385705428
 31
0.0
  0
LINE
  5
14B
330
1F
100
AcDbEntity
  8
0
  6
Continuous
 62
     7
370
    15
100
AcDbLine
 10
391.4781605492
 20
153.0385705428
 30
0.0
 11
391.4781605492
 21
162.0385705428
 31
0.0
  0
LINE
  5
14C
330
1F
100
AcDbEntity
  8
0
  6
Continuous
 62
     7
370
    15
100
AcDbLine
 10
391.4781605492
 20
144.0385705428
 30
0.0
 11
391.4781605492
 21
153.0385705428
 31
0.0
  0
LINE
  5
14D
330
1F
100
AcDbEntity
  8
0
  6
Continuous
 62
     7
370
    15
100
AcDbLine
 10
390.4781605492
 20
153.0385705428
 30
0.0
 11
390.4781605492
 21
163.0385705428
 31
0.0
  0
LINE
  5
14E
330
1F
100
AcDbEntity
  8
0
  6
Continuous
 62
     7
370
    15
100
AcDbLine
 10
390.4781605492
 20
143.0385705428
 30
0.0
 11
390.4781605492
 21
153.0385705428
 31
0.0
  0
LINE
  5
14F
330
1F
100
AcDbEntity
  8
0
  6
Continuous
 62
     7
370
    15
100
AcDbLine
 10
385.4781605492
 20
143.0385705428
 30
0.0
 11
385.4781605492
 21
163.0385705428
 31
0.0
  0
LINE
  5
150
330
1F
100
AcDbEntity
  8
0
  6
Continuous
 62
     7
370
    15
100
AcDbLine
 10
384.4781605492
 20
144.0385705428
 30
0.0
 11
384.4781605492
 21
162.0385705428
 31
0.0
  0
LINE
  5
151
330
1F
100
AcDbEntity
  8
0
  6
Continuous
 62
     7
370
    15
100
AcDbLine
 10
380.9874128204
 20
153.0385705428
 30
0.0
 11
380.9874128204
 21
161.0385705428
 31
0.0
  0
LINE
  5
152
330
1F
100
AcDbEntity
  8
0
  6
Continuous
 62
     7
370
    15
100
AcDbLine
 10
380.9874128204
 20
145.0385705428
 30
0.0
 11
380.9874128204
 21
153.0385705428
 31
0.0
  0
LINE
  5
153
330
1F
100
AcDbEntity
  8
0
  6
Continuous
 62
     7
370
    15
100
AcDbLine
 10
381.4781605492
 20
145.8885705428
 30
0.0
 11
381.4781605492
 21
160.1885705428
 31
0.0
  0
LINE
  5
154
330
1F
100
AcDbEntity
  8
0
  6
Continuous
 62
     7
370
    15
100
AcDbLine
 10
364.4781605492
 20
143.0385705428
 30
0.0
 11
369.2281605492
 21
143.0385705428
 31
0.0
  0
LINE
  5
155
330
1F
100
AcDbEntity
  8
0
  6
Continuous
 62
     7
370
    15
100
AcDbLine
 10
369.2281605492
 20
143.5385705428
 30
0.0
 11
364.4781605492
 21
143.5385705428
 31
0.0
  0
LINE
  5
156
330
1F
100
AcDbEntity
  8
0
  6
Continuous
 62
     7
370
    15
100
AcDbLine
 10
369.2281605492
 20
143.5385705428
 30
0.0
 11
369.2281605492
 21
143.0385705428
 31
0.0
  0
LINE
  5
157
330
1F
100
AcDbEntity
  8
0
  6
Continuous
 62
     7
370
    15
100
AcDbLine
 10
369.2281605492
 20
136.0385705428
 30
0.0
 11
364.4781605492
 21
136.0385705428
 31
0.0
  0
LINE
  5
158
330
1F
100
AcDbEntity
  8
0
  6
Continuous
 62
     7
370
    15
100
AcDbLine
 10
369.2281605492
 20
143.0385705428
 30
0.0
 11
369.2281605492
 21
136.0385705428
 31
0.0
  0
LINE
  5
159
330
1F
100
AcDbEntity
  8
0
  6
Continuous
 62
     7
370
    15
100
AcDbLine
 10
364.4781605492
 20
170.0385705428
 30
0.0
 11
369.2281605492
 21
170.0385705428
 31
0.0
  0
LINE
  5
15A
330
1F
100
AcDbEntity
  8
0
  6
Continuous
 62
     7
370
    15
100
AcDbLine
 10
369.2281605492
 20
170.0385705428
 30
0.0
 11
369.2281605492
 21
163.0385705428
 31
0.0
  0
LINE
  5
15B
330
1F
100
AcDbEntity
  8
0
  6
Continuous
 62
     7
370
    15
100
AcDbLine
 10
369.2281605492
 20
163.0385705428
 30
0.0
 11
364.4781605492
 21
163.0385705428
 31
0.0
  0
LINE
  5
15C
330
1F
100
AcDbEntity
  8
0
  6
Continuous
 62
     7
370
    15
100
AcDbLine
 10
369.2281605492
 20
170.5385705428
 30
0.0
 11
369.2281605492
 21
170.0385705428
 31
0.0
  0
LINE
  5
15D
330
1F
100
AcDbEntity
  8
0
  6
Continuous
 62
     7
370
    15
100
AcDbLine
 10
369.2281605492
 20
170.5385705428
 30
0.0
 11
364.4781605492
 21
170.5385705428
 31
0.0
  0
LINE
  5
15E
330
1F
100
AcDbEntity
  8
0
  6
Continuous
 62
     7
370
    15
100
AcDbLine
 10
364.4781605492
 20
135.5385705428
 30
0.0
 11
369.2281605492
 21
135.5385705428
 31
0.0
  0
LINE
  5
15F
330
1F
100
AcDbEntity
  8
0
  6
Continuous
 62
     7
370
    15
100
AcDbLine
 10
369.2281605492
 20
136.0385705428
 30
0.0
 11
369.2281605492
 21
135.5385705428
 31
0.0
  0
LINE
  5
160
330
1F
100
AcDbEntity
  8
0
  6
Continuous
 62
     7
370
    15
100
AcDbLine
 10
364.4781605492
 20
162.5385705428
 30
0.0
 11
369.2281605492
 21
162.5385705428
 31
0.0
  0
LINE
  5
161
330
1F
100
AcDbEntity
  8
0
  6
Continuous
 62
     7
370
    15
100
AcDbLine
 10
369.2281605492
 20
163.0385705428
 30
0.0
 11
369.2281605492
 21
162.5385705428
 31
0.0
  0
LINE
  5
162
330
1F
100
AcDbEntity
  8
0
  6
Continuous
 62
     8
370
    15
100
AcDbLine
 10
282.4124751242
 20
166.4356487142
 30
0.0
 11
282.4124751242
 21
201.7885705428
 31
0.0
  0
LINE
  5
163
330
1F
100
AcDbEntity
  8
0
  6
Continuous
 62
     8
370
    15
100
AcDbLine
 10
282.4124751242
 20
104.2885705428
 30
0.0
 11
282.4124751242
 21
139.6414923713
 31
0.0
  0
LINE
  5
164
330
1F
100
AcDbEntity
  8
0
  6
Continuous
 62
     8
370
    15
100
AcDbLine
 10
268.8438459741
 20
104.2885705428
 30
0.0
 11
268.8438459741
 21
139.6414923713
 31
0.0
  0
LINE
  5
165
330
1F
100
AcDbEntity
  8
0
  6
Continuous
 62
     8
370
    15
100
AcDbLine
 10
268.8438459741
 20
201.7885705428
 30
0.0
 11
268.8438459741
 21
166.4356487142
 31
0.0
  0
LINE
  5
166
330
1F
100
AcDbEntity
  8
0
  6
Continuous
 62
     8
370
    15
100
AcDbLine
 10
283.4610032617
 20
200.9057278303
 30
0.0
 11
283.4610032617
 21
165.8885705428
 31
0.0
  0
LINE
  5
167
330
1F
100
AcDbEntity
  8
0
  6
Continuous
 62
     8
370
    15
100
AcDbLine
 10
283.4610032617
 20
140.1885705428
 30
0.0
 11
283.4610032617
 21
105.1714132552
 31
0.0
  0
LINE
  5
168
330
1F
100
AcDbEntity
  8
0
  6
Continuous
 62
     8
370
    15
100
AcDbLine
 10
282.6953178367
 20
166.340849783
 30
0.0
 11
282.6953178367
 21
201.6714132552
 31
0.0
  0
LINE
  5
169
330
1F
100
AcDbEntity
  8
0
  6
Continuous
 62
     8
370
    15
100
AcDbLine
 10
282.6953178367
 20
139.7362913025
 30
0.0
 11
282.6953178367
 21
104.4057278303
 31
0.0
  0
LINE
  5
16A
330
1F
100
AcDbEntity
  8
0
  6
Continuous
 62
     8
370
    15
100
AcDbLine
 10
267.7953178367
 20
105.1714132552
 30
0.0
 11
267.7953178367
 21
139.6057278303
 31
0.0
  0
LINE
  5
16B
330
1F
100
AcDbEntity
  8
0
  6
Continuous
 62
     8
370
    15
100
AcDbLine
 10
267.7953178367
 20
166.4714132552
 30
0.0
 11
267.7953178367
 21
200.9057278303
 31
0.0
  0
LINE
  5
16C
330
1F
100
AcDbEntity
  8
0
  6
Continuous
 62
     8
370
    15
100
AcDbLine
 10
268.5610032617
 20
166.340849783
 30
0.0
 11
268.5610032617
 21
201.6714132552
 31
0.0
  0
LINE
  5
16D
330
1F
100
AcDbEntity
  8
0
  6
Continuous
 62
     8
370
    15
100
AcDbLine
 10
268.5610032617
 20
104.4057278303
 30
0.0
 11
268.5610032617
 21
139.7362913025
 31
0.0
  0
LINE
  5
16E
330
1F
100
AcDbEntity
  8
0
  6
Continuous
 62
     8
370
    15
100
AcDbLine
 10
267.1781605492
 20
118.5385705428
 30
0.0
 11
267.1781605492
 21
187.5385705428
 31
0.0
  0
LINE
  5
16F
330
1F
100
AcDbEntity
  8
0
  6
Continuous
 62
     8
370
    15
100
AcDbLine
 10
163.5838523219
 20
173.2496783298
 30
0.0
 11
163.5838523219
 21
132.8274627557
 31
0.0
  0
LINE
  5
170
330
1F
100
AcDbEntity
  8
0
  6
Continuous
 62
     8
370
    15
100
AcDbLine
 10
286.5781605492
 20
172.0385705428
 30
0.0
 11
286.5781605492
 21
134.0385705428
 31
0.0
  0
LINE
  5
171
330
1F
100
AcDbEntity
  8
0
  6
Continuous
 62
     8
370
    15
100
AcDbLine
 10
383.9781605492
 20
153.0385705428
 30
0.0
 11
383.9781605492
 21
157.0385705428
 31
0.0
  0
LINE
  5
172
330
1F
100
AcDbEntity
  8
0
  6
Continuous
 62
     8
370
    15
100
AcDbLine
 10
383.9781605492
 20
149.0385705428
 30
0.0
 11
383.9781605492
 21
153.0385705428
 31
0.0
  0
DIMENSION
  5
173
330
1F
100
AcDbEntity
  8
DIM
100
AcDbDimension
  2
_D
 10
399.5721125226
 20
161.0385705428
 30
0.0
 11
399.5721125226
 21
153.0385705428
 31
0.0
 70
   160
  1
%%c<>
 71
     2
 42
-1.0
  3
SLDDIMSTYLE0
100
AcDbAlignedDimension
 13
380.9874128204
 23
145.0385705428
 33
0.0
 14
380.9874128204
 24
161.0385705428
 34
0.0
 50
90.0
100
AcDbRotatedDimension
  0
DIMENSION
  5
181
330
1F
100
AcDbEntity
  8
DIM
100
AcDbDimension
  2
_D_1
 10
409.5669299425
 20
134.0385705428
 30
0.0
 11
409.5669299425
 21
153.0385705428
 31
0.0
 70
   160
  1
%%c<>
 71
     2
 42
-1.0
  3
SLDDIMSTYLE1
100
AcDbAlignedDimension
 13
363.4781605492
 23
172.0385705428
 33
0.0
 14
363.4781605492
 24
134.0385705428
 34
0.0
 50
90.0
100
AcDbRotatedDimension
  0
DIMENSION
  5
18D
330
1F
100
AcDbEntity
  8
DIM
100
AcDbDimension
  2
_D_2
 10
364.4781605492
 20
90.043448869
 30
0.0
 11
372.9781605492
 21
90.043448869
 31
0.0
 70
   160
  1
<>
 71
     2
 42
-1.0
  3
SLDDIMSTYLE0
100
AcDbAlignedDimension
 13
381.4781605492
 23
145.8885705428
 33
0.0
 14
364.4781605492
 24
135.5385705428
 34
0.0
100
AcDbRotatedDimension
  0
DIMENSION
  5
199
330
1F
100
AcDbEntity
  8
DIM
100
AcDbDimension
  2
_D_3
 10
264.4781605492
 20
90.043448869
 30
0.0
 11
314.4781605492
 21
90.043448869
 31
0.0
 70
   160
  1
<>
 71
     2
 42
-1.0
  3
SLDDIMSTYLE1
100
AcDbAlignedDimension
 13
364.4781605492
 23
135.0385705428
 33
0.0
 14
264.4781605492
 24
118.1135705428
 34
0.0
100
AcDbRotatedDimension
  0
DIMENSION
  5
1A3
330
1F
100
AcDbEntity
  8
DIM
100
AcDbDimension
  2
_D_4
 10
162.7281605492
 20
80.2884705428
 30
0.0
 11
277.1031605492
 21
80.2884705428
 31
0.0
 70
   160
  1
<>
 71
     2
 42
-1.0
  3
SLDDIMSTYLE1
100
AcDbAlignedDimension
 13
391.4781605492
 23
144.0385705428
 33
0.0
 14
162.7281605492
 24
153.0385705428
 34
0.0
 50
0.0
100
AcDbRotatedDimension
  0
DIMENSION
  5
1AD
330
1F
100
AcDbEntity
  8
DIM
100
AcDbDimension
  2
_D_5
 10
155.0216347685
 20
201.7885705428
 30
0.0
 11
155.0216347685
 21
153.0385705428
 31
0.0
 70
   160
  1
%%c<>
 71
     2
 42
-1.0
  3
SLDDIMSTYLE2
100
AcDbAlignedDimension
 13
268.8438459741
 23
104.2885705428
 33
0.0
 14
268.8438459741
 24
201.7885705428
 34
0.0
 50
90.0
100
AcDbRotatedDimension
  0
LINE
  5
1B9
330
1F
100
AcDbEntity
  8
DIM
  6
CENTERX2
 48
1.3333333333
370
     0
100
AcDbLine
 10
160.8559356234
 20
153.0385705428
 30
0.0
 11
391.303860514
 21
153.0385705428
 31
0.0
  0
ENDSEC
  0
SECTION
  2
OBJECTS
  0
DICTIONARY
  5
C
330
0
100
AcDbDictionary
281
     1
  3
ACAD_GROUP
350
D
  3
ACAD_LAYOUT
350
1A
  3
ACAD_MLINESTYLE
350
17
  3
ACAD_PLOTSETTINGS
350
19
  3
ACAD_PLOTSTYLENAME
350
E
  3
ACAD_SCALELIST
350
47
  0
DICTIONARY
  5
D
102
{ACAD_REACTORS
330
C
102
}
330
C
100
AcDbDictionary
281
     1
  0
DICTIONARY
  5
1A
102
{ACAD_REACTORS
330
C
102
}
330
C
100
AcDbDictionary
281
     1
  3
Layout1
350
1E
  3
Layout2
350
26
  3
Model
350
22
  0
DICTIONARY
  5
17
102
{ACAD_REACTORS
330
C
102
}
330
C
100
AcDbDictionary
281
     1
  3
Standard
350
18
  0
DICTIONARY
  5
19
102
{ACAD_REACTORS
330
C
102
}
330
C
100
AcDbDictionary
281
     1
  0
ACDBDICTIONARYWDFLT
  5
E
102
{ACAD_REACTORS
330
C
102
}
330
C
100
AcDbDictionary
281
     1
  3
Normal
350
F
100
AcDbDictionaryWithDefault
340
F
  0
DICTIONARY
  5
47
102
{ACAD_REACTORS
330
C
102
}
330
C
100
AcDbDictionary
281
     1
  3
A0
350
48
  3
A1
350
49
  3
A2
350
4A
  3
A3
350
4B
  3
A4
350
4C
  3
A5
350
4D
  3
A6
350
4E
  3
A7
350
4F
  3
A8
350
50
  3
A9
350
51
  3
B0
350
52
  3
B1
350
53
  3
B2
350
54
  3
B3
350
55
  3
B4
350
56
  3
B5
350
57
  3
B6
350
58
  3
B7
350
59
  3
B8
350
5A
  3
B9
350
5B
  3
C0
350
5C
  3
C1
350
5D
  3
C2
350
5E
  3
C3
350
5F
  3
C4
350
60
  3
C5
350
61
  3
C6
350
62
  3
C7
350
63
  3
C8
350
64
  3
C9
350
65
  3
D0
350
66
  3
D1
350
67
  3
D2
350
68
  0
LAYOUT
  5
1E
102
{ACAD_REACTORS
330
1A
102
}
330
1A
100
AcDbPlotSettings
  1

  2
none_device
  4

  6

 40
0.0
 41
0.0
 42
0.0
 43
0.0
 44
0.0
 45
0.0
 46
0.0
 47
0.0
 48
0.0
 49
0.0
140
0.0
141
0.0
142
1.0
143
1.0
 70
   688
 72
     1
 73
     0
 74
     5
  7

 75
    16
147
1.0
148
0.0
149
0.0
100
AcDbLayout
  1
Layout1
 70
     1
 71
     1
 10
0.0
 20
0.0
 11
420.0
 21
297.0
 12
0.0
 22
0.0
 32
0.0
 14
1.0000000000E+20
 24
1.0000000000E+20
 34
1.0000000000E+20
 15
-1.0000000000E+20
 25
-1.0000000000E+20
 35
-1.0000000000E+20
146
0.0
 13
0.0
 23
0.0
 33
0.0
 16
1.0
 26
0.0
 36
0.0
 17
0.0
 27
1.0
 37
0.0
 76
     0
330
1B
  0
LAYOUT
  5
26
102
{ACAD_REACTORS
330
1A
102
}
330
1A
100
AcDbPlotSettings
  1

  2
none_device
  4

  6

 40
0.0
 41
0.0
 42
0.0
 43
0.0
 44
0.0
 45
0.0
 46
0.0
 47
0.0
 48
0.0
 49
0.0
140
0.0
141
0.0
142
1.0
143
1.0
 70
   688
 72
     1
 73
     0
 74
     5
  7

 75
    16
147
1.0
148
0.0
149
0.0
100
AcDbLayout
  1
Layout2
 70
     1
 71
     2
 10
0.0
 20
0.0
 11
0.0
 21
0.0
 12
0.0
 22
0.0
 32
0.0
 14
0.0
 24
0.0
 34
0.0
 15
0.0
 25
0.0
 35
0.0
146
0.0
 13
0.0
 23
0.0
 33
0.0
 16
1.0
 26
0.0
 36
0.0
 17
0.0
 27
1.0
 37
0.0
 76
     0
330
23
  0
LAYOUT
  5
22
102
{ACAD_REACTORS
330
1A
102
}
330
1A
100
AcDbPlotSettings
  1

  2
none_device
  4
Letter_(8.50_x_11.00_Inches)
  6

 40
6.35
 41
6.35
 42
6.35000508
 43
6.35000508
 44
215.9
 45
279.4
 46
0.0
 47
0.0
 48
0.0
 49
0.0
140
0.0
141
0.0
142
1.0
143
1.0
 70
  1712
 72
     1
 73
     0
 74
     0
  7

 75
     0
147
1.0
148
0.0
149
0.0
100
AcDbLayout
  1
Model
 70
     1
 71
     0
 10
0.0
 20
0.0
 11
445.5
 21
315.0
 12
0.0
 22
0.0
 32
0.0
 14
0.0
 24
0.0
 34
0.0
 15
445.5
 25
315.0
 35
0.0
146
0.0
 13
0.0
 23
0.0
 33
0.0
 16
1.0
 26
0.0
 36
0.0
 17
0.0
 27
1.0
 37
0.0
 76
     0
330
1F
331
29
  0
MLINESTYLE
  5
18
102
{ACAD_REACTORS
330
17
102
}
330
17
100
AcDbMlineStyle
  2
Standard
 70
     0
  3

 62
   256
 51
90.0
 52
90.0
 71
     2
 49
0.5
 62
   256
  6
BYLAYER
 49
-0.5
 62
   256
  6
BYLAYER
  0
ACDBPLACEHOLDER
  5
F
102
{ACAD_REACTORS
330
E
102
}
330
E
  0
SCALE
  5
48
102
{ACAD_REACTORS
330
47
102
}
330
47
100
AcDbScale
 70
     0
300
1:1
140
1.0
141
1.0
290
     1
  0
SCALE
  5
49
102
{ACAD_REACTORS
330
47
102
}
330
47
100
AcDbScale
 70
     0
300
1:2
140
1.0
141
2.0
290
     0
  0
SCALE
  5
4A
102
{ACAD_REACTORS
330
47
102
}
330
47
100
AcDbScale
 70
     0
300
1:4
140
1.0
141
4.0
290
     0
  0
SCALE
  5
4B
102
{ACAD_REACTORS
330
47
102
}
330
47
100
AcDbScale
 70
     0
300
1:5
140
1.0
141
5.0
290
     0
  0
SCALE
  5
4C
102
{ACAD_REACTORS
330
47
102
}
330
47
100
AcDbScale
 70
     0
300
1:8
140
1.0
141
8.0
290
     0
  0
SCALE
  5
4D
102
{ACAD_REACTORS
330
47
102
}
330
47
100
AcDbScale
 70
     0
300
1:10
140
1.0
141
10.0
290
     0
  0
SCALE
  5
4E
102
{ACAD_REACTORS
330
47
102
}
330
47
100
AcDbScale
 70
     0
300
1:16
140
1.0
141
16.0
290
     0
  0
SCALE
  5
4F
102
{ACAD_REACTORS
330
47
102
}
330
47
100
AcDbScale
 70
     0
300
1:20
140
1.0
141
20.0
290
     0
  0
SCALE
  5
50
102
{ACAD_REACTORS
330
47
102
}
330
47
100
AcDbScale
 70
     0
300
1:30
140
1.0
141
30.0
290
     0
  0
SCALE
  5
51
102
{ACAD_REACTORS
330
47
102
}
330
47
100
AcDbScale
 70
     0
300
1:40
140
1.0
141
40.0
290
     0
  0
SCALE
  5
52
102
{ACAD_REACTORS
330
47
102
}
330
47
100
AcDbScale
 70
     0
300
1:50
140
1.0
141
50.0
290
     0
  0
SCALE
  5
53
102
{ACAD_REACTORS
330
47
102
}
330
47
100
AcDbScale
 70
     0
300
1:100
140
1.0
141
100.0
290
     0
  0
SCALE
  5
54
102
{ACAD_REACTORS
330
47
102
}
330
47
100
AcDbScale
 70
     0
300
2:1
140
2.0
141
1.0
290
     0
  0
SCALE
  5
55
102
{ACAD_REACTORS
330
47
102
}
330
47
100
AcDbScale
 70
     0
300
4:1
140
4.0
141
1.0
290
     0
  0
SCALE
  5
56
102
{ACAD_REACTORS
330
47
102
}
330
47
100
AcDbScale
 70
     0
300
8:1
140
8.0
141
1.0
290
     0
  0
SCALE
  5
57
102
{ACAD_REACTORS
330
47
102
}
330
47
100
AcDbScale
 70
     0
300
10:1
140
10.0
141
1.0
290
     0
  0
SCALE
  5
58
102
{ACAD_REACTORS
330
47
102
}
330
47
100
AcDbScale
 70
     0
300
100:1
140
100.0
141
1.0
290
     0
  0
SCALE
  5
59
102
{ACAD_REACTORS
330
47
102
}
330
47
100
AcDbScale
 70
     0
300
1/128" = 1'-0"
140
0.0078125
141
12.0
290
     0
  0
SCALE
  5
5A
102
{ACAD_REACTORS
330
47
102
}
330
47
100
AcDbScale
 70
     0
300
1/64" = 1'-0"
140
0.015625
141
12.0
290
     0
  0
SCALE
  5
5B
102
{ACAD_REACTORS
330
47
102
}
330
47
100
AcDbScale
 70
     0
300
1/32" = 1'-0"
140
0.03125
141
12.0
290
     0
  0
SCALE
  5
5C
102
{ACAD_REACTORS
330
47
102
}
330
47
100
AcDbScale
 70
     0
300
1/16" = 1'-0"
140
0.0625
141
12.0
290
     0
  0
SCALE
  5
5D
102
{ACAD_REACTORS
330
47
102
}
330
47
100
AcDbScale
 70
     0
300
3/32" = 1'-0"
140
0.09375
141
12.0
290
     0
  0
SCALE
  5
5E
102
{ACAD_REACTORS
330
47
102
}
330
47
100
AcDbScale
 70
     0
300
1/8" = 1'-0"
140
0.125
141
12.0
290
     0
  0
SCALE
  5
5F
102
{ACAD_REACTORS
330
47
102
}
330
47
100
AcDbScale
 70
     0
300
3/16" = 1'-0"
140
0.1875
141
12.0
290
     0
  0
SCALE
  5
60
102
{ACAD_REACTORS
330
47
102
}
330
47
100
AcDbScale
 70
     0
300
1/4" = 1'-0"
140
0.25
141
12.0
290
     0
  0
SCALE
  5
61
102
{ACAD_REACTORS
330
47
102
}
330
47
100
AcDbScale
 70
     0
300
3/8" = 1'-0"
140
0.375
141
12.0
290
     0
  0
SCALE
  5
62
102
{ACAD_REACTORS
330
47
102
}
330
47
100
AcDbScale
 70
     0
300
1/2" = 1'-0"
140
0.5
141
12.0
290
     0
  0
SCALE
  5
63
102
{ACAD_REACTORS
330
47
102
}
330
47
100
AcDbScale
 70
     0
300
3/4" = 1'-0"
140
0.75
141
12.0
290
     0
  0
SCALE
  5
64
102
{ACAD_REACTORS
330
47
102
}
330
47
100
AcDbScale
 70
     0
300
1" = 1'-0"
140
1.0
141
12.0
290
     0
  0
SCALE
  5
65
102
{ACAD_REACTORS
330
47
102
}
330
47
100
AcDbScale
 70
     0
300
1-1/2" = 1'-0"
140
1.5
141
12.0
290
     0
  0
SCALE
  5
66
102
{ACAD_REACTORS
330
47
102
}
330
47
100
AcDbScale
 70
     0
300
3" = 1'-0"
140
3.0
141
12.0
290
     0
  0
SCALE
  5
67
102
{ACAD_REACTORS
330
47
102
}
330
47
100
AcDbScale
 70
     0
300
6" = 1'-0"
140
6.0
141
12.0
290
     0
  0
SCALE
  5
68
102
{ACAD_REACTORS
330
47
102
}
330
47
100
AcDbScale
 70
     0
300
1'-0" = 1'-0"
140
12.0
141
12.0
290
     0
  0
ENDSEC
  0
EOF
