  0
SECTION
  2
HEADER
  9
$ACADVER
  1
AC1015
  9
$ACADMAINTVER
 70
     6
  9
$DWGCODEPAGE
  3
ANSI_1252
  9
$INSBASE
 10
0.0
 20
0.0
 30
0.0
  9
$EXTMIN
 10
0.0
 20
0.0
 30
0.0
  9
$EXTMAX
 10
386.1
 20
273.0
 30
0.0
  9
$LIMMIN
 10
0.0
 20
0.0
  9
$LIMMAX
 10
386.1
 20
273.0
  9
$ORTHOMODE
 70
     0
  9
$REGENMODE
 70
     1
  9
$FILLMODE
 70
     1
  9
$QTEXTMODE
 70
     0
  9
$MIRRTEXT
 70
     1
  9
$LTSCALE
 40
1.3
  9
$ATTMODE
 70
     1
  9
$TEXTSIZE
 40
5.0447222222
  9
$TRACEWID
 40
1.0
  9
$TEXTSTYLE
  7
Standard
  9
$CLAYER
  8
0
  9
$CELTYPE
  6
ByLayer
  9
$CECOLOR
 62
   256
  9
$CELTSCALE
 40
1.0
  9
$DISPSILH
 70
     0
  9
$DIMSCALE
 40
1.0
  9
$DIMASZ
 40
4.2926
  9
$DIMEXO
 40
1.3
  9
$DIMDLI
 40
3.75
  9
$DIMRND
 40
0.0
  9
$DIMDLE
 40
0.0
  9
$DIMEXE
 40
1.3
  9
$DIMTP
 40
0.0
  9
$DIMTM
 40
0.0
  9
$DIMTXT
 40
5.0447222222
  9
$DIMCEN
 40
2.5
  9
$DIMTSZ
 40
0.0
  9
$DIMTOL
 70
     0
  9
$DIMLIM
 70
     0
  9
$DIMTIH
 70
     1
  9
$DIMTOH
 70
     1
  9
$DIMSE1
 70
     0
  9
$DIMSE2
 70
     0
  9
$DIMTAD
 70
     1
  9
$DIMZIN
 70
     0
  9
$DIMBLK
  1

  9
$DIMASO
 70
     1
  9
$DIMSHO
 70
     1
  9
$DIMPOST
  1

  9
$DIMAPOST
  1

  9
$DIMALT
 70
     0
  9
$DIMALTD
 70
     3
  9
$DIMALTF
 40
0.0393700787
  9
$DIMLFAC
 40
1.0
  9
$DIMTOFL
 70
     1
  9
$DIMTVP
 40
0.0
  9
$DIMTIX
 70
     0
  9
$DIMSOXD
 70
     0
  9
$DIMSAH
 70
     0
  9
$DIMBLK1
  1

  9
$DIMBLK2
  1

  9
$DIMSTYLE
  2
ISO-25
  9
$DIMCLRD
 70
     0
  9
$DIMCLRE
 70
     0
  9
$DIMCLRT
 70
     0
  9
$DIMTFAC
 40
1.0
  9
$DIMGAP
 40
1.9812
  9
$DIMJUST
 70
     0
  9
$DIMSD1
 70
     0
  9
$DIMSD2
 70
     0
  9
$DIMTOLJ
 70
     0
  9
$DIMTZIN
 70
     0
  9
$DIMALTZ
 70
     0
  9
$DIMALTTZ
 70
     0
  9
$DIMUPT
 70
     0
  9
$DIMDEC
 70
     2
  9
$DIMTDEC
 70
     2
  9
$DIMALTU
 70
     2
  9
$DIMALTTD
 70
     3
  9
$DIMTXSTY
  7
Standard
  9
$DIMAUNIT
 70
     0
  9
$DIMADEC
 70
     2
  9
$DIMALTRND
 40
0.0
  9
$DIMAZIN
 70
     0
  9
$DIMDSEP
 70
    44
  9
$DIMATFIT
 70
     3
  9
$DIMFRAC
 70
     0
  9
$DIMLDRBLK
  1

  9
$DIMLUNIT
 70
     2
  9
$DIMLWD
 70
    -2
  9
$DIMLWE
 70
    -2
  9
$DIMTMOVE
 70
     0
  9
$LUNITS
 70
     2
  9
$LUPREC
 70
     2
  9
$SKETCHINC
 40
1.0
  9
$FILLETRAD
 40
10.0
  9
$AUNITS
 70
     1
  9
$AUPREC
 70
     2
  9
$MENU
  1
.
  9
$ELEVATION
 40
0.0
  9
$PELEVATION
 40
0.0
  9
$THICKNESS
 40
0.0
  9
$LIMCHECK
 70
     0
  9
$CHAMFERA
 40
0.0
  9
$CHAMFERB
 40
0.0
  9
$CHAMFERC
 40
0.0
  9
$CHAMFERD
 40
0.0
  9
$SKPOLY
 70
     0
  9
$TDCREATE
 40
2458606.654981944
  9
$TDUCREATE
 40
2458606.425815278
  9
$TDUPDATE
 40
2458606.654983102
  9
$TDUUPDATE
 40
2458606.425816435
  9
$TDINDWG
 40
0.0000000116
  9
$TDUSRTIMER
 40
0.0000000116
  9
$USRTIMER
 70
     1
  9
$ANGBASE
 50
0.0
  9
$ANGDIR
 70
     0
  9
$PDMODE
 70
     0
  9
$PDSIZE
 40
-1.0
  9
$PLINEWID
 40
0.0
  9
$SPLFRAME
 70
     0
  9
$SPLINETYPE
 70
     6
  9
$SPLINESEGS
 70
     8
  9
$HANDSEED
  5
1B9
  9
$SURFTAB1
 70
     6
  9
$SURFTAB2
 70
     6
  9
$SURFTYPE
 70
     6
  9
$SURFU
 70
     6
  9
$SURFV
 70
     6
  9
$UCSBASE
  2

  9
$UCSNAME
  2

  9
$UCSORG
 10
0.0
 20
0.0
 30
0.0
  9
$UCSXDIR
 10
1.0
 20
0.0
 30
0.0
  9
$UCSYDIR
 10
0.0
 20
1.0
 30
0.0
  9
$UCSORTHOREF
  2

  9
$UCSORTHOVIEW
 70
     0
  9
$UCSORGTOP
 10
0.0
 20
0.0
 30
0.0
  9
$UCSORGBOTTOM
 10
0.0
 20
0.0
 30
0.0
  9
$UCSORGLEFT
 10
0.0
 20
0.0
 30
0.0
  9
$UCSORGRIGHT
 10
0.0
 20
0.0
 30
0.0
  9
$UCSORGFRONT
 10
0.0
 20
0.0
 30
0.0
  9
$UCSORGBACK
 10
0.0
 20
0.0
 30
0.0
  9
$PUCSBASE
  2

  9
$PUCSNAME
  2

  9
$PUCSORG
 10
0.0
 20
0.0
 30
0.0
  9
$PUCSXDIR
 10
1.0
 20
0.0
 30
0.0
  9
$PUCSYDIR
 10
0.0
 20
1.0
 30
0.0
  9
$PUCSORTHOREF
  2

  9
$PUCSORTHOVIEW
 70
     0
  9
$PUCSORGTOP
 10
0.0
 20
0.0
 30
0.0
  9
$PUCSORGBOTTOM
 10
0.0
 20
0.0
 30
0.0
  9
$PUCSORGLEFT
 10
0.0
 20
0.0
 30
0.0
  9
$PUCSORGRIGHT
 10
0.0
 20
0.0
 30
0.0
  9
$PUCSORGFRONT
 10
0.0
 20
0.0
 30
0.0
  9
$PUCSORGBACK
 10
0.0
 20
0.0
 30
0.0
  9
$USERI1
 70
     0
  9
$USERI2
 70
     0
  9
$USERI3
 70
     0
  9
$USERI4
 70
     0
  9
$USERI5
 70
     0
  9
$USERR1
 40
0.0
  9
$USERR2
 40
0.0
  9
$USERR3
 40
0.0
  9
$USERR4
 40
0.0
  9
$USERR5
 40
0.0
  9
$WORLDVIEW
 70
     1
  9
$SHADEDGE
 70
     3
  9
$SHADEDIF
 70
    70
  9
$TILEMODE
 70
     1
  9
$MAXACTVP
 70
    64
  9
$PINSBASE
 10
0.0
 20
0.0
 30
0.0
  9
$PLIMCHECK
 70
     0
  9
$PEXTMIN
 10
1.0000000000E+20
 20
1.0000000000E+20
 30
1.0000000000E+20
  9
$PEXTMAX
 10
-1.0000000000E+20
 20
-1.0000000000E+20
 30
-1.0000000000E+20
  9
$PLIMMIN
 10
0.0
 20
0.0
  9
$PLIMMAX
 10
420.0
 20
297.0
  9
$UNITMODE
 70
     0
  9
$VISRETAIN
 70
     1
  9
$PLINEGEN
 70
     0
  9
$PSLTSCALE
 70
     1
  9
$TREEDEPTH
 70
  3020
  9
$CMLSTYLE
  2
Standard
  9
$CMLJUST
 70
     0
  9
$CMLSCALE
 40
20.0
  9
$PROXYGRAPHICS
 70
     1
  9
$MEASUREMENT
 70
     1
  9
$CELWEIGHT
370
    -1
  9
$ENDCAPS
280
     0
  9
$JOINSTYLE
280
     0
  9
$LWDISPLAY
290
     1
  9
$INSUNITS
 70
     4
  9
$HYPERLINKBASE
  1

  9
$STYLESHEET
  1

  9
$XEDIT
290
     1
  9
$CEPSNTYPE
380
     0
  9
$PSTYLEMODE
290
     1
  9
$FINGERPRINTGUID
  2
{A83C6AB4-F26E-4426-95BA-390E5831A273}
  9
$VERSIONGUID
  2
{FAEB1C32-E019-11D5-929B-00C0DF256EC4}
  9
$EXTNAMES
290
     1
  9
$PSVPSCALE
 40
0.0
  9
$OLESTARTUP
290
     0
  0
ENDSEC
  0
SECTION
  2
CLASSES
  0
CLASS
  1
ACDBDICTIONARYWDFLT
  2
AcDbDictionaryWithDefault
  3
ObjectDBX Classes
 90
        0
280
     0
281
     0
  0
CLASS
  1
VISUALSTYLE
  2
AcDbVisualStyle
  3
ObjectDBX Classes
 90
     4095
280
     0
281
     0
  0
CLASS
  1
MATERIAL
  2
AcDbMaterial
  3
ObjectDBX Classes
 90
     1153
280
     0
281
     0
  0
CLASS
  1
SCALE
  2
AcDbScale
  3
ObjectDBX Classes
 90
     1153
280
     0
281
     0
  0
CLASS
  1
SUN
  2
AcDbSun
  3
SCENEOE
 90
     1153
280
     0
281
     0
  0
CLASS
  1
ACDBPLACEHOLDER
  2
AcDbPlaceHolder
  3
ObjectDBX Classes
 90
        0
280
     0
281
     0
  0
CLASS
  1
LAYOUT
  2
AcDbLayout
  3
ObjectDBX Classes
 90
        0
280
     0
281
     0
  0
ENDSEC
  0
SECTION
  2
TABLES
  0
TABLE
  2
VPORT
  5
8
330
0
100
AcDbSymbolTable
 70
     1
  0
VPORT
  5
29
330
8
100
AcDbSymbolTableRecord
100
AcDbViewportTableRecord
  2
*Active
 70
     0
 10
0.0
 20
0.0
 11
1.0
 21
1.0
 12
193.05
 22
136.5
 13
0.0
 23
0.0
 14
10.0
 24
10.0
 15
10.0
 25
10.0
 16
0.0
 26
0.0
 36
1.0
 17
0.0
 27
0.0
 37
0.0
 40
273.0
 41
1.4142857143
 42
50.0
 43
0.0
 44
0.0
 50
0.0
 51
0.0
 71
     0
 72
  2000
 73
     1
 74
     3
 75
     0
 76
     0
 77
     0
 78
     0
281
     0
 65
     1
110
0.0
120
0.0
130
0.0
111
1.0
121
0.0
131
0.0
112
0.0
122
1.0
132
0.0
 79
     0
146
0.0
  0
ENDTAB
  0
TABLE
  2
LTYPE
  5
5
330
0
100
AcDbSymbolTable
 70
     6
  0
LTYPE
  5
14
330
5
100
AcDbSymbolTableRecord
100
AcDbLinetypeTableRecord
  2
ByBlock
 70
     0
  3

 72
    65
 73
     0
 40
0.0
  0
LTYPE
  5
15
330
5
100
AcDbSymbolTableRecord
100
AcDbLinetypeTableRecord
  2
ByLayer
 70
     0
  3

 72
    65
 73
     0
 40
0.0
  0
LTYPE
  5
16
330
5
100
AcDbSymbolTableRecord
100
AcDbLinetypeTableRecord
  2
Continuous
 70
     0
  3
Solid line
 72
    65
 73
     0
 40
0.0
  0
LTYPE
  5
6A
330
5
100
AcDbSymbolTableRecord
100
AcDbLinetypeTableRecord
  2
HIDDEN
 70
     0
  3
Hidden __ __ __ __ __ __ __ __ __ __ __ __ __ __
 72
    65
 73
     2
 40
1.905
 49
1.27
 74
     0
 49
-0.635
 74
     0
  0
LTYPE
  5
6B
330
5
100
AcDbSymbolTableRecord
100
AcDbLinetypeTableRecord
  2
PHANTOM
 70
     0
  3
Phantom ______  __  __  ______  __  __  ______
 72
    65
 73
     6
 40
12.7
 49
6.35
 74
     0
 49
-1.27
 74
     0
 49
1.27
 74
     0
 49
-1.27
 74
     0
 49
1.27
 74
     0
 49
-1.27
 74
     0
  0
LTYPE
  5
6C
330
5
100
AcDbSymbolTableRecord
100
AcDbLinetypeTableRecord
  2
CENTER
 70
     0
  3
Center ____ _ ____ _ ____ _ ____ _ ____ _ ____
 72
    65
 73
     4
 40
10.16
 49
6.35
 74
     0
 49
-1.27
 74
     0
 49
1.27
 74
     0
 49
-1.27
 74
     0
  0
LTYPE
  5
6D
330
5
100
AcDbSymbolTableRecord
100
AcDbLinetypeTableRecord
  2
CENTERX2
 70
     0
  3
Center (2x) ________  __  ________  __  _____
 72
    65
 73
     4
 40
20.32
 49
12.7
 74
     0
 49
-2.54
 74
     0
 49
2.54
 74
     0
 49
-2.54
 74
     0
  0
LTYPE
  5
6E
330
5
100
AcDbSymbolTableRecord
100
AcDbLinetypeTableRecord
  2
DOT2
 70
     0
  3
Dot (.5x) ........................................
 72
    65
 73
     2
 40
0.635
 49
0.0
 74
     0
 49
-0.635
 74
     0
  0
ENDTAB
  0
TABLE
  2
LAYER
  5
2
330
0
100
AcDbSymbolTable
 70
     8
  0
LAYER
  5
10
330
2
100
AcDbSymbolTableRecord
100
AcDbLayerTableRecord
  2
0
 70
     0
 62
     7
  6
Continuous
370
    -3
390
F
  0
LAYER
  5
6F
330
2
100
AcDbSymbolTableRecord
100
AcDbLayerTableRecord
  2
FORMAT
 70
     0
 62
     7
  6
Continuous
370
    -3
390
F
  0
LAYER
  5
70
330
2
100
AcDbSymbolTableRecord
100
AcDbLayerTableRecord
  2
SLD-0
 70
     0
 62
     2
  6
Continuous
370
    -3
390
F
  0
LAYER
  5
71
330
2
100
AcDbSymbolTableRecord
100
AcDbLayerTableRecord
  2
DIM
 70
     0
 62
   179
  6
Continuous
370
    -3
390
F
  0
LAYER
  5
72
330
2
100
AcDbSymbolTableRecord
100
AcDbLayerTableRecord
  2
SLD-DEFPOINTS
 70
     0
 62
   179
  6
Continuous
370
    -3
390
F
  0
LAYER
  5
73
330
2
100
AcDbSymbolTableRecord
100
AcDbLayerTableRecord
  2
HAT
 70
     0
 62
   135
  6
Continuous
370
    -3
390
F
  0
LAYER
  5
74
330
2
100
AcDbSymbolTableRecord
100
AcDbLayerTableRecord
  2
JOB
 70
     0
 62
   201
  6
Continuous
370
    -3
390
F
  0
LAYER
  5
75
330
2
100
AcDbSymbolTableRecord
100
AcDbLayerTableRecord
  2
INSPECTION_REPORT
 70
     0
 62
   255
  6
Continuous
370
    -3
390
F
  0
ENDTAB
  0
TABLE
  2
STYLE
  5
3
330
0
100
AcDbSymbolTable
 70
     4
  0
STYLE
  5
11
330
3
100
AcDbSymbolTableRecord
100
AcDbTextStyleTableRecord
  2
Standard
 70
     0
 40
0.0
 41
1.0
 50
0.0
 71
     0
 42
5.0447222222
  3
txt
  4

  0
STYLE
  5
96
330
3
100
AcDbSymbolTableRecord
100
AcDbTextStyleTableRecord
  2
SLDTEXTSTYLE0
 70
     0
 40
0.0
 41
0.7
 50
0.0
 71
     0
 42
5.0447222222
  3
TXT
  4

  0
STYLE
  5
98
330
3
100
AcDbSymbolTableRecord
100
AcDbTextStyleTableRecord
  2
SLDTEXTSTYLE1
 70
     0
 40
0.0
 41
0.75
 50
0.0
 71
     0
 42
5.0447222222
  3
TXT
  4

  0
STYLE
  5
AB
330
3
100
AcDbSymbolTableRecord
100
AcDbTextStyleTableRecord
  2
SLDTEXTSTYLE2
 70
     0
 40
0.0
 41
0.6875
 50
0.0
 71
     0
 42
5.0447222222
  3
TXT
  4

  0
ENDTAB
  0
TABLE
  2
VIEW
  5
6
330
0
100
AcDbSymbolTable
 70
     0
  0
ENDTAB
  0
TABLE
  2
UCS
  5
7
330
0
100
AcDbSymbolTable
 70
     0
  0
ENDTAB
  0
TABLE
  2
APPID
  5
9
330
0
100
AcDbSymbolTable
 70
     1
  0
APPID
  5
12
330
9
100
AcDbSymbolTableRecord
100
AcDbRegAppTableRecord
  2
ACAD
 70
     0
  0
ENDTAB
  0
TABLE
  2
DIMSTYLE
  5
A
330
0
100
AcDbSymbolTable
 70
     3
100
AcDbDimStyleTable
  0
DIMSTYLE
105
27
330
A
100
AcDbSymbolTableRecord
100
AcDbDimStyleTableRecord
  2
ISO-25
 70
     0
 41
2.5
 42
0.625
 43
3.75
 44
1.25
 73
     0
 74
     0
 77
     1
 78
     8
140
2.5
141
2.5
143
0.0393700787
147
0.625
171
     3
172
     1
178
     0
271
     2
272
     2
274
     3
278
    44
283
     0
284
     8
340
11
  0
DIMSTYLE
105
178
102
{ACAD_REACTORS
330
177
330
183
330
18E
330
198
330
1A2
102
}
330
A
100
AcDbSymbolTableRecord
100
AcDbDimStyleTableRecord
  2
SLDDIMSTYLE0
 70
     0
 41
4.2926
 44
0.0
 45
0.000000001
 73
     0
 74
     0
 77
     1
 78
    12
 79
     3
140
3.7835416667
147
0.9458854167
173
     1
178
     0
271
     2
272
     2
276
     2
284
    12
340
96
  0
DIMSTYLE
105
1AD
102
{ACAD_REACTORS
330
1AC
102
}
330
A
100
AcDbSymbolTableRecord
100
AcDbDimStyleTableRecord
  2
SLDDIMSTYLE1
 70
     0
 41
4.2926
 44
0.0
 45
0.000000001
 73
     0
 74
     0
 77
     1
 78
     4
 79
     1
140
3.7835416667
147
0.9458854167
173
     1
178
     0
271
     2
272
     2
276
     2
284
    12
340
96
  0
ENDTAB
  0
TABLE
  2
BLOCK_RECORD
  5
1
330
0
100
AcDbSymbolTable
 70
     8
  0
BLOCK_RECORD
  5
1F
330
1
100
AcDbSymbolTableRecord
100
AcDbBlockTableRecord
  2
*Model_Space
340
22
  0
BLOCK_RECORD
  5
1B
330
1
100
AcDbSymbolTableRecord
100
AcDbBlockTableRecord
  2
*Paper_Space
340
1E
  0
BLOCK_RECORD
  5
23
330
1
100
AcDbSymbolTableRecord
100
AcDbBlockTableRecord
  2
*Paper_Space0
340
26
  0
BLOCK_RECORD
  5
E8
330
1
100
AcDbSymbolTableRecord
100
AcDbBlockTableRecord
  2
SW_CENTERMARKSYMBOL_0
340
0
102
{BLKREFS
331
F3
102
}
  0
BLOCK_RECORD
  5
179
330
1
100
AcDbSymbolTableRecord
100
AcDbBlockTableRecord
  2
_D
340
0
  0
BLOCK_RECORD
  5
184
330
1
100
AcDbSymbolTableRecord
100
AcDbBlockTableRecord
  2
_D_1
340
0
  0
BLOCK_RECORD
  5
18F
330
1
100
AcDbSymbolTableRecord
100
AcDbBlockTableRecord
  2
_D_2
340
0
  0
BLOCK_RECORD
  5
199
330
1
100
AcDbSymbolTableRecord
100
AcDbBlockTableRecord
  2
_D_3
340
0
  0
BLOCK_RECORD
  5
1A3
330
1
100
AcDbSymbolTableRecord
100
AcDbBlockTableRecord
  2
_D_4
340
0
  0
BLOCK_RECORD
  5
1AE
330
1
100
AcDbSymbolTableRecord
100
AcDbBlockTableRecord
  2
_D_5
340
0
  0
ENDTAB
  0
ENDSEC
  0
SECTION
  2
BLOCKS
  0
BLOCK
  5
20
330
1F
100
AcDbEntity
  8
0
100
AcDbBlockBegin
  2
*Model_Space
 70
     0
 10
0.0
 20
0.0
 30
0.0
  3
*Model_Space
  1
*Model_Space
  0
ENDBLK
  5
21
330
1F
100
AcDbEntity
  8
0
100
AcDbBlockEnd
  0
BLOCK
  5
1C
330
1B
100
AcDbEntity
 67
     1
  8
0
100
AcDbBlockBegin
  2
*Paper_Space
 70
     0
 10
0.0
 20
0.0
 30
0.0
  3
*Paper_Space
  1
*Paper_Space
  0
ENDBLK
  5
1D
330
1B
100
AcDbEntity
 67
     1
  8
0
100
AcDbBlockEnd
  0
BLOCK
  5
24
330
23
100
AcDbEntity
  8
0
100
AcDbBlockBegin
  2
*Paper_Space0
 70
     0
 10
0.0
 20
0.0
 30
0.0
  3
*Paper_Space0
  1
*Paper_Space0
  0
ENDBLK
  5
25
330
23
100
AcDbEntity
  8
0
100
AcDbBlockEnd
  0
BLOCK
  5
E9
330
E8
100
AcDbEntity
  8
0
100
AcDbBlockBegin
  2
SW_CENTERMARKSYMBOL_0
 70
     0
 10
0.0
 20
0.0
 30
0.0
  3
SW_CENTERMARKSYMBOL_0
  1
SW_CENTERMARKSYMBOL_0
  0
LINE
  5
EB
330
E8
100
AcDbEntity
  8
DIM
 62
     0
100
AcDbLine
 10
0.0
 20
0.0
 30
0.0
 11
0.0
 21
2.5
 31
0.0
  0
LINE
  5
EC
330
E8
100
AcDbEntity
  8
DIM
 62
     0
100
AcDbLine
 10
0.0
 20
0.0
 30
0.0
 11
-2.5
 21
0.0
 31
0.0
  0
LINE
  5
ED
330
E8
100
AcDbEntity
  8
DIM
 62
     0
100
AcDbLine
 10
0.0
 20
0.0
 30
0.0
 11
0.0
 21
-2.5
 31
0.0
  0
LINE
  5
EE
330
E8
100
AcDbEntity
  8
DIM
 62
     0
100
AcDbLine
 10
0.0
 20
0.0
 30
0.0
 11
2.5
 21
0.0
 31
0.0
  0
LINE
  5
EF
330
E8
100
AcDbEntity
  8
DIM
 62
     0
100
AcDbLine
 10
0.0
 20
5.0
 30
0.0
 11
0.0
 21
51.1328427125
 31
0.0
  0
LINE
  5
F0
330
E8
100
AcDbEntity
  8
DIM
 62
     0
100
AcDbLine
 10
-5.0
 20
0.0
 30
0.0
 11
-51.1328427125
 21
0.0
 31
0.0
  0
LINE
  5
F1
330
E8
100
AcDbEntity
  8
DIM
 62
     0
100
AcDbLine
 10
0.0
 20
-5.0
 30
0.0
 11
0.0
 21
-51.1328427125
 31
0.0
  0
LINE
  5
F2
330
E8
100
AcDbEntity
  8
DIM
 62
     0
100
AcDbLine
 10
5.0
 20
0.0
 30
0.0
 11
51.1328427125
 21
0.0
 31
0.0
  0
ENDBLK
  5
EA
330
E8
100
AcDbEntity
  8
0
100
AcDbBlockEnd
  0
BLOCK
  5
17A
330
179
100
AcDbEntity
  8
0
100
AcDbBlockBegin
  2
_D
 70
     0
 10
0.0
 20
0.0
 30
0.0
  3
_D
  1
_D
  0
SOLID
  5
17C
330
179
100
AcDbEntity
  8
DIM
100
AcDbTrace
 10
345.0685116416
 20
144.6528964574
 30
0.0
 11
344.4081116416
 21
140.3602964574
 31
0.0
 12
345.7289116416
 22
140.3602964574
 32
0.0
 13
345.7289116416
 23
140.3602964574
 33
0.0
  0
SOLID
  5
17D
330
179
100
AcDbEntity
  8
DIM
100
AcDbTrace
 10
345.0685116416
 20
112.6528964574
 30
0.0
 11
345.7289116416
 21
116.9454964574
 31
0.0
 12
344.4081116416
 22
116.9454964574
 32
0.0
 13
344.4081116416
 23
116.9454964574
 33
0.0
  0
LINE
  5
17E
330
179
100
AcDbEntity
  8
DIM
100
AcDbLine
 10
326.0543777762
 20
144.6528964574
 30
0.0
 11
346.3685116416
 21
144.6528964574
 31
0.0
  0
LINE
  5
17F
330
179
100
AcDbEntity
  8
DIM
100
AcDbLine
 10
326.0543777762
 20
112.6528964574
 30
0.0
 11
346.3685116416
 21
112.6528964574
 31
0.0
  0
LINE
  5
180
330
179
100
AcDbEntity
  8
DIM
100
AcDbLine
 10
345.0685116416
 20
144.6528964574
 30
0.0
 11
345.0685116416
 21
112.6528964574
 31
0.0
  0
MTEXT
  5
181
330
179
100
AcDbEntity
  8
DIM
100
AcDbMText
 10
340.1912698344
 20
123.170089121
 30
0.0
 40
3.7835416667
 41
0.0
 71
     1
 72
     1
  1
%%c
  7
SLDTEXTSTYLE0
 11
-7.044195017643634E-15
 21
1.0
 31
0.0
 73
     1
 44
1.0
  0
MTEXT
  5
182
330
179
100
AcDbEntity
  8
DIM
100
AcDbMText
 10
340.1912698344
 20
129.0209157905
 30
0.0
 40
3.7835416667
 41
0.0
 71
     1
 72
     1
  1
32
  7
SLDTEXTSTYLE0
 11
-7.044195017643634E-15
 21
1.0
 31
0.0
 73
     1
 44
1.0
  0
ENDBLK
  5
17B
330
179
100
AcDbEntity
  8
0
100
AcDbBlockEnd
  0
BLOCK
  5
185
330
184
100
AcDbEntity
  8
0
100
AcDbBlockBegin
  2
_D_1
 70
     0
 10
0.0
 20
0.0
 30
0.0
  3
_D_1
  1
_D_1
  0
SOLID
  5
187
330
184
100
AcDbEntity
  8
DIM
100
AcDbTrace
 10
354.2223943294
 20
167.6528964574
 30
0.0
 11
353.5619943294
 21
163.3602964574
 31
0.0
 12
354.8827943294
 22
163.3602964574
 32
0.0
 13
354.8827943294
 23
163.3602964574
 33
0.0
  0
SOLID
  5
188
330
184
100
AcDbEntity
  8
DIM
100
AcDbTrace
 10
354.2223943294
 20
89.6528964574
 30
0.0
 11
354.8827943294
 21
93.9454964574
 31
0.0
 12
353.5619943294
 22
93.9454964574
 32
0.0
 13
353.5619943294
 23
93.9454964574
 33
0.0
  0
LINE
  5
189
330
184
100
AcDbEntity
  8
DIM
100
AcDbLine
 10
301.545125505
 20
167.6528964574
 30
0.0
 11
355.5223943294
 21
167.6528964574
 31
0.0
  0
LINE
  5
18A
330
184
100
AcDbEntity
  8
DIM
100
AcDbLine
 10
301.545125505
 20
89.6528964574
 30
0.0
 11
355.5223943294
 21
89.6528964574
 31
0.0
  0
LINE
  5
18B
330
184
100
AcDbEntity
  8
DIM
100
AcDbLine
 10
354.2223943294
 20
167.6528964574
 30
0.0
 11
354.2223943294
 21
89.6528964574
 31
0.0
  0
MTEXT
  5
18C
330
184
100
AcDbEntity
  8
DIM
100
AcDbMText
 10
349.3451525221
 20
123.170089121
 30
0.0
 40
3.7835416667
 41
0.0
 71
     1
 72
     1
  1
%%c
  7
SLDTEXTSTYLE0
 11
-7.044195017643634E-15
 21
1.0
 31
0.0
 73
     1
 44
1.0
  0
MTEXT
  5
18D
330
184
100
AcDbEntity
  8
DIM
100
AcDbMText
 10
349.3451525221
 20
129.0209157905
 30
0.0
 40
3.7835416667
 41
0.0
 71
     1
 72
     1
  1
78
  7
SLDTEXTSTYLE0
 11
-7.044195017643634E-15
 21
1.0
 31
0.0
 73
     1
 44
1.0
  0
ENDBLK
  5
186
330
184
100
AcDbEntity
  8
0
100
AcDbBlockEnd
  0
BLOCK
  5
190
330
18F
100
AcDbEntity
  8
0
100
AcDbBlockBegin
  2
_D_2
 70
     0
 10
0.0
 20
0.0
 30
0.0
  3
_D_2
  1
_D_2
  0
SOLID
  5
192
330
18F
100
AcDbEntity
  8
DIM
100
AcDbTrace
 10
325.245125505
 20
71.7131429481
 30
0.0
 11
320.952525505
 21
72.3735429481
 31
0.0
 12
320.952525505
 22
71.0527429481
 32
0.0
 13
320.952525505
 23
71.0527429481
 33
0.0
  0
SOLID
  5
193
330
18F
100
AcDbEntity
  8
DIM
100
AcDbTrace
 10
301.245125505
 20
71.7131429481
 30
0.0
 11
305.537725505
 21
71.0527429481
 31
0.0
 12
305.537725505
 22
72.3735429481
 32
0.0
 13
305.537725505
 23
72.3735429481
 33
0.0
  0
LINE
  5
194
330
18F
100
AcDbEntity
  8
DIM
100
AcDbLine
 10
325.245125505
 20
112.2028964574
 30
0.0
 11
325.245125505
 21
70.4131429481
 31
0.0
  0
LINE
  5
195
330
18F
100
AcDbEntity
  8
DIM
100
AcDbLine
 10
301.245125505
 20
89.3528964574
 30
0.0
 11
301.245125505
 21
70.4131429481
 31
0.0
  0
LINE
  5
196
330
18F
100
AcDbEntity
  8
DIM
100
AcDbLine
 10
325.245125505
 20
71.7131429481
 30
0.0
 11
301.245125505
 21
71.7131429481
 31
0.0
  0
MTEXT
  5
197
330
18F
100
AcDbEntity
  8
DIM
100
AcDbMText
 10
310.6877315034
 20
76.5903847553
 30
0.0
 40
3.7835416667
 41
0.0
 71
     1
 72
     1
  1
24
  7
SLDTEXTSTYLE0
 73
     1
 44
1.0
  0
ENDBLK
  5
191
330
18F
100
AcDbEntity
  8
0
100
AcDbBlockEnd
  0
BLOCK
  5
19A
330
199
100
AcDbEntity
  8
0
100
AcDbBlockBegin
  2
_D_3
 70
     0
 10
0.0
 20
0.0
 30
0.0
  3
_D_3
  1
_D_3
  0
SOLID
  5
19C
330
199
100
AcDbEntity
  8
DIM
100
AcDbTrace
 10
251.245125505
 20
71.7131429481
 30
0.0
 11
255.537725505
 21
71.0527429481
 31
0.0
 12
255.537725505
 22
72.3735429481
 32
0.0
 13
255.537725505
 23
72.3735429481
 33
0.0
  0
SOLID
  5
19D
330
199
100
AcDbEntity
  8
DIM
100
AcDbTrace
 10
301.245125505
 20
71.7131429481
 30
0.0
 11
296.952525505
 21
72.3735429481
 31
0.0
 12
296.952525505
 22
71.0527429481
 32
0.0
 13
296.952525505
 23
71.0527429481
 33
0.0
  0
LINE
  5
19E
330
199
100
AcDbEntity
  8
DIM
100
AcDbLine
 10
251.245125505
 20
92.4278964574
 30
0.0
 11
251.245125505
 21
70.4131429481
 31
0.0
  0
LINE
  5
19F
330
199
100
AcDbEntity
  8
DIM
100
AcDbLine
 10
301.245125505
 20
89.3528964574
 30
0.0
 11
301.245125505
 21
70.4131429481
 31
0.0
  0
LINE
  5
1A0
330
199
100
AcDbEntity
  8
DIM
100
AcDbLine
 10
251.245125505
 20
71.7131429481
 30
0.0
 11
301.245125505
 21
71.7131429481
 31
0.0
  0
MTEXT
  5
1A1
330
199
100
AcDbEntity
  8
DIM
100
AcDbMText
 10
273.6877315034
 20
76.5903847553
 30
0.0
 40
3.7835416667
 41
0.0
 71
     1
 72
     1
  1
50
  7
SLDTEXTSTYLE0
 73
     1
 44
1.0
  0
ENDBLK
  5
19B
330
199
100
AcDbEntity
  8
0
100
AcDbBlockEnd
  0
BLOCK
  5
1A4
330
1A3
100
AcDbEntity
  8
0
100
AcDbBlockBegin
  2
_D_4
 70
     0
 10
0.0
 20
0.0
 30
0.0
  3
_D_4
  1
_D_4
  0
SOLID
  5
1A6
330
1A3
100
AcDbEntity
  8
DIM
100
AcDbTrace
 10
149.495125505
 20
59.1027964574
 30
0.0
 11
153.787725505
 21
58.4423964574
 31
0.0
 12
153.787725505
 22
59.7631964574
 32
0.0
 13
153.787725505
 23
59.7631964574
 33
0.0
  0
SOLID
  5
1A7
330
1A3
100
AcDbEntity
  8
DIM
100
AcDbTrace
 10
338.245125505
 20
59.1027964574
 30
0.0
 11
333.952525505
 21
59.7631964574
 31
0.0
 12
333.952525505
 22
58.4423964574
 32
0.0
 13
333.952525505
 23
58.4423964574
 33
0.0
  0
LINE
  5
1A8
330
1A3
100
AcDbEntity
  8
DIM
100
AcDbLine
 10
149.495125505
 20
127.3528964574
 30
0.0
 11
149.495125505
 21
57.8027964574
 31
0.0
  0
LINE
  5
1A9
330
1A3
100
AcDbEntity
  8
DIM
100
AcDbLine
 10
338.245125505
 20
107.3528964574
 30
0.0
 11
338.245125505
 21
57.8027964574
 31
0.0
  0
LINE
  5
1AA
330
1A3
100
AcDbEntity
  8
DIM
100
AcDbLine
 10
149.495125505
 20
59.1027964574
 30
0.0
 11
338.245125505
 21
59.1027964574
 31
0.0
  0
MTEXT
  5
1AB
330
1A3
100
AcDbEntity
  8
DIM
100
AcDbMText
 10
236.8040108391
 20
63.9800382646
 30
0.0
 40
3.7835416667
 41
0.0
 71
     1
 72
     1
  1
188.75
  7
SLDTEXTSTYLE0
 73
     1
 44
1.0
  0
ENDBLK
  5
1A5
330
1A3
100
AcDbEntity
  8
0
100
AcDbBlockEnd
  0
BLOCK
  5
1AF
330
1AE
100
AcDbEntity
  8
0
100
AcDbBlockBegin
  2
_D_5
 70
     0
 10
0.0
 20
0.0
 30
0.0
  3
_D_5
  1
_D_5
  0
SOLID
  5
1B1
330
1AE
100
AcDbEntity
  8
DIM
100
AcDbTrace
 10
142.2906027435
 20
177.4028964574
 30
0.0
 11
141.6302027435
 21
173.1102964574
 31
0.0
 12
142.9510027435
 22
173.1102964574
 32
0.0
 13
142.9510027435
 23
173.1102964574
 33
0.0
  0
SOLID
  5
1B2
330
1AE
100
AcDbEntity
  8
DIM
100
AcDbTrace
 10
142.2906027435
 20
79.9028964574
 30
0.0
 11
142.9510027435
 21
84.1954964574
 31
0.0
 12
141.6302027435
 22
84.1954964574
 32
0.0
 13
141.6302027435
 23
84.1954964574
 33
0.0
  0
LINE
  5
1B3
330
1AE
100
AcDbEntity
  8
DIM
100
AcDbLine
 10
254.3108109299
 20
177.4028964574
 30
0.0
 11
140.9906027435
 21
177.4028964574
 31
0.0
  0
LINE
  5
1B4
330
1AE
100
AcDbEntity
  8
DIM
100
AcDbLine
 10
254.3108109299
 20
79.9028964574
 30
0.0
 11
140.9906027435
 21
79.9028964574
 31
0.0
  0
LINE
  5
1B5
330
1AE
100
AcDbEntity
  8
DIM
100
AcDbLine
 10
142.2906027435
 20
177.4028964574
 30
0.0
 11
142.2906027435
 21
79.9028964574
 31
0.0
  0
MTEXT
  5
1B6
330
1AE
100
AcDbEntity
  8
DIM
100
AcDbMText
 10
137.4133609362
 20
119.9400654575
 30
0.0
 40
3.7835416667
 41
0.0
 71
     1
 72
     1
  1
%%c
  7
SLDTEXTSTYLE0
 11
-7.044195017643634E-15
 21
1.0
 31
0.0
 73
     1
 44
1.0
  0
MTEXT
  5
1B7
330
1AE
100
AcDbEntity
  8
DIM
100
AcDbMText
 10
137.4133609362
 20
125.790892127
 30
0.0
 40
3.7835416667
 41
0.0
 71
     1
 72
     1
  1
97.50
  7
SLDTEXTSTYLE0
 11
-7.044195017643634E-15
 21
1.0
 31
0.0
 73
     1
 44
1.0
  0
ENDBLK
  5
1B0
330
1AE
100
AcDbEntity
  8
0
100
AcDbBlockEnd
  0
ENDSEC
  0
SECTION
  2
ENTITIES
  0
LINE
  5
76
330
1F
100
AcDbEntity
  8
DIM
100
AcDbLine
 10
136.1157520957
 20
12.7282888939
 30
0.0
 11
136.1157520957
 21
6.2282888939
 31
0.0
  0
LINE
  5
77
330
1F
100
AcDbEntity
  8
DIM
100
AcDbLine
 10
330.8104822039
 20
12.7282888939
 30
0.0
 11
330.8104822039
 21
6.2282888939
 31
0.0
  0
LINE
  5
78
330
1F
100
AcDbEntity
  8
DIM
100
AcDbLine
 10
308.6872229111
 20
12.7282888939
 30
0.0
 11
308.6872229111
 21
6.2282888939
 31
0.0
  0
LINE
  5
79
330
1F
100
AcDbEntity
  8
DIM
100
AcDbLine
 10
362.5757520957
 20
6.2282888939
 30
0.0
 11
362.5757520957
 21
12.7282888939
 31
0.0
  0
LINE
  5
7A
330
1F
100
AcDbEntity
  8
DIM
100
AcDbLine
 10
146.2557520957
 20
12.7282888939
 30
0.0
 11
146.2557520957
 21
6.2282888939
 31
0.0
  0
LINE
  5
7B
330
1F
100
AcDbEntity
  8
DIM
100
AcDbLine
 10
171.2039902596
 20
12.7282888939
 30
0.0
 11
171.2039902596
 21
6.2282888939
 31
0.0
  0
LINE
  5
7C
330
1F
100
AcDbEntity
  8
DIM
100
AcDbLine
 10
379.4757520957
 20
6.2282888939
 30
0.0
 11
379.4757520957
 21
100.1532888939
 31
0.0
  0
LINE
  5
7D
330
1F
100
AcDbEntity
  8
DIM
100
AcDbLine
 10
371.5647061031
 20
78.0532888939
 30
0.0
 11
379.4757520957
 21
78.0532888939
 31
0.0
  0
LINE
  5
7E
330
1F
100
AcDbEntity
  8
DIM
100
AcDbLine
 10
193.8343561083
 20
11.7532888939
 30
0.0
 11
193.8343561083
 21
6.2282888939
 31
0.0
  0
LINE
  5
7F
330
1F
100
AcDbEntity
  8
DIM
100
AcDbLine
 10
255.7931339086
 20
12.7282888939
 30
0.0
 11
255.7931339086
 21
6.2282888939
 31
0.0
  0
LINE
  5
80
330
1F
100
AcDbEntity
  8
DIM
100
AcDbLine
 10
193.8343561083
 20
12.7282888939
 30
0.0
 11
193.8343561083
 21
11.7532888939
 31
0.0
  0
LINE
  5
81
330
1F
100
AcDbEntity
  8
DIM
100
AcDbLine
 10
372.9757520957
 20
22.8031952939
 30
0.0
 11
379.4757520957
 21
22.8031952939
 31
0.0
  0
LINE
  5
82
330
1F
100
AcDbEntity
  8
DIM
100
AcDbLine
 10
372.9757520957
 20
259.7282888939
 30
0.0
 11
12.8757520957
 21
259.7282888939
 31
0.0
  0
LINE
  5
83
330
1F
100
AcDbEntity
  8
DIM
100
AcDbLine
 10
379.4757520957
 20
266.2282888939
 30
0.0
 11
6.3757520957
 21
266.2282888939
 31
0.0
  0
LINE
  5
84
330
1F
100
AcDbEntity
  8
DIM
100
AcDbLine
 10
12.8757520957
 20
259.7282888939
 30
0.0
 11
12.8757520957
 21
12.7282888939
 31
0.0
  0
LINE
  5
85
330
1F
100
AcDbEntity
  8
DIM
100
AcDbLine
 10
6.3757520957
 20
266.2282888939
 30
0.0
 11
6.3757520957
 21
6.2282888939
 31
0.0
  0
LINE
  5
86
330
1F
100
AcDbEntity
  8
DIM
100
AcDbLine
 10
12.8757520957
 20
71.2282888939
 30
0.0
 11
6.3757520957
 21
71.2282888939
 31
0.0
  0
LINE
  5
87
330
1F
100
AcDbEntity
  8
DIM
100
AcDbLine
 10
6.3757520957
 20
136.2282888939
 30
0.0
 11
12.8757520957
 21
136.2282888939
 31
0.0
  0
LINE
  5
88
330
1F
100
AcDbEntity
  8
DIM
100
AcDbLine
 10
6.3757520957
 20
6.2282888939
 30
0.0
 11
379.4757520957
 21
6.2282888939
 31
0.0
  0
LINE
  5
89
330
1F
100
AcDbEntity
  8
DIM
100
AcDbLine
 10
12.8757520957
 20
12.7282888939
 30
0.0
 11
379.4757520957
 21
12.7282888939
 31
0.0
  0
LINE
  5
8A
330
1F
100
AcDbEntity
  8
DIM
100
AcDbLine
 10
62.9257520957
 20
6.2282888939
 30
0.0
 11
62.9257520957
 21
12.7282888939
 31
0.0
  0
LINE
  5
8B
330
1F
100
AcDbEntity
  8
DIM
100
AcDbLine
 10
127.9257520957
 20
12.7282888939
 30
0.0
 11
127.9257520957
 21
6.2282888939
 31
0.0
  0
LINE
  5
8C
330
1F
100
AcDbEntity
  8
DIM
100
AcDbLine
 10
12.8757520957
 20
201.2282888939
 30
0.0
 11
6.3757520957
 21
201.2282888939
 31
0.0
  0
LINE
  5
8D
330
1F
100
AcDbEntity
  8
DIM
100
AcDbLine
 10
62.9257520957
 20
259.7282888939
 30
0.0
 11
62.9257520957
 21
266.2282888939
 31
0.0
  0
LINE
  5
8E
330
1F
100
AcDbEntity
  8
DIM
100
AcDbLine
 10
127.9257520957
 20
266.2282888939
 30
0.0
 11
127.9257520957
 21
259.7282888939
 31
0.0
  0
LINE
  5
8F
330
1F
100
AcDbEntity
  8
DIM
100
AcDbLine
 10
192.9257520957
 20
266.2282888939
 30
0.0
 11
192.9257520957
 21
259.7282888939
 31
0.0
  0
LINE
  5
90
330
1F
100
AcDbEntity
  8
DIM
100
AcDbLine
 10
372.9757520957
 20
12.7282888939
 30
0.0
 11
372.9757520957
 21
259.7282888939
 31
0.0
  0
LINE
  5
91
330
1F
100
AcDbEntity
  8
DIM
100
AcDbLine
 10
379.4757520957
 20
100.1532888939
 30
0.0
 11
379.4757520957
 21
266.2282888939
 31
0.0
  0
LINE
  5
92
330
1F
100
AcDbEntity
  8
DIM
100
AcDbLine
 10
379.4757520957
 20
136.2282888939
 30
0.0
 11
372.9757520957
 21
136.2282888939
 31
0.0
  0
LINE
  5
93
330
1F
100
AcDbEntity
  8
DIM
100
AcDbLine
 10
257.9257520957
 20
266.2282888939
 30
0.0
 11
257.9257520957
 21
259.7282888939
 31
0.0
  0
LINE
  5
94
330
1F
100
AcDbEntity
  8
DIM
100
AcDbLine
 10
322.9257520957
 20
259.7282888939
 30
0.0
 11
322.9257520957
 21
266.2282888939
 31
0.0
  0
LINE
  5
95
330
1F
100
AcDbEntity
  8
DIM
100
AcDbLine
 10
372.9757520957
 20
201.2282888939
 30
0.0
 11
379.4757520957
 21
201.2282888939
 31
0.0
  0
MTEXT
  5
97
330
1F
100
AcDbEntity
  8
DIM
100
AcDbMText
 10
20.9685714825
 20
252.0284640891
 30
0.0
 40
5.5033333333
 41
0.0
 71
     1
 72
     1
  1
SK 50 FMH-K32 050 AD+B/6.3G15000 SL SP.S
  7
SLDTEXTSTYLE0
 73
     1
 44
1.0
  0
MTEXT
  5
99
330
1F
100
AcDbEntity
  8
DIM
 62
     7
100
AcDbMText
 10
257.0526122406
 20
10.1425369842
 30
0.0
 40
1.94818
 41
0.0
 71
     1
 72
     1
  1
WEIGHT:
  7
SLDTEXTSTYLE1
 73
     1
 44
1.0
  0
MTEXT
  5
9A
330
1F
100
AcDbEntity
  8
DIM
 62
     7
100
AcDbMText
 10
375.1761997812
 20
106.5227975607
 30
0.0
 40
2.4077083333
 41
0.0
 71
     1
 72
     1
  1
C
  7
SLDTEXTSTYLE1
 73
     1
 44
1.0
  0
MTEXT
  5
9B
330
1F
100
AcDbEntity
  8
DIM
 62
     7
100
AcDbMText
 10
367.9566548053
 20
19.3101765787
 30
0.0
 40
3.7835416667
 41
0.0
 71
     1
 72
     1
  1
A4
  7
SLDTEXTSTYLE1
 73
     1
 44
1.0
  0
MTEXT
  5
9C
330
1F
100
AcDbEntity
  8
DIM
 62
     7
100
AcDbMText
 10
354.3424239624
 20
264.4967102185
 30
0.0
 40
2.4077083333
 41
0.0
 71
     1
 72
     1
  1
6
  7
SLDTEXTSTYLE1
 73
     1
 44
1.0
  0
MTEXT
  5
9D
330
1F
100
AcDbEntity
  8
DIM
 62
     7
100
AcDbMText
 10
289.3424239624
 20
264.4967102185
 30
0.0
 40
2.4077083333
 41
0.0
 71
     1
 72
     1
  1
5
  7
SLDTEXTSTYLE1
 73
     1
 44
1.0
  0
MTEXT
  5
9E
330
1F
100
AcDbEntity
  8
DIM
 62
     7
100
AcDbMText
 10
375.1424291624
 20
235.2467102185
 30
0.0
 40
2.4077083333
 41
0.0
 71
     1
 72
     1
  1
A
  7
SLDTEXTSTYLE1
 73
     1
 44
1.0
  0
MTEXT
  5
9F
330
1F
100
AcDbEntity
  8
DIM
 62
     7
100
AcDbMText
 10
375.1424291624
 20
170.2467102185
 30
0.0
 40
2.4077083333
 41
0.0
 71
     1
 72
     1
  1
B
  7
SLDTEXTSTYLE1
 73
     1
 44
1.0
  0
MTEXT
  5
A0
330
1F
100
AcDbEntity
  8
DIM
 62
     7
100
AcDbMText
 10
224.3424239624
 20
264.4967102185
 30
0.0
 40
2.4077083333
 41
0.0
 71
     1
 72
     1
  1
4
  7
SLDTEXTSTYLE1
 73
     1
 44
1.0
  0
MTEXT
  5
A1
330
1F
100
AcDbEntity
  8
DIM
 62
     7
100
AcDbMText
 10
29.884090629
 20
264.4967102185
 30
0.0
 40
2.4077083333
 41
0.0
 71
     1
 72
     1
  1
1
  7
SLDTEXTSTYLE1
 73
     1
 44
1.0
  0
MTEXT
  5
A2
330
1F
100
AcDbEntity
  8
DIM
 62
     7
100
AcDbMText
 10
94.3424239624
 20
264.4967102185
 30
0.0
 40
2.4077083333
 41
0.0
 71
     1
 72
     1
  1
2
  7
SLDTEXTSTYLE1
 73
     1
 44
1.0
  0
MTEXT
  5
A3
330
1F
100
AcDbEntity
  8
DIM
 62
     7
100
AcDbMText
 10
159.3424239624
 20
264.4967102185
 30
0.0
 40
2.4077083333
 41
0.0
 71
     1
 72
     1
  1
3
  7
SLDTEXTSTYLE1
 73
     1
 44
1.0
  0
MTEXT
  5
A4
330
1F
100
AcDbEntity
  8
DIM
 62
     7
100
AcDbMText
 10
8.5424187624
 20
235.2467102185
 30
0.0
 40
2.4077083333
 41
0.0
 71
     1
 72
     1
  1
A
  7
SLDTEXTSTYLE1
 73
     1
 44
1.0
  0
MTEXT
  5
A5
330
1F
100
AcDbEntity
  8
DIM
 62
     7
100
AcDbMText
 10
94.3424239624
 20
10.9967102185
 30
0.0
 40
2.4077083333
 41
0.0
 71
     1
 72
     1
  1
2
  7
SLDTEXTSTYLE1
 73
     1
 44
1.0
  0
MTEXT
  5
A6
330
1F
100
AcDbEntity
  8
DIM
 62
     7
100
AcDbMText
 10
29.884090629
 20
10.9967102185
 30
0.0
 40
2.4077083333
 41
0.0
 71
     1
 72
     1
  1
1
  7
SLDTEXTSTYLE1
 73
     1
 44
1.0
  0
MTEXT
  5
A7
330
1F
100
AcDbEntity
  8
DIM
 62
     7
100
AcDbMText
 10
8.5424187624
 20
40.2467102185
 30
0.0
 40
2.4077083333
 41
0.0
 71
     1
 72
     1
  1
D
  7
SLDTEXTSTYLE1
 73
     1
 44
1.0
  0
MTEXT
  5
A8
330
1F
100
AcDbEntity
  8
DIM
 62
     7
100
AcDbMText
 10
8.5424187624
 20
105.2467102185
 30
0.0
 40
2.4077083333
 41
0.0
 71
     1
 72
     1
  1
C
  7
SLDTEXTSTYLE1
 73
     1
 44
1.0
  0
MTEXT
  5
A9
330
1F
100
AcDbEntity
  8
DIM
 62
     7
100
AcDbMText
 10
8.5424187624
 20
170.2467102185
 30
0.0
 40
2.4077083333
 41
0.0
 71
     1
 72
     1
  1
B
  7
SLDTEXTSTYLE1
 73
     1
 44
1.0
  0
MTEXT
  5
AA
330
1F
100
AcDbEntity
  8
DIM
 62
     7
100
AcDbMText
 10
375.1761997812
 20
106.5227975607
 30
0.0
 40
2.4077083333
 41
0.0
 71
     1
 72
     1
  1
C
  7
SLDTEXTSTYLE1
 73
     1
 44
1.0
  0
MTEXT
  5
AC
330
1F
100
AcDbEntity
  8
DIM
 62
     7
100
AcDbMText
 10
333.4829755563
 20
9.9984023508
 30
0.0
 40
1.95
 41
0.0
 71
     1
 72
     1
  1
SHEET 1 OF 1
  7
SLDTEXTSTYLE2
 73
     1
 44
1.0
  0
MTEXT
  5
AD
330
1F
100
AcDbEntity
  8
DIM
 62
     7
100
AcDbMText
 10
195.4833144985
 20
10.2093777287
 30
0.0
 40
1.95
 41
0.0
 71
     1
 72
     1
  1
MATERIAL:
  7
SLDTEXTSTYLE1
 73
     1
 44
1.0
  0
MTEXT
  5
AE
330
1F
100
AcDbEntity
  8
DIM
 62
     7
100
AcDbMText
 10
354.3424239624
 20
264.4967102185
 30
0.0
 40
2.4077083333
 41
0.0
 71
     1
 72
     1
  1
6
  7
SLDTEXTSTYLE1
 73
     1
 44
1.0
  0
MTEXT
  5
AF
330
1F
100
AcDbEntity
  8
DIM
 62
     7
100
AcDbMText
 10
289.3424239624
 20
264.4967102185
 30
0.0
 40
2.4077083333
 41
0.0
 71
     1
 72
     1
  1
5
  7
SLDTEXTSTYLE1
 73
     1
 44
1.0
  0
MTEXT
  5
B0
330
1F
100
AcDbEntity
  8
DIM
 62
     7
100
AcDbMText
 10
375.1424291624
 20
235.2467102185
 30
0.0
 40
2.4077083333
 41
0.0
 71
     1
 72
     1
  1
A
  7
SLDTEXTSTYLE1
 73
     1
 44
1.0
  0
MTEXT
  5
B1
330
1F
100
AcDbEntity
  8
DIM
 62
     7
100
AcDbMText
 10
375.1424291624
 20
170.2467102185
 30
0.0
 40
2.4077083333
 41
0.0
 71
     1
 72
     1
  1
B
  7
SLDTEXTSTYLE1
 73
     1
 44
1.0
  0
MTEXT
  5
B2
330
1F
100
AcDbEntity
  8
DIM
 62
     7
100
AcDbMText
 10
224.3424239624
 20
264.4967102185
 30
0.0
 40
2.4077083333
 41
0.0
 71
     1
 72
     1
  1
4
  7
SLDTEXTSTYLE1
 73
     1
 44
1.0
  0
MTEXT
  5
B3
330
1F
100
AcDbEntity
  8
DIM
 62
     7
100
AcDbMText
 10
29.884090629
 20
264.4967102185
 30
0.0
 40
2.4077083333
 41
0.0
 71
     1
 72
     1
  1
1
  7
SLDTEXTSTYLE1
 73
     1
 44
1.0
  0
MTEXT
  5
B4
330
1F
100
AcDbEntity
  8
DIM
 62
     7
100
AcDbMText
 10
94.3424239624
 20
264.4967102185
 30
0.0
 40
2.4077083333
 41
0.0
 71
     1
 72
     1
  1
2
  7
SLDTEXTSTYLE1
 73
     1
 44
1.0
  0
MTEXT
  5
B5
330
1F
100
AcDbEntity
  8
DIM
 62
     7
100
AcDbMText
 10
159.3424239624
 20
264.4967102185
 30
0.0
 40
2.4077083333
 41
0.0
 71
     1
 72
     1
  1
3
  7
SLDTEXTSTYLE1
 73
     1
 44
1.0
  0
MTEXT
  5
B6
330
1F
100
AcDbEntity
  8
DIM
 62
     7
100
AcDbMText
 10
8.5424187624
 20
235.2467102185
 30
0.0
 40
2.4077083333
 41
0.0
 71
     1
 72
     1
  1
A
  7
SLDTEXTSTYLE1
 73
     1
 44
1.0
  0
MTEXT
  5
B7
330
1F
100
AcDbEntity
  8
DIM
 62
     7
100
AcDbMText
 10
94.3424239624
 20
10.9967102185
 30
0.0
 40
2.4077083333
 41
0.0
 71
     1
 72
     1
  1
2
  7
SLDTEXTSTYLE1
 73
     1
 44
1.0
  0
MTEXT
  5
B8
330
1F
100
AcDbEntity
  8
DIM
 62
     7
100
AcDbMText
 10
29.884090629
 20
10.9967102185
 30
0.0
 40
2.4077083333
 41
0.0
 71
     1
 72
     1
  1
1
  7
SLDTEXTSTYLE1
 73
     1
 44
1.0
  0
MTEXT
  5
B9
330
1F
100
AcDbEntity
  8
DIM
 62
     7
100
AcDbMText
 10
8.5424187624
 20
40.2467102185
 30
0.0
 40
2.4077083333
 41
0.0
 71
     1
 72
     1
  1
D
  7
SLDTEXTSTYLE1
 73
     1
 44
1.0
  0
MTEXT
  5
BA
330
1F
100
AcDbEntity
  8
DIM
 62
     7
100
AcDbMText
 10
8.5424187624
 20
105.2467102185
 30
0.0
 40
2.4077083333
 41
0.0
 71
     1
 72
     1
  1
C
  7
SLDTEXTSTYLE1
 73
     1
 44
1.0
  0
MTEXT
  5
BB
330
1F
100
AcDbEntity
  8
DIM
 62
     7
100
AcDbMText
 10
8.5424187624
 20
170.2467102185
 30
0.0
 40
2.4077083333
 41
0.0
 71
     1
 72
     1
  1
B
  7
SLDTEXTSTYLE1
 73
     1
 44
1.0
  0
SPLINE
  5
BC
330
1F
100
AcDbEntity
  8
0
  6
Continuous
 62
     7
370
    15
100
AcDbSpline
210
0.0
220
0.0
230
1.0
 70
     8
 71
     3
 72
    14
 73
    10
 74
     0
 42
0.000000001
 43
0.00000001
 40
0.0
 40
0.0
 40
0.0
 40
0.0
 40
0.25
 40
0.25
 40
0.5
 40
0.5
 40
0.75
 40
0.75
 40
1.0
 40
1.0
 40
1.0
 40
1.0
 10
97.44342498116158
 20
128.6528964573745
 30
0.0
 10
97.44342498116158
 20
123.5551620806
 30
0.0
 10
95.41819855509264
 20
118.665832975908
 30
0.0
 10
88.20891346208266
 20
111.456547882898
 30
0.0
 10
83.31958435739064
 20
109.4313214568291
 30
0.0
 10
73.12411560384176
 20
109.4313214568291
 30
0.0
 10
68.23478649914972
 20
111.456547882898
 30
0.0
 10
61.02550140613975
 20
118.665832975908
 30
0.0
 10
59.0002749800708
 20
123.5551620806
 30
0.0
 10
59.00027498007079
 20
128.6528964573745
 30
0.0
  0
SPLINE
  5
BD
330
1F
100
AcDbEntity
  8
0
  6
Continuous
 62
     7
370
    15
100
AcDbSpline
210
0.0
220
0.0
230
1.0
 70
     8
 71
     3
 72
    14
 73
    10
 74
     0
 42
0.000000001
 43
0.00000001
 40
0.0
 40
0.0
 40
0.0
 40
0.0
 40
0.25
 40
0.25
 40
0.5
 40
0.5
 40
0.75
 40
0.75
 40
1.0
 40
1.0
 40
1.0
 40
1.0
 10
59.0002749800708
 20
128.6528964573745
 30
0.0
 10
59.0002749800708
 20
133.7506308341489
 30
0.0
 10
61.02550140613975
 20
138.6399599388409
 30
0.0
 10
68.23478649914972
 20
145.8492450318509
 30
0.0
 10
73.12411560384174
 20
147.8744714579198
 30
0.0
 10
83.31958435739064
 20
147.8744714579198
 30
0.0
 10
88.20891346208266
 20
145.8492450318509
 30
0.0
 10
95.41819855509264
 20
138.6399599388409
 30
0.0
 10
97.44342498116158
 20
133.7506308341489
 30
0.0
 10
97.44342498116158
 20
128.6528964573745
 30
0.0
  0
CIRCLE
  5
BE
330
1F
100
AcDbEntity
  8
0
  6
Continuous
 62
     7
370
    15
100
AcDbCircle
 10
78.2218499806
 20
128.6528964574
 30
0.0
 40
20.21110778703759
  0
CIRCLE
  5
BF
330
1F
100
AcDbEntity
  8
0
  6
Continuous
 62
     7
370
    15
100
AcDbCircle
 10
78.2218499806
 20
128.6528964574
 30
0.0
 40
34.925
  0
SPLINE
  5
C0
330
1F
100
AcDbEntity
  8
0
  6
Continuous
 62
     7
370
    15
100
AcDbSpline
210
0.0
220
0.0
230
1.0
 70
     8
 71
     3
 72
    52
 73
    48
 74
     0
 42
0.000000001
 43
0.00000001
 40
0.0
 40
0.0
 40
0.0
 40
0.0
 40
0.0053074994726554
 40
0.0106084744807156
 40
0.0159043870752884
 40
0.0211967035030982
 40
0.0264868930010475
 40
0.031776426578386
 40
0.0370667757915106
 40
0.0423594115164833
 40
0.0476558027243854
 40
0.0529574152645906
 40
0.0582657106609693
 40
0.0891348494758177
 40
0.1200087595578935
 40
0.1521645941108524
 40
0.1843252192282218
 40
0.2171652710885947
 40
0.2500102154523581
 40
0.2828502674523063
 40
0.3156952119562962
 40
0.3478510468948057
 40
0.380011672397905
 40
0.4108808109142898
 40
0.4417547207534483
 40
0.470875333637603
 40
0.5000007798720159
 40
0.5291213927975412
 40
0.5582468390472084
 40
0.5891159778617261
 40
0.6199898879441322
 40
0.652145722497098
 40
0.6843063476144644
 40
0.7171463994755694
 40
0.7499913438386044
 40
0.7828313958395676
 40
0.8156763403425417
 40
0.8478321752819549
 40
0.8799928007841501
 40
0.9108619393016738
 40
0.941735849139696
 40
0.9514609652020397
 40
0.9611682412334405
 40
0.9708667191333772
 40
0.9805654654081966
 40
0.9902735458123287
 40
1.0
 40
1.0
 40
1.0
 40
1.0
 10
43.22184998061619
 20
128.6528964573745
 30
0.0
 10
43.22277801152664
 20
128.8473586154274
 30
0.0
 10
43.22463293252696
 20
129.2360438808331
 30
0.0
 10
43.23966196687858
 20
129.8186068508546
 30
0.0
 10
43.26366059591297
 20
130.400292738224
 30
0.0
 10
43.29750489999608
 20
130.9811014330411
 30
0.0
 10
43.34096044172967
 20
131.5610327814603
 30
0.0
 10
43.39409000279573
 20
132.1400867018849
 30
0.0
 10
43.45687667251793
 20
132.7182628660216
 30
0.0
 10
43.5293252650345
 20
133.29556186339
 30
0.0
 10
43.61143330252751
 20
133.8719808635375
 30
0.0
 10
43.70320570452117
 20
134.4475298251157
 30
0.0
 10
43.96734520615458
 20
135.9441424286293
 30
0.0
 10
44.53111295905997
 20
138.3398492897974
 30
0.0
 10
45.6437301393987
 20
141.6007203958499
 30
0.0
 10
47.0908963549393
 20
144.7806092781436
 30
0.0
 10
48.89007198434601
 20
147.8591082098993
 30
0.0
 10
51.00649255990636
 20
150.7605681179362
 30
0.0
 10
53.42937775342148
 20
153.4451150939301
 30
0.0
 10
56.11403823203994
 20
155.8681402688766
 30
0.0
 10
59.01533837160023
 20
157.9844795049536
 30
0.0
 10
62.09399146962722
 20
159.7837716970727
 30
0.0
 10
65.27365490363555
 20
161.2308798302801
 30
0.0
 10
68.53489120164187
 20
162.3436096472849
 30
0.0
 10
71.78063550037588
 20
163.1074971326811
 30
0.0
 10
75.0195016185318
 20
163.5557751326915
 30
0.0
 10
78.22167300846166
 20
163.7014529975317
 30
0.0
 10
81.42402047910794
 20
163.5557916200832
 30
0.0
 10
84.66271873882184
 20
163.1075614276221
 30
0.0
 10
87.90863934839489
 20
162.3436593684994
 30
0.0
 10
91.16971974895434
 20
161.2310090391407
 30
0.0
 10
94.34955031740942
 20
159.7838520640853
 30
0.0
 10
97.42806515761943
 20
157.9846738968562
 30
0.0
 10
100.329520713746
 20
155.8682540800087
 30
0.0
 10
103.0140688717555
 20
153.4453684388983
 30
0.0
 10
105.4370937013383
 20
150.7607089864128
 30
0.0
 10
107.5534331355033
 20
147.85940521506
 30
0.0
 10
109.3527248881414
 20
144.7807653524779
 30
0.0
 10
110.799834557501
 20
141.6010534070541
 30
0.0
 10
111.9125588811642
 20
138.3399911973788
 30
0.0
 10
112.513404813207
 20
135.7865771120246
 30
0.0
 10
112.8213448927262
 20
133.9691574064229
 30
0.0
 10
112.9674840036487
 20
132.9117106681944
 30
0.0
 10
113.0812900309098
 20
131.8512734148196
 30
0.0
 10
113.1619853517164
 20
130.7878194406674
 30
0.0
 10
113.2125068871321
 20
129.7213590719331
 30
0.0
 10
113.2187336538198
 20
129.0092750682074
 30
0.0
 10
113.2218499806162
 20
128.6528964573745
 30
0.0
  0
SPLINE
  5
C1
330
1F
100
AcDbEntity
  8
0
  6
Continuous
 62
     7
370
    15
100
AcDbSpline
210
0.0
220
0.0
230
1.0
 70
     8
 71
     3
 72
    52
 73
    48
 74
     0
 42
0.000000001
 43
0.00000001
 40
0.0
 40
0.0
 40
0.0
 40
0.0
 40
0.0053074994726554
 40
0.0106084744807156
 40
0.0159043870752884
 40
0.0211967035030983
 40
0.0264868930010475
 40
0.0317764265783861
 40
0.0370667757915106
 40
0.0423594115164834
 40
0.0476558027243854
 40
0.0529574152645907
 40
0.0582657106609694
 40
0.0891348494759667
 40
0.1200087595578951
 40
0.1521645941111445
 40
0.1843252192282232
 40
0.2171652710889209
 40
0.25001021545236
 40
0.2828502674525652
 40
0.315695211956297
 40
0.3478510468951538
 40
0.3800116723979077
 40
0.41088081091547
 40
0.4417547207534571
 40
0.4708753336379863
 40
0.5000007798720127
 40
0.5291213927971703
 40
0.5582468390472111
 40
0.5891159778626601
 40
0.6199898879441411
 40
0.6521457224976949
 40
0.6843063476144631
 40
0.7171463994753853
 40
0.7499913438386053
 40
0.7828313958393156
 40
0.8156763403425399
 40
0.8478321752809374
 40
0.8799928007841432
 40
0.9108619393011222
 40
0.9417358491396983
 40
0.9514609652021586
 40
0.9611682412336295
 40
0.9708667191335897
 40
0.9805654654083855
 40
0.9902735458124469
 40
1.0
 40
1.0
 40
1.0
 40
1.0
 10
113.2218499806162
 20
128.6528964573745
 30
0.0
 10
113.2209219497057
 20
128.4584342993215
 30
0.0
 10
113.2190670287054
 20
128.0697490339158
 30
0.0
 10
113.2040379943538
 20
127.4871860638943
 30
0.0
 10
113.1800393653194
 20
126.9055001765249
 30
0.0
 10
113.1461950612363
 20
126.3246914817078
 30
0.0
 10
113.1027395195027
 20
125.7447601332886
 30
0.0
 10
113.0496099584366
 20
125.1657062128639
 30
0.0
 10
112.9868232887145
 20
124.5875300487273
 30
0.0
 10
112.9143746961979
 20
124.0102310513589
 30
0.0
 10
112.8322666587049
 20
123.4338120512114
 30
0.0
 10
112.7404942567112
 20
122.8582630896333
 30
0.0
 10
112.4763547550768
 20
121.3616504861142
 30
0.0
 10
111.9125870021736
 20
118.9659436249454
 30
0.0
 10
110.7999698218273
 20
115.7050725188843
 30
0.0
 10
109.3528036062883
 20
112.5251836365957
 30
0.0
 10
107.5536279768739
 20
109.4466847048308
 30
0.0
 10
105.437207401319
 20
106.545224796803
 30
0.0
 10
103.014322207796
 20
103.8606778208036
 30
0.0
 10
100.3296617291839
 20
101.4376526458676
 30
0.0
 10
97.42836158961346
 20
99.32131340978363
 30
0.0
 10
94.34970849159568
 20
97.52202121766638
 30
0.0
 10
91.17004505754426
 20
96.07491308445032
 30
0.0
 10
87.90880875955189
 20
94.96218326744233
 30
0.0
 10
84.66306446080071
 20
94.19829578205486
 30
0.0
 10
81.42419834268445
 20
93.7500177820792
 30
0.0
 10
78.22202695277066
 20
93.6043399172153
 30
0.0
 10
75.01967948213675
 20
93.75000129465381
 30
0.0
 10
71.78098122239106
 20
94.19823148713367
 30
0.0
 10
68.5350606128017
 20
94.96213354624817
 30
0.0
 10
65.27398021222575
 20
96.07478387562828
 30
0.0
 10
62.0941496438116
 20
97.52194085068906
 30
0.0
 10
59.01563480359913
 20
99.32111901789872
 30
0.0
 10
56.11417924749031
 20
101.4375388347345
 30
0.0
 10
53.4296310894876
 20
103.8604244758388
 30
0.0
 10
51.00660625990424
 20
106.5450839283322
 30
0.0
 10
48.89026682575266
 20
109.446387699649
 30
0.0
 10
47.09097507311598
 20
112.525027562242
 30
0.0
 10
45.64386540375402
 20
115.7047395076419
 30
0.0
 10
44.5311410800573
 20
118.9658017173459
 30
0.0
 10
43.93029514802679
 20
121.5192158027084
 30
0.0
 10
43.62235506850657
 20
123.3366355083373
 30
0.0
 10
43.47621595758396
 20
124.3940822465736
 30
0.0
 10
43.3624099303228
 20
125.454519499951
 30
0.0
 10
43.28171460951614
 20
126.5179734741005
 30
0.0
 10
43.23119307410035
 20
127.5844338428271
 30
0.0
 10
43.22496630741265
 20
128.2965178465458
 30
0.0
 10
43.22184998061619
 20
128.6528964573745
 30
0.0
  0
ARC
  5
C2
330
1F
100
AcDbEntity
  8
0
  6
Continuous
 62
     7
370
    15
100
AcDbCircle
 10
78.2218499806
 20
128.6528964574
 30
0.0
 40
47.86715728752539
100
AcDbArc
 50
128.8096103904
 51
141.1903896096
  0
SPLINE
  5
C3
330
1F
100
AcDbEntity
  8
0
  6
Continuous
 62
     7
370
    15
100
AcDbSpline
210
0.0
220
0.0
230
1.0
 70
    24
 71
     3
 72
     8
 73
     4
 74
     0
 42
0.000000001
 43
0.00000001
 40
0.0
 40
0.0
 40
0.0
 40
0.0
 40
1.0
 40
1.0
 40
1.0
 40
1.0
 10
48.22184998061618
 20
165.9525579409415
 30
0.0
 10
48.22184998061618
 20
165.8490488967071
 30
0.0
 10
48.22184998061619
 20
165.719625334875
 30
0.0
 10
48.22184998061619
 20
165.5888815339551
 30
0.0
  0
ARC
  5
C4
330
1F
100
AcDbEntity
  8
0
  6
Continuous
 62
     7
370
    15
100
AcDbCircle
 10
78.2218499806
 20
128.6528964574
 30
0.0
 40
47.58431457505077
100
AcDbArc
 50
129.0840578538
 51
140.9159421462
  0
SPLINE
  5
C5
330
1F
100
AcDbEntity
  8
0
  6
Continuous
 62
     7
370
    15
100
AcDbSpline
210
0.0
220
0.0
230
1.0
 70
    24
 71
     3
 72
     8
 73
     4
 74
     0
 42
0.000000001
 43
0.00000001
 40
0.0
 40
0.0
 40
0.0
 40
0.0
 40
1.0
 40
1.0
 40
1.0
 40
1.0
 10
41.28586490403553
 20
158.6528964573744
 30
0.0
 10
41.15516075442865
 20
158.6528964573744
 30
0.0
 10
41.02562378741248
 20
158.6528964573744
 30
0.0
 10
40.92218849704915
 20
158.6528964573744
 30
0.0
  0
ARC
  5
C6
330
1F
100
AcDbEntity
  8
0
  6
Continuous
 62
     7
370
    15
100
AcDbCircle
 10
78.2218499806
 20
128.6528964574
 30
0.0
 40
47.58431457505077
100
AcDbArc
 50
343.4556342686
 51
16.5443657314
  0
SPLINE
  5
C7
330
1F
100
AcDbEntity
  8
0
  6
Continuous
 62
     7
370
    15
100
AcDbSpline
210
0.0
220
0.0
230
1.0
 70
     8
 71
     3
 72
    10
 73
     6
 74
     0
 42
0.000000001
 43
0.00000001
 40
0.0
 40
0.0
 40
0.0
 40
0.0
 40
0.5
 40
0.5
 40
1.0
 40
1.0
 40
1.0
 40
1.0
 10
123.8361513956043
 20
142.2028964573744
 30
0.0
 10
123.9001030844475
 20
142.2028964573744
 30
0.0
 10
123.9616674228986
 20
142.1890505813496
 30
0.0
 10
124.0722927737476
 20
142.1468848051622
 30
0.0
 10
124.1219794654171
 20
142.1183941048992
 30
0.0
 10
124.1655490420829
 20
142.0857391698491
 30
0.0
  0
ARC
  5
C8
330
1F
100
AcDbEntity
  8
0
  6
Continuous
 62
     7
370
    15
100
AcDbCircle
 10
78.2218499806
 20
128.6528964574
 30
0.0
 40
47.86715728752538
100
AcDbArc
 50
343.7023380383
 51
16.2976619617
  0
SPLINE
  5
C9
330
1F
100
AcDbEntity
  8
0
  6
Continuous
 62
     7
370
    15
100
AcDbSpline
210
0.0
220
0.0
230
1.0
 70
     8
 71
     3
 72
    10
 73
     6
 74
     0
 42
0.000000001
 43
0.00000001
 40
0.0
 40
0.0
 40
0.0
 40
0.0
 40
0.5
 40
0.5
 40
1.0
 40
1.0
 40
1.0
 40
1.0
 10
124.1655490420829
 20
115.2200537448998
 30
0.0
 10
124.1220086506641
 20
115.1874206838825
 30
0.0
 10
124.0734540465464
 20
115.1594397976163
 30
0.0
 10
123.9620045107845
 20
115.1167829472413
 30
0.0
 10
123.9000462581954
 20
115.1028964573745
 30
0.0
 10
123.8361513956043
 20
115.1028964573745
 30
0.0
  0
SPLINE
  5
CA
330
1F
100
AcDbEntity
  8
0
  6
Continuous
 62
     7
370
    15
100
AcDbSpline
210
0.0
220
0.0
230
1.0
 70
     8
 71
     3
 72
    10
 73
     6
 74
     0
 42
0.000000001
 43
0.00000001
 40
0.0
 40
0.0
 40
0.0
 40
0.0
 40
0.5
 40
0.5
 40
1.0
 40
1.0
 40
1.0
 40
1.0
 10
32.60754856562804
 20
115.1028964573745
 30
0.0
 10
32.54359687678492
 20
115.1028964573745
 30
0.0
 10
32.4820325383338
 20
115.1167423333993
 30
0.0
 10
32.37140718748476
 20
115.1589081095866
 30
0.0
 10
32.32172049581535
 20
115.1873988098497
 30
0.0
 10
32.27815091914952
 20
115.2200537448998
 30
0.0
  0
ARC
  5
CB
330
1F
100
AcDbEntity
  8
0
  6
Continuous
 62
     7
370
    15
100
AcDbCircle
 10
78.2218499806
 20
128.6528964574
 30
0.0
 40
47.86715728752539
100
AcDbArc
 50
163.7023380383
 51
196.2976619617
  0
SPLINE
  5
CC
330
1F
100
AcDbEntity
  8
0
  6
Continuous
 62
     7
370
    15
100
AcDbSpline
210
0.0
220
0.0
230
1.0
 70
     8
 71
     3
 72
    10
 73
     6
 74
     0
 42
0.000000001
 43
0.00000001
 40
0.0
 40
0.0
 40
0.0
 40
0.0
 40
0.5
 40
0.5
 40
1.0
 40
1.0
 40
1.0
 40
1.0
 10
32.60754856562806
 20
142.2028964573744
 30
0.0
 10
32.54359687678492
 20
142.2028964573744
 30
0.0
 10
32.48203253833377
 20
142.1890505813496
 30
0.0
 10
32.37140718748478
 20
142.1468848051622
 30
0.0
 10
32.32172049581535
 20
142.1183941048992
 30
0.0
 10
32.27815091914952
 20
142.0857391698491
 30
0.0
  0
ARC
  5
CD
330
1F
100
AcDbEntity
  8
0
  6
Continuous
 62
     7
370
    15
100
AcDbCircle
 10
78.2218499806
 20
128.6528964574
 30
0.0
 40
47.58431457505078
100
AcDbArc
 50
163.4556342686
 51
196.5443657314
  0
SPLINE
  5
CE
330
1F
100
AcDbEntity
  8
0
  6
Continuous
 62
     7
370
    15
100
AcDbSpline
210
0.0
220
0.0
230
1.0
 70
     8
 71
     3
 72
    40
 73
    36
 74
     0
 42
0.000000001
 43
0.00000001
 40
0.0
 40
0.0
 40
0.0
 40
0.0
 40
0.0076138096090706
 40
0.015222703696619
 40
0.0228283796622113
 40
0.0304325370604607
 40
0.0380368764641707
 40
0.0456430983240686
 40
0.0532529018289472
 40
0.0608679837700325
 40
0.0919930035882894
 40
0.1231236538966525
 40
0.1547321881285151
 40
0.1863461940165317
 40
0.2182020912711853
 40
0.2500635030030784
 40
0.3137495787501998
 40
0.3769416086590435
 40
0.439168148565131
 40
0.5000004350472922
 40
0.5608327215294534
 40
0.6230592614355407
 40
0.6862512913443847
 40
0.7499373670915059
 40
0.7817932643700992
 40
0.813654676120411
 40
0.8452632104154371
 40
0.8768772163635395
 40
0.9080022357785864
 40
0.9391328857746177
 40
0.9513123423166135
 40
0.963481817855821
 40
0.9756482751522532
 40
0.9878186821461872
 40
1.0
 40
1.0
 40
1.0
 40
1.0
 10
123.8361513956043
 20
142.2028964573744
 30
0.0
 10
123.7676519847721
 20
142.4299092150971
 30
0.0
 10
123.6306973867413
 20
142.8837881697334
 30
0.0
 10
123.4124672976043
 20
143.5604553909036
 30
0.0
 10
123.1849716762088
 20
144.2337260914705
 30
0.0
 10
122.9472867120406
 20
144.9033256222608
 30
0.0
 10
122.6996595659989
 20
145.5693277626111
 30
0.0
 10
122.4420251359474
 20
146.23171129763
 30
0.0
 10
122.1743969555998
 20
146.8904867326428
 30
0.0
 10
121.6112043056099
 20
148.2195904678831
 30
0.0
 10
120.6861856334441
 20
150.190891239293
 30
0.0
 10
119.2837729209934
 20
152.7577363187075
 30
0.0
 10
117.718233312885
 20
155.2466861451148
 30
0.0
 10
115.9877218576316
 20
157.6517155572103
 30
0.0
 10
114.1060674204669
 20
159.9508259149496
 30
0.0
 10
111.4042376533688
 20
162.8594197889007
 30
0.0
 10
107.7048739158499
 20
166.1599986353596
 30
0.0
 10
102.844597010711
 20
169.5120479529337
 30
0.0
 10
97.68830930985645
 20
172.2003587419104
 30
0.0
 10
92.3151454943454
 20
174.2209874091832
 30
0.0
 10
86.73940882107873
 20
175.586633810479
 30
0.0
 10
80.96573527394366
 20
176.2787405410307
 30
0.0
 10
75.06166861927036
 20
176.2558866083056
 30
0.0
 10
70.14504089385497
 20
175.6201355962558
 30
0.0
 10
66.27289510190768
 20
174.7447605700158
 30
0.0
 10
63.42196765040798
 20
173.9094547846931
 30
0.0
 10
60.63566983230726
 20
172.9012887940079
 30
0.0
 10
57.93848440236584
 20
171.7308483994959
 30
0.0
 10
55.33164167087748
 20
170.4038630867222
 30
0.0
 10
53.33266974517147
 20
169.2268430591737
 30
0.0
 10
51.88220551128646
 20
168.2877693735217
 30
0.0
 10
50.94247325327326
 20
167.6471275701722
 30
0.0
 10
50.01891117677675
 20
166.9839458288774
 30
0.0
 10
49.10995469268447
 20
166.3001306409824
 30
0.0
 10
48.51797329762398
 20
165.8260353762101
 30
0.0
 10
48.2218499806162
 20
165.5888815339551
 30
0.0
  0
SPLINE
  5
CF
330
1F
100
AcDbEntity
  8
0
  6
Continuous
 62
     7
370
    15
100
AcDbSpline
210
0.0
220
0.0
230
1.0
 70
     8
 71
     3
 72
    48
 73
    44
 74
     0
 42
0.000000001
 43
0.00000001
 40
0.0
 40
0.0
 40
0.0
 40
0.0
 40
0.0054347037870314
 40
0.0108647463485207
 40
0.0162911759177293
 40
0.0217150428226928
 40
0.0271373988806366
 40
0.0325592967880729
 40
0.0379817895083434
 40
0.0434059296583851
 40
0.0488327688965038
 40
0.0542633573129332
 40
0.059698742824938
 40
0.0907177254008823
 40
0.1217409090757531
 40
0.1535986684470912
 40
0.1854607425290452
 40
0.2177550902622351
 40
0.2500538118399259
 40
0.2823481596244854
 40
0.3146468812542022
 40
0.346504640772552
 40
0.3783667150011477
 40
0.440359683087698
 40
0.5000005600694972
 40
0.5596414370512967
 40
0.621634405137847
 40
0.6534921645093787
 40
0.6853542385911302
 40
0.7176485863248414
 40
0.749947307902022
 40
0.7822416556872713
 40
0.8145403773162883
 40
0.8463981368333431
 40
0.87826021106323
 40
0.9092791938585987
 40
0.9403023777537969
 40
0.9502622131370424
 40
0.9602093142102202
 40
0.970150156833966
 40
0.98009122909965
 40
0.9900390186493149
 40
0.9999999999999999
 40
0.9999999999999999
 40
0.9999999999999999
 40
0.9999999999999999
 10
32.60754856562806
 20
115.1028964573745
 30
0.0
 10
32.67130906271648
 20
114.8913571209465
 30
0.0
 10
32.7987753709216
 20
114.4684598807127
 30
0.0
 10
33.00103890194425
 20
113.8377856384848
 30
0.0
 10
33.21128347044474
 20
113.2102081588022
 30
0.0
 10
33.430308935189
 20
112.5859651073492
 30
0.0
 10
33.65790113851819
 20
111.9649929595544
 30
0.0
 10
33.89411742599774
 20
111.3473087855044
 30
0.0
 10
34.13894230885092
 20
110.7329082186661
 30
0.0
 10
34.39238025375701
 20
110.1217920789597
 30
0.0
 10
34.65442869675222
 20
109.5139618628731
 30
0.0
 10
34.92509322429145
 20
108.9094111557791
 30
0.0
 10
35.64237246466237
 20
107.3651125606008
 30
0.0
 10
36.91388599180225
 20
104.9306700915708
 30
0.0
 10
38.94765114214355
 20
101.6957244324855
 30
0.0
 10
41.25487420405501
 20
98.60624543496466
 30
0.0
 10
43.84183986986821
 20
95.67765562235206
 30
0.0
 10
46.67256929017148
 20
92.9577516979738
 30
0.0
 10
49.73323487824314
 20
90.47148978828996
 30
0.0
 10
52.98826374159954
 20
88.24539861089599
 30
0.0
 10
56.40140713631217
 20
86.30643815480683
 30
0.0
 10
59.94580116309872
 20
84.66044189843196
 30
0.0
 10
64.7460359650616
 20
82.89295597111112
 30
0.0
 10
70.8459582596047
 20
81.44759456446373
 30
0.0
 10
78.22185002245958
 20
80.88274009777709
 30
0.0
 10
85.59774153095375
 20
81.44759463417128
 30
0.0
 10
91.69749301634869
 20
82.89291510879023
 30
0.0
 10
96.49773543061264
 20
84.66037484351311
 30
0.0
 10
100.0419790502924
 20
86.3062763339242
 30
0.0
 10
103.4552841876384
 20
88.2453040168981
 30
0.0
 10
106.7101801766824
 20
90.47127721454743
 30
0.0
 10
109.7709968169159
 20
92.95763296898555
 30
0.0
 10
112.601615164355
 20
95.67740063517985
 30
0.0
 10
115.1887166474462
 20
98.60610900697708
 30
0.0
 10
117.4958468018545
 20
101.6954349972285
 30
0.0
 10
119.529751093298
 20
104.9305360477661
 30
0.0
 10
120.886455207263
 20
107.5281479169785
 30
0.0
 10
121.7478892022254
 20
109.4110353470184
 30
0.0
 10
122.2244359958856
 20
110.5270903214432
 30
0.0
 10
122.6721825252631
 20
111.6541844564622
 30
0.0
 10
123.090421666008
 20
112.7925493801225
 30
0.0
 10
123.481834870324
 20
113.9413808614091
 30
0.0
 10
123.7179937265719
 20
114.7155535998675
 30
0.0
 10
123.8361513956043
 20
115.1028964573744
 30
0.0
  0
SPLINE
  5
D0
330
1F
100
AcDbEntity
  8
0
  6
Continuous
 62
     7
370
    15
100
AcDbSpline
210
0.0
220
0.0
230
1.0
 70
     8
 71
     3
 72
    27
 73
    23
 74
     0
 42
0.000000001
 43
0.00000001
 40
0.0
 40
0.0
 40
0.0
 40
0.0
 40
0.0385569892848211
 40
0.0770658329194701
 40
0.1155353026399639
 40
0.1539741971376514
 40
0.1923913361118491
 40
0.2307955542506346
 40
0.2691956951601454
 40
0.3076006052631416
 40
0.3460191276878565
 40
0.3844600961682111
 40
0.4229323289763935
 40
0.461444622908547
 40
0.5000057473438686
 40
0.5715713334491092
 40
0.6429967682524639
 40
0.7143384572505677
 40
0.7856530046539444
 40
0.8569970792753662
 40
0.9284272796518032
 40
1.0
 40
1.0
 40
1.0
 40
1.0
 10
41.28586490403553
 20
158.6528964573745
 30
0.0
 10
41.1349955682056
 20
158.4654912732026
 30
0.0
 10
40.83344528527626
 20
158.090914915465
 30
0.0
 10
40.39215960577049
 20
157.5208042220474
 30
0.0
 10
39.95937248448501
 20
156.9451623866761
 30
0.0
 10
39.53584846832275
 20
156.3633685511354
 30
0.0
 10
39.12138309006315
 20
155.7755889404564
 30
0.0
 10
38.71603117224402
 20
155.1817791713756
 30
0.0
 10
38.31977812485453
 20
154.5819512449379
 30
0.0
 10
37.93262793525671
 20
153.9761020577387
 30
0.0
 10
37.55457961550366
 20
153.3642326001668
 30
0.0
 10
37.18563347182015
 20
152.7463426084573
 30
0.0
 10
36.82578957206287
 20
152.122432761051
 30
0.0
 10
36.47504760401531
 20
151.4925012347526
 30
0.0
 10
36.03611684608367
 20
150.6754500857702
 30
0.0
 10
35.52147562095799
 20
149.6660944930132
 30
0.0
 10
34.94758440270451
 20
148.4579310920015
 30
0.0
 10
34.4086071194155
 20
147.2355064131236
 30
0.0
 10
33.90431554839777
 20
145.9988969851003
 30
0.0
 10
33.43557923939301
 20
144.74784554343
 30
0.0
 10
32.99914934683719
 20
143.4833200012266
 30
0.0
 10
32.73816885906623
 20
142.6299877887725
 30
0.0
 10
32.60754856562806
 20
142.2028964573744
 30
0.0
  0
ARC
  5
D1
330
1F
100
AcDbEntity
  8
0
  6
Continuous
 62
     7
370
    15
100
AcDbCircle
 10
78.2218499806
 20
128.6528964574
 30
0.0
 40
47.86715728752539
100
AcDbArc
 50
196.2976619617
 51
343.7023380383
  0
ARC
  5
D2
330
1F
100
AcDbEntity
  8
0
  6
Continuous
 62
     7
370
    15
100
AcDbCircle
 10
78.2218499806
 20
128.6528964574
 30
0.0
 40
47.86715728752539
100
AcDbArc
 50
16.2976619617
 51
128.8096103904
  0
ARC
  5
D3
330
1F
100
AcDbEntity
  8
0
  6
Continuous
 62
     7
370
    15
100
AcDbCircle
 10
78.2218499806
 20
128.6528964574
 30
0.0
 40
47.86715728752539
100
AcDbArc
 50
141.1903896096
 51
163.7023380383
  0
ARC
  5
D4
330
1F
100
AcDbEntity
  8
0
  6
Continuous
 62
     7
370
    15
100
AcDbCircle
 10
78.2218499806
 20
128.6528964574
 30
0.0
 40
48.63284271247463
100
AcDbArc
 50
141.9122882504
 51
164.0342140175
  0
ARC
  5
D5
330
1F
100
AcDbEntity
  8
0
  6
Continuous
 62
     7
370
    15
100
AcDbCircle
 10
78.2218499806
 20
128.6528964574
 30
0.0
 40
48.63284271247462
100
AcDbArc
 50
128.0877117496
 51
141.9122882504
  0
ARC
  5
D6
330
1F
100
AcDbEntity
  8
0
  6
Continuous
 62
     7
370
    15
100
AcDbCircle
 10
78.2218499806
 20
128.6528964574
 30
0.0
 40
48.63284271247462
100
AcDbArc
 50
15.8741097166
 51
128.0877117496
  0
ARC
  5
D7
330
1F
100
AcDbEntity
  8
0
  6
Continuous
 62
     7
370
    15
100
AcDbCircle
 10
78.2218499806
 20
128.6528964574
 30
0.0
 40
48.63284271247461
100
AcDbArc
 50
344.1258902834
 51
15.8741097166
  0
ARC
  5
D8
330
1F
100
AcDbEntity
  8
0
  6
Continuous
 62
     7
370
    15
100
AcDbCircle
 10
78.2218499806
 20
128.6528964574
 30
0.0
 40
48.63284271247462
100
AcDbArc
 50
195.9657859825
 51
344.1258902834
  0
ARC
  5
D9
330
1F
100
AcDbEntity
  8
0
  6
Continuous
 62
     7
370
    15
100
AcDbCircle
 10
78.2218499806
 20
128.6528964574
 30
0.0
 40
48.63284271247462
100
AcDbArc
 50
164.0342140175
 51
195.9657859825
  0
ARC
  5
DA
330
1F
100
AcDbEntity
  8
0
  6
Continuous
 62
     7
370
    15
100
AcDbCircle
 10
78.2218499806
 20
128.6528964574
 30
0.0
 40
48.75
100
AcDbArc
 50
127.9798724449
 51
142.0201275551
  0
SPLINE
  5
DB
330
1F
100
AcDbEntity
  8
0
  6
Continuous
 62
     7
370
    15
100
AcDbSpline
210
0.0
220
0.0
230
1.0
 70
    24
 71
     3
 72
     8
 73
     4
 74
     0
 42
0.000000001
 43
0.00000001
 40
0.0
 40
0.0
 40
0.0
 40
0.0
 40
1.0
 40
1.0
 40
1.0
 40
1.0
 10
48.2218499806162
 20
167.0789618297229
 30
0.0
 10
48.2218499806162
 20
167.0789618297229
 30
0.0
 10
48.22184998061619
 20
167.0174462812915
 30
0.0
 10
48.22184998061619
 20
166.9302185985104
 30
0.0
  0
SPLINE
  5
DC
330
1F
100
AcDbEntity
  8
0
  6
Continuous
 62
     7
370
    15
100
AcDbSpline
210
0.0
220
0.0
230
1.0
 70
    24
 71
     3
 72
     8
 73
     4
 74
     0
 42
0.000000001
 43
0.00000001
 40
0.0
 40
0.0
 40
0.0
 40
0.0
 40
1.0
 40
1.0
 40
1.0
 40
1.0
 10
39.94452783948026
 20
158.6528964573745
 30
0.0
 10
39.85725342326617
 20
158.6528964573745
 30
0.0
 10
39.79578460826768
 20
158.6528964573744
 30
0.0
 10
39.79578460826767
 20
158.6528964573744
 30
0.0
  0
SPLINE
  5
DD
330
1F
100
AcDbEntity
  8
0
  6
Continuous
 62
     7
370
    15
100
AcDbSpline
210
0.0
220
0.0
230
1.0
 70
    24
 71
     3
 72
    10
 73
     6
 74
     0
 42
0.000000001
 43
0.00000001
 40
0.0
 40
0.0
 40
0.0
 40
0.0
 40
0.5
 40
0.5
 40
1.0
 40
1.0
 40
1.0
 40
1.0
 10
31.46496467619178
 20
115.2757866452664
 30
0.0
 10
31.44202315595469
 20
115.2355933130031
 30
0.0
 10
31.4219020657351
 20
115.2003413481665
 30
0.0
 10
31.39263279167855
 20
115.1490618494628
 30
0.0
 10
31.38388619416478
 20
115.1337378911372
 30
0.0
 10
31.38388619416479
 20
115.1337378911372
 30
0.0
  0
ARC
  5
DE
330
1F
100
AcDbEntity
  8
0
  6
Continuous
 62
     7
370
    15
100
AcDbCircle
 10
78.2218499806
 20
128.6528964574
 30
0.0
 40
48.75000000000001
100
AcDbArc
 50
163.8999153276
 51
196.1000846724
  0
SPLINE
  5
DF
330
1F
100
AcDbEntity
  8
0
  6
Continuous
 62
     7
370
    15
100
AcDbSpline
210
0.0
220
0.0
230
1.0
 70
    24
 71
     3
 72
    10
 73
     6
 74
     0
 42
0.000000001
 43
0.00000001
 40
0.0
 40
0.0
 40
0.0
 40
0.0
 40
0.5
 40
0.5
 40
1.0
 40
1.0
 40
1.0
 40
1.0
 10
31.4649646761918
 20
142.0300062694825
 30
0.0
 10
31.44202315595469
 20
142.0701996017458
 30
0.0
 10
31.4219020657351
 20
142.1054515665824
 30
0.0
 10
31.39263279167855
 20
142.1567310652861
 30
0.0
 10
31.38388619416479
 20
142.1720550236118
 30
0.0
 10
31.38388619416481
 20
142.1720550236118
 30
0.0
  0
SPLINE
  5
E0
330
1F
100
AcDbEntity
  8
0
  6
Continuous
 62
     7
370
    15
100
AcDbSpline
210
0.0
220
0.0
230
1.0
 70
    24
 71
     3
 72
     8
 73
     4
 74
     0
 42
0.000000001
 43
0.00000001
 40
0.0
 40
0.0
 40
0.0
 40
0.0
 40
1.0
 40
1.0
 40
1.0
 40
1.0
 10
125.0948784348249
 20
142.0499746287871
 30
0.0
 10
125.0948784348249
 20
142.0499746287871
 30
0.0
 10
125.0577818417587
 20
142.0128780357209
 30
0.0
 10
125.0000795036617
 20
141.9551756976239
 30
0.0
  0
ARC
  5
E1
330
1F
100
AcDbEntity
  8
0
  6
Continuous
 62
     7
370
    15
100
AcDbCircle
 10
78.2218499806
 20
128.6528964574
 30
0.0
 40
48.75000000000001
100
AcDbArc
 50
344.0491974398
 51
15.9508025602
  0
SPLINE
  5
E2
330
1F
100
AcDbEntity
  8
0
  6
Continuous
 62
     7
370
    15
100
AcDbSpline
210
0.0
220
0.0
230
1.0
 70
    24
 71
     3
 72
     8
 73
     4
 74
     0
 42
0.000000001
 43
0.00000001
 40
0.0
 40
0.0
 40
0.0
 40
0.0
 40
1.0
 40
1.0
 40
1.0
 40
1.0
 10
125.0948784348249
 20
115.2558182859618
 30
0.0
 10
125.0948784348249
 20
115.2558182859618
 30
0.0
 10
125.0577818417586
 20
115.2929148790279
 30
0.0
 10
125.0000795036617
 20
115.3506172171249
 30
0.0
  0
ARC
  5
E3
330
1F
100
AcDbEntity
  8
0
  6
Continuous
 62
     7
370
    15
100
AcDbCircle
 10
78.2218499806
 20
128.6528964574
 30
0.0
 40
48.75000000000001
100
AcDbArc
 50
196.1000846724
 51
344.0491974398
  0
ARC
  5
E4
330
1F
100
AcDbEntity
  8
0
  6
Continuous
 62
     7
370
    15
100
AcDbCircle
 10
78.2218499806
 20
128.6528964574
 30
0.0
 40
48.75
100
AcDbArc
 50
142.0201275551
 51
163.8999153276
  0
ARC
  5
E5
330
1F
100
AcDbEntity
  8
0
  6
Continuous
 62
     7
370
    15
100
AcDbCircle
 10
78.2218499806
 20
128.6528964574
 30
0.0
 40
48.74999999999999
100
AcDbArc
 50
15.9508025602
 51
127.9798724449
  0
ARC
  5
E6
330
1F
100
AcDbEntity
  8
0
  6
Continuous
 62
     7
370
    15
100
AcDbCircle
 10
78.2218499806
 20
128.6528964574
 30
0.0
 40
48.75000000000001
100
AcDbArc
 50
180.0
 51
196.1000846724
  0
ARC
  5
E7
330
1F
100
AcDbEntity
  8
0
  6
Continuous
 62
     7
370
    15
100
AcDbCircle
 10
78.2218499806
 20
128.6528964574
 30
0.0
 40
48.75
100
AcDbArc
 50
163.8999153276
 51
180.0
  0
INSERT
  5
F3
330
1F
100
AcDbEntity
  8
DIM
100
AcDbBlockReference
  2
SW_CENTERMARKSYMBOL_0
 10
78.2218499806
 20
128.6528964574
 30
0.0
  0
LINE
  5
F4
330
1F
100
AcDbEntity
  8
0
  6
Continuous
 62
     7
370
    15
100
AcDbLine
 10
265.5927207692
 20
79.9028964574
 30
0.0
 11
269.17944008
 21
79.9028964574
 31
0.0
  0
LINE
  5
F5
330
1F
100
AcDbEntity
  8
0
  6
Continuous
 62
     7
370
    15
100
AcDbLine
 10
269.17944008
 20
177.4028964574
 30
0.0
 11
265.5927207692
 21
177.4028964574
 31
0.0
  0
LINE
  5
F6
330
1F
100
AcDbEntity
  8
0
  6
Continuous
 62
     7
370
    15
100
AcDbLine
 10
265.5927207692
 20
177.4028964574
 30
0.0
 11
264.245125505
 21
175.0687929918
 31
0.0
  0
LINE
  5
F7
330
1F
100
AcDbEntity
  8
0
  6
Continuous
 62
     7
370
    15
100
AcDbLine
 10
264.245125505
 20
82.236999923
 30
0.0
 11
265.5927207692
 21
79.9028964574
 31
0.0
  0
LINE
  5
F8
330
1F
100
AcDbEntity
  8
0
  6
Continuous
 62
     7
370
    15
100
AcDbLine
 10
259.0975302408
 20
79.9028964574
 30
0.0
 11
260.445125505
 21
82.236999923
 31
0.0
  0
LINE
  5
F9
330
1F
100
AcDbEntity
  8
0
  6
Continuous
 62
     7
370
    15
100
AcDbLine
 10
260.445125505
 20
175.0687929918
 30
0.0
 11
259.0975302408
 21
177.4028964574
 31
0.0
  0
LINE
  5
FA
330
1F
100
AcDbEntity
  8
0
  6
Continuous
 62
     7
370
    15
100
AcDbLine
 10
255.6108109299
 20
79.9028964574
 30
0.0
 11
259.0975302408
 21
79.9028964574
 31
0.0
  0
LINE
  5
FB
330
1F
100
AcDbEntity
  8
0
  6
Continuous
 62
     7
370
    15
100
AcDbLine
 10
259.0975302408
 20
177.4028964574
 30
0.0
 11
255.6108109299
 21
177.4028964574
 31
0.0
  0
LINE
  5
FC
330
1F
100
AcDbEntity
  8
0
  6
Continuous
 62
     7
370
    15
100
AcDbLine
 10
269.4622827925
 20
80.0200537449
 30
0.0
 11
270.2279682175
 21
80.7857391698
 31
0.0
  0
LINE
  5
FD
330
1F
100
AcDbEntity
  8
0
  6
Continuous
 62
     7
370
    15
100
AcDbLine
 10
270.2279682175
 20
176.5200537449
 30
0.0
 11
269.4622827925
 21
177.2857391698
 31
0.0
  0
LINE
  5
FE
330
1F
100
AcDbEntity
  8
0
  6
Continuous
 62
     7
370
    15
100
AcDbLine
 10
255.3279682175
 20
177.2857391698
 30
0.0
 11
254.5622827925
 21
176.5200537449
 31
0.0
  0
LINE
  5
FF
330
1F
100
AcDbEntity
  8
0
  6
Continuous
 62
     7
370
    15
100
AcDbLine
 10
254.5622827925
 20
80.7857391698
 30
0.0
 11
255.3279682175
 21
80.0200537449
 31
0.0
  0
ARC
  5
100
330
1F
100
AcDbEntity
  8
0
  6
Continuous
 62
     7
370
    15
100
AcDbCircle
 10
269.17944008
 20
80.3028964574
 30
0.0
 40
0.4000000000000093
100
AcDbArc
 50
270.0
 51
315.0
  0
ARC
  5
101
330
1F
100
AcDbEntity
  8
0
  6
Continuous
 62
     7
370
    15
100
AcDbCircle
 10
255.6108109299
 20
80.3028964574
 30
0.0
 40
0.3999999999999915
100
AcDbArc
 50
225.0
 51
270.0
  0
ARC
  5
102
330
1F
100
AcDbEntity
  8
0
  6
Continuous
 62
     7
370
    15
100
AcDbCircle
 10
269.17944008
 20
177.0028964574
 30
0.0
 40
0.4000000000000057
100
AcDbArc
 50
45.0
 51
90.0
  0
ARC
  5
103
330
1F
100
AcDbEntity
  8
0
  6
Continuous
 62
     7
370
    15
100
AcDbCircle
 10
255.6108109299
 20
177.0028964574
 30
0.0
 40
0.4000000000000057
100
AcDbArc
 50
90.0
 51
135.0
  0
ARC
  5
104
330
1F
100
AcDbEntity
  8
0
  6
Continuous
 62
     7
370
    15
100
AcDbCircle
 10
269.945125505
 20
81.0685818823
 30
0.0
 40
0.4000000000000341
100
AcDbArc
 50
315.0
 51
0.0
  0
ARC
  5
105
330
1F
100
AcDbEntity
  8
0
  6
Continuous
 62
     7
370
    15
100
AcDbCircle
 10
269.945125505
 20
176.2372110324
 30
0.0
 40
0.4000000000000341
100
AcDbArc
 50
0.0
 51
45.0
  0
ARC
  5
106
330
1F
100
AcDbEntity
  8
0
  6
Continuous
 62
     7
370
    15
100
AcDbCircle
 10
254.845125505
 20
81.0685818823
 30
0.0
 40
0.4000000000000057
100
AcDbArc
 50
180.0
 51
225.0
  0
ARC
  5
107
330
1F
100
AcDbEntity
  8
0
  6
Continuous
 62
     7
370
    15
100
AcDbCircle
 10
254.845125505
 20
176.2372110324
 30
0.0
 40
0.4000000000000057
100
AcDbArc
 50
135.0
 51
180.0
  0
LINE
  5
108
330
1F
100
AcDbEntity
  8
0
  6
Continuous
 62
     7
370
    15
100
AcDbLine
 10
260.445125505
 20
83.1528964574
 30
0.0
 11
264.245125505
 21
83.1528964574
 31
0.0
  0
LINE
  5
109
330
1F
100
AcDbEntity
  8
0
  6
Continuous
 62
     7
370
    15
100
AcDbLine
 10
264.245125505
 20
174.1528964574
 30
0.0
 11
260.445125505
 21
174.1528964574
 31
0.0
  0
ARC
  5
10A
330
1F
100
AcDbEntity
  8
0
  6
Continuous
 62
     7
370
    15
100
AcDbCircle
 10
273.345125505
 20
86.6528964574
 30
0.0
 40
3.000000000000014
100
AcDbArc
 50
90.0
 51
180.0
  0
ARC
  5
10B
330
1F
100
AcDbEntity
  8
0
  6
Continuous
 62
     7
370
    15
100
AcDbCircle
 10
273.345125505
 20
170.6528964574
 30
0.0
 40
3.0
100
AcDbArc
 50
180.0
 51
270.0
  0
LINE
  5
10C
330
1F
100
AcDbEntity
  8
0
  6
Continuous
 62
     7
370
    15
100
AcDbLine
 10
273.345125505
 20
89.6528964574
 30
0.0
 11
300.245125505
 21
89.6528964574
 31
0.0
  0
LINE
  5
10D
330
1F
100
AcDbEntity
  8
0
  6
Continuous
 62
     7
370
    15
100
AcDbLine
 10
300.245125505
 20
167.6528964574
 30
0.0
 11
273.345125505
 21
167.6528964574
 31
0.0
  0
LINE
  5
10E
330
1F
100
AcDbEntity
  8
0
  6
Continuous
 62
     7
370
    15
100
AcDbLine
 10
300.245125505
 20
89.6528964574
 30
0.0
 11
301.245125505
 21
90.6528964574
 31
0.0
  0
LINE
  5
10F
330
1F
100
AcDbEntity
  8
0
  6
Continuous
 62
     7
370
    15
100
AcDbLine
 10
301.245125505
 20
166.6528964574
 30
0.0
 11
300.245125505
 21
167.6528964574
 31
0.0
  0
ARC
  5
110
330
1F
100
AcDbEntity
  8
0
  6
Continuous
 62
     7
370
    15
100
AcDbCircle
 10
253.945125505
 20
93.6528964574
 30
0.0
 40
0.5000000000000142
100
AcDbArc
 50
0.0
 51
90.0
  0
ARC
  5
111
330
1F
100
AcDbEntity
  8
0
  6
Continuous
 62
     7
370
    15
100
AcDbCircle
 10
253.945125505
 20
163.6528964574
 30
0.0
 40
0.5
100
AcDbArc
 50
270.0
 51
0.0
  0
LINE
  5
112
330
1F
100
AcDbEntity
  8
0
  6
Continuous
 62
     7
370
    15
100
AcDbLine
 10
251.245125505
 20
93.7278964574
 30
0.0
 11
252.1565409462
 21
94.1528964574
 31
0.0
  0
LINE
  5
113
330
1F
100
AcDbEntity
  8
0
  6
Continuous
 62
     7
370
    15
100
AcDbLine
 10
252.1565409462
 20
163.1528964574
 30
0.0
 11
251.245125505
 21
163.5778964574
 31
0.0
  0
LINE
  5
114
330
1F
100
AcDbEntity
  8
0
  6
Continuous
 62
     7
370
    15
100
AcDbLine
 10
251.245125505
 20
163.5778964574
 30
0.0
 11
150.3508172777
 21
148.8640042444
 31
0.0
  0
LINE
  5
115
330
1F
100
AcDbEntity
  8
0
  6
Continuous
 62
     7
370
    15
100
AcDbLine
 10
150.3508172777
 20
108.4417886703
 30
0.0
 11
251.245125505
 21
93.7278964574
 31
0.0
  0
LINE
  5
116
330
1F
100
AcDbEntity
  8
0
  6
Continuous
 62
     7
370
    15
100
AcDbLine
 10
252.1565409462
 20
94.1528964574
 30
0.0
 11
253.945125505
 21
94.1528964574
 31
0.0
  0
LINE
  5
117
330
1F
100
AcDbEntity
  8
0
  6
Continuous
 62
     7
370
    15
100
AcDbLine
 10
253.945125505
 20
163.1528964574
 30
0.0
 11
252.1565409462
 21
163.1528964574
 31
0.0
  0
LINE
  5
118
330
1F
100
AcDbEntity
  8
0
  6
Continuous
 62
     7
370
    15
100
AcDbLine
 10
337.245125505
 20
107.6528964574
 30
0.0
 11
338.245125505
 21
108.6528964574
 31
0.0
  0
LINE
  5
119
330
1F
100
AcDbEntity
  8
0
  6
Continuous
 62
     7
370
    15
100
AcDbLine
 10
338.245125505
 20
148.6528964574
 30
0.0
 11
337.245125505
 21
149.6528964574
 31
0.0
  0
LINE
  5
11A
330
1F
100
AcDbEntity
  8
0
  6
Continuous
 62
     7
370
    15
100
AcDbLine
 10
329.245125505
 20
107.6528964574
 30
0.0
 11
337.245125505
 21
107.6528964574
 31
0.0
  0
LINE
  5
11B
330
1F
100
AcDbEntity
  8
0
  6
Continuous
 62
     7
370
    15
100
AcDbLine
 10
337.245125505
 20
149.6528964574
 30
0.0
 11
329.245125505
 21
149.6528964574
 31
0.0
  0
LINE
  5
11C
330
1F
100
AcDbEntity
  8
0
  6
Continuous
 62
     7
370
    15
100
AcDbLine
 10
329.245125505
 20
149.6528964574
 30
0.0
 11
328.245125505
 21
148.6528964574
 31
0.0
  0
LINE
  5
11D
330
1F
100
AcDbEntity
  8
0
  6
Continuous
 62
     7
370
    15
100
AcDbLine
 10
328.245125505
 20
108.6528964574
 30
0.0
 11
329.245125505
 21
107.6528964574
 31
0.0
  0
ARC
  5
11E
330
1F
100
AcDbEntity
  8
0
  6
Continuous
 62
     7
370
    15
100
AcDbCircle
 10
150.495125505
 20
109.4313214568
 30
0.0
 40
1.000000000000028
100
AcDbArc
 50
180.0
 51
261.7027777778
  0
ARC
  5
11F
330
1F
100
AcDbEntity
  8
0
  6
Continuous
 62
     7
370
    15
100
AcDbCircle
 10
150.495125505
 20
147.8744714579
 30
0.0
 40
1.000000000000028
100
AcDbArc
 50
98.2972222222
 51
180.0
  0
LINE
  5
120
330
1F
100
AcDbEntity
  8
0
  6
Continuous
 62
     7
370
    15
100
AcDbLine
 10
301.245125505
 20
112.6528964574
 30
0.0
 11
324.7543777762
 21
112.6528964574
 31
0.0
  0
LINE
  5
121
330
1F
100
AcDbEntity
  8
0
  6
Continuous
 62
     7
370
    15
100
AcDbLine
 10
324.7543777762
 20
144.6528964574
 30
0.0
 11
301.245125505
 21
144.6528964574
 31
0.0
  0
LINE
  5
122
330
1F
100
AcDbEntity
  8
0
  6
Continuous
 62
     7
370
    15
100
AcDbLine
 10
324.7543777762
 20
112.6528964574
 30
0.0
 11
325.245125505
 21
113.5028964574
 31
0.0
  0
LINE
  5
123
330
1F
100
AcDbEntity
  8
0
  6
Continuous
 62
     7
370
    15
100
AcDbLine
 10
325.245125505
 20
143.8028964574
 30
0.0
 11
324.7543777762
 21
144.6528964574
 31
0.0
  0
ARC
  5
124
330
1F
100
AcDbEntity
  8
0
  6
Continuous
 62
     7
370
    15
100
AcDbCircle
 10
327.745125505
 20
120.1528964574
 30
0.0
 40
0.5
100
AcDbArc
 50
0.0
 51
90.0
  0
ARC
  5
125
330
1F
100
AcDbEntity
  8
0
  6
Continuous
 62
     7
370
    15
100
AcDbCircle
 10
327.745125505
 20
137.1528964574
 30
0.0
 40
0.5
100
AcDbArc
 50
270.0
 51
0.0
  0
LINE
  5
126
330
1F
100
AcDbEntity
  8
0
  6
Continuous
 62
     7
370
    15
100
AcDbLine
 10
325.245125505
 20
120.6528964574
 30
0.0
 11
327.745125505
 21
120.6528964574
 31
0.0
  0
LINE
  5
127
330
1F
100
AcDbEntity
  8
0
  6
Continuous
 62
     7
370
    15
100
AcDbLine
 10
327.745125505
 20
136.6528964574
 30
0.0
 11
325.245125505
 21
136.6528964574
 31
0.0
  0
LINE
  5
128
330
1F
100
AcDbEntity
  8
0
  6
Continuous
 62
     7
370
    15
100
AcDbLine
 10
269.17944008
 20
142.0499746288
 30
0.0
 11
269.17944008
 21
115.255818286
 31
0.0
  0
LINE
  5
129
330
1F
100
AcDbEntity
  8
0
  6
Continuous
 62
     7
370
    15
100
AcDbLine
 10
265.5927207692
 20
79.9028964574
 30
0.0
 11
265.5927207692
 21
177.4028964574
 31
0.0
  0
SPLINE
  5
12A
330
1F
100
AcDbEntity
  8
0
  6
Continuous
 62
     7
370
    15
100
AcDbSpline
210
0.0
220
0.0
230
1.0
 70
     8
 71
     3
 72
     8
 73
     4
 74
     0
 42
0.000000001
 43
0.00000001
 40
0.0
 40
0.0
 40
0.0
 40
0.0
 40
1.0
 40
1.0
 40
1.0
 40
1.0
 10
269.1794400800493
 20
142.0499746287871
 30
0.0
 10
269.2879570715004
 20
142.0499746287871
 30
0.0
 10
269.3909979233628
 20
142.0128780357209
 30
0.0
 10
269.462282792524
 20
141.9551756976239
 30
0.0
  0
LINE
  5
12B
330
1F
100
AcDbEntity
  8
0
  6
Continuous
 62
     7
370
    15
100
AcDbLine
 10
269.4622827925
 20
141.9551756976
 30
0.0
 11
269.4622827925
 21
115.3506172171
 31
0.0
  0
SPLINE
  5
12C
330
1F
100
AcDbEntity
  8
0
  6
Continuous
 62
     7
370
    15
100
AcDbSpline
210
0.0
220
0.0
230
1.0
 70
     8
 71
     3
 72
     8
 73
     4
 74
     0
 42
0.000000001
 43
0.00000001
 40
0.0
 40
0.0
 40
0.0
 40
0.0
 40
1.0
 40
1.0
 40
1.0
 40
1.0
 10
269.462282792524
 20
115.3506172171249
 30
0.0
 10
269.390966980342
 20
115.2928898318523
 30
0.0
 10
269.2880658227053
 20
115.2558182859618
 30
0.0
 10
269.1794400800494
 20
115.2558182859618
 30
0.0
  0
LINE
  5
12D
330
1F
100
AcDbEntity
  8
0
  6
Continuous
 62
     7
370
    15
100
AcDbLine
 10
264.245125505
 20
175.0687929918
 30
0.0
 11
264.245125505
 21
82.236999923
 31
0.0
  0
LINE
  5
12E
330
1F
100
AcDbEntity
  8
0
  6
Continuous
 62
     7
370
    15
100
AcDbLine
 10
260.445125505
 20
128.6528964574
 30
0.0
 11
260.445125505
 21
175.0687929918
 31
0.0
  0
LINE
  5
12F
330
1F
100
AcDbEntity
  8
0
  6
Continuous
 62
     7
370
    15
100
AcDbLine
 10
260.445125505
 20
82.236999923
 30
0.0
 11
260.445125505
 21
128.6528964574
 31
0.0
  0
LINE
  5
130
330
1F
100
AcDbEntity
  8
0
  6
Continuous
 62
     7
370
    15
100
AcDbLine
 10
259.0975302408
 20
128.6528964574
 30
0.0
 11
259.0975302408
 21
177.4028964574
 31
0.0
  0
LINE
  5
131
330
1F
100
AcDbEntity
  8
0
  6
Continuous
 62
     7
370
    15
100
AcDbLine
 10
259.0975302408
 20
79.9028964574
 30
0.0
 11
259.0975302408
 21
128.6528964574
 31
0.0
  0
LINE
  5
132
330
1F
100
AcDbEntity
  8
0
  6
Continuous
 62
     7
370
    15
100
AcDbLine
 10
255.6108109299
 20
142.0499746288
 30
0.0
 11
255.6108109299
 21
115.255818286
 31
0.0
  0
LINE
  5
133
330
1F
100
AcDbEntity
  8
0
  6
Continuous
 62
     7
370
    15
100
AcDbLine
 10
255.3279682175
 20
141.9551756976
 30
0.0
 11
255.3279682175
 21
115.3506172171
 31
0.0
  0
SPLINE
  5
134
330
1F
100
AcDbEntity
  8
0
  6
Continuous
 62
     7
370
    15
100
AcDbSpline
210
0.0
220
0.0
230
1.0
 70
     8
 71
     3
 72
     8
 73
     4
 74
     0
 42
0.000000001
 43
0.00000001
 40
0.0
 40
0.0
 40
0.0
 40
0.0
 40
1.0
 40
1.0
 40
1.0
 40
1.0
 10
255.6108109299478
 20
142.0499746287871
 30
0.0
 10
255.5022939384968
 20
142.0499746287871
 30
0.0
 10
255.3992530866345
 20
142.0128780357209
 30
0.0
 10
255.3279682174732
 20
141.9551756976239
 30
0.0
  0
SPLINE
  5
135
330
1F
100
AcDbEntity
  8
0
  6
Continuous
 62
     7
370
    15
100
AcDbSpline
210
0.0
220
0.0
230
1.0
 70
     8
 71
     3
 72
     8
 73
     4
 74
     0
 42
0.000000001
 43
0.00000001
 40
0.0
 40
0.0
 40
0.0
 40
0.0
 40
1.0
 40
1.0
 40
1.0
 40
1.0
 10
255.6108109299478
 20
115.2558182859618
 30
0.0
 10
255.5022939384968
 20
115.2558182859618
 30
0.0
 10
255.3992530866345
 20
115.2929148790279
 30
0.0
 10
255.3279682174732
 20
115.3506172171249
 30
0.0
  0
LINE
  5
136
330
1F
100
AcDbEntity
  8
0
  6
Continuous
 62
     7
370
    15
100
AcDbLine
 10
270.2279682175
 20
141.5028964574
 30
0.0
 11
270.2279682175
 21
115.8028964574
 31
0.0
  0
LINE
  5
137
330
1F
100
AcDbEntity
  8
0
  6
Continuous
 62
     7
370
    15
100
AcDbLine
 10
254.5622827925
 20
142.0857391698
 30
0.0
 11
254.5622827925
 21
115.2200537449
 31
0.0
  0
SPLINE
  5
138
330
1F
100
AcDbEntity
  8
0
  6
Continuous
 62
     7
370
    15
100
AcDbSpline
210
0.0
220
0.0
230
1.0
 70
    24
 71
     3
 72
     8
 73
     4
 74
     0
 42
0.000000001
 43
0.00000001
 40
0.0
 40
0.0
 40
0.0
 40
0.0
 40
1.0
 40
1.0
 40
1.0
 40
1.0
 10
270.3451255049986
 20
141.5028964573744
 30
0.0
 10
270.3451255049986
 20
141.5028964573744
 30
0.0
 10
270.3035817710461
 20
141.5028964573744
 30
0.0
 10
270.2279682174732
 20
141.5028964573744
 30
0.0
  0
LINE
  5
139
330
1F
100
AcDbEntity
  8
0
  6
Continuous
 62
     7
370
    15
100
AcDbLine
 10
270.345125505
 20
141.5028964574
 30
0.0
 11
270.345125505
 21
115.8028964574
 31
0.0
  0
SPLINE
  5
13A
330
1F
100
AcDbEntity
  8
0
  6
Continuous
 62
     7
370
    15
100
AcDbSpline
210
0.0
220
0.0
230
1.0
 70
    24
 71
     3
 72
     8
 73
     4
 74
     0
 42
0.000000001
 43
0.00000001
 40
0.0
 40
0.0
 40
0.0
 40
0.0
 40
1.0
 40
1.0
 40
1.0
 40
1.0
 10
270.3451255049986
 20
115.8028964573744
 30
0.0
 10
270.3451255049985
 20
115.8028964573744
 30
0.0
 10
270.3035817710461
 20
115.8028964573745
 30
0.0
 10
270.2279682174732
 20
115.8028964573745
 30
0.0
  0
LINE
  5
13B
330
1F
100
AcDbEntity
  8
0
  6
Continuous
 62
     7
370
    15
100
AcDbLine
 10
254.445125505
 20
142.2028964574
 30
0.0
 11
254.445125505
 21
115.1028964574
 31
0.0
  0
SPLINE
  5
13C
330
1F
100
AcDbEntity
  8
0
  6
Continuous
 62
     7
370
    15
100
AcDbSpline
210
0.0
220
0.0
230
1.0
 70
    24
 71
     3
 72
    10
 73
     6
 74
     0
 42
0.000000001
 43
0.00000001
 40
0.0
 40
0.0
 40
0.0
 40
0.0
 40
0.5
 40
0.5
 40
1.0
 40
1.0
 40
1.0
 40
1.0
 10
254.4451255049986
 20
142.2028964573744
 30
0.0
 10
254.4451255049986
 20
142.2028964573744
 30
0.0
 10
254.4589713810234
 20
142.1890505813496
 30
0.0
 10
254.5011371572108
 20
142.1468848051622
 30
0.0
 10
254.5296278574739
 20
142.1183941048992
 30
0.0
 10
254.562282792524
 20
142.0857391698491
 30
0.0
  0
SPLINE
  5
13D
330
1F
100
AcDbEntity
  8
0
  6
Continuous
 62
     7
370
    15
100
AcDbSpline
210
0.0
220
0.0
230
1.0
 70
    24
 71
     3
 72
    10
 73
     6
 74
     0
 42
0.000000001
 43
0.00000001
 40
0.0
 40
0.0
 40
0.0
 40
0.0
 40
0.5
 40
0.5
 40
1.0
 40
1.0
 40
1.0
 40
1.0
 10
254.562282792524
 20
115.2200537448998
 30
0.0
 10
254.5296497315067
 20
115.1874206838825
 30
0.0
 10
254.5016688452405
 20
115.1594397976163
 30
0.0
 10
254.4590119948654
 20
115.1167829472413
 30
0.0
 10
254.4451255049986
 20
115.1028964573745
 30
0.0
 10
254.4451255049986
 20
115.1028964573745
 30
0.0
  0
SPLINE
  5
13E
330
1F
100
AcDbEntity
  8
0
  6
Continuous
 62
     7
370
    15
100
AcDbSpline
210
0.0
220
0.0
230
1.0
 70
    24
 71
     3
 72
    36
 73
    32
 74
     0
 42
0.000000001
 43
0.00000001
 40
0.0
 40
0.0
 40
0.0
 40
0.0
 40
0.010855060115309
 40
0.021700603247601
 40
0.0325387683476148
 40
0.0433716987364442
 40
0.0542015408431699
 40
0.0650304429332853
 40
0.0758605538316704
 40
0.0866940216439018
 40
0.0975329924797007
 40
0.1083796091823073
 40
0.1192360100675244
 40
0.181247834122235
 40
0.2432679244012066
 40
0.3069990489490812
 40
0.370738668921532
 40
0.4353656024873025
 40
0.5000011508910791
 40
0.5646280845655833
 40
0.6292636330748704
 40
0.6929947579300935
 40
0.7567343782029041
 40
0.8187462027125846
 40
0.8807662934441524
 40
0.9006583299602414
 40
0.9205248324912559
 40
0.9403790153804057
 40
0.9602341175685198
 40
0.9801033761588329
 40
1.0
 40
1.0
 40
1.0
 40
1.0
 10
270.3451255049986
 20
115.8028964573745
 30
0.0
 10
270.3451255049986
 20
115.5881095830122
 30
0.0
 10
270.3451255049986
 20
115.1587241449016
 30
0.0
 10
270.3451255049986
 20
114.5182276348011
 30
0.0
 10
270.3451255049986
 20
113.8807774233724
 30
0.0
 10
270.3451255049986
 20
113.2466037689
 30
0.0
 10
270.3451255049986
 20
112.6156451369118
 30
0.0
 10
270.3451255049986
 20
111.9879180683276
 30
0.0
 10
270.3451255049986
 20
111.3634183492488
 30
0.0
 10
270.3451255049986
 20
110.7421467437237
 30
0.0
 10
270.3451255049986
 20
110.1241048444189
 30
0.0
 10
270.3451255049986
 20
109.5092859322773
 30
0.0
 10
270.3451255049986
 20
107.9374282756186
 30
0.0
 10
270.3451255049986
 20
105.4577789815864
 30
0.0
 10
270.3451255049986
 20
102.1591059231135
 30
0.0
 10
270.3451255049986
 20
99.00572899793241
 30
0.0
 10
270.3451255049986
 20
96.01365628936588
 30
0.0
 10
270.3451255049986
 20
93.23291008075046
 30
0.0
 10
270.3451255049986
 20
90.68961077367418
 30
0.0
 10
270.3451255049986
 20
88.41159928860593
 30
0.0
 10
270.3451255049986
 20
86.42716679288712
 30
0.0
 10
270.3451255049986
 20
84.74241355581717
 30
0.0
 10
270.3451255049986
 20
83.37955306226634
 30
0.0
 10
270.3451255049986
 20
82.32737474161063
 30
0.0
 10
270.3451255049986
 20
81.75387328955601
 30
0.0
 10
270.3451255049986
 20
81.45784588887219
 30
0.0
 10
270.3451255049986
 20
81.31583080342637
 30
0.0
 10
270.3451255049986
 20
81.20522861086465
 30
0.0
 10
270.3451255049986
 20
81.12679908165063
 30
0.0
 10
270.3451255049986
 20
81.07768296984592
 30
0.0
 10
270.3451255049986
 20
81.07161696962203
 30
0.0
 10
270.3451255049986
 20
81.06858188232368
 30
0.0
  0
SPLINE
  5
13F
330
1F
100
AcDbEntity
  8
0
  6
Continuous
 62
     7
370
    15
100
AcDbSpline
210
0.0
220
0.0
230
1.0
 70
    24
 71
     3
 72
    23
 73
    19
 74
     0
 42
0.000000001
 43
0.00000001
 40
0.0
 40
0.0
 40
0.0
 40
0.0
 40
0.049344142439785
 40
0.1126391337887782
 40
0.1752432992499413
 40
0.2371050695636289
 40
0.2989591199343767
 40
0.3615634382303971
 40
0.4248659973704123
 40
0.4891594850324235
 40
0.5537405807095876
 40
0.6185525319731143
 40
0.6833570688697037
 40
0.7479382231567704
 40
0.812239066728002
 40
0.8755340580753496
 40
0.9381401318495213
 40
1.0
 40
1.0
 40
1.0
 40
1.0
 10
270.3451255049986
 20
176.2077229333413
 30
0.0
 10
270.3451255049986
 20
176.2007758521121
 30
0.0
 10
270.3451255049986
 20
176.1849175724191
 30
0.0
 10
270.3451255049986
 20
175.7781661595046
 30
0.0
 10
270.3451255049986
 20
175.0683509456114
 30
0.0
 10
270.3451255049986
 20
174.0519440201117
 30
0.0
 10
270.3451255049986
 20
172.7450745349915
 30
0.0
 10
270.3451255049986
 20
171.1383625260276
 30
0.0
 10
270.3451255049986
 20
169.2255173933184
 30
0.0
 10
270.3451255049986
 20
167.013951481661
 30
0.0
 10
270.3451255049986
 20
164.5164452423807
 30
0.0
 10
270.3451255049986
 20
161.7595220905539
 30
0.0
 10
270.3451255049986
 20
158.7692048292137
 30
0.0
 10
270.3451255049986
 20
155.5749775268582
 30
0.0
 10
270.3451255049986
 20
152.2190978918947
 30
0.0
 10
270.3451255049986
 20
148.7360135336226
 30
0.0
 10
270.3451255049986
 20
145.1706030347544
 30
0.0
 10
270.3451255049986
 20
142.7205691201144
 30
0.0
 10
270.3451255049986
 20
141.5028964573744
 30
0.0
  0
SPLINE
  5
140
330
1F
100
AcDbEntity
  8
0
  6
Continuous
 62
     7
370
    15
100
AcDbSpline
210
0.0
220
0.0
230
1.0
 70
    24
 71
     3
 72
    36
 73
    32
 74
     0
 42
0.000000001
 43
0.00000001
 40
0.0
 40
0.0
 40
0.0
 40
0.0
 40
0.0108663901693764
 40
0.0217235992689927
 40
0.0325737239461297
 40
0.0434188649567969
 40
0.0542611259538548
 40
0.0651026122666534
 40
0.0759454296758007
 40
0.0867916831866139
 40
0.0976434758048303
 40
0.1085029073181251
 40
0.1193720730869558
 40
0.1813968254495411
 40
0.2434299782169203
 40
0.3071319268850098
 40
0.3708425031356519
 40
0.4354174425596918
 40
0.5000011278075956
 40
0.5645760673346892
 40
0.6291597526862437
 40
0.6928617016453169
 40
0.7565722781921671
 40
0.8185970309917204
 40
0.88063018420144
 40
0.9005456124940234
 40
0.9204355775907559
 40
0.9403130284544624
 40
0.9601909385042273
 40
0.9800822802606719
 40
1.0
 40
1.0
 40
1.0
 40
1.0
 10
254.4451255049986
 20
81.06858188232368
 30
0.0
 10
254.4451255049986
 20
81.06946292920557
 30
0.0
 10
254.4451255049986
 20
81.07122427856821
 30
0.0
 10
254.4451255049986
 20
81.08551952541492
 30
0.0
 10
254.4451255049986
 20
81.10834842194028
 30
0.0
 10
254.4451255049986
 20
81.1405455408755
 30
0.0
 10
254.4451255049986
 20
81.18188745644484
 30
0.0
 10
254.4451255049986
 20
81.23243401441054
 30
0.0
 10
254.4451255049986
 20
81.29216911784147
 30
0.0
 10
254.4451255049986
 20
81.36109729011403
 30
0.0
 10
254.4451255049986
 20
81.43921647197199
 30
0.0
 10
254.4451255049986
 20
81.52653029296442
 30
0.0
 10
254.4451255049986
 20
81.77436700737358
 30
0.0
 10
254.4451255049986
 20
82.30001482240453
 30
0.0
 10
254.4451255049986
 20
83.32840582892796
 30
0.0
 10
254.4451255049986
 20
84.66035564222209
 30
0.0
 10
254.4451255049986
 20
86.30628155693631
 30
0.0
 10
254.4451255049986
 20
88.24530260921235
 30
0.0
 10
254.4451255049986
 20
90.47127759171124
 30
0.0
 10
254.4451255049986
 20
92.95763286786855
 30
0.0
 10
254.4451255049986
 20
95.67740066186602
 30
0.0
 10
254.4451255049986
 20
98.60610899985946
 30
0.0
 10
254.4451255049986
 20
101.6954349990843
 30
0.0
 10
254.4451255049986
 20
104.9305360472577
 30
0.0
 10
254.4451255049986
 20
107.5281479170173
 30
0.0
 10
254.4451255049986
 20
109.4110353470129
 30
0.0
 10
254.4451255049986
 20
110.5270903214447
 30
0.0
 10
254.4451255049986
 20
111.6541844564618
 30
0.0
 10
254.4451255049986
 20
112.7925493801226
 30
0.0
 10
254.4451255049986
 20
113.941380861409
 30
0.0
 10
254.4451255049986
 20
114.7155535998675
 30
0.0
 10
254.4451255049986
 20
115.1028964573744
 30
0.0
  0
SPLINE
  5
141
330
1F
100
AcDbEntity
  8
0
  6
Continuous
 62
     7
370
    15
100
AcDbSpline
210
0.0
220
0.0
230
1.0
 70
    24
 71
     3
 72
    23
 73
    19
 74
     0
 42
0.000000001
 43
0.00000001
 40
0.0
 40
0.0
 40
0.0
 40
0.0
 40
0.0621371780016823
 40
0.1250125041989178
 40
0.18858029616004
 40
0.253127189537456
 40
0.3179582992717379
 40
0.3830175621109775
 40
0.4480693138239227
 40
0.5129004819881641
 40
0.5774548282112543
 40
0.6410149507156808
 40
0.70389205390056
 40
0.7660351298220105
 40
0.8281703793520515
 40
0.8910476401564842
 40
0.9546154321206017
 40
1.0
 40
1.0
 40
1.0
 40
1.0
 10
254.4451255049986
 20
142.2028964573744
 30
0.0
 10
254.4451255049986
 20
143.4058516172792
 30
0.0
 10
254.4451255049986
 20
145.8260522413667
 30
0.0
 10
254.4451255049986
 20
149.3428967102572
 30
0.0
 10
254.4451255049986
 20
152.7742380732811
 30
0.0
 10
254.4451255049986
 20
156.0760327363557
 30
0.0
 10
254.4451255049986
 20
159.2149332323094
 30
0.0
 10
254.4451255049986
 20
162.1498888793199
 30
0.0
 10
254.4451255049986
 20
164.852464709769
 30
0.0
 10
254.4451255049986
 20
167.2976261225419
 30
0.0
 10
254.4451255049986
 20
169.4597494199081
 30
0.0
 10
254.4451255049986
 20
171.3266746039655
 30
0.0
 10
254.4451255049986
 20
172.8915292029789
 30
0.0
 10
254.4451255049986
 20
174.1601756667702
 30
0.0
 10
254.4451255049986
 20
175.1422649520783
 30
0.0
 10
254.4451255049986
 20
175.8203110502167
 30
0.0
 10
254.4451255049986
 20
176.1964401811173
 30
0.0
 10
254.4451255049986
 20
176.2012504637312
 30
0.0
 10
254.4451255049986
 20
176.2032542073685
 30
0.0
  0
SPLINE
  5
142
330
1F
100
AcDbEntity
  8
0
  6
Continuous
 62
     7
370
    15
100
AcDbSpline
210
0.0
220
0.0
230
1.0
 70
    24
 71
     3
 72
    22
 73
    18
 74
     0
 42
0.000000001
 43
0.00000001
 40
0.0
 40
0.0
 40
0.0
 40
0.0
 40
0.125
 40
0.125
 40
0.25
 40
0.25
 40
0.375
 40
0.375
 40
0.5
 40
0.5
 40
0.625
 40
0.625
 40
0.75
 40
0.75
 40
0.875
 40
0.875
 40
1.0
 40
1.0
 40
1.0
 40
1.0
 10
273.3451255049986
 20
141.5028964573744
 30
0.0
 10
273.1415834319621
 20
141.5028964573744
 30
0.0
 10
272.9417886181786
 20
141.5028964573744
 30
0.0
 10
272.5493335625696
 20
141.5028964573744
 30
0.0
 10
272.3546025029372
 20
141.5028964573744
 30
0.0
 10
271.9872693929922
 20
141.5028964573744
 30
0.0
 10
271.8136537816401
 20
141.5028964573744
 30
0.0
 10
271.4861515275745
 20
141.5028964573744
 30
0.0
 10
271.3340925812718
 20
141.5028964573744
 30
0.0
 10
271.0616258699033
 20
141.5028964573744
 30
0.0
 10
270.9388939575475
 20
141.5028964573744
 30
0.0
 10
270.72591789751
 20
141.5028964573744
 30
0.0
 10
270.6369785130577
 20
141.5028964573744
 30
0.0
 10
270.4926662032952
 20
141.5028964573744
 30
0.0
 10
270.4371403149131
 20
141.5028964573744
 30
0.0
 10
270.3636754470705
 20
141.5028964573744
 30
0.0
 10
270.3451255049986
 20
141.5028964573744
 30
0.0
 10
270.3451255049986
 20
141.5028964573744
 30
0.0
  0
LINE
  5
143
330
1F
100
AcDbEntity
  8
0
  6
Continuous
 62
     7
370
    15
100
AcDbLine
 10
273.345125505
 20
141.5028964574
 30
0.0
 11
273.345125505
 21
115.8028964574
 31
0.0
  0
SPLINE
  5
144
330
1F
100
AcDbEntity
  8
0
  6
Continuous
 62
     7
370
    15
100
AcDbSpline
210
0.0
220
0.0
230
1.0
 70
    24
 71
     3
 72
    22
 73
    18
 74
     0
 42
0.000000001
 43
0.00000001
 40
0.0
 40
0.0
 40
0.0
 40
0.0
 40
0.125
 40
0.125
 40
0.25
 40
0.25
 40
0.375
 40
0.375
 40
0.5
 40
0.5
 40
0.625
 40
0.625
 40
0.75
 40
0.75
 40
0.875
 40
0.875
 40
1.0
 40
1.0
 40
1.0
 40
1.0
 10
270.3451255049986
 20
115.8028964573745
 30
0.0
 10
270.3451255049986
 20
115.8028964573745
 30
0.0
 10
270.363705426343
 20
115.8028964573744
 30
0.0
 10
270.4365281950263
 20
115.8028964573745
 30
0.0
 10
270.4913695942949
 20
115.8028964573744
 30
0.0
 10
270.6365045142551
 20
115.8028964573744
 30
0.0
 10
270.7255249012419
 20
115.8028964573744
 30
0.0
 10
270.9362981995059
 20
115.8028964573745
 30
0.0
 10
271.0597356504322
 20
115.8028964573744
 30
0.0
 10
271.333219116288
 20
115.8028964573744
 30
0.0
 10
271.482758913463
 20
115.8028964573744
 30
0.0
 10
271.8080546189567
 20
115.8028964573744
 30
0.0
 10
271.9855786771694
 20
115.8028964573745
 30
0.0
 10
272.3519437979137
 20
115.8028964573744
 30
0.0
 10
272.5423071844933
 20
115.8028964573744
 30
0.0
 10
272.938053169156
 20
115.8028964573744
 30
0.0
 10
273.1413632848943
 20
115.8028964573744
 30
0.0
 10
273.3451255049986
 20
115.8028964573745
 30
0.0
  0
LINE
  5
145
330
1F
100
AcDbEntity
  8
0
  6
Continuous
 62
     7
370
    15
100
AcDbLine
 10
300.245125505
 20
128.6528964574
 30
0.0
 11
300.245125505
 21
167.6528964574
 31
0.0
  0
LINE
  5
146
330
1F
100
AcDbEntity
  8
0
  6
Continuous
 62
     7
370
    15
100
AcDbLine
 10
300.245125505
 20
89.6528964574
 30
0.0
 11
300.245125505
 21
128.6528964574
 31
0.0
  0
LINE
  5
147
330
1F
100
AcDbEntity
  8
0
  6
Continuous
 62
     7
370
    15
100
AcDbLine
 10
301.245125505
 20
90.6528964574
 30
0.0
 11
301.245125505
 21
166.6528964574
 31
0.0
  0
LINE
  5
148
330
1F
100
AcDbEntity
  8
0
  6
Continuous
 62
     7
370
    15
100
AcDbLine
 10
252.1565409462
 20
128.6528964574
 30
0.0
 11
252.1565409462
 21
163.1528964574
 31
0.0
  0
LINE
  5
149
330
1F
100
AcDbEntity
  8
0
  6
Continuous
 62
     7
370
    15
100
AcDbLine
 10
252.1565409462
 20
94.1528964574
 30
0.0
 11
252.1565409462
 21
128.6528964574
 31
0.0
  0
LINE
  5
14A
330
1F
100
AcDbEntity
  8
0
  6
Continuous
 62
     7
370
    15
100
AcDbLine
 10
251.245125505
 20
93.7278964574
 30
0.0
 11
251.245125505
 21
163.5778964574
 31
0.0
  0
LINE
  5
14B
330
1F
100
AcDbEntity
  8
0
  6
Continuous
 62
     7
370
    15
100
AcDbLine
 10
338.245125505
 20
128.6528964574
 30
0.0
 11
338.245125505
 21
148.6528964574
 31
0.0
  0
LINE
  5
14C
330
1F
100
AcDbEntity
  8
0
  6
Continuous
 62
     7
370
    15
100
AcDbLine
 10
338.245125505
 20
108.6528964574
 30
0.0
 11
338.245125505
 21
128.6528964574
 31
0.0
  0
LINE
  5
14D
330
1F
100
AcDbEntity
  8
0
  6
Continuous
 62
     7
370
    15
100
AcDbLine
 10
337.245125505
 20
128.6528964574
 30
0.0
 11
337.245125505
 21
149.6528964574
 31
0.0
  0
LINE
  5
14E
330
1F
100
AcDbEntity
  8
0
  6
Continuous
 62
     7
370
    15
100
AcDbLine
 10
337.245125505
 20
107.6528964574
 30
0.0
 11
337.245125505
 21
128.6528964574
 31
0.0
  0
LINE
  5
14F
330
1F
100
AcDbEntity
  8
0
  6
Continuous
 62
     7
370
    15
100
AcDbLine
 10
329.245125505
 20
107.6528964574
 30
0.0
 11
329.245125505
 21
149.6528964574
 31
0.0
  0
LINE
  5
150
330
1F
100
AcDbEntity
  8
0
  6
Continuous
 62
     7
370
    15
100
AcDbLine
 10
328.245125505
 20
108.6528964574
 30
0.0
 11
328.245125505
 21
148.6528964574
 31
0.0
  0
SPLINE
  5
151
330
1F
100
AcDbEntity
  8
0
  6
Continuous
 62
     7
370
    15
100
AcDbSpline
210
0.0
220
0.0
230
1.0
 70
    24
 71
     3
 72
    10
 73
     6
 74
     0
 42
0.000000001
 43
0.00000001
 40
0.0
 40
0.0
 40
0.0
 40
0.0
 40
0.4999999999999997
 40
0.4999999999999997
 40
0.9999999999999999
 40
0.9999999999999999
 40
0.9999999999999999
 40
0.9999999999999999
 10
149.4951255049986
 20
147.8744714579198
 30
0.0
 10
149.4951255049986
 20
147.8744714579197
 30
0.0
 10
149.4951255049986
 20
145.8492450318508
 30
0.0
 10
149.4951255049986
 20
138.6399599388407
 30
0.0
 10
149.4951255049986
 20
133.7506308341489
 30
0.0
 10
149.4951255049986
 20
128.6528964573745
 30
0.0
  0
SPLINE
  5
152
330
1F
100
AcDbEntity
  8
0
  6
Continuous
 62
     7
370
    15
100
AcDbSpline
210
0.0
220
0.0
230
1.0
 70
    24
 71
     3
 72
    10
 73
     6
 74
     0
 42
0.000000001
 43
0.00000001
 40
0.0
 40
0.0
 40
0.0
 40
0.0
 40
0.4999999999999999
 40
0.4999999999999999
 40
0.9999999999999999
 40
0.9999999999999999
 40
0.9999999999999999
 40
0.9999999999999999
 10
149.4951255049986
 20
128.6528964573745
 30
0.0
 10
149.4951255049986
 20
123.5551620806
 30
0.0
 10
149.4951255049986
 20
118.6658329759078
 30
0.0
 10
149.4951255049986
 20
111.4565478828979
 30
0.0
 10
149.4951255049986
 20
109.4313214568289
 30
0.0
 10
149.4951255049986
 20
109.4313214568291
 30
0.0
  0
LINE
  5
153
330
1F
100
AcDbEntity
  8
0
  6
Continuous
 62
     7
370
    15
100
AcDbLine
 10
324.7543777762
 20
128.6528964574
 30
0.0
 11
324.7543777762
 21
144.6528964574
 31
0.0
  0
LINE
  5
154
330
1F
100
AcDbEntity
  8
0
  6
Continuous
 62
     7
370
    15
100
AcDbLine
 10
324.7543777762
 20
112.6528964574
 30
0.0
 11
324.7543777762
 21
128.6528964574
 31
0.0
  0
LINE
  5
155
330
1F
100
AcDbEntity
  8
0
  6
Continuous
 62
     7
370
    15
100
AcDbLine
 10
325.245125505
 20
113.5028964574
 30
0.0
 11
325.245125505
 21
143.8028964574
 31
0.0
  0
LINE
  5
156
330
1F
100
AcDbEntity
  8
0
  6
Continuous
 62
     7
370
    15
100
AcDbLine
 10
301.245125505
 20
107.1528964574
 30
0.0
 11
307.495125505
 21
107.1528964574
 31
0.0
  0
LINE
  5
157
330
1F
100
AcDbEntity
  8
0
  6
Continuous
 62
     7
370
    15
100
AcDbLine
 10
307.495125505
 20
107.1528964574
 30
0.0
 11
307.495125505
 21
94.1528964574
 31
0.0
  0
LINE
  5
158
330
1F
100
AcDbEntity
  8
0
  6
Continuous
 62
     7
370
    15
100
AcDbLine
 10
307.495125505
 20
94.1528964574
 30
0.0
 11
301.245125505
 21
94.1528964574
 31
0.0
  0
LINE
  5
159
330
1F
100
AcDbEntity
  8
0
  6
Continuous
 62
     7
370
    15
100
AcDbLine
 10
307.495125505
 20
107.6528964574
 30
0.0
 11
301.245125505
 21
107.6528964574
 31
0.0
  0
LINE
  5
15A
330
1F
100
AcDbEntity
  8
0
  6
Continuous
 62
     7
370
    15
100
AcDbLine
 10
307.495125505
 20
107.6528964574
 30
0.0
 11
307.495125505
 21
107.1528964574
 31
0.0
  0
LINE
  5
15B
330
1F
100
AcDbEntity
  8
0
  6
Continuous
 62
     7
370
    15
100
AcDbLine
 10
301.245125505
 20
93.6528964574
 30
0.0
 11
307.495125505
 21
93.6528964574
 31
0.0
  0
LINE
  5
15C
330
1F
100
AcDbEntity
  8
0
  6
Continuous
 62
     7
370
    15
100
AcDbLine
 10
307.495125505
 20
94.1528964574
 30
0.0
 11
307.495125505
 21
93.6528964574
 31
0.0
  0
LINE
  5
15D
330
1F
100
AcDbEntity
  8
0
  6
Continuous
 62
     7
370
    15
100
AcDbLine
 10
301.245125505
 20
163.1528964574
 30
0.0
 11
307.495125505
 21
163.1528964574
 31
0.0
  0
LINE
  5
15E
330
1F
100
AcDbEntity
  8
0
  6
Continuous
 62
     7
370
    15
100
AcDbLine
 10
307.495125505
 20
163.1528964574
 30
0.0
 11
307.495125505
 21
150.1528964574
 31
0.0
  0
LINE
  5
15F
330
1F
100
AcDbEntity
  8
0
  6
Continuous
 62
     7
370
    15
100
AcDbLine
 10
307.495125505
 20
150.1528964574
 30
0.0
 11
301.245125505
 21
150.1528964574
 31
0.0
  0
LINE
  5
160
330
1F
100
AcDbEntity
  8
0
  6
Continuous
 62
     7
370
    15
100
AcDbLine
 10
307.495125505
 20
163.6528964574
 30
0.0
 11
301.245125505
 21
163.6528964574
 31
0.0
  0
LINE
  5
161
330
1F
100
AcDbEntity
  8
0
  6
Continuous
 62
     7
370
    15
100
AcDbLine
 10
307.495125505
 20
163.6528964574
 30
0.0
 11
307.495125505
 21
163.1528964574
 31
0.0
  0
LINE
  5
162
330
1F
100
AcDbEntity
  8
0
  6
Continuous
 62
     7
370
    15
100
AcDbLine
 10
301.245125505
 20
149.6528964574
 30
0.0
 11
307.495125505
 21
149.6528964574
 31
0.0
  0
LINE
  5
163
330
1F
100
AcDbEntity
  8
0
  6
Continuous
 62
     7
370
    15
100
AcDbLine
 10
307.495125505
 20
150.1528964574
 30
0.0
 11
307.495125505
 21
149.6528964574
 31
0.0
  0
LINE
  5
164
330
1F
100
AcDbEntity
  8
0
  6
Continuous
 62
     8
370
    15
100
AcDbLine
 10
269.17944008
 20
142.0499746288
 30
0.0
 11
269.17944008
 21
177.4028964574
 31
0.0
  0
LINE
  5
165
330
1F
100
AcDbEntity
  8
0
  6
Continuous
 62
     8
370
    15
100
AcDbLine
 10
269.17944008
 20
79.9028964574
 30
0.0
 11
269.17944008
 21
115.255818286
 31
0.0
  0
LINE
  5
166
330
1F
100
AcDbEntity
  8
0
  6
Continuous
 62
     8
370
    15
100
AcDbLine
 10
255.6108109299
 20
79.9028964574
 30
0.0
 11
255.6108109299
 21
115.255818286
 31
0.0
  0
LINE
  5
167
330
1F
100
AcDbEntity
  8
0
  6
Continuous
 62
     8
370
    15
100
AcDbLine
 10
255.6108109299
 20
177.4028964574
 30
0.0
 11
255.6108109299
 21
142.0499746288
 31
0.0
  0
LINE
  5
168
330
1F
100
AcDbEntity
  8
0
  6
Continuous
 62
     8
370
    15
100
AcDbLine
 10
270.2279682175
 20
176.5200537449
 30
0.0
 11
270.2279682175
 21
141.5028964574
 31
0.0
  0
LINE
  5
169
330
1F
100
AcDbEntity
  8
0
  6
Continuous
 62
     8
370
    15
100
AcDbLine
 10
270.2279682175
 20
115.8028964574
 30
0.0
 11
270.2279682175
 21
80.7857391698
 31
0.0
  0
LINE
  5
16A
330
1F
100
AcDbEntity
  8
0
  6
Continuous
 62
     8
370
    15
100
AcDbLine
 10
269.4622827925
 20
141.9551756976
 30
0.0
 11
269.4622827925
 21
177.2857391698
 31
0.0
  0
LINE
  5
16B
330
1F
100
AcDbEntity
  8
0
  6
Continuous
 62
     8
370
    15
100
AcDbLine
 10
269.4622827925
 20
115.3506172171
 30
0.0
 11
269.4622827925
 21
80.0200537449
 31
0.0
  0
LINE
  5
16C
330
1F
100
AcDbEntity
  8
0
  6
Continuous
 62
     8
370
    15
100
AcDbLine
 10
254.5622827925
 20
80.7857391698
 30
0.0
 11
254.5622827925
 21
115.2200537449
 31
0.0
  0
LINE
  5
16D
330
1F
100
AcDbEntity
  8
0
  6
Continuous
 62
     8
370
    15
100
AcDbLine
 10
254.5622827925
 20
142.0857391698
 30
0.0
 11
254.5622827925
 21
176.5200537449
 31
0.0
  0
LINE
  5
16E
330
1F
100
AcDbEntity
  8
0
  6
Continuous
 62
     8
370
    15
100
AcDbLine
 10
255.3279682175
 20
141.9551756976
 30
0.0
 11
255.3279682175
 21
177.2857391698
 31
0.0
  0
LINE
  5
16F
330
1F
100
AcDbEntity
  8
0
  6
Continuous
 62
     8
370
    15
100
AcDbLine
 10
255.3279682175
 20
80.0200537449
 30
0.0
 11
255.3279682175
 21
115.3506172171
 31
0.0
  0
LINE
  5
170
330
1F
100
AcDbEntity
  8
0
  6
Continuous
 62
     8
370
    15
100
AcDbLine
 10
273.345125505
 20
115.8028964574
 30
0.0
 11
273.345125505
 21
89.6528964574
 31
0.0
  0
LINE
  5
171
330
1F
100
AcDbEntity
  8
0
  6
Continuous
 62
     8
370
    15
100
AcDbLine
 10
273.345125505
 20
167.6528964574
 30
0.0
 11
273.345125505
 21
141.5028964574
 31
0.0
  0
LINE
  5
172
330
1F
100
AcDbEntity
  8
0
  6
Continuous
 62
     8
370
    15
100
AcDbLine
 10
253.945125505
 20
128.6528964574
 30
0.0
 11
253.945125505
 21
163.1528964574
 31
0.0
  0
LINE
  5
173
330
1F
100
AcDbEntity
  8
0
  6
Continuous
 62
     8
370
    15
100
AcDbLine
 10
253.945125505
 20
94.1528964574
 30
0.0
 11
253.945125505
 21
128.6528964574
 31
0.0
  0
LINE
  5
174
330
1F
100
AcDbEntity
  8
0
  6
Continuous
 62
     8
370
    15
100
AcDbLine
 10
150.3508172777
 20
148.8640042444
 30
0.0
 11
150.3508172777
 21
108.4417886703
 31
0.0
  0
LINE
  5
175
330
1F
100
AcDbEntity
  8
0
  6
Continuous
 62
     8
370
    15
100
AcDbLine
 10
327.745125505
 20
128.6528964574
 30
0.0
 11
327.745125505
 21
136.6528964574
 31
0.0
  0
LINE
  5
176
330
1F
100
AcDbEntity
  8
0
  6
Continuous
 62
     8
370
    15
100
AcDbLine
 10
327.745125505
 20
120.6528964574
 30
0.0
 11
327.745125505
 21
128.6528964574
 31
0.0
  0
DIMENSION
  5
177
330
1F
100
AcDbEntity
  8
DIM
100
AcDbDimension
  2
_D
 10
345.0685116416
 20
112.6528964574
 30
0.0
 11
345.0685116416
 21
128.6528964574
 31
0.0
 70
   160
  1
%%c<>
 71
     2
 42
-1.0
  3
SLDDIMSTYLE0
100
AcDbAlignedDimension
 13
324.7543777762
 23
144.6528964574
 33
0.0
 14
324.7543777762
 24
112.6528964574
 34
0.0
 50
90.0
100
AcDbRotatedDimension
  0
DIMENSION
  5
183
330
1F
100
AcDbEntity
  8
DIM
100
AcDbDimension
  2
_D_1
 10
354.2223943294
 20
89.6528964574
 30
0.0
 11
354.2223943294
 21
128.6528964574
 31
0.0
 70
   160
  1
%%c<>
 71
     2
 42
-1.0
  3
SLDDIMSTYLE0
100
AcDbAlignedDimension
 13
300.245125505
 23
167.6528964574
 33
0.0
 14
300.245125505
 24
89.6528964574
 34
0.0
 50
90.0
100
AcDbRotatedDimension
  0
DIMENSION
  5
18E
330
1F
100
AcDbEntity
  8
DIM
100
AcDbDimension
  2
_D_2
 10
301.245125505
 20
71.7131429481
 30
0.0
 11
313.245125505
 21
71.7131429481
 31
0.0
 70
   160
  1
<>
 71
     2
 42
-1.0
  3
SLDDIMSTYLE0
100
AcDbAlignedDimension
 13
325.245125505
 23
113.5028964574
 33
0.0
 14
301.245125505
 24
90.6528964574
 34
0.0
100
AcDbRotatedDimension
  0
DIMENSION
  5
198
330
1F
100
AcDbEntity
  8
DIM
100
AcDbDimension
  2
_D_3
 10
301.245125505
 20
71.7131429481
 30
0.0
 11
276.245125505
 21
71.7131429481
 31
0.0
 70
   160
  1
<>
 71
     2
 42
-1.0
  3
SLDDIMSTYLE0
100
AcDbAlignedDimension
 13
251.245125505
 23
93.7278964574
 33
0.0
 14
301.245125505
 24
90.6528964574
 34
0.0
100
AcDbRotatedDimension
  0
DIMENSION
  5
1A2
330
1F
100
AcDbEntity
  8
DIM
100
AcDbDimension
  2
_D_4
 10
338.245125505
 20
59.1027964574
 30
0.0
 11
243.870125505
 21
59.1027964574
 31
0.0
 70
   160
  1
<>
 71
     2
 42
-1.0
  3
SLDDIMSTYLE0
100
AcDbAlignedDimension
 13
149.495125505
 23
128.6528964574
 33
0.0
 14
338.245125505
 24
108.6528964574
 34
0.0
 50
0.0
100
AcDbRotatedDimension
  0
DIMENSION
  5
1AC
330
1F
100
AcDbEntity
  8
DIM
100
AcDbDimension
  2
_D_5
 10
142.2906027435
 20
79.9028964574
 30
0.0
 11
142.2906027435
 21
128.6528964574
 31
0.0
 70
   160
  1
%%c<>
 71
     2
 42
-1.0
  3
SLDDIMSTYLE1
100
AcDbAlignedDimension
 13
255.6108109299
 23
177.4028964574
 33
0.0
 14
255.6108109299
 24
79.9028964574
 34
0.0
 50
90.0
100
AcDbRotatedDimension
  0
LINE
  5
1B8
330
1F
100
AcDbEntity
  8
DIM
  6
CENTERX2
 48
1.5384615385
370
     0
100
AcDbLine
 10
149.7273192103
 20
128.6528964574
 30
0.0
 11
337.5131392581
 21
128.6528964574
 31
0.0
  0
ENDSEC
  0
SECTION
  2
OBJECTS
  0
DICTIONARY
  5
C
330
0
100
AcDbDictionary
281
     1
  3
ACAD_GROUP
350
D
  3
ACAD_LAYOUT
350
1A
  3
ACAD_MLINESTYLE
350
17
  3
ACAD_PLOTSETTINGS
350
19
  3
ACAD_PLOTSTYLENAME
350
E
  3
ACAD_SCALELIST
350
47
  0
DICTIONARY
  5
D
102
{ACAD_REACTORS
330
C
102
}
330
C
100
AcDbDictionary
281
     1
  0
DICTIONARY
  5
1A
102
{ACAD_REACTORS
330
C
102
}
330
C
100
AcDbDictionary
281
     1
  3
Layout1
350
1E
  3
Layout2
350
26
  3
Model
350
22
  0
DICTIONARY
  5
17
102
{ACAD_REACTORS
330
C
102
}
330
C
100
AcDbDictionary
281
     1
  3
Standard
350
18
  0
DICTIONARY
  5
19
102
{ACAD_REACTORS
330
C
102
}
330
C
100
AcDbDictionary
281
     1
  0
ACDBDICTIONARYWDFLT
  5
E
102
{ACAD_REACTORS
330
C
102
}
330
C
100
AcDbDictionary
281
     1
  3
Normal
350
F
100
AcDbDictionaryWithDefault
340
F
  0
DICTIONARY
  5
47
102
{ACAD_REACTORS
330
C
102
}
330
C
100
AcDbDictionary
281
     1
  3
A0
350
48
  3
A1
350
49
  3
A2
350
4A
  3
A3
350
4B
  3
A4
350
4C
  3
A5
350
4D
  3
A6
350
4E
  3
A7
350
4F
  3
A8
350
50
  3
A9
350
51
  3
B0
350
52
  3
B1
350
53
  3
B2
350
54
  3
B3
350
55
  3
B4
350
56
  3
B5
350
57
  3
B6
350
58
  3
B7
350
59
  3
B8
350
5A
  3
B9
350
5B
  3
C0
350
5C
  3
C1
350
5D
  3
C2
350
5E
  3
C3
350
5F
  3
C4
350
60
  3
C5
350
61
  3
C6
350
62
  3
C7
350
63
  3
C8
350
64
  3
C9
350
65
  3
D0
350
66
  3
D1
350
67
  3
D2
350
68
  0
LAYOUT
  5
1E
102
{ACAD_REACTORS
330
1A
102
}
330
1A
100
AcDbPlotSettings
  1

  2
none_device
  4

  6

 40
0.0
 41
0.0
 42
0.0
 43
0.0
 44
0.0
 45
0.0
 46
0.0
 47
0.0
 48
0.0
 49
0.0
140
0.0
141
0.0
142
1.0
143
1.0
 70
   688
 72
     1
 73
     0
 74
     5
  7

 75
    16
147
1.0
148
0.0
149
0.0
100
AcDbLayout
  1
Layout1
 70
     1
 71
     1
 10
0.0
 20
0.0
 11
420.0
 21
297.0
 12
0.0
 22
0.0
 32
0.0
 14
1.0000000000E+20
 24
1.0000000000E+20
 34
1.0000000000E+20
 15
-1.0000000000E+20
 25
-1.0000000000E+20
 35
-1.0000000000E+20
146
0.0
 13
0.0
 23
0.0
 33
0.0
 16
1.0
 26
0.0
 36
0.0
 17
0.0
 27
1.0
 37
0.0
 76
     0
330
1B
  0
LAYOUT
  5
26
102
{ACAD_REACTORS
330
1A
102
}
330
1A
100
AcDbPlotSettings
  1

  2
none_device
  4

  6

 40
0.0
 41
0.0
 42
0.0
 43
0.0
 44
0.0
 45
0.0
 46
0.0
 47
0.0
 48
0.0
 49
0.0
140
0.0
141
0.0
142
1.0
143
1.0
 70
   688
 72
     1
 73
     0
 74
     5
  7

 75
    16
147
1.0
148
0.0
149
0.0
100
AcDbLayout
  1
Layout2
 70
     1
 71
     2
 10
0.0
 20
0.0
 11
0.0
 21
0.0
 12
0.0
 22
0.0
 32
0.0
 14
0.0
 24
0.0
 34
0.0
 15
0.0
 25
0.0
 35
0.0
146
0.0
 13
0.0
 23
0.0
 33
0.0
 16
1.0
 26
0.0
 36
0.0
 17
0.0
 27
1.0
 37
0.0
 76
     0
330
23
  0
LAYOUT
  5
22
102
{ACAD_REACTORS
330
1A
102
}
330
1A
100
AcDbPlotSettings
  1

  2
none_device
  4
Letter_(8.50_x_11.00_Inches)
  6

 40
6.35
 41
6.35
 42
6.35000508
 43
6.35000508
 44
215.9
 45
279.4
 46
0.0
 47
0.0
 48
0.0
 49
0.0
140
0.0
141
0.0
142
1.0
143
1.0
 70
  1712
 72
     1
 73
     0
 74
     0
  7

 75
     0
147
1.0
148
0.0
149
0.0
100
AcDbLayout
  1
Model
 70
     1
 71
     0
 10
0.0
 20
0.0
 11
386.1
 21
273.0
 12
0.0
 22
0.0
 32
0.0
 14
0.0
 24
0.0
 34
0.0
 15
386.1
 25
273.0
 35
0.0
146
0.0
 13
0.0
 23
0.0
 33
0.0
 16
1.0
 26
0.0
 36
0.0
 17
0.0
 27
1.0
 37
0.0
 76
     0
330
1F
331
29
  0
MLINESTYLE
  5
18
102
{ACAD_REACTORS
330
17
102
}
330
17
100
AcDbMlineStyle
  2
Standard
 70
     0
  3

 62
   256
 51
90.0
 52
90.0
 71
     2
 49
0.5
 62
   256
  6
BYLAYER
 49
-0.5
 62
   256
  6
BYLAYER
  0
ACDBPLACEHOLDER
  5
F
102
{ACAD_REACTORS
330
E
102
}
330
E
  0
SCALE
  5
48
102
{ACAD_REACTORS
330
47
102
}
330
47
100
AcDbScale
 70
     0
300
1:1
140
1.0
141
1.0
290
     1
  0
SCALE
  5
49
102
{ACAD_REACTORS
330
47
102
}
330
47
100
AcDbScale
 70
     0
300
1:2
140
1.0
141
2.0
290
     0
  0
SCALE
  5
4A
102
{ACAD_REACTORS
330
47
102
}
330
47
100
AcDbScale
 70
     0
300
1:4
140
1.0
141
4.0
290
     0
  0
SCALE
  5
4B
102
{ACAD_REACTORS
330
47
102
}
330
47
100
AcDbScale
 70
     0
300
1:5
140
1.0
141
5.0
290
     0
  0
SCALE
  5
4C
102
{ACAD_REACTORS
330
47
102
}
330
47
100
AcDbScale
 70
     0
300
1:8
140
1.0
141
8.0
290
     0
  0
SCALE
  5
4D
102
{ACAD_REACTORS
330
47
102
}
330
47
100
AcDbScale
 70
     0
300
1:10
140
1.0
141
10.0
290
     0
  0
SCALE
  5
4E
102
{ACAD_REACTORS
330
47
102
}
330
47
100
AcDbScale
 70
     0
300
1:16
140
1.0
141
16.0
290
     0
  0
SCALE
  5
4F
102
{ACAD_REACTORS
330
47
102
}
330
47
100
AcDbScale
 70
     0
300
1:20
140
1.0
141
20.0
290
     0
  0
SCALE
  5
50
102
{ACAD_REACTORS
330
47
102
}
330
47
100
AcDbScale
 70
     0
300
1:30
140
1.0
141
30.0
290
     0
  0
SCALE
  5
51
102
{ACAD_REACTORS
330
47
102
}
330
47
100
AcDbScale
 70
     0
300
1:40
140
1.0
141
40.0
290
     0
  0
SCALE
  5
52
102
{ACAD_REACTORS
330
47
102
}
330
47
100
AcDbScale
 70
     0
300
1:50
140
1.0
141
50.0
290
     0
  0
SCALE
  5
53
102
{ACAD_REACTORS
330
47
102
}
330
47
100
AcDbScale
 70
     0
300
1:100
140
1.0
141
100.0
290
     0
  0
SCALE
  5
54
102
{ACAD_REACTORS
330
47
102
}
330
47
100
AcDbScale
 70
     0
300
2:1
140
2.0
141
1.0
290
     0
  0
SCALE
  5
55
102
{ACAD_REACTORS
330
47
102
}
330
47
100
AcDbScale
 70
     0
300
4:1
140
4.0
141
1.0
290
     0
  0
SCALE
  5
56
102
{ACAD_REACTORS
330
47
102
}
330
47
100
AcDbScale
 70
     0
300
8:1
140
8.0
141
1.0
290
     0
  0
SCALE
  5
57
102
{ACAD_REACTORS
330
47
102
}
330
47
100
AcDbScale
 70
     0
300
10:1
140
10.0
141
1.0
290
     0
  0
SCALE
  5
58
102
{ACAD_REACTORS
330
47
102
}
330
47
100
AcDbScale
 70
     0
300
100:1
140
100.0
141
1.0
290
     0
  0
SCALE
  5
59
102
{ACAD_REACTORS
330
47
102
}
330
47
100
AcDbScale
 70
     0
300
1/128" = 1'-0"
140
0.0078125
141
12.0
290
     0
  0
SCALE
  5
5A
102
{ACAD_REACTORS
330
47
102
}
330
47
100
AcDbScale
 70
     0
300
1/64" = 1'-0"
140
0.015625
141
12.0
290
     0
  0
SCALE
  5
5B
102
{ACAD_REACTORS
330
47
102
}
330
47
100
AcDbScale
 70
     0
300
1/32" = 1'-0"
140
0.03125
141
12.0
290
     0
  0
SCALE
  5
5C
102
{ACAD_REACTORS
330
47
102
}
330
47
100
AcDbScale
 70
     0
300
1/16" = 1'-0"
140
0.0625
141
12.0
290
     0
  0
SCALE
  5
5D
102
{ACAD_REACTORS
330
47
102
}
330
47
100
AcDbScale
 70
     0
300
3/32" = 1'-0"
140
0.09375
141
12.0
290
     0
  0
SCALE
  5
5E
102
{ACAD_REACTORS
330
47
102
}
330
47
100
AcDbScale
 70
     0
300
1/8" = 1'-0"
140
0.125
141
12.0
290
     0
  0
SCALE
  5
5F
102
{ACAD_REACTORS
330
47
102
}
330
47
100
AcDbScale
 70
     0
300
3/16" = 1'-0"
140
0.1875
141
12.0
290
     0
  0
SCALE
  5
60
102
{ACAD_REACTORS
330
47
102
}
330
47
100
AcDbScale
 70
     0
300
1/4" = 1'-0"
140
0.25
141
12.0
290
     0
  0
SCALE
  5
61
102
{ACAD_REACTORS
330
47
102
}
330
47
100
AcDbScale
 70
     0
300
3/8" = 1'-0"
140
0.375
141
12.0
290
     0
  0
SCALE
  5
62
102
{ACAD_REACTORS
330
47
102
}
330
47
100
AcDbScale
 70
     0
300
1/2" = 1'-0"
140
0.5
141
12.0
290
     0
  0
SCALE
  5
63
102
{ACAD_REACTORS
330
47
102
}
330
47
100
AcDbScale
 70
     0
300
3/4" = 1'-0"
140
0.75
141
12.0
290
     0
  0
SCALE
  5
64
102
{ACAD_REACTORS
330
47
102
}
330
47
100
AcDbScale
 70
     0
300
1" = 1'-0"
140
1.0
141
12.0
290
     0
  0
SCALE
  5
65
102
{ACAD_REACTORS
330
47
102
}
330
47
100
AcDbScale
 70
     0
300
1-1/2" = 1'-0"
140
1.5
141
12.0
290
     0
  0
SCALE
  5
66
102
{ACAD_REACTORS
330
47
102
}
330
47
100
AcDbScale
 70
     0
300
3" = 1'-0"
140
3.0
141
12.0
290
     0
  0
SCALE
  5
67
102
{ACAD_REACTORS
330
47
102
}
330
47
100
AcDbScale
 70
     0
300
6" = 1'-0"
140
6.0
141
12.0
290
     0
  0
SCALE
  5
68
102
{ACAD_REACTORS
330
47
102
}
330
47
100
AcDbScale
 70
     0
300
1'-0" = 1'-0"
140
12.0
141
12.0
290
     0
  0
ENDSEC
  0
EOF
