  0
SECTION
  2
HEADER
  9
$ACADVER
  1
AC1015
  9
$ACADMAINTVER
 70
     6
  9
$DWGCODEPAGE
  3
ANSI_1252
  9
$INSBASE
 10
0.0
 20
0.0
 30
0.0
  9
$EXTMIN
 10
0.0
 20
0.0
 30
0.0
  9
$EXTMAX
 10
534.6
 20
378.0
 30
0.0
  9
$LIMMIN
 10
0.0
 20
0.0
  9
$LIMMAX
 10
534.6
 20
378.0
  9
$ORTHOMODE
 70
     0
  9
$REGENMODE
 70
     1
  9
$FILLMODE
 70
     1
  9
$QTEXTMODE
 70
     0
  9
$MIRRTEXT
 70
     1
  9
$LTSCALE
 40
1.8
  9
$ATTMODE
 70
     1
  9
$TEXTSIZE
 40
6.985
  9
$TRACEWID
 40
1.0
  9
$TEXTSTYLE
  7
Standard
  9
$CLAYER
  8
0
  9
$CELTYPE
  6
ByLayer
  9
$CECOLOR
 62
   256
  9
$CELTSCALE
 40
1.0
  9
$DISPSILH
 70
     0
  9
$DIMSCALE
 40
1.0
  9
$DIMASZ
 40
5.9436
  9
$DIMEXO
 40
1.8
  9
$DIMDLI
 40
3.75
  9
$DIMRND
 40
0.0
  9
$DIMDLE
 40
0.0
  9
$DIMEXE
 40
1.8
  9
$DIMTP
 40
0.0
  9
$DIMTM
 40
0.0
  9
$DIMTXT
 40
6.985
  9
$DIMCEN
 40
2.5
  9
$DIMTSZ
 40
0.0
  9
$DIMTOL
 70
     0
  9
$DIMLIM
 70
     0
  9
$DIMTIH
 70
     1
  9
$DIMTOH
 70
     1
  9
$DIMSE1
 70
     0
  9
$DIMSE2
 70
     0
  9
$DIMTAD
 70
     1
  9
$DIMZIN
 70
     0
  9
$DIMBLK
  1

  9
$DIMASO
 70
     1
  9
$DIMSHO
 70
     1
  9
$DIMPOST
  1

  9
$DIMAPOST
  1

  9
$DIMALT
 70
     0
  9
$DIMALTD
 70
     3
  9
$DIMALTF
 40
0.0393700787
  9
$DIMLFAC
 40
1.0
  9
$DIMTOFL
 70
     1
  9
$DIMTVP
 40
0.0
  9
$DIMTIX
 70
     0
  9
$DIMSOXD
 70
     0
  9
$DIMSAH
 70
     0
  9
$DIMBLK1
  1

  9
$DIMBLK2
  1

  9
$DIMSTYLE
  2
ISO-25
  9
$DIMCLRD
 70
     0
  9
$DIMCLRE
 70
     0
  9
$DIMCLRT
 70
     0
  9
$DIMTFAC
 40
1.0
  9
$DIMGAP
 40
2.7432
  9
$DIMJUST
 70
     0
  9
$DIMSD1
 70
     0
  9
$DIMSD2
 70
     0
  9
$DIMTOLJ
 70
     0
  9
$DIMTZIN
 70
     0
  9
$DIMALTZ
 70
     0
  9
$DIMALTTZ
 70
     0
  9
$DIMUPT
 70
     0
  9
$DIMDEC
 70
     2
  9
$DIMTDEC
 70
     2
  9
$DIMALTU
 70
     2
  9
$DIMALTTD
 70
     3
  9
$DIMTXSTY
  7
Standard
  9
$DIMAUNIT
 70
     0
  9
$DIMADEC
 70
     2
  9
$DIMALTRND
 40
0.0
  9
$DIMAZIN
 70
     0
  9
$DIMDSEP
 70
    44
  9
$DIMATFIT
 70
     3
  9
$DIMFRAC
 70
     0
  9
$DIMLDRBLK
  1

  9
$DIMLUNIT
 70
     2
  9
$DIMLWD
 70
    -2
  9
$DIMLWE
 70
    -2
  9
$DIMTMOVE
 70
     0
  9
$LUNITS
 70
     2
  9
$LUPREC
 70
     2
  9
$SKETCHINC
 40
1.0
  9
$FILLETRAD
 40
10.0
  9
$AUNITS
 70
     1
  9
$AUPREC
 70
     2
  9
$MENU
  1
.
  9
$ELEVATION
 40
0.0
  9
$PELEVATION
 40
0.0
  9
$THICKNESS
 40
0.0
  9
$LIMCHECK
 70
     0
  9
$CHAMFERA
 40
0.0
  9
$CHAMFERB
 40
0.0
  9
$CHAMFERC
 40
0.0
  9
$CHAMFERD
 40
0.0
  9
$SKPOLY
 70
     0
  9
$TDCREATE
 40
2458606.657032153
  9
$TDUCREATE
 40
2458606.427865486
  9
$TDUPDATE
 40
2458606.657033194
  9
$TDUUPDATE
 40
2458606.427866528
  9
$TDINDWG
 40
0.0000000116
  9
$TDUSRTIMER
 40
0.0000000116
  9
$USRTIMER
 70
     1
  9
$ANGBASE
 50
0.0
  9
$ANGDIR
 70
     0
  9
$PDMODE
 70
     0
  9
$PDSIZE
 40
-1.0
  9
$PLINEWID
 40
0.0
  9
$SPLFRAME
 70
     0
  9
$SPLINETYPE
 70
     6
  9
$SPLINESEGS
 70
     8
  9
$HANDSEED
  5
1C0
  9
$SURFTAB1
 70
     6
  9
$SURFTAB2
 70
     6
  9
$SURFTYPE
 70
     6
  9
$SURFU
 70
     6
  9
$SURFV
 70
     6
  9
$UCSBASE
  2

  9
$UCSNAME
  2

  9
$UCSORG
 10
0.0
 20
0.0
 30
0.0
  9
$UCSXDIR
 10
1.0
 20
0.0
 30
0.0
  9
$UCSYDIR
 10
0.0
 20
1.0
 30
0.0
  9
$UCSORTHOREF
  2

  9
$UCSORTHOVIEW
 70
     0
  9
$UCSORGTOP
 10
0.0
 20
0.0
 30
0.0
  9
$UCSORGBOTTOM
 10
0.0
 20
0.0
 30
0.0
  9
$UCSORGLEFT
 10
0.0
 20
0.0
 30
0.0
  9
$UCSORGRIGHT
 10
0.0
 20
0.0
 30
0.0
  9
$UCSORGFRONT
 10
0.0
 20
0.0
 30
0.0
  9
$UCSORGBACK
 10
0.0
 20
0.0
 30
0.0
  9
$PUCSBASE
  2

  9
$PUCSNAME
  2

  9
$PUCSORG
 10
0.0
 20
0.0
 30
0.0
  9
$PUCSXDIR
 10
1.0
 20
0.0
 30
0.0
  9
$PUCSYDIR
 10
0.0
 20
1.0
 30
0.0
  9
$PUCSORTHOREF
  2

  9
$PUCSORTHOVIEW
 70
     0
  9
$PUCSORGTOP
 10
0.0
 20
0.0
 30
0.0
  9
$PUCSORGBOTTOM
 10
0.0
 20
0.0
 30
0.0
  9
$PUCSORGLEFT
 10
0.0
 20
0.0
 30
0.0
  9
$PUCSORGRIGHT
 10
0.0
 20
0.0
 30
0.0
  9
$PUCSORGFRONT
 10
0.0
 20
0.0
 30
0.0
  9
$PUCSORGBACK
 10
0.0
 20
0.0
 30
0.0
  9
$USERI1
 70
     0
  9
$USERI2
 70
     0
  9
$USERI3
 70
     0
  9
$USERI4
 70
     0
  9
$USERI5
 70
     0
  9
$USERR1
 40
0.0
  9
$USERR2
 40
0.0
  9
$USERR3
 40
0.0
  9
$USERR4
 40
0.0
  9
$USERR5
 40
0.0
  9
$WORLDVIEW
 70
     1
  9
$SHADEDGE
 70
     3
  9
$SHADEDIF
 70
    70
  9
$TILEMODE
 70
     1
  9
$MAXACTVP
 70
    64
  9
$PINSBASE
 10
0.0
 20
0.0
 30
0.0
  9
$PLIMCHECK
 70
     0
  9
$PEXTMIN
 10
1.0000000000E+20
 20
1.0000000000E+20
 30
1.0000000000E+20
  9
$PEXTMAX
 10
-1.0000000000E+20
 20
-1.0000000000E+20
 30
-1.0000000000E+20
  9
$PLIMMIN
 10
0.0
 20
0.0
  9
$PLIMMAX
 10
420.0
 20
297.0
  9
$UNITMODE
 70
     0
  9
$VISRETAIN
 70
     1
  9
$PLINEGEN
 70
     0
  9
$PSLTSCALE
 70
     1
  9
$TREEDEPTH
 70
  3020
  9
$CMLSTYLE
  2
Standard
  9
$CMLJUST
 70
     0
  9
$CMLSCALE
 40
20.0
  9
$PROXYGRAPHICS
 70
     1
  9
$MEASUREMENT
 70
     1
  9
$CELWEIGHT
370
    -1
  9
$ENDCAPS
280
     0
  9
$JOINSTYLE
280
     0
  9
$LWDISPLAY
290
     1
  9
$INSUNITS
 70
     4
  9
$HYPERLINKBASE
  1

  9
$STYLESHEET
  1

  9
$XEDIT
290
     1
  9
$CEPSNTYPE
380
     0
  9
$PSTYLEMODE
290
     1
  9
$FINGERPRINTGUID
  2
{FD3357A2-26BD-43F7-93DE-13B4373DD57C}
  9
$VERSIONGUID
  2
{FAEB1C32-E019-11D5-929B-00C0DF256EC4}
  9
$EXTNAMES
290
     1
  9
$PSVPSCALE
 40
0.0
  9
$OLESTARTUP
290
     0
  0
ENDSEC
  0
SECTION
  2
CLASSES
  0
CLASS
  1
ACDBDICTIONARYWDFLT
  2
AcDbDictionaryWithDefault
  3
ObjectDBX Classes
 90
        0
280
     0
281
     0
  0
CLASS
  1
VISUALSTYLE
  2
AcDbVisualStyle
  3
ObjectDBX Classes
 90
     4095
280
     0
281
     0
  0
CLASS
  1
MATERIAL
  2
AcDbMaterial
  3
ObjectDBX Classes
 90
     1153
280
     0
281
     0
  0
CLASS
  1
SCALE
  2
AcDbScale
  3
ObjectDBX Classes
 90
     1153
280
     0
281
     0
  0
CLASS
  1
SUN
  2
AcDbSun
  3
SCENEOE
 90
     1153
280
     0
281
     0
  0
CLASS
  1
ACDBPLACEHOLDER
  2
AcDbPlaceHolder
  3
ObjectDBX Classes
 90
        0
280
     0
281
     0
  0
CLASS
  1
LAYOUT
  2
AcDbLayout
  3
ObjectDBX Classes
 90
        0
280
     0
281
     0
  0
ENDSEC
  0
SECTION
  2
TABLES
  0
TABLE
  2
VPORT
  5
8
330
0
100
AcDbSymbolTable
 70
     1
  0
VPORT
  5
29
330
8
100
AcDbSymbolTableRecord
100
AcDbViewportTableRecord
  2
*Active
 70
     0
 10
0.0
 20
0.0
 11
1.0
 21
1.0
 12
267.3
 22
189.0
 13
0.0
 23
0.0
 14
10.0
 24
10.0
 15
10.0
 25
10.0
 16
0.0
 26
0.0
 36
1.0
 17
0.0
 27
0.0
 37
0.0
 40
378.0
 41
1.4142857143
 42
50.0
 43
0.0
 44
0.0
 50
0.0
 51
0.0
 71
     0
 72
  2000
 73
     1
 74
     3
 75
     0
 76
     0
 77
     0
 78
     0
281
     0
 65
     1
110
0.0
120
0.0
130
0.0
111
1.0
121
0.0
131
0.0
112
0.0
122
1.0
132
0.0
 79
     0
146
0.0
  0
ENDTAB
  0
TABLE
  2
LTYPE
  5
5
330
0
100
AcDbSymbolTable
 70
     6
  0
LTYPE
  5
14
330
5
100
AcDbSymbolTableRecord
100
AcDbLinetypeTableRecord
  2
ByBlock
 70
     0
  3

 72
    65
 73
     0
 40
0.0
  0
LTYPE
  5
15
330
5
100
AcDbSymbolTableRecord
100
AcDbLinetypeTableRecord
  2
ByLayer
 70
     0
  3

 72
    65
 73
     0
 40
0.0
  0
LTYPE
  5
16
330
5
100
AcDbSymbolTableRecord
100
AcDbLinetypeTableRecord
  2
Continuous
 70
     0
  3
Solid line
 72
    65
 73
     0
 40
0.0
  0
LTYPE
  5
6A
330
5
100
AcDbSymbolTableRecord
100
AcDbLinetypeTableRecord
  2
HIDDEN
 70
     0
  3
Hidden __ __ __ __ __ __ __ __ __ __ __ __ __ __
 72
    65
 73
     2
 40
1.905
 49
1.27
 74
     0
 49
-0.635
 74
     0
  0
LTYPE
  5
6B
330
5
100
AcDbSymbolTableRecord
100
AcDbLinetypeTableRecord
  2
PHANTOM
 70
     0
  3
Phantom ______  __  __  ______  __  __  ______
 72
    65
 73
     6
 40
12.7
 49
6.35
 74
     0
 49
-1.27
 74
     0
 49
1.27
 74
     0
 49
-1.27
 74
     0
 49
1.27
 74
     0
 49
-1.27
 74
     0
  0
LTYPE
  5
6C
330
5
100
AcDbSymbolTableRecord
100
AcDbLinetypeTableRecord
  2
CENTER
 70
     0
  3
Center ____ _ ____ _ ____ _ ____ _ ____ _ ____
 72
    65
 73
     4
 40
10.16
 49
6.35
 74
     0
 49
-1.27
 74
     0
 49
1.27
 74
     0
 49
-1.27
 74
     0
  0
LTYPE
  5
6D
330
5
100
AcDbSymbolTableRecord
100
AcDbLinetypeTableRecord
  2
CENTERX2
 70
     0
  3
Center (2x) ________  __  ________  __  _____
 72
    65
 73
     4
 40
20.32
 49
12.7
 74
     0
 49
-2.54
 74
     0
 49
2.54
 74
     0
 49
-2.54
 74
     0
  0
LTYPE
  5
6E
330
5
100
AcDbSymbolTableRecord
100
AcDbLinetypeTableRecord
  2
DOT2
 70
     0
  3
Dot (.5x) ........................................
 72
    65
 73
     2
 40
0.635
 49
0.0
 74
     0
 49
-0.635
 74
     0
  0
ENDTAB
  0
TABLE
  2
LAYER
  5
2
330
0
100
AcDbSymbolTable
 70
     8
  0
LAYER
  5
10
330
2
100
AcDbSymbolTableRecord
100
AcDbLayerTableRecord
  2
0
 70
     0
 62
     7
  6
Continuous
370
    -3
390
F
  0
LAYER
  5
6F
330
2
100
AcDbSymbolTableRecord
100
AcDbLayerTableRecord
  2
FORMAT
 70
     0
 62
     7
  6
Continuous
370
    -3
390
F
  0
LAYER
  5
70
330
2
100
AcDbSymbolTableRecord
100
AcDbLayerTableRecord
  2
SLD-0
 70
     0
 62
     2
  6
Continuous
370
    -3
390
F
  0
LAYER
  5
71
330
2
100
AcDbSymbolTableRecord
100
AcDbLayerTableRecord
  2
DIM
 70
     0
 62
   179
  6
Continuous
370
    -3
390
F
  0
LAYER
  5
72
330
2
100
AcDbSymbolTableRecord
100
AcDbLayerTableRecord
  2
SLD-DEFPOINTS
 70
     0
 62
   179
  6
Continuous
370
    -3
390
F
  0
LAYER
  5
73
330
2
100
AcDbSymbolTableRecord
100
AcDbLayerTableRecord
  2
HAT
 70
     0
 62
   135
  6
Continuous
370
    -3
390
F
  0
LAYER
  5
74
330
2
100
AcDbSymbolTableRecord
100
AcDbLayerTableRecord
  2
JOB
 70
     0
 62
   201
  6
Continuous
370
    -3
390
F
  0
LAYER
  5
75
330
2
100
AcDbSymbolTableRecord
100
AcDbLayerTableRecord
  2
INSPECTION_REPORT
 70
     0
 62
   255
  6
Continuous
370
    -3
390
F
  0
ENDTAB
  0
TABLE
  2
STYLE
  5
3
330
0
100
AcDbSymbolTable
 70
     4
  0
STYLE
  5
11
330
3
100
AcDbSymbolTableRecord
100
AcDbTextStyleTableRecord
  2
Standard
 70
     0
 40
0.0
 41
1.0
 50
0.0
 71
     0
 42
6.985
  3
txt
  4

  0
STYLE
  5
96
330
3
100
AcDbSymbolTableRecord
100
AcDbTextStyleTableRecord
  2
SLDTEXTSTYLE0
 70
     0
 40
0.0
 41
0.7
 50
0.0
 71
     0
 42
6.985
  3
TXT
  4

  0
STYLE
  5
98
330
3
100
AcDbSymbolTableRecord
100
AcDbTextStyleTableRecord
  2
SLDTEXTSTYLE1
 70
     0
 40
0.0
 41
0.75
 50
0.0
 71
     0
 42
6.985
  3
TXT
  4

  0
STYLE
  5
AB
330
3
100
AcDbSymbolTableRecord
100
AcDbTextStyleTableRecord
  2
SLDTEXTSTYLE2
 70
     0
 40
0.0
 41
0.6875
 50
0.0
 71
     0
 42
6.985
  3
TXT
  4

  0
ENDTAB
  0
TABLE
  2
VIEW
  5
6
330
0
100
AcDbSymbolTable
 70
     0
  0
ENDTAB
  0
TABLE
  2
UCS
  5
7
330
0
100
AcDbSymbolTable
 70
     0
  0
ENDTAB
  0
TABLE
  2
APPID
  5
9
330
0
100
AcDbSymbolTable
 70
     1
  0
APPID
  5
12
330
9
100
AcDbSymbolTableRecord
100
AcDbRegAppTableRecord
  2
ACAD
 70
     0
  0
ENDTAB
  0
TABLE
  2
DIMSTYLE
  5
A
330
0
100
AcDbSymbolTable
 70
     4
100
AcDbDimStyleTable
  0
DIMSTYLE
105
27
330
A
100
AcDbSymbolTableRecord
100
AcDbDimStyleTableRecord
  2
ISO-25
 70
     0
 41
2.5
 42
0.625
 43
3.75
 44
1.25
 73
     0
 74
     0
 77
     1
 78
     8
140
2.5
141
2.5
143
0.0393700787
147
0.625
171
     3
172
     1
178
     0
271
     2
272
     2
274
     3
278
    44
283
     0
284
     8
340
11
  0
DIMSTYLE
105
17A
102
{ACAD_REACTORS
330
179
330
191
102
}
330
A
100
AcDbSymbolTableRecord
100
AcDbDimStyleTableRecord
  2
SLDDIMSTYLE0
 70
     0
 41
5.9436
 44
0.0
 45
0.000000001
 73
     0
 74
     0
 77
     1
 78
    12
 79
     3
140
5.23875
144
1.0
147
1.3096875
172
     1
173
     1
178
     0
271
     2
272
     2
276
     2
284
    12
289
     0
340
96
  0
DIMSTYLE
105
187
102
{ACAD_REACTORS
330
186
330
19E
330
1A9
102
}
330
A
100
AcDbSymbolTableRecord
100
AcDbDimStyleTableRecord
  2
SLDDIMSTYLE1
 70
     0
 41
5.9436
 44
0.0
 45
0.000000001
 73
     0
 74
     0
 77
     1
 78
    12
 79
     3
140
5.23875
144
1.0
147
1.3096875
173
     1
178
     0
271
     2
272
     2
276
     2
284
    12
340
96
  0
DIMSTYLE
105
1B4
102
{ACAD_REACTORS
330
1B3
102
}
330
A
100
AcDbSymbolTableRecord
100
AcDbDimStyleTableRecord
  2
SLDDIMSTYLE2
 70
     0
 41
5.9436
 44
0.0
 45
0.000000001
 73
     0
 74
     0
 77
     1
 78
     4
 79
     1
140
5.23875
144
1.0
147
1.3096875
173
     1
178
     0
271
     2
272
     2
276
     2
284
    12
340
96
  0
ENDTAB
  0
TABLE
  2
BLOCK_RECORD
  5
1
330
0
100
AcDbSymbolTable
 70
     8
  0
BLOCK_RECORD
  5
1F
330
1
100
AcDbSymbolTableRecord
100
AcDbBlockTableRecord
  2
*Model_Space
340
22
  0
BLOCK_RECORD
  5
1B
330
1
100
AcDbSymbolTableRecord
100
AcDbBlockTableRecord
  2
*Paper_Space
340
1E
  0
BLOCK_RECORD
  5
23
330
1
100
AcDbSymbolTableRecord
100
AcDbBlockTableRecord
  2
*Paper_Space0
340
26
  0
BLOCK_RECORD
  5
E8
330
1
100
AcDbSymbolTableRecord
100
AcDbBlockTableRecord
  2
SW_CENTERMARKSYMBOL_0
340
0
102
{BLKREFS
331
F3
102
}
  0
BLOCK_RECORD
  5
17B
330
1
100
AcDbSymbolTableRecord
100
AcDbBlockTableRecord
  2
_D
340
0
  0
BLOCK_RECORD
  5
188
330
1
100
AcDbSymbolTableRecord
100
AcDbBlockTableRecord
  2
_D_1
340
0
  0
BLOCK_RECORD
  5
192
330
1
100
AcDbSymbolTableRecord
100
AcDbBlockTableRecord
  2
_D_2
340
0
  0
BLOCK_RECORD
  5
19F
330
1
100
AcDbSymbolTableRecord
100
AcDbBlockTableRecord
  2
_D_3
340
0
  0
BLOCK_RECORD
  5
1AA
330
1
100
AcDbSymbolTableRecord
100
AcDbBlockTableRecord
  2
_D_4
340
0
  0
BLOCK_RECORD
  5
1B5
330
1
100
AcDbSymbolTableRecord
100
AcDbBlockTableRecord
  2
_D_5
340
0
  0
ENDTAB
  0
ENDSEC
  0
SECTION
  2
BLOCKS
  0
BLOCK
  5
20
330
1F
100
AcDbEntity
  8
0
100
AcDbBlockBegin
  2
*Model_Space
 70
     0
 10
0.0
 20
0.0
 30
0.0
  3
*Model_Space
  1
*Model_Space
  0
ENDBLK
  5
21
330
1F
100
AcDbEntity
  8
0
100
AcDbBlockEnd
  0
BLOCK
  5
1C
330
1B
100
AcDbEntity
 67
     1
  8
0
100
AcDbBlockBegin
  2
*Paper_Space
 70
     0
 10
0.0
 20
0.0
 30
0.0
  3
*Paper_Space
  1
*Paper_Space
  0
ENDBLK
  5
1D
330
1B
100
AcDbEntity
 67
     1
  8
0
100
AcDbBlockEnd
  0
BLOCK
  5
24
330
23
100
AcDbEntity
  8
0
100
AcDbBlockBegin
  2
*Paper_Space0
 70
     0
 10
0.0
 20
0.0
 30
0.0
  3
*Paper_Space0
  1
*Paper_Space0
  0
ENDBLK
  5
25
330
23
100
AcDbEntity
  8
0
100
AcDbBlockEnd
  0
BLOCK
  5
E9
330
E8
100
AcDbEntity
  8
0
100
AcDbBlockBegin
  2
SW_CENTERMARKSYMBOL_0
 70
     0
 10
0.0
 20
0.0
 30
0.0
  3
SW_CENTERMARKSYMBOL_0
  1
SW_CENTERMARKSYMBOL_0
  0
LINE
  5
EB
330
E8
100
AcDbEntity
  8
DIM
 62
     0
100
AcDbLine
 10
0.0
 20
0.0
 30
0.0
 11
0.0
 21
2.5
 31
0.0
  0
LINE
  5
EC
330
E8
100
AcDbEntity
  8
DIM
 62
     0
100
AcDbLine
 10
0.0
 20
0.0
 30
0.0
 11
-2.5
 21
0.0
 31
0.0
  0
LINE
  5
ED
330
E8
100
AcDbEntity
  8
DIM
 62
     0
100
AcDbLine
 10
0.0
 20
0.0
 30
0.0
 11
0.0
 21
-2.5
 31
0.0
  0
LINE
  5
EE
330
E8
100
AcDbEntity
  8
DIM
 62
     0
100
AcDbLine
 10
0.0
 20
0.0
 30
0.0
 11
2.5
 21
0.0
 31
0.0
  0
LINE
  5
EF
330
E8
100
AcDbEntity
  8
DIM
 62
     0
100
AcDbLine
 10
0.0
 20
5.0
 30
0.0
 11
0.0
 21
51.1328427125
 31
0.0
  0
LINE
  5
F0
330
E8
100
AcDbEntity
  8
DIM
 62
     0
100
AcDbLine
 10
-5.0
 20
0.0
 30
0.0
 11
-51.1328427125
 21
0.0
 31
0.0
  0
LINE
  5
F1
330
E8
100
AcDbEntity
  8
DIM
 62
     0
100
AcDbLine
 10
0.0
 20
-5.0
 30
0.0
 11
0.0
 21
-51.1328427125
 31
0.0
  0
LINE
  5
F2
330
E8
100
AcDbEntity
  8
DIM
 62
     0
100
AcDbLine
 10
5.0
 20
0.0
 30
0.0
 11
51.1328427125
 21
0.0
 31
0.0
  0
ENDBLK
  5
EA
330
E8
100
AcDbEntity
  8
0
100
AcDbBlockEnd
  0
BLOCK
  5
17C
330
17B
100
AcDbEntity
  8
0
100
AcDbBlockBegin
  2
_D
 70
     0
 10
0.0
 20
0.0
 30
0.0
  3
_D
  1
_D
  0
SOLID
  5
17E
330
17B
100
AcDbEntity
  8
DIM
100
AcDbTrace
 10
457.8210021461
 20
145.190254887
 30
0.0
 11
463.7646021461
 21
144.275854887
 31
0.0
 12
463.7646021461
 22
146.104654887
 32
0.0
 13
463.7646021461
 23
146.104654887
 33
0.0
  0
SOLID
  5
17F
330
17B
100
AcDbEntity
  8
DIM
100
AcDbTrace
 10
433.8210021461
 20
145.190254887
 30
0.0
 11
427.8774021461
 21
146.104654887
 31
0.0
 12
427.8774021461
 22
144.275854887
 32
0.0
 13
427.8774021461
 23
144.275854887
 33
0.0
  0
LINE
  5
180
330
17B
100
AcDbEntity
  8
DIM
100
AcDbLine
 10
457.8210021461
 20
186.8249469553
 30
0.0
 11
457.8210021461
 21
143.390254887
 31
0.0
  0
LINE
  5
181
330
17B
100
AcDbEntity
  8
DIM
100
AcDbLine
 10
433.8210021461
 20
166.9749469553
 30
0.0
 11
433.8210021461
 21
143.390254887
 31
0.0
  0
LINE
  5
182
330
17B
100
AcDbEntity
  8
DIM
100
AcDbLine
 10
457.8210021461
 20
145.190254887
 30
0.0
 11
469.2510021461
 21
145.190254887
 31
0.0
  0
LINE
  5
183
330
17B
100
AcDbEntity
  8
DIM
100
AcDbLine
 10
457.8210021461
 20
145.190254887
 30
0.0
 11
433.8210021461
 21
145.190254887
 31
0.0
  0
LINE
  5
184
330
17B
100
AcDbEntity
  8
DIM
100
AcDbLine
 10
433.8210021461
 20
145.190254887
 30
0.0
 11
422.3910021461
 21
145.190254887
 31
0.0
  0
MTEXT
  5
185
330
17B
100
AcDbEntity
  8
DIM
100
AcDbMText
 10
442.2799950669
 20
151.9433589279
 30
0.0
 40
5.23875
 41
0.0
 71
     1
 72
     1
  1
24
  7
SLDTEXTSTYLE0
 73
     1
 44
1.0
  0
ENDBLK
  5
17D
330
17B
100
AcDbEntity
  8
0
100
AcDbBlockEnd
  0
BLOCK
  5
189
330
188
100
AcDbEntity
  8
0
100
AcDbBlockBegin
  2
_D_1
 70
     0
 10
0.0
 20
0.0
 30
0.0
  3
_D_1
  1
_D_1
  0
SOLID
  5
18B
330
188
100
AcDbEntity
  8
DIM
100
AcDbTrace
 10
433.8210021461
 20
145.190254887
 30
0.0
 11
427.8774021461
 21
146.104654887
 31
0.0
 12
427.8774021461
 22
144.275854887
 32
0.0
 13
427.8774021461
 23
144.275854887
 33
0.0
  0
SOLID
  5
18C
330
188
100
AcDbEntity
  8
DIM
100
AcDbTrace
 10
273.8210021461
 20
145.190254887
 30
0.0
 11
279.7646021461
 21
144.275854887
 31
0.0
 12
279.7646021461
 22
146.104654887
 32
0.0
 13
279.7646021461
 23
146.104654887
 33
0.0
  0
LINE
  5
18D
330
188
100
AcDbEntity
  8
DIM
100
AcDbLine
 10
433.8210021461
 20
163.9749469553
 30
0.0
 11
433.8210021461
 21
143.390254887
 31
0.0
  0
LINE
  5
18E
330
188
100
AcDbEntity
  8
DIM
100
AcDbLine
 10
273.8210021461
 20
167.0499469553
 30
0.0
 11
273.8210021461
 21
143.390254887
 31
0.0
  0
LINE
  5
18F
330
188
100
AcDbEntity
  8
DIM
100
AcDbLine
 10
433.8210021461
 20
145.190254887
 30
0.0
 11
273.8210021461
 21
145.190254887
 31
0.0
  0
MTEXT
  5
190
330
188
100
AcDbEntity
  8
DIM
100
AcDbMText
 10
348.5094915273
 20
151.9433589279
 30
0.0
 40
5.23875
 41
0.0
 71
     1
 72
     1
  1
160
  7
SLDTEXTSTYLE0
 73
     1
 44
1.0
  0
ENDBLK
  5
18A
330
188
100
AcDbEntity
  8
0
100
AcDbBlockEnd
  0
BLOCK
  5
193
330
192
100
AcDbEntity
  8
0
100
AcDbBlockBegin
  2
_D_2
 70
     0
 10
0.0
 20
0.0
 30
0.0
  3
_D_2
  1
_D_2
  0
SOLID
  5
195
330
192
100
AcDbEntity
  8
DIM
100
AcDbTrace
 10
485.9274276023
 20
219.7749469553
 30
0.0
 11
486.8418276023
 21
225.7185469553
 31
0.0
 12
485.0130276023
 22
225.7185469553
 32
0.0
 13
485.0130276023
 23
225.7185469553
 33
0.0
  0
SOLID
  5
196
330
192
100
AcDbEntity
  8
DIM
100
AcDbTrace
 10
485.9274276023
 20
187.7749469553
 30
0.0
 11
485.0130276023
 21
181.8313469553
 31
0.0
 12
486.8418276023
 22
181.8313469553
 32
0.0
 13
486.8418276023
 23
181.8313469553
 33
0.0
  0
LINE
  5
197
330
192
100
AcDbEntity
  8
DIM
100
AcDbLine
 10
459.1302544173
 20
219.7749469553
 30
0.0
 11
487.7274276023
 21
219.7749469553
 31
0.0
  0
LINE
  5
198
330
192
100
AcDbEntity
  8
DIM
100
AcDbLine
 10
459.1302544173
 20
187.7749469553
 30
0.0
 11
487.7274276023
 21
187.7749469553
 31
0.0
  0
LINE
  5
199
330
192
100
AcDbEntity
  8
DIM
100
AcDbLine
 10
485.9274276023
 20
219.7749469553
 30
0.0
 11
485.9274276023
 21
231.2049469553
 31
0.0
  0
LINE
  5
19A
330
192
100
AcDbEntity
  8
DIM
100
AcDbLine
 10
485.9274276023
 20
219.7749469553
 30
0.0
 11
485.9274276023
 21
187.7749469553
 31
0.0
  0
LINE
  5
19B
330
192
100
AcDbEntity
  8
DIM
100
AcDbLine
 10
485.9274276023
 20
187.7749469553
 30
0.0
 11
485.9274276023
 21
176.3449469553
 31
0.0
  0
MTEXT
  5
19C
330
192
100
AcDbEntity
  8
DIM
100
AcDbMText
 10
479.1743235615
 20
196.1833675665
 30
0.0
 40
5.23875
 41
0.0
 71
     1
 72
     1
  1
%%c
  7
SLDTEXTSTYLE0
 11
-7.044195017643634E-15
 21
1.0
 31
0.0
 73
     1
 44
1.0
  0
MTEXT
  5
19D
330
192
100
AcDbEntity
  8
DIM
100
AcDbMText
 10
479.1743235615
 20
204.2845121858
 30
0.0
 40
5.23875
 41
0.0
 71
     1
 72
     1
  1
32
  7
SLDTEXTSTYLE0
 11
-7.044195017643634E-15
 21
1.0
 31
0.0
 73
     1
 44
1.0
  0
ENDBLK
  5
194
330
192
100
AcDbEntity
  8
0
100
AcDbBlockEnd
  0
BLOCK
  5
1A0
330
19F
100
AcDbEntity
  8
0
100
AcDbBlockBegin
  2
_D_3
 70
     0
 10
0.0
 20
0.0
 30
0.0
  3
_D_3
  1
_D_3
  0
SOLID
  5
1A2
330
19F
100
AcDbEntity
  8
DIM
100
AcDbTrace
 10
494.7568132027
 20
242.7749469553
 30
0.0
 11
493.8424132027
 21
236.8313469553
 31
0.0
 12
495.6712132027
 22
236.8313469553
 32
0.0
 13
495.6712132027
 23
236.8313469553
 33
0.0
  0
SOLID
  5
1A3
330
19F
100
AcDbEntity
  8
DIM
100
AcDbTrace
 10
494.7568132027
 20
164.7749469553
 30
0.0
 11
495.6712132027
 21
170.7185469553
 31
0.0
 12
493.8424132027
 22
170.7185469553
 32
0.0
 13
493.8424132027
 23
170.7185469553
 33
0.0
  0
LINE
  5
1A4
330
19F
100
AcDbEntity
  8
DIM
100
AcDbLine
 10
434.6210021461
 20
242.7749469553
 30
0.0
 11
496.5568132027
 21
242.7749469553
 31
0.0
  0
LINE
  5
1A5
330
19F
100
AcDbEntity
  8
DIM
100
AcDbLine
 10
434.6210021461
 20
164.7749469553
 30
0.0
 11
496.5568132027
 21
164.7749469553
 31
0.0
  0
LINE
  5
1A6
330
19F
100
AcDbEntity
  8
DIM
100
AcDbLine
 10
494.7568132027
 20
242.7749469553
 30
0.0
 11
494.7568132027
 21
164.7749469553
 31
0.0
  0
MTEXT
  5
1A7
330
19F
100
AcDbEntity
  8
DIM
100
AcDbMText
 10
488.0037091619
 20
196.1833675665
 30
0.0
 40
5.23875
 41
0.0
 71
     1
 72
     1
  1
%%c
  7
SLDTEXTSTYLE0
 11
-7.044195017643634E-15
 21
1.0
 31
0.0
 73
     1
 44
1.0
  0
MTEXT
  5
1A8
330
19F
100
AcDbEntity
  8
DIM
100
AcDbMText
 10
488.0037091619
 20
204.2845121858
 30
0.0
 40
5.23875
 41
0.0
 71
     1
 72
     1
  1
78
  7
SLDTEXTSTYLE0
 11
-7.044195017643634E-15
 21
1.0
 31
0.0
 73
     1
 44
1.0
  0
ENDBLK
  5
1A1
330
19F
100
AcDbEntity
  8
0
100
AcDbBlockEnd
  0
BLOCK
  5
1AB
330
1AA
100
AcDbEntity
  8
0
100
AcDbBlockBegin
  2
_D_4
 70
     0
 10
0.0
 20
0.0
 30
0.0
  3
_D_4
  1
_D_4
  0
SOLID
  5
1AD
330
1AA
100
AcDbEntity
  8
DIM
100
AcDbTrace
 10
470.8210021461
 20
131.7109495729
 30
0.0
 11
464.8774021461
 21
132.6253495729
 31
0.0
 12
464.8774021461
 22
130.7965495729
 32
0.0
 13
464.8774021461
 23
130.7965495729
 33
0.0
  0
SOLID
  5
1AE
330
1AA
100
AcDbEntity
  8
DIM
100
AcDbTrace
 10
172.0710021461
 20
131.7109495729
 30
0.0
 11
178.0146021461
 21
130.7965495729
 31
0.0
 12
178.0146021461
 22
132.6253495729
 32
0.0
 13
178.0146021461
 23
132.6253495729
 33
0.0
  0
LINE
  5
1AF
330
1AA
100
AcDbEntity
  8
DIM
100
AcDbLine
 10
470.8210021461
 20
181.9749469553
 30
0.0
 11
470.8210021461
 21
129.9109495729
 31
0.0
  0
LINE
  5
1B0
330
1AA
100
AcDbEntity
  8
DIM
100
AcDbLine
 10
172.0710021461
 20
201.9749469553
 30
0.0
 11
172.0710021461
 21
129.9109495729
 31
0.0
  0
LINE
  5
1B1
330
1AA
100
AcDbEntity
  8
DIM
100
AcDbLine
 10
470.8210021461
 20
131.7109495729
 30
0.0
 11
172.0710021461
 21
131.7109495729
 31
0.0
  0
MTEXT
  5
1B2
330
1AA
100
AcDbEntity
  8
DIM
100
AcDbMText
 10
311.6621510702
 20
138.4640536137
 30
0.0
 40
5.23875
 41
0.0
 71
     1
 72
     1
  1
298.75
  7
SLDTEXTSTYLE0
 73
     1
 44
1.0
  0
ENDBLK
  5
1AC
330
1AA
100
AcDbEntity
  8
0
100
AcDbBlockEnd
  0
BLOCK
  5
1B6
330
1B5
100
AcDbEntity
  8
0
100
AcDbBlockBegin
  2
_D_5
 70
     0
 10
0.0
 20
0.0
 30
0.0
  3
_D_5
  1
_D_5
  0
SOLID
  5
1B8
330
1B5
100
AcDbEntity
  8
DIM
100
AcDbTrace
 10
165.9182633865
 20
252.5249469553
 30
0.0
 11
165.0038633865
 21
246.5813469553
 31
0.0
 12
166.8326633865
 22
246.5813469553
 32
0.0
 13
166.8326633865
 23
246.5813469553
 33
0.0
  0
SOLID
  5
1B9
330
1B5
100
AcDbEntity
  8
DIM
100
AcDbTrace
 10
165.9182633865
 20
155.0249469553
 30
0.0
 11
166.8326633865
 21
160.9685469553
 31
0.0
 12
165.0038633865
 22
160.9685469553
 32
0.0
 13
165.0038633865
 23
160.9685469553
 33
0.0
  0
LINE
  5
1BA
330
1B5
100
AcDbEntity
  8
DIM
100
AcDbLine
 10
276.386687571
 20
252.5249469553
 30
0.0
 11
164.1182633865
 21
252.5249469553
 31
0.0
  0
LINE
  5
1BB
330
1B5
100
AcDbEntity
  8
DIM
100
AcDbLine
 10
276.386687571
 20
155.0249469553
 30
0.0
 11
164.1182633865
 21
155.0249469553
 31
0.0
  0
LINE
  5
1BC
330
1B5
100
AcDbEntity
  8
DIM
100
AcDbLine
 10
165.9182633865
 20
252.5249469553
 30
0.0
 11
165.9182633865
 21
155.0249469553
 31
0.0
  0
MTEXT
  5
1BD
330
1B5
100
AcDbEntity
  8
DIM
100
AcDbMText
 10
159.1651593457
 20
191.7110271093
 30
0.0
 40
5.23875
 41
0.0
 71
     1
 72
     1
  1
%%c
  7
SLDTEXTSTYLE0
 11
-7.044195017643634E-15
 21
1.0
 31
0.0
 73
     1
 44
1.0
  0
MTEXT
  5
1BE
330
1B5
100
AcDbEntity
  8
DIM
100
AcDbMText
 10
159.1651593457
 20
199.8121717286
 30
0.0
 40
5.23875
 41
0.0
 71
     1
 72
     1
  1
97.50
  7
SLDTEXTSTYLE0
 11
-7.044195017643634E-15
 21
1.0
 31
0.0
 73
     1
 44
1.0
  0
ENDBLK
  5
1B7
330
1B5
100
AcDbEntity
  8
0
100
AcDbBlockEnd
  0
ENDSEC
  0
SECTION
  2
ENTITIES
  0
LINE
  5
76
330
1F
100
AcDbEntity
  8
DIM
100
AcDbLine
 10
188.4679644402
 20
17.6237846223
 30
0.0
 11
188.4679644402
 21
8.6237846223
 31
0.0
  0
LINE
  5
77
330
1F
100
AcDbEntity
  8
DIM
100
AcDbLine
 10
458.0452830515
 20
17.6237846223
 30
0.0
 11
458.0452830515
 21
8.6237846223
 31
0.0
  0
LINE
  5
78
330
1F
100
AcDbEntity
  8
DIM
100
AcDbLine
 10
427.4130778768
 20
17.6237846223
 30
0.0
 11
427.4130778768
 21
8.6237846223
 31
0.0
  0
LINE
  5
79
330
1F
100
AcDbEntity
  8
DIM
100
AcDbLine
 10
502.0279644402
 20
8.6237846223
 30
0.0
 11
502.0279644402
 21
17.6237846223
 31
0.0
  0
LINE
  5
7A
330
1F
100
AcDbEntity
  8
DIM
100
AcDbLine
 10
202.5079644402
 20
17.6237846223
 30
0.0
 11
202.5079644402
 21
8.6237846223
 31
0.0
  0
LINE
  5
7B
330
1F
100
AcDbEntity
  8
DIM
100
AcDbLine
 10
237.051678821
 20
17.6237846223
 30
0.0
 11
237.051678821
 21
8.6237846223
 31
0.0
  0
LINE
  5
7C
330
1F
100
AcDbEntity
  8
DIM
100
AcDbLine
 10
525.4279644402
 20
8.6237846223
 30
0.0
 11
525.4279644402
 21
138.6737846223
 31
0.0
  0
LINE
  5
7D
330
1F
100
AcDbEntity
  8
DIM
100
AcDbLine
 10
514.4742084504
 20
108.0737846223
 30
0.0
 11
525.4279644402
 21
108.0737846223
 31
0.0
  0
LINE
  5
7E
330
1F
100
AcDbEntity
  8
DIM
100
AcDbLine
 10
268.3860315346
 20
16.2737846223
 30
0.0
 11
268.3860315346
 21
8.6237846223
 31
0.0
  0
LINE
  5
7F
330
1F
100
AcDbEntity
  8
DIM
100
AcDbLine
 10
354.1751084888
 20
17.6237846223
 30
0.0
 11
354.1751084888
 21
8.6237846223
 31
0.0
  0
LINE
  5
80
330
1F
100
AcDbEntity
  8
DIM
100
AcDbLine
 10
268.3860315346
 20
17.6237846223
 30
0.0
 11
268.3860315346
 21
16.2737846223
 31
0.0
  0
LINE
  5
81
330
1F
100
AcDbEntity
  8
DIM
100
AcDbLine
 10
516.4279644402
 20
31.5736550223
 30
0.0
 11
525.4279644402
 21
31.5736550223
 31
0.0
  0
LINE
  5
82
330
1F
100
AcDbEntity
  8
DIM
100
AcDbLine
 10
516.4279644402
 20
359.6237846223
 30
0.0
 11
17.8279644402
 21
359.6237846223
 31
0.0
  0
LINE
  5
83
330
1F
100
AcDbEntity
  8
DIM
100
AcDbLine
 10
525.4279644402
 20
368.6237846223
 30
0.0
 11
8.8279644402
 21
368.6237846223
 31
0.0
  0
LINE
  5
84
330
1F
100
AcDbEntity
  8
DIM
100
AcDbLine
 10
17.8279644402
 20
359.6237846223
 30
0.0
 11
17.8279644402
 21
17.6237846223
 31
0.0
  0
LINE
  5
85
330
1F
100
AcDbEntity
  8
DIM
100
AcDbLine
 10
8.8279644402
 20
368.6237846223
 30
0.0
 11
8.8279644402
 21
8.6237846223
 31
0.0
  0
LINE
  5
86
330
1F
100
AcDbEntity
  8
DIM
100
AcDbLine
 10
17.8279644402
 20
98.6237846223
 30
0.0
 11
8.8279644402
 21
98.6237846223
 31
0.0
  0
LINE
  5
87
330
1F
100
AcDbEntity
  8
DIM
100
AcDbLine
 10
8.8279644402
 20
188.6237846223
 30
0.0
 11
17.8279644402
 21
188.6237846223
 31
0.0
  0
LINE
  5
88
330
1F
100
AcDbEntity
  8
DIM
100
AcDbLine
 10
8.8279644402
 20
8.6237846223
 30
0.0
 11
525.4279644402
 21
8.6237846223
 31
0.0
  0
LINE
  5
89
330
1F
100
AcDbEntity
  8
DIM
100
AcDbLine
 10
17.8279644402
 20
17.6237846223
 30
0.0
 11
525.4279644402
 21
17.6237846223
 31
0.0
  0
LINE
  5
8A
330
1F
100
AcDbEntity
  8
DIM
100
AcDbLine
 10
87.1279644402
 20
8.6237846223
 30
0.0
 11
87.1279644402
 21
17.6237846223
 31
0.0
  0
LINE
  5
8B
330
1F
100
AcDbEntity
  8
DIM
100
AcDbLine
 10
177.1279644402
 20
17.6237846223
 30
0.0
 11
177.1279644402
 21
8.6237846223
 31
0.0
  0
LINE
  5
8C
330
1F
100
AcDbEntity
  8
DIM
100
AcDbLine
 10
17.8279644402
 20
278.6237846223
 30
0.0
 11
8.8279644402
 21
278.6237846223
 31
0.0
  0
LINE
  5
8D
330
1F
100
AcDbEntity
  8
DIM
100
AcDbLine
 10
87.1279644402
 20
359.6237846223
 30
0.0
 11
87.1279644402
 21
368.6237846223
 31
0.0
  0
LINE
  5
8E
330
1F
100
AcDbEntity
  8
DIM
100
AcDbLine
 10
177.1279644402
 20
368.6237846223
 30
0.0
 11
177.1279644402
 21
359.6237846223
 31
0.0
  0
LINE
  5
8F
330
1F
100
AcDbEntity
  8
DIM
100
AcDbLine
 10
267.1279644402
 20
368.6237846223
 30
0.0
 11
267.1279644402
 21
359.6237846223
 31
0.0
  0
LINE
  5
90
330
1F
100
AcDbEntity
  8
DIM
100
AcDbLine
 10
516.4279644402
 20
17.6237846223
 30
0.0
 11
516.4279644402
 21
359.6237846223
 31
0.0
  0
LINE
  5
91
330
1F
100
AcDbEntity
  8
DIM
100
AcDbLine
 10
525.4279644402
 20
138.6737846223
 30
0.0
 11
525.4279644402
 21
368.6237846223
 31
0.0
  0
LINE
  5
92
330
1F
100
AcDbEntity
  8
DIM
100
AcDbLine
 10
525.4279644402
 20
188.6237846223
 30
0.0
 11
516.4279644402
 21
188.6237846223
 31
0.0
  0
LINE
  5
93
330
1F
100
AcDbEntity
  8
DIM
100
AcDbLine
 10
357.1279644402
 20
368.6237846223
 30
0.0
 11
357.1279644402
 21
359.6237846223
 31
0.0
  0
LINE
  5
94
330
1F
100
AcDbEntity
  8
DIM
100
AcDbLine
 10
447.1279644402
 20
359.6237846223
 30
0.0
 11
447.1279644402
 21
368.6237846223
 31
0.0
  0
LINE
  5
95
330
1F
100
AcDbEntity
  8
DIM
100
AcDbLine
 10
516.4279644402
 20
278.6237846223
 30
0.0
 11
525.4279644402
 21
278.6237846223
 31
0.0
  0
MTEXT
  5
97
330
1F
100
AcDbEntity
  8
DIM
100
AcDbMText
 10
29.0334066681
 20
348.9624887387
 30
0.0
 40
7.62
 41
0.0
 71
     1
 72
     1
  1
SK 50 FMH-K32 160 AD+B/6.3G15000 SL SP.S
  7
SLDTEXTSTYLE0
 73
     1
 44
1.0
  0
MTEXT
  5
99
330
1F
100
AcDbEntity
  8
DIM
 62
     7
100
AcDbMText
 10
355.9190015639
 20
14.0435127473
 30
0.0
 40
2.69748
 41
0.0
 71
     1
 72
     1
  1
WEIGHT:
  7
SLDTEXTSTYLE1
 73
     1
 44
1.0
  0
MTEXT
  5
9A
330
1F
100
AcDbEntity
  8
DIM
 62
     7
100
AcDbMText
 10
519.4747381586
 20
147.4931043148
 30
0.0
 40
3.33375
 41
0.0
 71
     1
 72
     1
  1
C
  7
SLDTEXTSTYLE1
 73
     1
 44
1.0
  0
MTEXT
  5
9B
330
1F
100
AcDbEntity
  8
DIM
 62
     7
100
AcDbMText
 10
509.478445115
 20
26.7371675705
 30
0.0
 40
5.23875
 41
0.0
 71
     1
 72
     1
  1
A4
  7
SLDTEXTSTYLE1
 73
     1
 44
1.0
  0
MTEXT
  5
9C
330
1F
100
AcDbEntity
  8
DIM
 62
     7
100
AcDbMText
 10
490.6279716402
 20
366.2262141487
 30
0.0
 40
3.33375
 41
0.0
 71
     1
 72
     1
  1
6
  7
SLDTEXTSTYLE1
 73
     1
 44
1.0
  0
MTEXT
  5
9D
330
1F
100
AcDbEntity
  8
DIM
 62
     7
100
AcDbMText
 10
400.6279716402
 20
366.2262141487
 30
0.0
 40
3.33375
 41
0.0
 71
     1
 72
     1
  1
5
  7
SLDTEXTSTYLE1
 73
     1
 44
1.0
  0
MTEXT
  5
9E
330
1F
100
AcDbEntity
  8
DIM
 62
     7
100
AcDbMText
 10
519.4279788402
 20
325.7262141487
 30
0.0
 40
3.33375
 41
0.0
 71
     1
 72
     1
  1
A
  7
SLDTEXTSTYLE1
 73
     1
 44
1.0
  0
MTEXT
  5
9F
330
1F
100
AcDbEntity
  8
DIM
 62
     7
100
AcDbMText
 10
519.4279788402
 20
235.7262141487
 30
0.0
 40
3.33375
 41
0.0
 71
     1
 72
     1
  1
B
  7
SLDTEXTSTYLE1
 73
     1
 44
1.0
  0
MTEXT
  5
A0
330
1F
100
AcDbEntity
  8
DIM
 62
     7
100
AcDbMText
 10
310.6279716402
 20
366.2262141487
 30
0.0
 40
3.33375
 41
0.0
 71
     1
 72
     1
  1
4
  7
SLDTEXTSTYLE1
 73
     1
 44
1.0
  0
MTEXT
  5
A1
330
1F
100
AcDbEntity
  8
DIM
 62
     7
100
AcDbMText
 10
41.3779716402
 20
366.2262141487
 30
0.0
 40
3.33375
 41
0.0
 71
     1
 72
     1
  1
1
  7
SLDTEXTSTYLE1
 73
     1
 44
1.0
  0
MTEXT
  5
A2
330
1F
100
AcDbEntity
  8
DIM
 62
     7
100
AcDbMText
 10
130.6279716402
 20
366.2262141487
 30
0.0
 40
3.33375
 41
0.0
 71
     1
 72
     1
  1
2
  7
SLDTEXTSTYLE1
 73
     1
 44
1.0
  0
MTEXT
  5
A3
330
1F
100
AcDbEntity
  8
DIM
 62
     7
100
AcDbMText
 10
220.6279716402
 20
366.2262141487
 30
0.0
 40
3.33375
 41
0.0
 71
     1
 72
     1
  1
3
  7
SLDTEXTSTYLE1
 73
     1
 44
1.0
  0
MTEXT
  5
A4
330
1F
100
AcDbEntity
  8
DIM
 62
     7
100
AcDbMText
 10
11.8279644402
 20
325.7262141487
 30
0.0
 40
3.33375
 41
0.0
 71
     1
 72
     1
  1
A
  7
SLDTEXTSTYLE1
 73
     1
 44
1.0
  0
MTEXT
  5
A5
330
1F
100
AcDbEntity
  8
DIM
 62
     7
100
AcDbMText
 10
130.6279716402
 20
15.2262141487
 30
0.0
 40
3.33375
 41
0.0
 71
     1
 72
     1
  1
2
  7
SLDTEXTSTYLE1
 73
     1
 44
1.0
  0
MTEXT
  5
A6
330
1F
100
AcDbEntity
  8
DIM
 62
     7
100
AcDbMText
 10
41.3779716402
 20
15.2262141487
 30
0.0
 40
3.33375
 41
0.0
 71
     1
 72
     1
  1
1
  7
SLDTEXTSTYLE1
 73
     1
 44
1.0
  0
MTEXT
  5
A7
330
1F
100
AcDbEntity
  8
DIM
 62
     7
100
AcDbMText
 10
11.8279644402
 20
55.7262141487
 30
0.0
 40
3.33375
 41
0.0
 71
     1
 72
     1
  1
D
  7
SLDTEXTSTYLE1
 73
     1
 44
1.0
  0
MTEXT
  5
A8
330
1F
100
AcDbEntity
  8
DIM
 62
     7
100
AcDbMText
 10
11.8279644402
 20
145.7262141487
 30
0.0
 40
3.33375
 41
0.0
 71
     1
 72
     1
  1
C
  7
SLDTEXTSTYLE1
 73
     1
 44
1.0
  0
MTEXT
  5
A9
330
1F
100
AcDbEntity
  8
DIM
 62
     7
100
AcDbMText
 10
11.8279644402
 20
235.7262141487
 30
0.0
 40
3.33375
 41
0.0
 71
     1
 72
     1
  1
B
  7
SLDTEXTSTYLE1
 73
     1
 44
1.0
  0
MTEXT
  5
AA
330
1F
100
AcDbEntity
  8
DIM
 62
     7
100
AcDbMText
 10
519.4747381586
 20
147.4931043148
 30
0.0
 40
3.33375
 41
0.0
 71
     1
 72
     1
  1
C
  7
SLDTEXTSTYLE1
 73
     1
 44
1.0
  0
MTEXT
  5
AC
330
1F
100
AcDbEntity
  8
DIM
 62
     7
100
AcDbMText
 10
461.7456584625
 20
13.8439417165
 30
0.0
 40
2.7
 41
0.0
 71
     1
 72
     1
  1
SHEET 1 OF 1
  7
SLDTEXTSTYLE2
 73
     1
 44
1.0
  0
MTEXT
  5
AD
330
1F
100
AcDbEntity
  8
DIM
 62
     7
100
AcDbMText
 10
270.6692046902
 20
14.1360614706
 30
0.0
 40
2.7
 41
0.0
 71
     1
 72
     1
  1
MATERIAL:
  7
SLDTEXTSTYLE1
 73
     1
 44
1.0
  0
MTEXT
  5
AE
330
1F
100
AcDbEntity
  8
DIM
 62
     7
100
AcDbMText
 10
490.6279716402
 20
366.2262141487
 30
0.0
 40
3.33375
 41
0.0
 71
     1
 72
     1
  1
6
  7
SLDTEXTSTYLE1
 73
     1
 44
1.0
  0
MTEXT
  5
AF
330
1F
100
AcDbEntity
  8
DIM
 62
     7
100
AcDbMText
 10
400.6279716402
 20
366.2262141487
 30
0.0
 40
3.33375
 41
0.0
 71
     1
 72
     1
  1
5
  7
SLDTEXTSTYLE1
 73
     1
 44
1.0
  0
MTEXT
  5
B0
330
1F
100
AcDbEntity
  8
DIM
 62
     7
100
AcDbMText
 10
519.4279788402
 20
325.7262141487
 30
0.0
 40
3.33375
 41
0.0
 71
     1
 72
     1
  1
A
  7
SLDTEXTSTYLE1
 73
     1
 44
1.0
  0
MTEXT
  5
B1
330
1F
100
AcDbEntity
  8
DIM
 62
     7
100
AcDbMText
 10
519.4279788402
 20
235.7262141487
 30
0.0
 40
3.33375
 41
0.0
 71
     1
 72
     1
  1
B
  7
SLDTEXTSTYLE1
 73
     1
 44
1.0
  0
MTEXT
  5
B2
330
1F
100
AcDbEntity
  8
DIM
 62
     7
100
AcDbMText
 10
310.6279716402
 20
366.2262141487
 30
0.0
 40
3.33375
 41
0.0
 71
     1
 72
     1
  1
4
  7
SLDTEXTSTYLE1
 73
     1
 44
1.0
  0
MTEXT
  5
B3
330
1F
100
AcDbEntity
  8
DIM
 62
     7
100
AcDbMText
 10
41.3779716402
 20
366.2262141487
 30
0.0
 40
3.33375
 41
0.0
 71
     1
 72
     1
  1
1
  7
SLDTEXTSTYLE1
 73
     1
 44
1.0
  0
MTEXT
  5
B4
330
1F
100
AcDbEntity
  8
DIM
 62
     7
100
AcDbMText
 10
130.6279716402
 20
366.2262141487
 30
0.0
 40
3.33375
 41
0.0
 71
     1
 72
     1
  1
2
  7
SLDTEXTSTYLE1
 73
     1
 44
1.0
  0
MTEXT
  5
B5
330
1F
100
AcDbEntity
  8
DIM
 62
     7
100
AcDbMText
 10
220.6279716402
 20
366.2262141487
 30
0.0
 40
3.33375
 41
0.0
 71
     1
 72
     1
  1
3
  7
SLDTEXTSTYLE1
 73
     1
 44
1.0
  0
MTEXT
  5
B6
330
1F
100
AcDbEntity
  8
DIM
 62
     7
100
AcDbMText
 10
11.8279644402
 20
325.7262141487
 30
0.0
 40
3.33375
 41
0.0
 71
     1
 72
     1
  1
A
  7
SLDTEXTSTYLE1
 73
     1
 44
1.0
  0
MTEXT
  5
B7
330
1F
100
AcDbEntity
  8
DIM
 62
     7
100
AcDbMText
 10
130.6279716402
 20
15.2262141487
 30
0.0
 40
3.33375
 41
0.0
 71
     1
 72
     1
  1
2
  7
SLDTEXTSTYLE1
 73
     1
 44
1.0
  0
MTEXT
  5
B8
330
1F
100
AcDbEntity
  8
DIM
 62
     7
100
AcDbMText
 10
41.3779716402
 20
15.2262141487
 30
0.0
 40
3.33375
 41
0.0
 71
     1
 72
     1
  1
1
  7
SLDTEXTSTYLE1
 73
     1
 44
1.0
  0
MTEXT
  5
B9
330
1F
100
AcDbEntity
  8
DIM
 62
     7
100
AcDbMText
 10
11.8279644402
 20
55.7262141487
 30
0.0
 40
3.33375
 41
0.0
 71
     1
 72
     1
  1
D
  7
SLDTEXTSTYLE1
 73
     1
 44
1.0
  0
MTEXT
  5
BA
330
1F
100
AcDbEntity
  8
DIM
 62
     7
100
AcDbMText
 10
11.8279644402
 20
145.7262141487
 30
0.0
 40
3.33375
 41
0.0
 71
     1
 72
     1
  1
C
  7
SLDTEXTSTYLE1
 73
     1
 44
1.0
  0
MTEXT
  5
BB
330
1F
100
AcDbEntity
  8
DIM
 62
     7
100
AcDbMText
 10
11.8279644402
 20
235.7262141487
 30
0.0
 40
3.33375
 41
0.0
 71
     1
 72
     1
  1
B
  7
SLDTEXTSTYLE1
 73
     1
 44
1.0
  0
SPLINE
  5
BC
330
1F
100
AcDbEntity
  8
0
  6
Continuous
 62
     7
370
    15
100
AcDbSpline
210
0.0
220
0.0
230
1.0
 70
     8
 71
     3
 72
    14
 73
    10
 74
     0
 42
0.000000001
 43
0.00000001
 40
0.0
 40
0.0
 40
0.0
 40
0.0
 40
0.25
 40
0.25
 40
0.5
 40
0.5
 40
0.75
 40
0.75
 40
1.0
 40
1.0
 40
1.0
 40
1.0
 10
106.5423801272588
 20
203.7749469552925
 30
0.0
 10
106.5423801272588
 20
198.6772125785181
 30
0.0
 10
104.5171537011898
 20
193.787883473826
 30
0.0
 10
97.30786860817985
 20
186.5785983808161
 30
0.0
 10
92.41853950348782
 20
184.5533719547471
 30
0.0
 10
82.22307074993893
 20
184.5533719547471
 30
0.0
 10
77.33374164524689
 20
186.5785983808161
 30
0.0
 10
70.12445655223692
 20
193.787883473826
 30
0.0
 10
68.09923012616797
 20
198.6772125785181
 30
0.0
 10
68.09923012616797
 20
203.7749469552925
 30
0.0
  0
SPLINE
  5
BD
330
1F
100
AcDbEntity
  8
0
  6
Continuous
 62
     7
370
    15
100
AcDbSpline
210
0.0
220
0.0
230
1.0
 70
     8
 71
     3
 72
    14
 73
    10
 74
     0
 42
0.000000001
 43
0.00000001
 40
0.0
 40
0.0
 40
0.0
 40
0.0
 40
0.25
 40
0.25
 40
0.5
 40
0.5
 40
0.75
 40
0.75
 40
1.0
 40
1.0
 40
1.0
 40
1.0
 10
68.09923012616797
 20
203.7749469552925
 30
0.0
 10
68.09923012616797
 20
208.872681332067
 30
0.0
 10
70.12445655223692
 20
213.762010436759
 30
0.0
 10
77.33374164524689
 20
220.971295529769
 30
0.0
 10
82.22307074993893
 20
222.9965219558379
 30
0.0
 10
92.41853950348782
 20
222.9965219558379
 30
0.0
 10
97.30786860817985
 20
220.971295529769
 30
0.0
 10
104.5171537011898
 20
213.762010436759
 30
0.0
 10
106.5423801272588
 20
208.872681332067
 30
0.0
 10
106.5423801272588
 20
203.7749469552925
 30
0.0
  0
CIRCLE
  5
BE
330
1F
100
AcDbEntity
  8
0
  6
Continuous
 62
     7
370
    15
100
AcDbCircle
 10
87.3208051267
 20
203.7749469553
 30
0.0
 40
20.21110778703758
  0
CIRCLE
  5
BF
330
1F
100
AcDbEntity
  8
0
  6
Continuous
 62
     7
370
    15
100
AcDbCircle
 10
87.3208051267
 20
203.7749469553
 30
0.0
 40
34.92500000000003
  0
SPLINE
  5
C0
330
1F
100
AcDbEntity
  8
0
  6
Continuous
 62
     7
370
    15
100
AcDbSpline
210
0.0
220
0.0
230
1.0
 70
     8
 71
     3
 72
    52
 73
    48
 74
     0
 42
0.000000001
 43
0.00000001
 40
0.0
 40
0.0
 40
0.0
 40
0.0
 40
0.0053074994726554
 40
0.0106084744807156
 40
0.0159043870752884
 40
0.0211967035030982
 40
0.0264868930010475
 40
0.031776426578386
 40
0.0370667757915106
 40
0.0423594115164833
 40
0.0476558027243854
 40
0.0529574152645906
 40
0.0582657106609693
 40
0.0891348494758177
 40
0.1200087595578935
 40
0.1521645941108524
 40
0.1843252192282218
 40
0.2171652710885947
 40
0.2500102154523581
 40
0.2828502674523063
 40
0.3156952119562962
 40
0.3478510468948057
 40
0.380011672397905
 40
0.4108808109142898
 40
0.4417547207534483
 40
0.470875333637603
 40
0.5000007798720159
 40
0.5291213927975412
 40
0.5582468390472084
 40
0.5891159778617261
 40
0.6199898879441322
 40
0.652145722497098
 40
0.6843063476144644
 40
0.7171463994755694
 40
0.7499913438386044
 40
0.7828313958395676
 40
0.8156763403425417
 40
0.8478321752819549
 40
0.8799928007841501
 40
0.9108619393016738
 40
0.941735849139696
 40
0.9514609652020397
 40
0.9611682412334405
 40
0.9708667191333772
 40
0.9805654654081966
 40
0.9902735458123287
 40
1.0
 40
1.0
 40
1.0
 40
1.0
 10
52.32080512671337
 20
203.7749469552925
 30
0.0
 10
52.32173315762382
 20
203.9694091133455
 30
0.0
 10
52.32358807862413
 20
204.3580943787512
 30
0.0
 10
52.33861711297576
 20
204.9406573487727
 30
0.0
 10
52.36261574201014
 20
205.5223432361421
 30
0.0
 10
52.39646004609325
 20
206.1031519309592
 30
0.0
 10
52.43991558782685
 20
206.6830832793784
 30
0.0
 10
52.4930451488929
 20
207.262137199803
 30
0.0
 10
52.55583181861509
 20
207.8403133639397
 30
0.0
 10
52.62828041113167
 20
208.4176123613081
 30
0.0
 10
52.71038844862468
 20
208.9940313614556
 30
0.0
 10
52.80216085061834
 20
209.5695803230337
 30
0.0
 10
53.06630035225174
 20
211.0661929265474
 30
0.0
 10
53.63006810515715
 20
213.4618997877155
 30
0.0
 10
54.74268528549587
 20
216.7227708937679
 30
0.0
 10
56.18985150103647
 20
219.9026597760617
 30
0.0
 10
57.98902713044317
 20
222.9811587078174
 30
0.0
 10
60.10544770600353
 20
225.8826186158543
 30
0.0
 10
62.52833289951865
 20
228.5671655918482
 30
0.0
 10
65.21299337813711
 20
230.9901907667947
 30
0.0
 10
68.1142935176974
 20
233.1065300028718
 30
0.0
 10
71.1929466157244
 20
234.9058221949908
 30
0.0
 10
74.37261004973271
 20
236.3529303281982
 30
0.0
 10
77.63384634773904
 20
237.465660145203
 30
0.0
 10
80.87959064647306
 20
238.2295476305992
 30
0.0
 10
84.11845676462897
 20
238.6778256306096
 30
0.0
 10
87.32062815455883
 20
238.8235034954498
 30
0.0
 10
90.52297562520512
 20
238.6778421180013
 30
0.0
 10
93.76167388491902
 20
238.2296119255402
 30
0.0
 10
97.00759449449207
 20
237.4657098664175
 30
0.0
 10
100.2686748950515
 20
236.3530595370588
 30
0.0
 10
103.4485054635066
 20
234.9059025620034
 30
0.0
 10
106.5270203037166
 20
233.1067243947743
 30
0.0
 10
109.4284758598432
 20
230.9903045779268
 30
0.0
 10
112.1130240178527
 20
228.5674189368164
 30
0.0
 10
114.5360488474355
 20
225.8827594843309
 30
0.0
 10
116.6523882816005
 20
222.9814557129781
 30
0.0
 10
118.4516800342386
 20
219.902815850396
 30
0.0
 10
119.8987897035982
 20
216.7231039049722
 30
0.0
 10
121.0115140272614
 20
213.4620416952969
 30
0.0
 10
121.6123599593042
 20
210.9086276099427
 30
0.0
 10
121.9203000388234
 20
209.091207904341
 30
0.0
 10
122.0664391497459
 20
208.0337611661125
 30
0.0
 10
122.180245177007
 20
206.9733239127377
 30
0.0
 10
122.2609404978136
 20
205.9098699385856
 30
0.0
 10
122.3114620332292
 20
204.8434095698512
 30
0.0
 10
122.3176887999169
 20
204.1313255661255
 30
0.0
 10
122.3208051267134
 20
203.7749469552925
 30
0.0
  0
SPLINE
  5
C1
330
1F
100
AcDbEntity
  8
0
  6
Continuous
 62
     7
370
    15
100
AcDbSpline
210
0.0
220
0.0
230
1.0
 70
     8
 71
     3
 72
    52
 73
    48
 74
     0
 42
0.000000001
 43
0.00000001
 40
0.0
 40
0.0
 40
0.0
 40
0.0
 40
0.0053074994726554
 40
0.0106084744807156
 40
0.0159043870752884
 40
0.0211967035030983
 40
0.0264868930010475
 40
0.0317764265783861
 40
0.0370667757915106
 40
0.0423594115164834
 40
0.0476558027243854
 40
0.0529574152645907
 40
0.0582657106609694
 40
0.0891348494759667
 40
0.1200087595578951
 40
0.1521645941111445
 40
0.1843252192282232
 40
0.2171652710889209
 40
0.25001021545236
 40
0.2828502674525652
 40
0.315695211956297
 40
0.3478510468951538
 40
0.3800116723979077
 40
0.41088081091547
 40
0.4417547207534571
 40
0.4708753336379863
 40
0.5000007798720127
 40
0.5291213927971703
 40
0.5582468390472111
 40
0.5891159778626601
 40
0.6199898879441411
 40
0.6521457224976949
 40
0.6843063476144631
 40
0.7171463994753853
 40
0.7499913438386053
 40
0.7828313958393156
 40
0.8156763403425399
 40
0.8478321752809374
 40
0.8799928007841432
 40
0.9108619393011222
 40
0.9417358491396983
 40
0.9514609652021586
 40
0.9611682412336295
 40
0.9708667191335897
 40
0.9805654654083855
 40
0.9902735458124469
 40
1.0
 40
1.0
 40
1.0
 40
1.0
 10
122.3208051267134
 20
203.7749469552925
 30
0.0
 10
122.3198770958029
 20
203.5804847972396
 30
0.0
 10
122.3180221748026
 20
203.1917995318339
 30
0.0
 10
122.302993140451
 20
202.6092365618124
 30
0.0
 10
122.2789945114166
 20
202.027550674443
 30
0.0
 10
122.2451502073335
 20
201.4467419796259
 30
0.0
 10
122.2016946655999
 20
200.8668106312067
 30
0.0
 10
122.1485651045338
 20
200.287756710782
 30
0.0
 10
122.0857784348117
 20
199.7095805466454
 30
0.0
 10
122.0133298422951
 20
199.132281549277
 30
0.0
 10
121.9312218048021
 20
198.5558625491295
 30
0.0
 10
121.8394494028084
 20
197.9803135875513
 30
0.0
 10
121.575309901174
 20
196.4837009840323
 30
0.0
 10
121.0115421482708
 20
194.0879941228635
 30
0.0
 10
119.8989249679245
 20
190.8271230168023
 30
0.0
 10
118.4517587523854
 20
187.6472341345138
 30
0.0
 10
116.6525831229711
 20
184.5687352027489
 30
0.0
 10
114.5361625474162
 20
181.6672752947211
 30
0.0
 10
112.1132773538931
 20
178.9827283187217
 30
0.0
 10
109.4286168752811
 20
176.5597031437856
 30
0.0
 10
106.5273167357106
 20
174.4433639077017
 30
0.0
 10
103.4486636376928
 20
172.6440717155845
 30
0.0
 10
100.2690002036414
 20
171.1969635823684
 30
0.0
 10
97.00776390564907
 20
170.0842337653604
 30
0.0
 10
93.7620196068979
 20
169.320346279973
 30
0.0
 10
90.52315348878163
 20
168.8720682799973
 30
0.0
 10
87.32098209886784
 20
168.7263904151334
 30
0.0
 10
84.11863462823393
 20
168.8720517925719
 30
0.0
 10
80.87993636848825
 20
169.3202819850517
 30
0.0
 10
77.63401575889888
 20
170.0841840441662
 30
0.0
 10
74.37293535832293
 20
171.1968343735464
 30
0.0
 10
71.19310478990877
 20
172.6439913486072
 30
0.0
 10
68.11458994969631
 20
174.4431695158168
 30
0.0
 10
65.21313439358748
 20
176.5595893326526
 30
0.0
 10
62.52858623558478
 20
178.9824749737569
 30
0.0
 10
60.10556140600141
 20
181.6671344262503
 30
0.0
 10
57.98922197184984
 20
184.5684381975671
 30
0.0
 10
56.18993021921316
 20
187.6470780601601
 30
0.0
 10
54.7428205498512
 20
190.82679000556
 30
0.0
 10
53.63009622615448
 20
194.087852215264
 30
0.0
 10
53.02925029412396
 20
196.6412663006265
 30
0.0
 10
52.72131021460374
 20
198.4586860062554
 30
0.0
 10
52.57517110368114
 20
199.5161327444917
 30
0.0
 10
52.46136507641997
 20
200.5765699978691
 30
0.0
 10
52.38066975561333
 20
201.6400239720186
 30
0.0
 10
52.33014822019753
 20
202.7064843407452
 30
0.0
 10
52.32392145350983
 20
203.4185683444639
 30
0.0
 10
52.32080512671337
 20
203.7749469552925
 30
0.0
  0
SPLINE
  5
C2
330
1F
100
AcDbEntity
  8
0
  6
Continuous
 62
     7
370
    15
100
AcDbSpline
210
0.0
220
0.0
230
1.0
 70
    24
 71
     3
 72
     8
 73
     4
 74
     0
 42
0.000000001
 43
0.00000001
 40
0.0
 40
0.0
 40
0.0
 40
0.0
 40
1.0
 40
1.0
 40
1.0
 40
1.0
 10
57.32080512671335
 20
241.0746084388596
 30
0.0
 10
57.32080512671335
 20
240.9710993946252
 30
0.0
 10
57.32080512671337
 20
240.8416758327931
 30
0.0
 10
57.32080512671337
 20
240.7109320318732
 30
0.0
  0
ARC
  5
C3
330
1F
100
AcDbEntity
  8
0
  6
Continuous
 62
     7
370
    15
100
AcDbCircle
 10
87.3208051267
 20
203.7749469553
 30
0.0
 40
47.58431457505078
100
AcDbArc
 50
129.0840578538
 51
140.9159421462
  0
SPLINE
  5
C4
330
1F
100
AcDbEntity
  8
0
  6
Continuous
 62
     7
370
    15
100
AcDbSpline
210
0.0
220
0.0
230
1.0
 70
    24
 71
     3
 72
     8
 73
     4
 74
     0
 42
0.000000001
 43
0.00000001
 40
0.0
 40
0.0
 40
0.0
 40
0.0
 40
1.0
 40
1.0
 40
1.0
 40
1.0
 10
50.38482005013272
 20
233.7749469552925
 30
0.0
 10
50.25411590052582
 20
233.7749469552925
 30
0.0
 10
50.12457893350965
 20
233.7749469552925
 30
0.0
 10
50.02114364314632
 20
233.7749469552925
 30
0.0
  0
ARC
  5
C5
330
1F
100
AcDbEntity
  8
0
  6
Continuous
 62
     7
370
    15
100
AcDbCircle
 10
87.3208051267
 20
203.7749469553
 30
0.0
 40
47.8671572875254
100
AcDbArc
 50
128.8096103904
 51
141.1903896096
  0
ARC
  5
C6
330
1F
100
AcDbEntity
  8
0
  6
Continuous
 62
     7
370
    15
100
AcDbCircle
 10
87.3208051267
 20
203.7749469553
 30
0.0
 40
47.86715728752538
100
AcDbArc
 50
163.7023380383
 51
196.2976619617
  0
SPLINE
  5
C7
330
1F
100
AcDbEntity
  8
0
  6
Continuous
 62
     7
370
    15
100
AcDbSpline
210
0.0
220
0.0
230
1.0
 70
     8
 71
     3
 72
    10
 73
     6
 74
     0
 42
0.000000001
 43
0.00000001
 40
0.0
 40
0.0
 40
0.0
 40
0.0
 40
0.5
 40
0.5
 40
1.0
 40
1.0
 40
1.0
 40
1.0
 10
41.3771060652467
 20
217.2077896677672
 30
0.0
 10
41.42064645666544
 20
217.2404227287845
 30
0.0
 10
41.4692010607832
 20
217.2684036150507
 30
0.0
 10
41.58065059654508
 20
217.3110604654257
 30
0.0
 10
41.64260884913421
 20
217.3249469552925
 30
0.0
 10
41.70650371172523
 20
217.3249469552925
 30
0.0
  0
ARC
  5
C8
330
1F
100
AcDbEntity
  8
0
  6
Continuous
 62
     7
370
    15
100
AcDbCircle
 10
87.3208051267
 20
203.7749469553
 30
0.0
 40
47.58431457505078
100
AcDbArc
 50
163.4556342686
 51
196.5443657314
  0
SPLINE
  5
C9
330
1F
100
AcDbEntity
  8
0
  6
Continuous
 62
     7
370
    15
100
AcDbSpline
210
0.0
220
0.0
230
1.0
 70
     8
 71
     3
 72
    10
 73
     6
 74
     0
 42
0.000000001
 43
0.00000001
 40
0.0
 40
0.0
 40
0.0
 40
0.0
 40
0.5
 40
0.5
 40
1.0
 40
1.0
 40
1.0
 40
1.0
 10
41.3771060652467
 20
190.342104242818
 30
0.0
 10
41.42064645666544
 20
190.3094711818006
 30
0.0
 10
41.46920106078318
 20
190.2814902955344
 30
0.0
 10
41.58065059654506
 20
190.2388334451594
 30
0.0
 10
41.64260884913421
 20
190.2249469552926
 30
0.0
 10
41.70650371172523
 20
190.2249469552926
 30
0.0
  0
SPLINE
  5
CA
330
1F
100
AcDbEntity
  8
0
  6
Continuous
 62
     7
370
    15
100
AcDbSpline
210
0.0
220
0.0
230
1.0
 70
     8
 71
     3
 72
    10
 73
     6
 74
     0
 42
0.000000001
 43
0.00000001
 40
0.0
 40
0.0
 40
0.0
 40
0.0
 40
0.5
 40
0.5
 40
1.0
 40
1.0
 40
1.0
 40
1.0
 10
132.9351065417015
 20
217.3249469552925
 30
0.0
 10
132.9990582305446
 20
217.3249469552925
 30
0.0
 10
133.0606225689958
 20
217.3111010792677
 30
0.0
 10
133.1712479198448
 20
217.2689353030804
 30
0.0
 10
133.2209346115142
 20
217.2404446028173
 30
0.0
 10
133.26450418818
 20
217.2077896677672
 30
0.0
  0
ARC
  5
CB
330
1F
100
AcDbEntity
  8
0
  6
Continuous
 62
     7
370
    15
100
AcDbCircle
 10
87.3208051267
 20
203.7749469553
 30
0.0
 40
47.8671572875254
100
AcDbArc
 50
343.7023380383
 51
16.2976619617
  0
SPLINE
  5
CC
330
1F
100
AcDbEntity
  8
0
  6
Continuous
 62
     7
370
    15
100
AcDbSpline
210
0.0
220
0.0
230
1.0
 70
     8
 71
     3
 72
    10
 73
     6
 74
     0
 42
0.000000001
 43
0.00000001
 40
0.0
 40
0.0
 40
0.0
 40
0.0
 40
0.5
 40
0.5
 40
1.0
 40
1.0
 40
1.0
 40
1.0
 10
133.26450418818
 20
190.3421042428179
 30
0.0
 10
133.2209637967613
 20
190.3094711818006
 30
0.0
 10
133.1724091926436
 20
190.2814902955344
 30
0.0
 10
133.0609596568817
 20
190.2388334451594
 30
0.0
 10
132.9990014042925
 20
190.2249469552926
 30
0.0
 10
132.9351065417015
 20
190.2249469552926
 30
0.0
  0
ARC
  5
CD
330
1F
100
AcDbEntity
  8
0
  6
Continuous
 62
     7
370
    15
100
AcDbCircle
 10
87.3208051267
 20
203.7749469553
 30
0.0
 40
47.58431457505078
100
AcDbArc
 50
343.4556342686
 51
16.5443657314
  0
SPLINE
  5
CE
330
1F
100
AcDbEntity
  8
0
  6
Continuous
 62
     7
370
    15
100
AcDbSpline
210
0.0
220
0.0
230
1.0
 70
     8
 71
     3
 72
    40
 73
    36
 74
     0
 42
0.000000001
 43
0.00000001
 40
0.0
 40
0.0
 40
0.0
 40
0.0
 40
0.0076138096090706
 40
0.015222703696619
 40
0.0228283796622113
 40
0.0304325370604607
 40
0.0380368764641707
 40
0.0456430983240686
 40
0.0532529018289472
 40
0.0608679837700325
 40
0.0919930035882894
 40
0.1231236538966525
 40
0.1547321881285151
 40
0.1863461940165317
 40
0.2182020912711853
 40
0.2500635030030784
 40
0.3137495787501998
 40
0.3769416086590435
 40
0.439168148565131
 40
0.5000004350472922
 40
0.5608327215294534
 40
0.6230592614355407
 40
0.6862512913443847
 40
0.7499373670915059
 40
0.7817932643700992
 40
0.813654676120411
 40
0.8452632104154371
 40
0.8768772163635395
 40
0.9080022357785864
 40
0.9391328857746177
 40
0.9513123423166135
 40
0.963481817855821
 40
0.9756482751522532
 40
0.9878186821461872
 40
1.0
 40
1.0
 40
1.0
 40
1.0
 10
132.9351065417015
 20
217.3249469552925
 30
0.0
 10
132.8666071308692
 20
217.5519597130152
 30
0.0
 10
132.7296525328385
 20
218.0058386676515
 30
0.0
 10
132.5114224437015
 20
218.6825058888217
 30
0.0
 10
132.283926822306
 20
219.3557765893886
 30
0.0
 10
132.0462418581378
 20
220.0253761201789
 30
0.0
 10
131.7986147120961
 20
220.6913782605292
 30
0.0
 10
131.5409802820446
 20
221.3537617955481
 30
0.0
 10
131.273352101697
 20
222.012537230561
 30
0.0
 10
130.7101594517071
 20
223.3416409658012
 30
0.0
 10
129.7851407795413
 20
225.312941737211
 30
0.0
 10
128.3827280670905
 20
227.8797868166256
 30
0.0
 10
126.8171884589822
 20
230.3687366430329
 30
0.0
 10
125.0866770037288
 20
232.7737660551283
 30
0.0
 10
123.2050225665641
 20
235.0728764128677
 30
0.0
 10
120.503192799466
 20
237.9814702868188
 30
0.0
 10
116.8038290619471
 20
241.2820491332777
 30
0.0
 10
111.9435521568082
 20
244.6340984508518
 30
0.0
 10
106.7872644559536
 20
247.3224092398285
 30
0.0
 10
101.4141006404426
 20
249.3430379071013
 30
0.0
 10
95.83836396717591
 20
250.7086843083971
 30
0.0
 10
90.06469042004083
 20
251.4007910389488
 30
0.0
 10
84.16062376536753
 20
251.3779371062237
 30
0.0
 10
79.24399603995215
 20
250.7421860941739
 30
0.0
 10
75.37185024800485
 20
249.8668110679339
 30
0.0
 10
72.52092279650516
 20
249.0315052826112
 30
0.0
 10
69.73462497840445
 20
248.023339291926
 30
0.0
 10
67.037439548463
 20
246.852898897414
 30
0.0
 10
64.43059681697466
 20
245.5259135846403
 30
0.0
 10
62.43162489126864
 20
244.3488935570918
 30
0.0
 10
60.98116065738364
 20
243.4098198714398
 30
0.0
 10
60.04142839937043
 20
242.7691780680903
 30
0.0
 10
59.11786632287392
 20
242.1059963267955
 30
0.0
 10
58.20890983878164
 20
241.4221811389004
 30
0.0
 10
57.61692844372116
 20
240.9480858741282
 30
0.0
 10
57.32080512671337
 20
240.7109320318732
 30
0.0
  0
SPLINE
  5
CF
330
1F
100
AcDbEntity
  8
0
  6
Continuous
 62
     7
370
    15
100
AcDbSpline
210
0.0
220
0.0
230
1.0
 70
     8
 71
     3
 72
    48
 73
    44
 74
     0
 42
0.000000001
 43
0.00000001
 40
0.0
 40
0.0
 40
0.0
 40
0.0
 40
0.0054347037870314
 40
0.0108647463485207
 40
0.0162911759177293
 40
0.0217150428226928
 40
0.0271373988806366
 40
0.0325592967880729
 40
0.0379817895083434
 40
0.0434059296583851
 40
0.0488327688965038
 40
0.0542633573129332
 40
0.059698742824938
 40
0.0907177254008823
 40
0.1217409090757531
 40
0.1535986684470912
 40
0.1854607425290452
 40
0.2177550902622351
 40
0.2500538118399259
 40
0.2823481596244854
 40
0.3146468812542022
 40
0.346504640772552
 40
0.3783667150011477
 40
0.440359683087698
 40
0.5000005600694972
 40
0.5596414370512967
 40
0.621634405137847
 40
0.6534921645093787
 40
0.6853542385911302
 40
0.7176485863248414
 40
0.749947307902022
 40
0.7822416556872713
 40
0.8145403773162883
 40
0.8463981368333431
 40
0.87826021106323
 40
0.9092791938585987
 40
0.9403023777537969
 40
0.9502622131370424
 40
0.9602093142102202
 40
0.970150156833966
 40
0.98009122909965
 40
0.9900390186493149
 40
0.9999999999999999
 40
0.9999999999999999
 40
0.9999999999999999
 40
0.9999999999999999
 10
41.70650371172523
 20
190.2249469552926
 30
0.0
 10
41.77026420881365
 20
190.0134076188646
 30
0.0
 10
41.89773051701876
 20
189.5905103786307
 30
0.0
 10
42.09999404804142
 20
188.9598361364029
 30
0.0
 10
42.31023861654191
 20
188.3322586567203
 30
0.0
 10
42.52926408128616
 20
187.7080156052673
 30
0.0
 10
42.75685628461537
 20
187.0870434574725
 30
0.0
 10
42.99307257209491
 20
186.4693592834225
 30
0.0
 10
43.2378974549481
 20
185.8549587165842
 30
0.0
 10
43.49133539985418
 20
185.2438425768778
 30
0.0
 10
43.7533838428494
 20
184.6360123607912
 30
0.0
 10
44.02404837038862
 20
184.0314616536972
 30
0.0
 10
44.74132761075954
 20
182.4871630585189
 30
0.0
 10
46.01284113789942
 20
180.0527205894888
 30
0.0
 10
48.04660628824072
 20
176.8177749304036
 30
0.0
 10
50.35382935015218
 20
173.7282959328828
 30
0.0
 10
52.94079501596539
 20
170.7997061202701
 30
0.0
 10
55.77152443626866
 20
168.0798021958919
 30
0.0
 10
58.83219002434031
 20
165.5935402862081
 30
0.0
 10
62.08721888769671
 20
163.3674491088141
 30
0.0
 10
65.50036228240934
 20
161.4284886527249
 30
0.0
 10
69.0447563091959
 20
159.7824923963501
 30
0.0
 10
73.84499111115876
 20
158.0150064690292
 30
0.0
 10
79.94491340570187
 20
156.5696450623818
 30
0.0
 10
87.32080516855675
 20
156.0047905956952
 30
0.0
 10
94.69669667705094
 20
156.5696451320894
 30
0.0
 10
100.7964481624459
 20
158.0149656067083
 30
0.0
 10
105.5966905767098
 20
159.7824253414312
 30
0.0
 10
109.1409341963895
 20
161.4283268318423
 30
0.0
 10
112.5542393337356
 20
163.3673545148162
 30
0.0
 10
115.8091353227796
 20
165.5933277124655
 30
0.0
 10
118.8699519630131
 20
168.0796834669036
 30
0.0
 10
121.7005703104522
 20
170.7994511330979
 30
0.0
 10
124.2876717935434
 20
173.7281595048952
 30
0.0
 10
126.5948019479517
 20
176.8174854951466
 30
0.0
 10
128.6287062393952
 20
180.0525865456842
 30
0.0
 10
129.9854103533601
 20
182.6501984148966
 30
0.0
 10
130.8468443483226
 20
184.5330858449365
 30
0.0
 10
131.3233911419828
 20
185.6491408193613
 30
0.0
 10
131.7711376713603
 20
186.7762349543803
 30
0.0
 10
132.1893768121052
 20
187.9145998780406
 30
0.0
 10
132.5807900164212
 20
189.0634313593271
 30
0.0
 10
132.8169488726691
 20
189.8376040977855
 30
0.0
 10
132.9351065417015
 20
190.2249469552925
 30
0.0
  0
SPLINE
  5
D0
330
1F
100
AcDbEntity
  8
0
  6
Continuous
 62
     7
370
    15
100
AcDbSpline
210
0.0
220
0.0
230
1.0
 70
     8
 71
     3
 72
    27
 73
    23
 74
     0
 42
0.000000001
 43
0.00000001
 40
0.0
 40
0.0
 40
0.0
 40
0.0
 40
0.0385569892848211
 40
0.0770658329194701
 40
0.1155353026399639
 40
0.1539741971376514
 40
0.1923913361118491
 40
0.2307955542506346
 40
0.2691956951601454
 40
0.3076006052631416
 40
0.3460191276878565
 40
0.3844600961682111
 40
0.4229323289763935
 40
0.461444622908547
 40
0.5000057473438686
 40
0.5715713334491092
 40
0.6429967682524639
 40
0.7143384572505677
 40
0.7856530046539444
 40
0.8569970792753662
 40
0.9284272796518032
 40
1.0
 40
1.0
 40
1.0
 40
1.0
 10
50.38482005013272
 20
233.7749469552926
 30
0.0
 10
50.23395071430278
 20
233.5875417711207
 30
0.0
 10
49.93240043137343
 20
233.2129654133832
 30
0.0
 10
49.49111475186767
 20
232.6428547199655
 30
0.0
 10
49.05832763058218
 20
232.0672128845942
 30
0.0
 10
48.63480361441992
 20
231.4854190490535
 30
0.0
 10
48.22033823616032
 20
230.8976394383745
 30
0.0
 10
47.8149863183412
 20
230.3038296692937
 30
0.0
 10
47.41873327095171
 20
229.7040017428561
 30
0.0
 10
47.03158308135388
 20
229.0981525556568
 30
0.0
 10
46.65353476160082
 20
228.4862830980848
 30
0.0
 10
46.28458861791731
 20
227.8683931063754
 30
0.0
 10
45.92474471816004
 20
227.244483258969
 30
0.0
 10
45.57400275011248
 20
226.6145517326706
 30
0.0
 10
45.13507199218084
 20
225.7975005836882
 30
0.0
 10
44.62043076705515
 20
224.7881449909314
 30
0.0
 10
44.04653954880168
 20
223.5799815899196
 30
0.0
 10
43.50756226551267
 20
222.3575569110417
 30
0.0
 10
43.00327069449494
 20
221.1209474830185
 30
0.0
 10
42.53453438549019
 20
219.8698960413481
 30
0.0
 10
42.09810449293436
 20
218.6053704991447
 30
0.0
 10
41.8371240051634
 20
217.7520382866905
 30
0.0
 10
41.70650371172523
 20
217.3249469552925
 30
0.0
  0
ARC
  5
D1
330
1F
100
AcDbEntity
  8
0
  6
Continuous
 62
     7
370
    15
100
AcDbCircle
 10
87.3208051267
 20
203.7749469553
 30
0.0
 40
47.86715728752541
100
AcDbArc
 50
196.2976619617
 51
343.7023380383
  0
ARC
  5
D2
330
1F
100
AcDbEntity
  8
0
  6
Continuous
 62
     7
370
    15
100
AcDbCircle
 10
87.3208051267
 20
203.7749469553
 30
0.0
 40
47.8671572875254
100
AcDbArc
 50
16.2976619617
 51
128.8096103904
  0
ARC
  5
D3
330
1F
100
AcDbEntity
  8
0
  6
Continuous
 62
     7
370
    15
100
AcDbCircle
 10
87.3208051267
 20
203.7749469553
 30
0.0
 40
47.8671572875254
100
AcDbArc
 50
141.1903896096
 51
163.7023380383
  0
ARC
  5
D4
330
1F
100
AcDbEntity
  8
0
  6
Continuous
 62
     7
370
    15
100
AcDbCircle
 10
87.3208051267
 20
203.7749469553
 30
0.0
 40
48.63284271247463
100
AcDbArc
 50
128.0877117496
 51
141.9122882504
  0
ARC
  5
D5
330
1F
100
AcDbEntity
  8
0
  6
Continuous
 62
     7
370
    15
100
AcDbCircle
 10
87.3208051267
 20
203.7749469553
 30
0.0
 40
48.63284271247465
100
AcDbArc
 50
15.8741097166
 51
128.0877117496
  0
ARC
  5
D6
330
1F
100
AcDbEntity
  8
0
  6
Continuous
 62
     7
370
    15
100
AcDbCircle
 10
87.3208051267
 20
203.7749469553
 30
0.0
 40
48.63284271247465
100
AcDbArc
 50
344.1258902834
 51
15.8741097166
  0
ARC
  5
D7
330
1F
100
AcDbEntity
  8
0
  6
Continuous
 62
     7
370
    15
100
AcDbCircle
 10
87.3208051267
 20
203.7749469553
 30
0.0
 40
48.63284271247463
100
AcDbArc
 50
195.9657859825
 51
344.1258902834
  0
ARC
  5
D8
330
1F
100
AcDbEntity
  8
0
  6
Continuous
 62
     7
370
    15
100
AcDbCircle
 10
87.3208051267
 20
203.7749469553
 30
0.0
 40
48.63284271247462
100
AcDbArc
 50
164.0342140175
 51
195.9657859825
  0
ARC
  5
D9
330
1F
100
AcDbEntity
  8
0
  6
Continuous
 62
     7
370
    15
100
AcDbCircle
 10
87.3208051267
 20
203.7749469553
 30
0.0
 40
48.63284271247464
100
AcDbArc
 50
141.9122882504
 51
164.0342140175
  0
SPLINE
  5
DA
330
1F
100
AcDbEntity
  8
0
  6
Continuous
 62
     7
370
    15
100
AcDbSpline
210
0.0
220
0.0
230
1.0
 70
    24
 71
     3
 72
    10
 73
     6
 74
     0
 42
0.000000001
 43
0.00000001
 40
0.0
 40
0.0
 40
0.0
 40
0.0
 40
0.5
 40
0.5
 40
1.0
 40
1.0
 40
1.0
 40
1.0
 10
40.56391982228895
 20
190.3978371431845
 30
0.0
 10
40.54097830205186
 20
190.3576438109212
 30
0.0
 10
40.52085721183228
 20
190.3223918460846
 30
0.0
 10
40.49158793777572
 20
190.2711123473809
 30
0.0
 10
40.48284134026195
 20
190.2557883890553
 30
0.0
 10
40.48284134026196
 20
190.2557883890553
 30
0.0
  0
ARC
  5
DB
330
1F
100
AcDbEntity
  8
0
  6
Continuous
 62
     7
370
    15
100
AcDbCircle
 10
87.3208051267
 20
203.7749469553
 30
0.0
 40
48.75000000000002
100
AcDbArc
 50
163.8999153276
 51
196.1000846724
  0
SPLINE
  5
DC
330
1F
100
AcDbEntity
  8
0
  6
Continuous
 62
     7
370
    15
100
AcDbSpline
210
0.0
220
0.0
230
1.0
 70
    24
 71
     3
 72
    10
 73
     6
 74
     0
 42
0.000000001
 43
0.00000001
 40
0.0
 40
0.0
 40
0.0
 40
0.0
 40
0.5
 40
0.5
 40
1.0
 40
1.0
 40
1.0
 40
1.0
 10
40.56391982228896
 20
217.1520567674006
 30
0.0
 10
40.54097830205185
 20
217.1922500996639
 30
0.0
 10
40.52085721183231
 20
217.2275020645005
 30
0.0
 10
40.49158793777577
 20
217.2787815632042
 30
0.0
 10
40.48284134026198
 20
217.2941055215299
 30
0.0
 10
40.48284134026198
 20
217.2941055215299
 30
0.0
  0
SPLINE
  5
DD
330
1F
100
AcDbEntity
  8
0
  6
Continuous
 62
     7
370
    15
100
AcDbSpline
210
0.0
220
0.0
230
1.0
 70
    24
 71
     3
 72
     8
 73
     4
 74
     0
 42
0.000000001
 43
0.00000001
 40
0.0
 40
0.0
 40
0.0
 40
0.0
 40
1.0
 40
1.0
 40
1.0
 40
1.0
 10
134.0990346497589
 20
217.077226195542
 30
0.0
 10
134.1567620350315
 20
217.1349535808147
 30
0.0
 10
134.1938335809221
 20
217.1720251267053
 30
0.0
 10
134.1938335809221
 20
217.1720251267053
 30
0.0
  0
ARC
  5
DE
330
1F
100
AcDbEntity
  8
0
  6
Continuous
 62
     7
370
    15
100
AcDbCircle
 10
87.3208051267
 20
203.7749469553
 30
0.0
 40
48.75000000000002
100
AcDbArc
 50
344.0491974398
 51
15.9508025602
  0
SPLINE
  5
DF
330
1F
100
AcDbEntity
  8
0
  6
Continuous
 62
     7
370
    15
100
AcDbSpline
210
0.0
220
0.0
230
1.0
 70
    24
 71
     3
 72
     8
 73
     4
 74
     0
 42
0.000000001
 43
0.00000001
 40
0.0
 40
0.0
 40
0.0
 40
0.0
 40
1.0
 40
1.0
 40
1.0
 40
1.0
 10
134.1938335809221
 20
190.3778687838798
 30
0.0
 10
134.1938335809221
 20
190.3778687838798
 30
0.0
 10
134.1567369878558
 20
190.414965376946
 30
0.0
 10
134.0990346497588
 20
190.472667715043
 30
0.0
  0
SPLINE
  5
E0
330
1F
100
AcDbEntity
  8
0
  6
Continuous
 62
     7
370
    15
100
AcDbSpline
210
0.0
220
0.0
230
1.0
 70
    24
 71
     3
 72
     8
 73
     4
 74
     0
 42
0.000000001
 43
0.00000001
 40
0.0
 40
0.0
 40
0.0
 40
0.0
 40
1.0
 40
1.0
 40
1.0
 40
1.0
 10
57.32080512671337
 20
242.201012327641
 30
0.0
 10
57.32080512671337
 20
242.201012327641
 30
0.0
 10
57.32080512671337
 20
242.1394967792096
 30
0.0
 10
57.32080512671337
 20
242.0522690964285
 30
0.0
  0
SPLINE
  5
E1
330
1F
100
AcDbEntity
  8
0
  6
Continuous
 62
     7
370
    15
100
AcDbSpline
210
0.0
220
0.0
230
1.0
 70
    24
 71
     3
 72
     8
 73
     4
 74
     0
 42
0.000000001
 43
0.00000001
 40
0.0
 40
0.0
 40
0.0
 40
0.0
 40
1.0
 40
1.0
 40
1.0
 40
1.0
 10
49.04348298557743
 20
233.7749469552926
 30
0.0
 10
48.95620856936334
 20
233.7749469552926
 30
0.0
 10
48.89473975436486
 20
233.7749469552924
 30
0.0
 10
48.89473975436485
 20
233.7749469552924
 30
0.0
  0
ARC
  5
E2
330
1F
100
AcDbEntity
  8
0
  6
Continuous
 62
     7
370
    15
100
AcDbCircle
 10
87.3208051267
 20
203.7749469553
 30
0.0
 40
48.75000000000002
100
AcDbArc
 50
127.9798724449
 51
142.0201275551
  0
ARC
  5
E3
330
1F
100
AcDbEntity
  8
0
  6
Continuous
 62
     7
370
    15
100
AcDbCircle
 10
87.3208051267
 20
203.7749469553
 30
0.0
 40
48.75000000000002
100
AcDbArc
 50
15.9508025602
 51
127.9798724449
  0
ARC
  5
E4
330
1F
100
AcDbEntity
  8
0
  6
Continuous
 62
     7
370
    15
100
AcDbCircle
 10
87.3208051267
 20
203.7749469553
 30
0.0
 40
48.75000000000002
100
AcDbArc
 50
196.1000846724
 51
344.0491974398
  0
ARC
  5
E5
330
1F
100
AcDbEntity
  8
0
  6
Continuous
 62
     7
370
    15
100
AcDbCircle
 10
87.3208051267
 20
203.7749469553
 30
0.0
 40
48.75000000000002
100
AcDbArc
 50
142.0201275551
 51
163.8999153276
  0
ARC
  5
E6
330
1F
100
AcDbEntity
  8
0
  6
Continuous
 62
     7
370
    15
100
AcDbCircle
 10
87.3208051267
 20
203.7749469553
 30
0.0
 40
48.75000000000002
100
AcDbArc
 50
180.0
 51
196.1000846724
  0
ARC
  5
E7
330
1F
100
AcDbEntity
  8
0
  6
Continuous
 62
     7
370
    15
100
AcDbCircle
 10
87.3208051267
 20
203.7749469553
 30
0.0
 40
48.75
100
AcDbArc
 50
163.8999153276
 51
180.0
  0
INSERT
  5
F3
330
1F
100
AcDbEntity
  8
DIM
100
AcDbBlockReference
  2
SW_CENTERMARKSYMBOL_0
 10
87.3208051267
 20
203.7749469553
 30
0.0
  0
LINE
  5
F4
330
1F
100
AcDbEntity
  8
0
  6
Continuous
 62
     7
370
    15
100
AcDbLine
 10
288.1685974103
 20
155.0249469553
 30
0.0
 11
291.7553167211
 21
155.0249469553
 31
0.0
  0
LINE
  5
F5
330
1F
100
AcDbEntity
  8
0
  6
Continuous
 62
     7
370
    15
100
AcDbLine
 10
291.7553167211
 20
252.5249469553
 30
0.0
 11
288.1685974103
 21
252.5249469553
 31
0.0
  0
LINE
  5
F6
330
1F
100
AcDbEntity
  8
0
  6
Continuous
 62
     7
370
    15
100
AcDbLine
 10
288.1685974103
 20
252.5249469553
 30
0.0
 11
286.8210021461
 21
250.1908434897
 31
0.0
  0
LINE
  5
F7
330
1F
100
AcDbEntity
  8
0
  6
Continuous
 62
     7
370
    15
100
AcDbLine
 10
286.8210021461
 20
157.3590504209
 30
0.0
 11
288.1685974103
 21
155.0249469553
 31
0.0
  0
LINE
  5
F8
330
1F
100
AcDbEntity
  8
0
  6
Continuous
 62
     7
370
    15
100
AcDbLine
 10
281.6734068819
 20
155.0249469553
 30
0.0
 11
283.0210021461
 21
157.3590504209
 31
0.0
  0
LINE
  5
F9
330
1F
100
AcDbEntity
  8
0
  6
Continuous
 62
     7
370
    15
100
AcDbLine
 10
283.0210021461
 20
250.1908434897
 30
0.0
 11
281.6734068819
 21
252.5249469553
 31
0.0
  0
LINE
  5
FA
330
1F
100
AcDbEntity
  8
0
  6
Continuous
 62
     7
370
    15
100
AcDbLine
 10
278.186687571
 20
155.0249469553
 30
0.0
 11
281.6734068819
 21
155.0249469553
 31
0.0
  0
LINE
  5
FB
330
1F
100
AcDbEntity
  8
0
  6
Continuous
 62
     7
370
    15
100
AcDbLine
 10
281.6734068819
 20
252.5249469553
 30
0.0
 11
278.186687571
 21
252.5249469553
 31
0.0
  0
LINE
  5
FC
330
1F
100
AcDbEntity
  8
0
  6
Continuous
 62
     7
370
    15
100
AcDbLine
 10
292.0381594336
 20
155.1421042428
 30
0.0
 11
292.8038448585
 21
155.9077896678
 31
0.0
  0
LINE
  5
FD
330
1F
100
AcDbEntity
  8
0
  6
Continuous
 62
     7
370
    15
100
AcDbLine
 10
292.8038448585
 20
251.6421042428
 30
0.0
 11
292.0381594336
 21
252.4077896678
 31
0.0
  0
LINE
  5
FE
330
1F
100
AcDbEntity
  8
0
  6
Continuous
 62
     7
370
    15
100
AcDbLine
 10
277.9038448585
 20
252.4077896678
 30
0.0
 11
277.1381594336
 21
251.6421042428
 31
0.0
  0
LINE
  5
FF
330
1F
100
AcDbEntity
  8
0
  6
Continuous
 62
     7
370
    15
100
AcDbLine
 10
277.1381594336
 20
155.9077896678
 30
0.0
 11
277.9038448585
 21
155.1421042428
 31
0.0
  0
ARC
  5
100
330
1F
100
AcDbEntity
  8
0
  6
Continuous
 62
     7
370
    15
100
AcDbCircle
 10
291.7553167211
 20
155.4249469553
 30
0.0
 40
0.4000000000000057
100
AcDbArc
 50
270.0
 51
315.0
  0
ARC
  5
101
330
1F
100
AcDbEntity
  8
0
  6
Continuous
 62
     7
370
    15
100
AcDbCircle
 10
278.186687571
 20
155.4249469553
 30
0.0
 40
0.4000000000000193
100
AcDbArc
 50
225.0
 51
270.0
  0
ARC
  5
102
330
1F
100
AcDbEntity
  8
0
  6
Continuous
 62
     7
370
    15
100
AcDbCircle
 10
291.7553167211
 20
252.1249469553
 30
0.0
 40
0.4000000000000057
100
AcDbArc
 50
45.0
 51
90.0
  0
ARC
  5
103
330
1F
100
AcDbEntity
  8
0
  6
Continuous
 62
     7
370
    15
100
AcDbCircle
 10
278.186687571
 20
252.1249469553
 30
0.0
 40
0.4000000000000193
100
AcDbArc
 50
90.0
 51
135.0
  0
ARC
  5
104
330
1F
100
AcDbEntity
  8
0
  6
Continuous
 62
     7
370
    15
100
AcDbCircle
 10
292.5210021461
 20
156.1906323802
 30
0.0
 40
0.3999999999999791
100
AcDbArc
 50
315.0
 51
0.0
  0
ARC
  5
105
330
1F
100
AcDbEntity
  8
0
  6
Continuous
 62
     7
370
    15
100
AcDbCircle
 10
292.5210021461
 20
251.3592615303
 30
0.0
 40
0.3999999999999773
100
AcDbArc
 50
0.0
 51
45.0
  0
ARC
  5
106
330
1F
100
AcDbEntity
  8
0
  6
Continuous
 62
     7
370
    15
100
AcDbCircle
 10
277.4210021461
 20
156.1906323802
 30
0.0
 40
0.4000000000000193
100
AcDbArc
 50
180.0
 51
225.0
  0
ARC
  5
107
330
1F
100
AcDbEntity
  8
0
  6
Continuous
 62
     7
370
    15
100
AcDbCircle
 10
277.4210021461
 20
251.3592615303
 30
0.0
 40
0.3999999999999992
100
AcDbArc
 50
135.0
 51
180.0
  0
LINE
  5
108
330
1F
100
AcDbEntity
  8
0
  6
Continuous
 62
     7
370
    15
100
AcDbLine
 10
283.0210021461
 20
158.2749469553
 30
0.0
 11
286.8210021461
 21
158.2749469553
 31
0.0
  0
LINE
  5
109
330
1F
100
AcDbEntity
  8
0
  6
Continuous
 62
     7
370
    15
100
AcDbLine
 10
286.8210021461
 20
249.2749469553
 30
0.0
 11
283.0210021461
 21
249.2749469553
 31
0.0
  0
ARC
  5
10A
330
1F
100
AcDbEntity
  8
0
  6
Continuous
 62
     7
370
    15
100
AcDbCircle
 10
295.9210021461
 20
161.7749469553
 30
0.0
 40
3.0
100
AcDbArc
 50
90.0
 51
180.0
  0
ARC
  5
10B
330
1F
100
AcDbEntity
  8
0
  6
Continuous
 62
     7
370
    15
100
AcDbCircle
 10
295.9210021461
 20
245.7749469553
 30
0.0
 40
3.000000000000028
100
AcDbArc
 50
180.0
 51
270.0
  0
LINE
  5
10C
330
1F
100
AcDbEntity
  8
0
  6
Continuous
 62
     7
370
    15
100
AcDbLine
 10
432.8210021461
 20
164.7749469553
 30
0.0
 11
433.8210021461
 21
165.7749469553
 31
0.0
  0
LINE
  5
10D
330
1F
100
AcDbEntity
  8
0
  6
Continuous
 62
     7
370
    15
100
AcDbLine
 10
433.8210021461
 20
241.7749469553
 30
0.0
 11
432.8210021461
 21
242.7749469553
 31
0.0
  0
LINE
  5
10E
330
1F
100
AcDbEntity
  8
0
  6
Continuous
 62
     7
370
    15
100
AcDbLine
 10
295.9210021461
 20
164.7749469553
 30
0.0
 11
432.8210021461
 21
164.7749469553
 31
0.0
  0
LINE
  5
10F
330
1F
100
AcDbEntity
  8
0
  6
Continuous
 62
     7
370
    15
100
AcDbLine
 10
432.8210021461
 20
242.7749469553
 30
0.0
 11
295.9210021461
 21
242.7749469553
 31
0.0
  0
ARC
  5
110
330
1F
100
AcDbEntity
  8
0
  6
Continuous
 62
     7
370
    15
100
AcDbCircle
 10
276.5210021461
 20
168.7749469553
 30
0.0
 40
0.5
100
AcDbArc
 50
0.0
 51
90.0
  0
ARC
  5
111
330
1F
100
AcDbEntity
  8
0
  6
Continuous
 62
     7
370
    15
100
AcDbCircle
 10
276.5210021461
 20
238.7749469553
 30
0.0
 40
0.5
100
AcDbArc
 50
270.0
 51
0.0
  0
LINE
  5
112
330
1F
100
AcDbEntity
  8
0
  6
Continuous
 62
     7
370
    15
100
AcDbLine
 10
273.8210021461
 20
238.6999469553
 30
0.0
 11
172.9266939188
 21
223.9860547423
 31
0.0
  0
LINE
  5
113
330
1F
100
AcDbEntity
  8
0
  6
Continuous
 62
     7
370
    15
100
AcDbLine
 10
172.9266939188
 20
183.5638391683
 30
0.0
 11
273.8210021461
 21
168.8499469553
 31
0.0
  0
LINE
  5
114
330
1F
100
AcDbEntity
  8
0
  6
Continuous
 62
     7
370
    15
100
AcDbLine
 10
273.8210021461
 20
168.8499469553
 30
0.0
 11
274.7324175873
 21
169.2749469553
 31
0.0
  0
LINE
  5
115
330
1F
100
AcDbEntity
  8
0
  6
Continuous
 62
     7
370
    15
100
AcDbLine
 10
274.7324175873
 20
238.2749469553
 30
0.0
 11
273.8210021461
 21
238.6999469553
 31
0.0
  0
LINE
  5
116
330
1F
100
AcDbEntity
  8
0
  6
Continuous
 62
     7
370
    15
100
AcDbLine
 10
274.7324175873
 20
169.2749469553
 30
0.0
 11
276.5210021461
 21
169.2749469553
 31
0.0
  0
LINE
  5
117
330
1F
100
AcDbEntity
  8
0
  6
Continuous
 62
     7
370
    15
100
AcDbLine
 10
276.5210021461
 20
238.2749469553
 30
0.0
 11
274.7324175873
 21
238.2749469553
 31
0.0
  0
LINE
  5
118
330
1F
100
AcDbEntity
  8
0
  6
Continuous
 62
     7
370
    15
100
AcDbLine
 10
461.8210021461
 20
182.7749469553
 30
0.0
 11
469.8210021461
 21
182.7749469553
 31
0.0
  0
LINE
  5
119
330
1F
100
AcDbEntity
  8
0
  6
Continuous
 62
     7
370
    15
100
AcDbLine
 10
469.8210021461
 20
224.7749469553
 30
0.0
 11
461.8210021461
 21
224.7749469553
 31
0.0
  0
LINE
  5
11A
330
1F
100
AcDbEntity
  8
0
  6
Continuous
 62
     7
370
    15
100
AcDbLine
 10
469.8210021461
 20
182.7749469553
 30
0.0
 11
470.8210021461
 21
183.7749469553
 31
0.0
  0
LINE
  5
11B
330
1F
100
AcDbEntity
  8
0
  6
Continuous
 62
     7
370
    15
100
AcDbLine
 10
470.8210021461
 20
223.7749469553
 30
0.0
 11
469.8210021461
 21
224.7749469553
 31
0.0
  0
LINE
  5
11C
330
1F
100
AcDbEntity
  8
0
  6
Continuous
 62
     7
370
    15
100
AcDbLine
 10
461.8210021461
 20
224.7749469553
 30
0.0
 11
460.8210021461
 21
223.7749469553
 31
0.0
  0
LINE
  5
11D
330
1F
100
AcDbEntity
  8
0
  6
Continuous
 62
     7
370
    15
100
AcDbLine
 10
460.8210021461
 20
183.7749469553
 30
0.0
 11
461.8210021461
 21
182.7749469553
 31
0.0
  0
ARC
  5
11E
330
1F
100
AcDbEntity
  8
0
  6
Continuous
 62
     7
370
    15
100
AcDbCircle
 10
173.0710021461
 20
184.5533719547
 30
0.0
 40
1.000000000000018
100
AcDbArc
 50
180.0
 51
261.7027777778
  0
ARC
  5
11F
330
1F
100
AcDbEntity
  8
0
  6
Continuous
 62
     7
370
    15
100
AcDbCircle
 10
173.0710021461
 20
222.9965219558
 30
0.0
 40
1.0
100
AcDbArc
 50
98.2972222222
 51
180.0
  0
LINE
  5
120
330
1F
100
AcDbEntity
  8
0
  6
Continuous
 62
     7
370
    15
100
AcDbLine
 10
433.8210021461
 20
187.7749469553
 30
0.0
 11
457.3302544173
 21
187.7749469553
 31
0.0
  0
LINE
  5
121
330
1F
100
AcDbEntity
  8
0
  6
Continuous
 62
     7
370
    15
100
AcDbLine
 10
457.3302544173
 20
219.7749469553
 30
0.0
 11
433.8210021461
 21
219.7749469553
 31
0.0
  0
LINE
  5
122
330
1F
100
AcDbEntity
  8
0
  6
Continuous
 62
     7
370
    15
100
AcDbLine
 10
457.3302544173
 20
187.7749469553
 30
0.0
 11
457.8210021461
 21
188.6249469553
 31
0.0
  0
LINE
  5
123
330
1F
100
AcDbEntity
  8
0
  6
Continuous
 62
     7
370
    15
100
AcDbLine
 10
457.8210021461
 20
218.9249469553
 30
0.0
 11
457.3302544173
 21
219.7749469553
 31
0.0
  0
ARC
  5
124
330
1F
100
AcDbEntity
  8
0
  6
Continuous
 62
     7
370
    15
100
AcDbCircle
 10
460.3210021461
 20
195.2749469553
 30
0.0
 40
0.5
100
AcDbArc
 50
0.0
 51
90.0
  0
ARC
  5
125
330
1F
100
AcDbEntity
  8
0
  6
Continuous
 62
     7
370
    15
100
AcDbCircle
 10
460.3210021461
 20
212.2749469553
 30
0.0
 40
0.5
100
AcDbArc
 50
270.0
 51
0.0
  0
LINE
  5
126
330
1F
100
AcDbEntity
  8
0
  6
Continuous
 62
     7
370
    15
100
AcDbLine
 10
457.8210021461
 20
195.7749469553
 30
0.0
 11
460.3210021461
 21
195.7749469553
 31
0.0
  0
LINE
  5
127
330
1F
100
AcDbEntity
  8
0
  6
Continuous
 62
     7
370
    15
100
AcDbLine
 10
460.3210021461
 20
211.7749469553
 30
0.0
 11
457.8210021461
 21
211.7749469553
 31
0.0
  0
LINE
  5
128
330
1F
100
AcDbEntity
  8
0
  6
Continuous
 62
     7
370
    15
100
AcDbLine
 10
291.7553167211
 20
190.3778687839
 30
0.0
 11
291.7553167211
 21
217.1720251267
 31
0.0
  0
LINE
  5
129
330
1F
100
AcDbEntity
  8
0
  6
Continuous
 62
     7
370
    15
100
AcDbLine
 10
288.1685974103
 20
155.0249469553
 30
0.0
 11
288.1685974103
 21
252.5249469553
 31
0.0
  0
SPLINE
  5
12A
330
1F
100
AcDbEntity
  8
0
  6
Continuous
 62
     7
370
    15
100
AcDbSpline
210
0.0
220
0.0
230
1.0
 70
     8
 71
     3
 72
     8
 73
     4
 74
     0
 42
0.000000001
 43
0.00000001
 40
0.0
 40
0.0
 40
0.0
 40
0.0
 40
1.0
 40
1.0
 40
1.0
 40
1.0
 10
291.7553167211261
 20
217.1720251267053
 30
0.0
 10
291.863833712577
 20
217.1720251267053
 30
0.0
 10
291.9668745644394
 20
217.134928533639
 30
0.0
 10
292.0381594336006
 20
217.077226195542
 30
0.0
  0
LINE
  5
12B
330
1F
100
AcDbEntity
  8
0
  6
Continuous
 62
     7
370
    15
100
AcDbLine
 10
292.0381594336
 20
190.472667715
 30
0.0
 11
292.0381594336
 21
217.0772261955
 31
0.0
  0
SPLINE
  5
12C
330
1F
100
AcDbEntity
  8
0
  6
Continuous
 62
     7
370
    15
100
AcDbSpline
210
0.0
220
0.0
230
1.0
 70
     8
 71
     3
 72
     8
 73
     4
 74
     0
 42
0.000000001
 43
0.00000001
 40
0.0
 40
0.0
 40
0.0
 40
0.0
 40
1.0
 40
1.0
 40
1.0
 40
1.0
 10
292.0381594336006
 20
190.472667715043
 30
0.0
 10
291.9668436214187
 20
190.4149403297704
 30
0.0
 10
291.8639424637819
 20
190.3778687838798
 30
0.0
 10
291.7553167211261
 20
190.3778687838798
 30
0.0
  0
LINE
  5
12D
330
1F
100
AcDbEntity
  8
0
  6
Continuous
 62
     7
370
    15
100
AcDbLine
 10
286.8210021461
 20
250.1908434897
 30
0.0
 11
286.8210021461
 21
157.3590504209
 31
0.0
  0
LINE
  5
12E
330
1F
100
AcDbEntity
  8
0
  6
Continuous
 62
     7
370
    15
100
AcDbLine
 10
283.0210021461
 20
203.7749469553
 30
0.0
 11
283.0210021461
 21
250.1908434897
 31
0.0
  0
LINE
  5
12F
330
1F
100
AcDbEntity
  8
0
  6
Continuous
 62
     7
370
    15
100
AcDbLine
 10
283.0210021461
 20
157.3590504209
 30
0.0
 11
283.0210021461
 21
203.7749469553
 31
0.0
  0
LINE
  5
130
330
1F
100
AcDbEntity
  8
0
  6
Continuous
 62
     7
370
    15
100
AcDbLine
 10
281.6734068819
 20
203.7749469553
 30
0.0
 11
281.6734068819
 21
155.0249469553
 31
0.0
  0
LINE
  5
131
330
1F
100
AcDbEntity
  8
0
  6
Continuous
 62
     7
370
    15
100
AcDbLine
 10
281.6734068819
 20
252.5249469553
 30
0.0
 11
281.6734068819
 21
203.7749469553
 31
0.0
  0
LINE
  5
132
330
1F
100
AcDbEntity
  8
0
  6
Continuous
 62
     7
370
    15
100
AcDbLine
 10
278.186687571
 20
190.3778687839
 30
0.0
 11
278.186687571
 21
217.1720251267
 31
0.0
  0
SPLINE
  5
133
330
1F
100
AcDbEntity
  8
0
  6
Continuous
 62
     7
370
    15
100
AcDbSpline
210
0.0
220
0.0
230
1.0
 70
     8
 71
     3
 72
     8
 73
     4
 74
     0
 42
0.000000001
 43
0.00000001
 40
0.0
 40
0.0
 40
0.0
 40
0.0
 40
1.0
 40
1.0
 40
1.0
 40
1.0
 10
277.9038448585499
 20
217.077226195542
 30
0.0
 10
277.9751606707318
 20
217.1349535808147
 30
0.0
 10
278.0780618283686
 20
217.1720251267053
 30
0.0
 10
278.1866875710245
 20
217.1720251267053
 30
0.0
  0
SPLINE
  5
134
330
1F
100
AcDbEntity
  8
0
  6
Continuous
 62
     7
370
    15
100
AcDbSpline
210
0.0
220
0.0
230
1.0
 70
     8
 71
     3
 72
     8
 73
     4
 74
     0
 42
0.000000001
 43
0.00000001
 40
0.0
 40
0.0
 40
0.0
 40
0.0
 40
1.0
 40
1.0
 40
1.0
 40
1.0
 10
278.1866875710245
 20
190.3778687838798
 30
0.0
 10
278.0781705795735
 20
190.3778687838798
 30
0.0
 10
277.9751297277111
 20
190.414965376946
 30
0.0
 10
277.9038448585499
 20
190.472667715043
 30
0.0
  0
LINE
  5
135
330
1F
100
AcDbEntity
  8
0
  6
Continuous
 62
     7
370
    15
100
AcDbLine
 10
277.9038448585
 20
190.472667715
 30
0.0
 11
277.9038448585
 21
217.0772261955
 31
0.0
  0
LINE
  5
136
330
1F
100
AcDbEntity
  8
0
  6
Continuous
 62
     7
370
    15
100
AcDbLine
 10
292.8038448585
 20
190.9249469553
 30
0.0
 11
292.8038448585
 21
216.6249469553
 31
0.0
  0
LINE
  5
137
330
1F
100
AcDbEntity
  8
0
  6
Continuous
 62
     7
370
    15
100
AcDbLine
 10
277.1381594336
 20
190.3421042428
 30
0.0
 11
277.1381594336
 21
217.2077896678
 31
0.0
  0
SPLINE
  5
138
330
1F
100
AcDbEntity
  8
0
  6
Continuous
 62
     7
370
    15
100
AcDbSpline
210
0.0
220
0.0
230
1.0
 70
    24
 71
     3
 72
     8
 73
     4
 74
     0
 42
0.000000001
 43
0.00000001
 40
0.0
 40
0.0
 40
0.0
 40
0.0
 40
1.0
 40
1.0
 40
1.0
 40
1.0
 10
292.8038448585499
 20
216.6249469552925
 30
0.0
 10
292.8794328893046
 20
216.6249469552925
 30
0.0
 10
292.9210021460753
 20
216.6249469552925
 30
0.0
 10
292.9210021460753
 20
216.6249469552925
 30
0.0
  0
LINE
  5
139
330
1F
100
AcDbEntity
  8
0
  6
Continuous
 62
     7
370
    15
100
AcDbLine
 10
292.9210021408
 20
190.9249222025
 30
0.0
 11
292.9210021408
 21
216.6249717081
 31
0.0
  0
SPLINE
  5
13A
330
1F
100
AcDbEntity
  8
0
  6
Continuous
 62
     7
370
    15
100
AcDbSpline
210
0.0
220
0.0
230
1.0
 70
    24
 71
     3
 72
     8
 73
     4
 74
     0
 42
0.000000001
 43
0.00000001
 40
0.0
 40
0.0
 40
0.0
 40
0.0
 40
1.0
 40
1.0
 40
1.0
 40
1.0
 10
292.9210021460753
 20
190.9249469552925
 30
0.0
 10
292.9210021460752
 20
190.9249469552925
 30
0.0
 10
292.8794584121228
 20
190.9249469552925
 30
0.0
 10
292.8038448585499
 20
190.9249469552925
 30
0.0
  0
SPLINE
  5
13B
330
1F
100
AcDbEntity
  8
0
  6
Continuous
 62
     7
370
    15
100
AcDbSpline
210
0.0
220
0.0
230
1.0
 70
    24
 71
     3
 72
    10
 73
     6
 74
     0
 42
0.000000001
 43
0.00000001
 40
0.0
 40
0.0
 40
0.0
 40
0.0
 40
0.5
 40
0.5
 40
1.0
 40
1.0
 40
1.0
 40
1.0
 10
277.0210021460753
 20
217.3249469552925
 30
0.0
 10
277.0210021460753
 20
217.3249469552925
 30
0.0
 10
277.0348480221002
 20
217.3111010792677
 30
0.0
 10
277.0770137982875
 20
217.2689353030804
 30
0.0
 10
277.1055044985506
 20
217.2404446028173
 30
0.0
 10
277.1381594336007
 20
217.2077896677672
 30
0.0
  0
SPLINE
  5
13C
330
1F
100
AcDbEntity
  8
0
  6
Continuous
 62
     7
370
    15
100
AcDbSpline
210
0.0
220
0.0
230
1.0
 70
    24
 71
     3
 72
    10
 73
     6
 74
     0
 42
0.000000001
 43
0.00000001
 40
0.0
 40
0.0
 40
0.0
 40
0.0
 40
0.5
 40
0.5
 40
1.0
 40
1.0
 40
1.0
 40
1.0
 10
277.1381594336007
 20
190.3421042428179
 30
0.0
 10
277.1055263725834
 20
190.3094711818006
 30
0.0
 10
277.0775454863171
 20
190.2814902955344
 30
0.0
 10
277.0348886359421
 20
190.2388334451594
 30
0.0
 10
277.0210021460753
 20
190.2249469552926
 30
0.0
 10
277.0210021460753
 20
190.2249469552926
 30
0.0
  0
LINE
  5
13D
330
1F
100
AcDbEntity
  8
0
  6
Continuous
 62
     7
370
    15
100
AcDbLine
 10
277.0210021461
 20
190.2249469553
 30
0.0
 11
277.0210021461
 21
217.3249469553
 31
0.0
  0
SPLINE
  5
13E
330
1F
100
AcDbEntity
  8
0
  6
Continuous
 62
     7
370
    15
100
AcDbSpline
210
0.0
220
0.0
230
1.0
 70
    24
 71
     3
 72
    36
 73
    32
 74
     0
 42
0.000000001
 43
0.00000001
 40
0.0
 40
0.0
 40
0.0
 40
0.0
 40
0.010855060115309
 40
0.021700603247601
 40
0.0325387683476148
 40
0.0433716987364442
 40
0.0542015408431699
 40
0.0650304429332853
 40
0.0758605538316704
 40
0.0866940216439018
 40
0.0975329924797007
 40
0.1083796091823073
 40
0.1192360100675244
 40
0.181247834122235
 40
0.2432679244012066
 40
0.3069990489490812
 40
0.370738668921532
 40
0.4353656024873025
 40
0.5000011508910791
 40
0.5646280845655833
 40
0.6292636330748704
 40
0.6929947579300935
 40
0.7567343782029041
 40
0.8187462027125846
 40
0.8807662934441524
 40
0.9006583299602414
 40
0.9205248324912559
 40
0.9403790153804057
 40
0.9602341175685198
 40
0.9801033761588329
 40
1.0
 40
1.0
 40
1.0
 40
1.0
 10
292.9210021460753
 20
190.9249469552925
 30
0.0
 10
292.9210021460753
 20
190.7101600809303
 30
0.0
 10
292.9210021460753
 20
190.2807746428197
 30
0.0
 10
292.9210021460753
 20
189.6402781327192
 30
0.0
 10
292.9210021460753
 20
189.0028279212905
 30
0.0
 10
292.9210021460753
 20
188.3686542668181
 30
0.0
 10
292.9210021460753
 20
187.7376956348299
 30
0.0
 10
292.9210021460753
 20
187.1099685662456
 30
0.0
 10
292.9210021460753
 20
186.4854688471669
 30
0.0
 10
292.9210021460753
 20
185.8641972416418
 30
0.0
 10
292.9210021460753
 20
185.246155342337
 30
0.0
 10
292.9210021460753
 20
184.6313364301954
 30
0.0
 10
292.9210021460753
 20
183.0594787735367
 30
0.0
 10
292.9210021460753
 20
180.5798294795045
 30
0.0
 10
292.9210021460753
 20
177.2811564210315
 30
0.0
 10
292.9210021460753
 20
174.1277794958505
 30
0.0
 10
292.9210021460753
 20
171.135706787284
 30
0.0
 10
292.9210021460753
 20
168.3549605786685
 30
0.0
 10
292.9210021460753
 20
165.8116612715923
 30
0.0
 10
292.9210021460753
 20
163.533649786524
 30
0.0
 10
292.9210021460753
 20
161.5492172908052
 30
0.0
 10
292.9210021460753
 20
159.8644640537352
 30
0.0
 10
292.9210021460753
 20
158.5016035601844
 30
0.0
 10
292.9210021460753
 20
157.4494252395287
 30
0.0
 10
292.9210021460753
 20
156.8759237874741
 30
0.0
 10
292.9210021460753
 20
156.5798963867903
 30
0.0
 10
292.9210021460753
 20
156.4378813013444
 30
0.0
 10
292.9210021460753
 20
156.3272791087827
 30
0.0
 10
292.9210021460753
 20
156.2488495795687
 30
0.0
 10
292.9210021460753
 20
156.199733467764
 30
0.0
 10
292.9210021460753
 20
156.1936674675401
 30
0.0
 10
292.9210021460753
 20
156.1906323802418
 30
0.0
  0
SPLINE
  5
13F
330
1F
100
AcDbEntity
  8
0
  6
Continuous
 62
     7
370
    15
100
AcDbSpline
210
0.0
220
0.0
230
1.0
 70
    24
 71
     3
 72
    18
 73
    14
 74
     0
 42
0.000000001
 43
0.00000001
 40
0.0
 40
0.0
 40
0.0
 40
0.0
 40
0.049341009168767
 40
0.1443029880143528
 40
0.2371042401765801
 40
0.3299054923388072
 40
0.4248674711843931
 40
0.5213266033289872
 40
0.61855212008829
 40
0.7157776368475928
 40
0.8122367689921868
 40
0.9071987478377727
 40
1.0
 40
1.0
 40
1.0
 40
1.0
 10
292.9210021460753
 20
251.2661891449472
 30
0.0
 10
292.9210021460753
 20
251.2834040400977
 30
0.0
 10
292.9210021460753
 20
251.3337508175638
 30
0.0
 10
292.9210021460753
 20
250.6290147974547
 30
0.0
 10
292.9210021460753
 20
249.241453649769
 30
0.0
 10
292.9210021460753
 20
247.1541619292494
 30
0.0
 10
292.9210021460753
 20
244.4005848813583
 30
0.0
 10
292.9210021460753
 20
240.9722930487658
 30
0.0
 10
292.9210021460753
 20
236.9301880732225
 30
0.0
 10
292.9210021460753
 20
232.3634478253335
 30
0.0
 10
292.9210021460753
 20
227.3809734153674
 30
0.0
 10
292.9210021460753
 20
222.1293249514711
 30
0.0
 10
292.9210021460753
 20
218.4456092310304
 30
0.0
 10
292.9210021460753
 20
216.6249469552925
 30
0.0
  0
SPLINE
  5
140
330
1F
100
AcDbEntity
  8
0
  6
Continuous
 62
     7
370
    15
100
AcDbSpline
210
0.0
220
0.0
230
1.0
 70
    24
 71
     3
 72
    36
 73
    32
 74
     0
 42
0.000000001
 43
0.00000001
 40
0.0
 40
0.0
 40
0.0
 40
0.0
 40
0.0108663901693764
 40
0.0217235992689927
 40
0.0325737239461297
 40
0.0434188649567969
 40
0.0542611259538548
 40
0.0651026122666534
 40
0.0759454296758007
 40
0.0867916831866139
 40
0.0976434758048303
 40
0.1085029073181251
 40
0.1193720730869558
 40
0.1813968254495411
 40
0.2434299782169203
 40
0.3071319268850098
 40
0.3708425031356519
 40
0.4354174425596918
 40
0.5000011278075956
 40
0.5645760673346892
 40
0.6291597526862437
 40
0.6928617016453169
 40
0.7565722781921671
 40
0.8185970309917204
 40
0.88063018420144
 40
0.9005456124940234
 40
0.9204355775907559
 40
0.9403130284544624
 40
0.9601909385042273
 40
0.9800822802606719
 40
1.0
 40
1.0
 40
1.0
 40
1.0
 10
277.0210021460753
 20
156.1906323802418
 30
0.0
 10
277.0210021460753
 20
156.1915134271237
 30
0.0
 10
277.0210021460753
 20
156.1932747764863
 30
0.0
 10
277.0210021460753
 20
156.207570023333
 30
0.0
 10
277.0210021460753
 20
156.2303989198584
 30
0.0
 10
277.0210021460753
 20
156.2625960387936
 30
0.0
 10
277.0210021460753
 20
156.3039379543629
 30
0.0
 10
277.0210021460753
 20
156.3544845123286
 30
0.0
 10
277.0210021460753
 20
156.4142196157595
 30
0.0
 10
277.0210021460753
 20
156.4831477880321
 30
0.0
 10
277.0210021460753
 20
156.5612669698901
 30
0.0
 10
277.0210021460753
 20
156.6485807908825
 30
0.0
 10
277.0210021460753
 20
156.8964175052917
 30
0.0
 10
277.0210021460753
 20
157.4220653203226
 30
0.0
 10
277.0210021460753
 20
158.450456326846
 30
0.0
 10
277.0210021460753
 20
159.7824061401402
 30
0.0
 10
277.0210021460753
 20
161.4283320548544
 30
0.0
 10
277.0210021460753
 20
163.3673531071304
 30
0.0
 10
277.0210021460753
 20
165.5933280896294
 30
0.0
 10
277.0210021460753
 20
168.0796833657867
 30
0.0
 10
277.0210021460753
 20
170.7994511597841
 30
0.0
 10
277.0210021460753
 20
173.7281594977775
 30
0.0
 10
277.0210021460753
 20
176.8174854970024
 30
0.0
 10
277.0210021460753
 20
180.0525865451758
 30
0.0
 10
277.0210021460753
 20
182.6501984149354
 30
0.0
 10
277.0210021460753
 20
184.533085844931
 30
0.0
 10
277.0210021460753
 20
185.6491408193627
 30
0.0
 10
277.0210021460753
 20
186.7762349543799
 30
0.0
 10
277.0210021460753
 20
187.9145998780407
 30
0.0
 10
277.0210021460753
 20
189.0634313593271
 30
0.0
 10
277.0210021460753
 20
189.8376040977855
 30
0.0
 10
277.0210021460753
 20
190.2249469552925
 30
0.0
  0
SPLINE
  5
141
330
1F
100
AcDbEntity
  8
0
  6
Continuous
 62
     7
370
    15
100
AcDbSpline
210
0.0
220
0.0
230
1.0
 70
    24
 71
     3
 72
    18
 73
    14
 74
     0
 42
0.000000001
 43
0.00000001
 40
0.0
 40
0.0
 40
0.0
 40
0.0
 40
0.0932231664383691
 40
0.1885829732450733
 40
0.2854223567770079
 40
0.383018846774494
 40
0.4806153367719804
 40
0.5774547203039149
 40
0.6728145271106194
 40
0.7660376935489883
 40
0.8592608599873572
 40
0.9546206667940617
 40
0.9999999999999999
 40
0.9999999999999999
 40
0.9999999999999999
 40
0.9999999999999999
 10
277.0210021460753
 20
217.3249469552925
 30
0.0
 10
277.0210021460753
 20
219.1234128622412
 30
0.0
 10
277.0210021460753
 20
222.7615648470969
 30
0.0
 10
277.0210021460753
 20
227.9362623955666
 30
0.0
 10
277.0210021460753
 20
232.8370700364206
 30
0.0
 10
277.0210021460753
 20
237.3205520223271
 30
0.0
 10
277.0210021460753
 20
241.2817157925387
 30
0.0
 10
277.0210021460753
 20
244.6346360559163
 30
0.0
 10
277.0210021460753
 20
247.3206337930777
 30
0.0
 10
277.0210021460753
 20
249.3494559047829
 30
0.0
 10
277.0210021460753
 20
250.6844935681731
 30
0.0
 10
277.0210021460753
 20
251.3480415489115
 30
0.0
 10
277.0210021460753
 20
251.2874916793872
 30
0.0
 10
277.0210021460753
 20
251.2679682354861
 30
0.0
  0
LINE
  5
142
330
1F
100
AcDbEntity
  8
0
  6
Continuous
 62
     7
370
    15
100
AcDbLine
 10
295.9210021461
 20
216.6249469553
 30
0.0
 11
295.9210021461
 21
190.9249469553
 31
0.0
  0
SPLINE
  5
143
330
1F
100
AcDbEntity
  8
0
  6
Continuous
 62
     7
370
    15
100
AcDbSpline
210
0.0
220
0.0
230
1.0
 70
    24
 71
     3
 72
    22
 73
    18
 74
     0
 42
0.000000001
 43
0.00000001
 40
0.0
 40
0.0
 40
0.0
 40
0.0
 40
0.125
 40
0.125
 40
0.25
 40
0.25
 40
0.375
 40
0.375
 40
0.5
 40
0.5
 40
0.625
 40
0.625
 40
0.75
 40
0.75
 40
0.875
 40
0.875
 40
1.0
 40
1.0
 40
1.0
 40
1.0
 10
292.9210021460753
 20
190.9249469552925
 30
0.0
 10
292.9210021460753
 20
190.9249469552925
 30
0.0
 10
292.9395820674196
 20
190.9249469552925
 30
0.0
 10
293.012404836103
 20
190.9249469552925
 30
0.0
 10
293.0672462353716
 20
190.9249469552925
 30
0.0
 10
293.2123811553318
 20
190.9249469552925
 30
0.0
 10
293.3014015423186
 20
190.9249469552925
 30
0.0
 10
293.5121748405826
 20
190.9249469552925
 30
0.0
 10
293.6356122915089
 20
190.9249469552925
 30
0.0
 10
293.9090957573646
 20
190.9249469552925
 30
0.0
 10
294.0586355545398
 20
190.9249469552925
 30
0.0
 10
294.3839312600334
 20
190.9249469552925
 30
0.0
 10
294.5614553182461
 20
190.9249469552925
 30
0.0
 10
294.9278204389904
 20
190.9249469552925
 30
0.0
 10
295.1181838255699
 20
190.9249469552925
 30
0.0
 10
295.5139298102326
 20
190.9249469552925
 30
0.0
 10
295.7172399259711
 20
190.9249469552925
 30
0.0
 10
295.9210021460753
 20
190.9249469552925
 30
0.0
  0
SPLINE
  5
144
330
1F
100
AcDbEntity
  8
0
  6
Continuous
 62
     7
370
    15
100
AcDbSpline
210
0.0
220
0.0
230
1.0
 70
    24
 71
     3
 72
    22
 73
    18
 74
     0
 42
0.000000001
 43
0.00000001
 40
0.0
 40
0.0
 40
0.0
 40
0.0
 40
0.125
 40
0.125
 40
0.25
 40
0.25
 40
0.375
 40
0.375
 40
0.5
 40
0.5
 40
0.625
 40
0.625
 40
0.75
 40
0.75
 40
0.875
 40
0.875
 40
1.0
 40
1.0
 40
1.0
 40
1.0
 10
295.9210021460753
 20
216.6249469552925
 30
0.0
 10
295.7174600730388
 20
216.6249469552925
 30
0.0
 10
295.5176652592552
 20
216.6249469552925
 30
0.0
 10
295.1252102036462
 20
216.6249469552925
 30
0.0
 10
294.9304791440138
 20
216.6249469552925
 30
0.0
 10
294.5631460340689
 20
216.6249469552925
 30
0.0
 10
294.3895304227169
 20
216.6249469552925
 30
0.0
 10
294.0620281686512
 20
216.6249469552925
 30
0.0
 10
293.9099692223485
 20
216.6249469552926
 30
0.0
 10
293.63750251098
 20
216.6249469552926
 30
0.0
 10
293.5147705986242
 20
216.6249469552925
 30
0.0
 10
293.3017945385868
 20
216.6249469552925
 30
0.0
 10
293.2128551541344
 20
216.6249469552925
 30
0.0
 10
293.0685428443718
 20
216.6249469552925
 30
0.0
 10
293.0130169559898
 20
216.6249469552925
 30
0.0
 10
292.9395520881472
 20
216.6249469552925
 30
0.0
 10
292.9210021460754
 20
216.6249469552925
 30
0.0
 10
292.9210021460753
 20
216.6249469552925
 30
0.0
  0
LINE
  5
145
330
1F
100
AcDbEntity
  8
0
  6
Continuous
 62
     7
370
    15
100
AcDbLine
 10
433.8210021461
 20
203.7749469553
 30
0.0
 11
433.8210021461
 21
241.7749469553
 31
0.0
  0
LINE
  5
146
330
1F
100
AcDbEntity
  8
0
  6
Continuous
 62
     7
370
    15
100
AcDbLine
 10
433.8210021461
 20
165.7749469553
 30
0.0
 11
433.8210021461
 21
203.7749469553
 31
0.0
  0
LINE
  5
147
330
1F
100
AcDbEntity
  8
0
  6
Continuous
 62
     7
370
    15
100
AcDbLine
 10
432.8210021461
 20
203.7749469553
 30
0.0
 11
432.8210021461
 21
242.7749469553
 31
0.0
  0
LINE
  5
148
330
1F
100
AcDbEntity
  8
0
  6
Continuous
 62
     7
370
    15
100
AcDbLine
 10
432.8210021461
 20
164.7749469553
 30
0.0
 11
432.8210021461
 21
203.7749469553
 31
0.0
  0
LINE
  5
149
330
1F
100
AcDbEntity
  8
0
  6
Continuous
 62
     7
370
    15
100
AcDbLine
 10
273.8210021461
 20
203.7749469553
 30
0.0
 11
273.8210021461
 21
168.8499469553
 31
0.0
  0
LINE
  5
14A
330
1F
100
AcDbEntity
  8
0
  6
Continuous
 62
     7
370
    15
100
AcDbLine
 10
273.8210021461
 20
238.6999469553
 30
0.0
 11
273.8210021461
 21
203.7749469553
 31
0.0
  0
LINE
  5
14B
330
1F
100
AcDbEntity
  8
0
  6
Continuous
 62
     7
370
    15
100
AcDbLine
 10
274.7324175873
 20
203.7749469553
 30
0.0
 11
274.7324175873
 21
169.2749469553
 31
0.0
  0
LINE
  5
14C
330
1F
100
AcDbEntity
  8
0
  6
Continuous
 62
     7
370
    15
100
AcDbLine
 10
274.7324175873
 20
238.2749469553
 30
0.0
 11
274.7324175873
 21
203.7749469553
 31
0.0
  0
LINE
  5
14D
330
1F
100
AcDbEntity
  8
0
  6
Continuous
 62
     7
370
    15
100
AcDbLine
 10
469.8210021461
 20
203.7749469553
 30
0.0
 11
469.8210021461
 21
224.7749469553
 31
0.0
  0
LINE
  5
14E
330
1F
100
AcDbEntity
  8
0
  6
Continuous
 62
     7
370
    15
100
AcDbLine
 10
469.8210021461
 20
182.7749469553
 30
0.0
 11
469.8210021461
 21
203.7749469553
 31
0.0
  0
LINE
  5
14F
330
1F
100
AcDbEntity
  8
0
  6
Continuous
 62
     7
370
    15
100
AcDbLine
 10
461.8210021461
 20
182.7749469553
 30
0.0
 11
461.8210021461
 21
224.7749469553
 31
0.0
  0
LINE
  5
150
330
1F
100
AcDbEntity
  8
0
  6
Continuous
 62
     7
370
    15
100
AcDbLine
 10
470.8210021461
 20
183.7749469553
 30
0.0
 11
470.8210021461
 21
223.7749469553
 31
0.0
  0
LINE
  5
151
330
1F
100
AcDbEntity
  8
0
  6
Continuous
 62
     7
370
    15
100
AcDbLine
 10
460.8210021461
 20
183.7749469553
 30
0.0
 11
460.8210021461
 21
223.7749469553
 31
0.0
  0
SPLINE
  5
152
330
1F
100
AcDbEntity
  8
0
  6
Continuous
 62
     7
370
    15
100
AcDbSpline
210
0.0
220
0.0
230
1.0
 70
    24
 71
     3
 72
    10
 73
     6
 74
     0
 42
0.000000001
 43
0.00000001
 40
0.0
 40
0.0
 40
0.0
 40
0.0
 40
0.4999999999999997
 40
0.4999999999999997
 40
0.9999999999999999
 40
0.9999999999999999
 40
0.9999999999999999
 40
0.9999999999999999
 10
172.0710021460753
 20
222.9965219558379
 30
0.0
 10
172.0710021460753
 20
222.9965219558378
 30
0.0
 10
172.0710021460753
 20
220.9712955297689
 30
0.0
 10
172.0710021460753
 20
213.7620104367588
 30
0.0
 10
172.0710021460753
 20
208.872681332067
 30
0.0
 10
172.0710021460753
 20
203.7749469552925
 30
0.0
  0
SPLINE
  5
153
330
1F
100
AcDbEntity
  8
0
  6
Continuous
 62
     7
370
    15
100
AcDbSpline
210
0.0
220
0.0
230
1.0
 70
    24
 71
     3
 72
    10
 73
     6
 74
     0
 42
0.000000001
 43
0.00000001
 40
0.0
 40
0.0
 40
0.0
 40
0.0
 40
0.4999999999999999
 40
0.4999999999999999
 40
0.9999999999999999
 40
0.9999999999999999
 40
0.9999999999999999
 40
0.9999999999999999
 10
172.0710021460753
 20
203.7749469552925
 30
0.0
 10
172.0710021460753
 20
198.6772125785181
 30
0.0
 10
172.0710021460753
 20
193.7878834738258
 30
0.0
 10
172.0710021460753
 20
186.5785983808159
 30
0.0
 10
172.0710021460753
 20
184.553371954747
 30
0.0
 10
172.0710021460753
 20
184.5533719547471
 30
0.0
  0
LINE
  5
154
330
1F
100
AcDbEntity
  8
0
  6
Continuous
 62
     7
370
    15
100
AcDbLine
 10
457.3302544173
 20
203.7749469553
 30
0.0
 11
457.3302544173
 21
219.7749469553
 31
0.0
  0
LINE
  5
155
330
1F
100
AcDbEntity
  8
0
  6
Continuous
 62
     7
370
    15
100
AcDbLine
 10
457.3302544173
 20
187.7749469553
 30
0.0
 11
457.3302544173
 21
203.7749469553
 31
0.0
  0
LINE
  5
156
330
1F
100
AcDbEntity
  8
0
  6
Continuous
 62
     7
370
    15
100
AcDbLine
 10
457.8210021461
 20
203.7749469553
 30
0.0
 11
457.8210021461
 21
218.9249469553
 31
0.0
  0
LINE
  5
157
330
1F
100
AcDbEntity
  8
0
  6
Continuous
 62
     7
370
    15
100
AcDbLine
 10
457.8210021461
 20
188.6249469553
 30
0.0
 11
457.8210021461
 21
203.7749469553
 31
0.0
  0
LINE
  5
158
330
1F
100
AcDbEntity
  8
0
  6
Continuous
 62
     7
370
    15
100
AcDbLine
 10
440.0710021461
 20
182.7749469553
 30
0.0
 11
440.0710021461
 21
182.2749469553
 31
0.0
  0
LINE
  5
159
330
1F
100
AcDbEntity
  8
0
  6
Continuous
 62
     7
370
    15
100
AcDbLine
 10
433.8210021461
 20
182.2749469553
 30
0.0
 11
440.0710021461
 21
182.2749469553
 31
0.0
  0
LINE
  5
15A
330
1F
100
AcDbEntity
  8
0
  6
Continuous
 62
     7
370
    15
100
AcDbLine
 10
440.0710021461
 20
182.7749469553
 30
0.0
 11
433.8210021461
 21
182.7749469553
 31
0.0
  0
LINE
  5
15B
330
1F
100
AcDbEntity
  8
0
  6
Continuous
 62
     7
370
    15
100
AcDbLine
 10
440.0710021461
 20
169.2749469553
 30
0.0
 11
433.8210021461
 21
169.2749469553
 31
0.0
  0
LINE
  5
15C
330
1F
100
AcDbEntity
  8
0
  6
Continuous
 62
     7
370
    15
100
AcDbLine
 10
440.0710021461
 20
182.2749469553
 30
0.0
 11
440.0710021461
 21
169.2749469553
 31
0.0
  0
LINE
  5
15D
330
1F
100
AcDbEntity
  8
0
  6
Continuous
 62
     7
370
    15
100
AcDbLine
 10
433.8210021461
 20
168.7749469553
 30
0.0
 11
440.0710021461
 21
168.7749469553
 31
0.0
  0
LINE
  5
15E
330
1F
100
AcDbEntity
  8
0
  6
Continuous
 62
     7
370
    15
100
AcDbLine
 10
440.0710021461
 20
169.2749469553
 30
0.0
 11
440.0710021461
 21
168.7749469553
 31
0.0
  0
LINE
  5
15F
330
1F
100
AcDbEntity
  8
0
  6
Continuous
 62
     7
370
    15
100
AcDbLine
 10
433.8210021461
 20
238.2749469553
 30
0.0
 11
440.0710021461
 21
238.2749469553
 31
0.0
  0
LINE
  5
160
330
1F
100
AcDbEntity
  8
0
  6
Continuous
 62
     7
370
    15
100
AcDbLine
 10
440.0710021461
 20
225.2749469553
 30
0.0
 11
433.8210021461
 21
225.2749469553
 31
0.0
  0
LINE
  5
161
330
1F
100
AcDbEntity
  8
0
  6
Continuous
 62
     7
370
    15
100
AcDbLine
 10
440.0710021461
 20
238.2749469553
 30
0.0
 11
440.0710021461
 21
225.2749469553
 31
0.0
  0
LINE
  5
162
330
1F
100
AcDbEntity
  8
0
  6
Continuous
 62
     7
370
    15
100
AcDbLine
 10
433.8210021461
 20
224.7749469553
 30
0.0
 11
440.0710021461
 21
224.7749469553
 31
0.0
  0
LINE
  5
163
330
1F
100
AcDbEntity
  8
0
  6
Continuous
 62
     7
370
    15
100
AcDbLine
 10
440.0710021461
 20
225.2749469553
 30
0.0
 11
440.0710021461
 21
224.7749469553
 31
0.0
  0
LINE
  5
164
330
1F
100
AcDbEntity
  8
0
  6
Continuous
 62
     7
370
    15
100
AcDbLine
 10
440.0710021461
 20
238.7749469553
 30
0.0
 11
433.8210021461
 21
238.7749469553
 31
0.0
  0
LINE
  5
165
330
1F
100
AcDbEntity
  8
0
  6
Continuous
 62
     7
370
    15
100
AcDbLine
 10
440.0710021461
 20
238.7749469553
 30
0.0
 11
440.0710021461
 21
238.2749469553
 31
0.0
  0
LINE
  5
166
330
1F
100
AcDbEntity
  8
0
  6
Continuous
 62
     8
370
    15
100
AcDbLine
 10
291.7553167211
 20
217.1720251267
 30
0.0
 11
291.7553167211
 21
252.5249469553
 31
0.0
  0
LINE
  5
167
330
1F
100
AcDbEntity
  8
0
  6
Continuous
 62
     8
370
    15
100
AcDbLine
 10
291.7553167211
 20
155.0249469553
 30
0.0
 11
291.7553167211
 21
190.3778687839
 31
0.0
  0
LINE
  5
168
330
1F
100
AcDbEntity
  8
0
  6
Continuous
 62
     8
370
    15
100
AcDbLine
 10
278.186687571
 20
190.3778687839
 30
0.0
 11
278.186687571
 21
155.0249469553
 31
0.0
  0
LINE
  5
169
330
1F
100
AcDbEntity
  8
0
  6
Continuous
 62
     8
370
    15
100
AcDbLine
 10
278.186687571
 20
252.5249469553
 30
0.0
 11
278.186687571
 21
217.1720251267
 31
0.0
  0
LINE
  5
16A
330
1F
100
AcDbEntity
  8
0
  6
Continuous
 62
     8
370
    15
100
AcDbLine
 10
292.8038448585
 20
251.6421042428
 30
0.0
 11
292.8038448585
 21
216.6249469553
 31
0.0
  0
LINE
  5
16B
330
1F
100
AcDbEntity
  8
0
  6
Continuous
 62
     8
370
    15
100
AcDbLine
 10
292.8038448585
 20
190.9249469553
 30
0.0
 11
292.8038448585
 21
155.9077896678
 31
0.0
  0
LINE
  5
16C
330
1F
100
AcDbEntity
  8
0
  6
Continuous
 62
     8
370
    15
100
AcDbLine
 10
292.0381594336
 20
190.472667715
 30
0.0
 11
292.0381594336
 21
155.1421042428
 31
0.0
  0
LINE
  5
16D
330
1F
100
AcDbEntity
  8
0
  6
Continuous
 62
     8
370
    15
100
AcDbLine
 10
292.0381594336
 20
217.0772261955
 30
0.0
 11
292.0381594336
 21
252.4077896678
 31
0.0
  0
LINE
  5
16E
330
1F
100
AcDbEntity
  8
0
  6
Continuous
 62
     8
370
    15
100
AcDbLine
 10
277.1381594336
 20
217.2077896678
 30
0.0
 11
277.1381594336
 21
251.6421042428
 31
0.0
  0
LINE
  5
16F
330
1F
100
AcDbEntity
  8
0
  6
Continuous
 62
     8
370
    15
100
AcDbLine
 10
277.1381594336
 20
155.9077896678
 30
0.0
 11
277.1381594336
 21
190.3421042428
 31
0.0
  0
LINE
  5
170
330
1F
100
AcDbEntity
  8
0
  6
Continuous
 62
     8
370
    15
100
AcDbLine
 10
277.9038448585
 20
252.4077896678
 30
0.0
 11
277.9038448585
 21
217.0772261955
 31
0.0
  0
LINE
  5
171
330
1F
100
AcDbEntity
  8
0
  6
Continuous
 62
     8
370
    15
100
AcDbLine
 10
277.9038448585
 20
155.1421042428
 30
0.0
 11
277.9038448585
 21
190.472667715
 31
0.0
  0
LINE
  5
172
330
1F
100
AcDbEntity
  8
0
  6
Continuous
 62
     8
370
    15
100
AcDbLine
 10
295.9210021461
 20
190.9249469553
 30
0.0
 11
295.9210021461
 21
164.7749469553
 31
0.0
  0
LINE
  5
173
330
1F
100
AcDbEntity
  8
0
  6
Continuous
 62
     8
370
    15
100
AcDbLine
 10
295.9210021461
 20
242.7749469553
 30
0.0
 11
295.9210021461
 21
216.6249469553
 31
0.0
  0
LINE
  5
174
330
1F
100
AcDbEntity
  8
0
  6
Continuous
 62
     8
370
    15
100
AcDbLine
 10
276.5210021461
 20
203.7749469553
 30
0.0
 11
276.5210021461
 21
238.2749469553
 31
0.0
  0
LINE
  5
175
330
1F
100
AcDbEntity
  8
0
  6
Continuous
 62
     8
370
    15
100
AcDbLine
 10
276.5210021461
 20
169.2749469553
 30
0.0
 11
276.5210021461
 21
203.7749469553
 31
0.0
  0
LINE
  5
176
330
1F
100
AcDbEntity
  8
0
  6
Continuous
 62
     8
370
    15
100
AcDbLine
 10
172.9266939188
 20
223.9860547423
 30
0.0
 11
172.9266939188
 21
183.5638391683
 31
0.0
  0
LINE
  5
177
330
1F
100
AcDbEntity
  8
0
  6
Continuous
 62
     8
370
    15
100
AcDbLine
 10
460.3210021461
 20
203.7749469553
 30
0.0
 11
460.3210021461
 21
211.7749469553
 31
0.0
  0
LINE
  5
178
330
1F
100
AcDbEntity
  8
0
  6
Continuous
 62
     8
370
    15
100
AcDbLine
 10
460.3210021461
 20
195.7749469553
 30
0.0
 11
460.3210021461
 21
203.7749469553
 31
0.0
  0
DIMENSION
  5
179
330
1F
100
AcDbEntity
  8
DIM
100
AcDbDimension
  2
_D
 10
433.8210021461
 20
145.190254887
 30
0.0
 11
445.8210021461
 21
145.190254887
 31
0.0
 70
   160
  1
<>
 71
     2
 42
-1.0
  3
SLDDIMSTYLE0
100
AcDbAlignedDimension
 13
457.8210021461
 23
188.6249469553
 33
0.0
 14
433.8210021461
 24
168.7749469553
 34
0.0
100
AcDbRotatedDimension
  0
DIMENSION
  5
186
330
1F
100
AcDbEntity
  8
DIM
100
AcDbDimension
  2
_D_1
 10
273.8210021461
 20
145.190254887
 30
0.0
 11
353.8210021461
 21
145.190254887
 31
0.0
 70
   160
  1
<>
 71
     2
 42
-1.0
  3
SLDDIMSTYLE1
100
AcDbAlignedDimension
 13
433.8210021461
 23
165.7749469553
 33
0.0
 14
273.8210021461
 24
168.8499469553
 34
0.0
100
AcDbRotatedDimension
  0
DIMENSION
  5
191
330
1F
100
AcDbEntity
  8
DIM
100
AcDbDimension
  2
_D_2
 10
485.9274276023
 20
187.7749469553
 30
0.0
 11
485.9274276023
 21
203.7749469553
 31
0.0
 70
   160
  1
%%c<>
 71
     2
 42
-1.0
  3
SLDDIMSTYLE0
100
AcDbAlignedDimension
 13
457.3302544173
 23
219.7749469553
 33
0.0
 14
457.3302544173
 24
187.7749469553
 34
0.0
 50
90.0
100
AcDbRotatedDimension
  0
DIMENSION
  5
19E
330
1F
100
AcDbEntity
  8
DIM
100
AcDbDimension
  2
_D_3
 10
494.7568132027
 20
164.7749469553
 30
0.0
 11
494.7568132027
 21
203.7749469553
 31
0.0
 70
   160
  1
%%c<>
 71
     2
 42
-1.0
  3
SLDDIMSTYLE1
100
AcDbAlignedDimension
 13
432.8210021461
 23
242.7749469553
 33
0.0
 14
432.8210021461
 24
164.7749469553
 34
0.0
 50
90.0
100
AcDbRotatedDimension
  0
DIMENSION
  5
1A9
330
1F
100
AcDbEntity
  8
DIM
100
AcDbDimension
  2
_D_4
 10
172.0710021461
 20
131.7109495729
 30
0.0
 11
321.4460021461
 21
131.7109495729
 31
0.0
 70
   160
  1
<>
 71
     2
 42
-1.0
  3
SLDDIMSTYLE1
100
AcDbAlignedDimension
 13
470.8210021461
 23
183.7749469553
 33
0.0
 14
172.0710021461
 24
203.7749469553
 34
0.0
100
AcDbRotatedDimension
  0
DIMENSION
  5
1B3
330
1F
100
AcDbEntity
  8
DIM
100
AcDbDimension
  2
_D_5
 10
165.9182633865
 20
155.0249469553
 30
0.0
 11
165.9182633865
 21
203.7749469553
 31
0.0
 70
   160
  1
%%c<>
 71
     2
 42
-1.0
  3
SLDDIMSTYLE2
100
AcDbAlignedDimension
 13
278.186687571
 23
252.5249469553
 33
0.0
 14
278.186687571
 24
155.0249469553
 34
0.0
 50
90.0
100
AcDbRotatedDimension
  0
LINE
  5
1BF
330
1F
100
AcDbEntity
  8
DIM
  6
CENTERX2
 48
1.1111111111
370
     0
100
AcDbLine
 10
172.5121275275
 20
203.7749469553
 30
0.0
 11
465.5204208638
 21
203.7749469553
 31
0.0
  0
ENDSEC
  0
SECTION
  2
OBJECTS
  0
DICTIONARY
  5
C
330
0
100
AcDbDictionary
281
     1
  3
ACAD_GROUP
350
D
  3
ACAD_LAYOUT
350
1A
  3
ACAD_MLINESTYLE
350
17
  3
ACAD_PLOTSETTINGS
350
19
  3
ACAD_PLOTSTYLENAME
350
E
  3
ACAD_SCALELIST
350
47
  0
DICTIONARY
  5
D
102
{ACAD_REACTORS
330
C
102
}
330
C
100
AcDbDictionary
281
     1
  0
DICTIONARY
  5
1A
102
{ACAD_REACTORS
330
C
102
}
330
C
100
AcDbDictionary
281
     1
  3
Layout1
350
1E
  3
Layout2
350
26
  3
Model
350
22
  0
DICTIONARY
  5
17
102
{ACAD_REACTORS
330
C
102
}
330
C
100
AcDbDictionary
281
     1
  3
Standard
350
18
  0
DICTIONARY
  5
19
102
{ACAD_REACTORS
330
C
102
}
330
C
100
AcDbDictionary
281
     1
  0
ACDBDICTIONARYWDFLT
  5
E
102
{ACAD_REACTORS
330
C
102
}
330
C
100
AcDbDictionary
281
     1
  3
Normal
350
F
100
AcDbDictionaryWithDefault
340
F
  0
DICTIONARY
  5
47
102
{ACAD_REACTORS
330
C
102
}
330
C
100
AcDbDictionary
281
     1
  3
A0
350
48
  3
A1
350
49
  3
A2
350
4A
  3
A3
350
4B
  3
A4
350
4C
  3
A5
350
4D
  3
A6
350
4E
  3
A7
350
4F
  3
A8
350
50
  3
A9
350
51
  3
B0
350
52
  3
B1
350
53
  3
B2
350
54
  3
B3
350
55
  3
B4
350
56
  3
B5
350
57
  3
B6
350
58
  3
B7
350
59
  3
B8
350
5A
  3
B9
350
5B
  3
C0
350
5C
  3
C1
350
5D
  3
C2
350
5E
  3
C3
350
5F
  3
C4
350
60
  3
C5
350
61
  3
C6
350
62
  3
C7
350
63
  3
C8
350
64
  3
C9
350
65
  3
D0
350
66
  3
D1
350
67
  3
D2
350
68
  0
LAYOUT
  5
1E
102
{ACAD_REACTORS
330
1A
102
}
330
1A
100
AcDbPlotSettings
  1

  2
none_device
  4

  6

 40
0.0
 41
0.0
 42
0.0
 43
0.0
 44
0.0
 45
0.0
 46
0.0
 47
0.0
 48
0.0
 49
0.0
140
0.0
141
0.0
142
1.0
143
1.0
 70
   688
 72
     1
 73
     0
 74
     5
  7

 75
    16
147
1.0
148
0.0
149
0.0
100
AcDbLayout
  1
Layout1
 70
     1
 71
     1
 10
0.0
 20
0.0
 11
420.0
 21
297.0
 12
0.0
 22
0.0
 32
0.0
 14
1.0000000000E+20
 24
1.0000000000E+20
 34
1.0000000000E+20
 15
-1.0000000000E+20
 25
-1.0000000000E+20
 35
-1.0000000000E+20
146
0.0
 13
0.0
 23
0.0
 33
0.0
 16
1.0
 26
0.0
 36
0.0
 17
0.0
 27
1.0
 37
0.0
 76
     0
330
1B
  0
LAYOUT
  5
26
102
{ACAD_REACTORS
330
1A
102
}
330
1A
100
AcDbPlotSettings
  1

  2
none_device
  4

  6

 40
0.0
 41
0.0
 42
0.0
 43
0.0
 44
0.0
 45
0.0
 46
0.0
 47
0.0
 48
0.0
 49
0.0
140
0.0
141
0.0
142
1.0
143
1.0
 70
   688
 72
     1
 73
     0
 74
     5
  7

 75
    16
147
1.0
148
0.0
149
0.0
100
AcDbLayout
  1
Layout2
 70
     1
 71
     2
 10
0.0
 20
0.0
 11
0.0
 21
0.0
 12
0.0
 22
0.0
 32
0.0
 14
0.0
 24
0.0
 34
0.0
 15
0.0
 25
0.0
 35
0.0
146
0.0
 13
0.0
 23
0.0
 33
0.0
 16
1.0
 26
0.0
 36
0.0
 17
0.0
 27
1.0
 37
0.0
 76
     0
330
23
  0
LAYOUT
  5
22
102
{ACAD_REACTORS
330
1A
102
}
330
1A
100
AcDbPlotSettings
  1

  2
none_device
  4
Letter_(8.50_x_11.00_Inches)
  6

 40
6.35
 41
6.35
 42
6.35000508
 43
6.35000508
 44
215.9
 45
279.4
 46
0.0
 47
0.0
 48
0.0
 49
0.0
140
0.0
141
0.0
142
1.0
143
1.0
 70
  1712
 72
     1
 73
     0
 74
     0
  7

 75
     0
147
1.0
148
0.0
149
0.0
100
AcDbLayout
  1
Model
 70
     1
 71
     0
 10
0.0
 20
0.0
 11
534.6
 21
378.0
 12
0.0
 22
0.0
 32
0.0
 14
0.0
 24
0.0
 34
0.0
 15
534.6
 25
378.0
 35
0.0
146
0.0
 13
0.0
 23
0.0
 33
0.0
 16
1.0
 26
0.0
 36
0.0
 17
0.0
 27
1.0
 37
0.0
 76
     0
330
1F
331
29
  0
MLINESTYLE
  5
18
102
{ACAD_REACTORS
330
17
102
}
330
17
100
AcDbMlineStyle
  2
Standard
 70
     0
  3

 62
   256
 51
90.0
 52
90.0
 71
     2
 49
0.5
 62
   256
  6
BYLAYER
 49
-0.5
 62
   256
  6
BYLAYER
  0
ACDBPLACEHOLDER
  5
F
102
{ACAD_REACTORS
330
E
102
}
330
E
  0
SCALE
  5
48
102
{ACAD_REACTORS
330
47
102
}
330
47
100
AcDbScale
 70
     0
300
1:1
140
1.0
141
1.0
290
     1
  0
SCALE
  5
49
102
{ACAD_REACTORS
330
47
102
}
330
47
100
AcDbScale
 70
     0
300
1:2
140
1.0
141
2.0
290
     0
  0
SCALE
  5
4A
102
{ACAD_REACTORS
330
47
102
}
330
47
100
AcDbScale
 70
     0
300
1:4
140
1.0
141
4.0
290
     0
  0
SCALE
  5
4B
102
{ACAD_REACTORS
330
47
102
}
330
47
100
AcDbScale
 70
     0
300
1:5
140
1.0
141
5.0
290
     0
  0
SCALE
  5
4C
102
{ACAD_REACTORS
330
47
102
}
330
47
100
AcDbScale
 70
     0
300
1:8
140
1.0
141
8.0
290
     0
  0
SCALE
  5
4D
102
{ACAD_REACTORS
330
47
102
}
330
47
100
AcDbScale
 70
     0
300
1:10
140
1.0
141
10.0
290
     0
  0
SCALE
  5
4E
102
{ACAD_REACTORS
330
47
102
}
330
47
100
AcDbScale
 70
     0
300
1:16
140
1.0
141
16.0
290
     0
  0
SCALE
  5
4F
102
{ACAD_REACTORS
330
47
102
}
330
47
100
AcDbScale
 70
     0
300
1:20
140
1.0
141
20.0
290
     0
  0
SCALE
  5
50
102
{ACAD_REACTORS
330
47
102
}
330
47
100
AcDbScale
 70
     0
300
1:30
140
1.0
141
30.0
290
     0
  0
SCALE
  5
51
102
{ACAD_REACTORS
330
47
102
}
330
47
100
AcDbScale
 70
     0
300
1:40
140
1.0
141
40.0
290
     0
  0
SCALE
  5
52
102
{ACAD_REACTORS
330
47
102
}
330
47
100
AcDbScale
 70
     0
300
1:50
140
1.0
141
50.0
290
     0
  0
SCALE
  5
53
102
{ACAD_REACTORS
330
47
102
}
330
47
100
AcDbScale
 70
     0
300
1:100
140
1.0
141
100.0
290
     0
  0
SCALE
  5
54
102
{ACAD_REACTORS
330
47
102
}
330
47
100
AcDbScale
 70
     0
300
2:1
140
2.0
141
1.0
290
     0
  0
SCALE
  5
55
102
{ACAD_REACTORS
330
47
102
}
330
47
100
AcDbScale
 70
     0
300
4:1
140
4.0
141
1.0
290
     0
  0
SCALE
  5
56
102
{ACAD_REACTORS
330
47
102
}
330
47
100
AcDbScale
 70
     0
300
8:1
140
8.0
141
1.0
290
     0
  0
SCALE
  5
57
102
{ACAD_REACTORS
330
47
102
}
330
47
100
AcDbScale
 70
     0
300
10:1
140
10.0
141
1.0
290
     0
  0
SCALE
  5
58
102
{ACAD_REACTORS
330
47
102
}
330
47
100
AcDbScale
 70
     0
300
100:1
140
100.0
141
1.0
290
     0
  0
SCALE
  5
59
102
{ACAD_REACTORS
330
47
102
}
330
47
100
AcDbScale
 70
     0
300
1/128" = 1'-0"
140
0.0078125
141
12.0
290
     0
  0
SCALE
  5
5A
102
{ACAD_REACTORS
330
47
102
}
330
47
100
AcDbScale
 70
     0
300
1/64" = 1'-0"
140
0.015625
141
12.0
290
     0
  0
SCALE
  5
5B
102
{ACAD_REACTORS
330
47
102
}
330
47
100
AcDbScale
 70
     0
300
1/32" = 1'-0"
140
0.03125
141
12.0
290
     0
  0
SCALE
  5
5C
102
{ACAD_REACTORS
330
47
102
}
330
47
100
AcDbScale
 70
     0
300
1/16" = 1'-0"
140
0.0625
141
12.0
290
     0
  0
SCALE
  5
5D
102
{ACAD_REACTORS
330
47
102
}
330
47
100
AcDbScale
 70
     0
300
3/32" = 1'-0"
140
0.09375
141
12.0
290
     0
  0
SCALE
  5
5E
102
{ACAD_REACTORS
330
47
102
}
330
47
100
AcDbScale
 70
     0
300
1/8" = 1'-0"
140
0.125
141
12.0
290
     0
  0
SCALE
  5
5F
102
{ACAD_REACTORS
330
47
102
}
330
47
100
AcDbScale
 70
     0
300
3/16" = 1'-0"
140
0.1875
141
12.0
290
     0
  0
SCALE
  5
60
102
{ACAD_REACTORS
330
47
102
}
330
47
100
AcDbScale
 70
     0
300
1/4" = 1'-0"
140
0.25
141
12.0
290
     0
  0
SCALE
  5
61
102
{ACAD_REACTORS
330
47
102
}
330
47
100
AcDbScale
 70
     0
300
3/8" = 1'-0"
140
0.375
141
12.0
290
     0
  0
SCALE
  5
62
102
{ACAD_REACTORS
330
47
102
}
330
47
100
AcDbScale
 70
     0
300
1/2" = 1'-0"
140
0.5
141
12.0
290
     0
  0
SCALE
  5
63
102
{ACAD_REACTORS
330
47
102
}
330
47
100
AcDbScale
 70
     0
300
3/4" = 1'-0"
140
0.75
141
12.0
290
     0
  0
SCALE
  5
64
102
{ACAD_REACTORS
330
47
102
}
330
47
100
AcDbScale
 70
     0
300
1" = 1'-0"
140
1.0
141
12.0
290
     0
  0
SCALE
  5
65
102
{ACAD_REACTORS
330
47
102
}
330
47
100
AcDbScale
 70
     0
300
1-1/2" = 1'-0"
140
1.5
141
12.0
290
     0
  0
SCALE
  5
66
102
{ACAD_REACTORS
330
47
102
}
330
47
100
AcDbScale
 70
     0
300
3" = 1'-0"
140
3.0
141
12.0
290
     0
  0
SCALE
  5
67
102
{ACAD_REACTORS
330
47
102
}
330
47
100
AcDbScale
 70
     0
300
6" = 1'-0"
140
6.0
141
12.0
290
     0
  0
SCALE
  5
68
102
{ACAD_REACTORS
330
47
102
}
330
47
100
AcDbScale
 70
     0
300
1'-0" = 1'-0"
140
12.0
141
12.0
290
     0
  0
ENDSEC
  0
EOF
