  0
SECTION
  2
HEADER
  9
$ACADVER
  1
AC1015
  9
$ACADMAINTVER
 70
     6
  9
$DWGCODEPAGE
  3
ANSI_1252
  9
$INSBASE
 10
0.0
 20
0.0
 30
0.0
  9
$EXTMIN
 10
0.0
 20
0.0
 30
0.0
  9
$EXTMAX
 10
386.1
 20
273.0
 30
0.0
  9
$LIMMIN
 10
0.0
 20
0.0
  9
$LIMMAX
 10
386.1
 20
273.0
  9
$ORTHOMODE
 70
     0
  9
$REGENMODE
 70
     1
  9
$FILLMODE
 70
     1
  9
$QTEXTMODE
 70
     0
  9
$MIRRTEXT
 70
     1
  9
$LTSCALE
 40
1.3
  9
$ATTMODE
 70
     1
  9
$TEXTSIZE
 40
5.0447222222
  9
$TRACEWID
 40
1.0
  9
$TEXTSTYLE
  7
Standard
  9
$CLAYER
  8
0
  9
$CELTYPE
  6
ByLayer
  9
$CECOLOR
 62
   256
  9
$CELTSCALE
 40
1.0
  9
$DISPSILH
 70
     0
  9
$DIMSCALE
 40
1.0
  9
$DIMASZ
 40
4.2926
  9
$DIMEXO
 40
1.3
  9
$DIMDLI
 40
3.75
  9
$DIMRND
 40
0.0
  9
$DIMDLE
 40
0.0
  9
$DIMEXE
 40
1.3
  9
$DIMTP
 40
0.0
  9
$DIMTM
 40
0.0
  9
$DIMTXT
 40
5.0447222222
  9
$DIMCEN
 40
2.5
  9
$DIMTSZ
 40
0.0
  9
$DIMTOL
 70
     0
  9
$DIMLIM
 70
     0
  9
$DIMTIH
 70
     1
  9
$DIMTOH
 70
     1
  9
$DIMSE1
 70
     0
  9
$DIMSE2
 70
     0
  9
$DIMTAD
 70
     1
  9
$DIMZIN
 70
     0
  9
$DIMBLK
  1

  9
$DIMASO
 70
     1
  9
$DIMSHO
 70
     1
  9
$DIMPOST
  1

  9
$DIMAPOST
  1

  9
$DIMALT
 70
     0
  9
$DIMALTD
 70
     3
  9
$DIMALTF
 40
0.0393700787
  9
$DIMLFAC
 40
1.0
  9
$DIMTOFL
 70
     1
  9
$DIMTVP
 40
0.0
  9
$DIMTIX
 70
     0
  9
$DIMSOXD
 70
     0
  9
$DIMSAH
 70
     0
  9
$DIMBLK1
  1

  9
$DIMBLK2
  1

  9
$DIMSTYLE
  2
ISO-25
  9
$DIMCLRD
 70
     0
  9
$DIMCLRE
 70
     0
  9
$DIMCLRT
 70
     0
  9
$DIMTFAC
 40
1.0
  9
$DIMGAP
 40
1.9812
  9
$DIMJUST
 70
     0
  9
$DIMSD1
 70
     0
  9
$DIMSD2
 70
     0
  9
$DIMTOLJ
 70
     0
  9
$DIMTZIN
 70
     0
  9
$DIMALTZ
 70
     0
  9
$DIMALTTZ
 70
     0
  9
$DIMUPT
 70
     0
  9
$DIMDEC
 70
     2
  9
$DIMTDEC
 70
     2
  9
$DIMALTU
 70
     2
  9
$DIMALTTD
 70
     3
  9
$DIMTXSTY
  7
Standard
  9
$DIMAUNIT
 70
     0
  9
$DIMADEC
 70
     2
  9
$DIMALTRND
 40
0.0
  9
$DIMAZIN
 70
     0
  9
$DIMDSEP
 70
    44
  9
$DIMATFIT
 70
     3
  9
$DIMFRAC
 70
     0
  9
$DIMLDRBLK
  1

  9
$DIMLUNIT
 70
     2
  9
$DIMLWD
 70
    -2
  9
$DIMLWE
 70
    -2
  9
$DIMTMOVE
 70
     0
  9
$LUNITS
 70
     2
  9
$LUPREC
 70
     2
  9
$SKETCHINC
 40
1.0
  9
$FILLETRAD
 40
10.0
  9
$AUNITS
 70
     1
  9
$AUPREC
 70
     2
  9
$MENU
  1
.
  9
$ELEVATION
 40
0.0
  9
$PELEVATION
 40
0.0
  9
$THICKNESS
 40
0.0
  9
$LIMCHECK
 70
     0
  9
$CHAMFERA
 40
0.0
  9
$CHAMFERB
 40
0.0
  9
$CHAMFERC
 40
0.0
  9
$CHAMFERD
 40
0.0
  9
$SKPOLY
 70
     0
  9
$TDCREATE
 40
2458606.65781412
  9
$TDUCREATE
 40
2458606.428647454
  9
$TDUPDATE
 40
2458606.657815197
  9
$TDUUPDATE
 40
2458606.42864853
  9
$TDINDWG
 40
0.0000000116
  9
$TDUSRTIMER
 40
0.0000000116
  9
$USRTIMER
 70
     1
  9
$ANGBASE
 50
0.0
  9
$ANGDIR
 70
     0
  9
$PDMODE
 70
     0
  9
$PDSIZE
 40
-1.0
  9
$PLINEWID
 40
0.0
  9
$SPLFRAME
 70
     0
  9
$SPLINETYPE
 70
     6
  9
$SPLINESEGS
 70
     8
  9
$HANDSEED
  5
1C5
  9
$SURFTAB1
 70
     6
  9
$SURFTAB2
 70
     6
  9
$SURFTYPE
 70
     6
  9
$SURFU
 70
     6
  9
$SURFV
 70
     6
  9
$UCSBASE
  2

  9
$UCSNAME
  2

  9
$UCSORG
 10
0.0
 20
0.0
 30
0.0
  9
$UCSXDIR
 10
1.0
 20
0.0
 30
0.0
  9
$UCSYDIR
 10
0.0
 20
1.0
 30
0.0
  9
$UCSORTHOREF
  2

  9
$UCSORTHOVIEW
 70
     0
  9
$UCSORGTOP
 10
0.0
 20
0.0
 30
0.0
  9
$UCSORGBOTTOM
 10
0.0
 20
0.0
 30
0.0
  9
$UCSORGLEFT
 10
0.0
 20
0.0
 30
0.0
  9
$UCSORGRIGHT
 10
0.0
 20
0.0
 30
0.0
  9
$UCSORGFRONT
 10
0.0
 20
0.0
 30
0.0
  9
$UCSORGBACK
 10
0.0
 20
0.0
 30
0.0
  9
$PUCSBASE
  2

  9
$PUCSNAME
  2

  9
$PUCSORG
 10
0.0
 20
0.0
 30
0.0
  9
$PUCSXDIR
 10
1.0
 20
0.0
 30
0.0
  9
$PUCSYDIR
 10
0.0
 20
1.0
 30
0.0
  9
$PUCSORTHOREF
  2

  9
$PUCSORTHOVIEW
 70
     0
  9
$PUCSORGTOP
 10
0.0
 20
0.0
 30
0.0
  9
$PUCSORGBOTTOM
 10
0.0
 20
0.0
 30
0.0
  9
$PUCSORGLEFT
 10
0.0
 20
0.0
 30
0.0
  9
$PUCSORGRIGHT
 10
0.0
 20
0.0
 30
0.0
  9
$PUCSORGFRONT
 10
0.0
 20
0.0
 30
0.0
  9
$PUCSORGBACK
 10
0.0
 20
0.0
 30
0.0
  9
$USERI1
 70
     0
  9
$USERI2
 70
     0
  9
$USERI3
 70
     0
  9
$USERI4
 70
     0
  9
$USERI5
 70
     0
  9
$USERR1
 40
0.0
  9
$USERR2
 40
0.0
  9
$USERR3
 40
0.0
  9
$USERR4
 40
0.0
  9
$USERR5
 40
0.0
  9
$WORLDVIEW
 70
     1
  9
$SHADEDGE
 70
     3
  9
$SHADEDIF
 70
    70
  9
$TILEMODE
 70
     1
  9
$MAXACTVP
 70
    64
  9
$PINSBASE
 10
0.0
 20
0.0
 30
0.0
  9
$PLIMCHECK
 70
     0
  9
$PEXTMIN
 10
1.0000000000E+20
 20
1.0000000000E+20
 30
1.0000000000E+20
  9
$PEXTMAX
 10
-1.0000000000E+20
 20
-1.0000000000E+20
 30
-1.0000000000E+20
  9
$PLIMMIN
 10
0.0
 20
0.0
  9
$PLIMMAX
 10
420.0
 20
297.0
  9
$UNITMODE
 70
     0
  9
$VISRETAIN
 70
     1
  9
$PLINEGEN
 70
     0
  9
$PSLTSCALE
 70
     1
  9
$TREEDEPTH
 70
  3020
  9
$CMLSTYLE
  2
Standard
  9
$CMLJUST
 70
     0
  9
$CMLSCALE
 40
20.0
  9
$PROXYGRAPHICS
 70
     1
  9
$MEASUREMENT
 70
     1
  9
$CELWEIGHT
370
    -1
  9
$ENDCAPS
280
     0
  9
$JOINSTYLE
280
     0
  9
$LWDISPLAY
290
     1
  9
$INSUNITS
 70
     4
  9
$HYPERLINKBASE
  1

  9
$STYLESHEET
  1

  9
$XEDIT
290
     1
  9
$CEPSNTYPE
380
     0
  9
$PSTYLEMODE
290
     1
  9
$FINGERPRINTGUID
  2
{ADBC3468-04BC-4671-BCCE-1428907EA900}
  9
$VERSIONGUID
  2
{FAEB1C32-E019-11D5-929B-00C0DF256EC4}
  9
$EXTNAMES
290
     1
  9
$PSVPSCALE
 40
0.0
  9
$OLESTARTUP
290
     0
  0
ENDSEC
  0
SECTION
  2
CLASSES
  0
CLASS
  1
ACDBDICTIONARYWDFLT
  2
AcDbDictionaryWithDefault
  3
ObjectDBX Classes
 90
        0
280
     0
281
     0
  0
CLASS
  1
VISUALSTYLE
  2
AcDbVisualStyle
  3
ObjectDBX Classes
 90
     4095
280
     0
281
     0
  0
CLASS
  1
MATERIAL
  2
AcDbMaterial
  3
ObjectDBX Classes
 90
     1153
280
     0
281
     0
  0
CLASS
  1
SCALE
  2
AcDbScale
  3
ObjectDBX Classes
 90
     1153
280
     0
281
     0
  0
CLASS
  1
SUN
  2
AcDbSun
  3
SCENEOE
 90
     1153
280
     0
281
     0
  0
CLASS
  1
ACDBPLACEHOLDER
  2
AcDbPlaceHolder
  3
ObjectDBX Classes
 90
        0
280
     0
281
     0
  0
CLASS
  1
LAYOUT
  2
AcDbLayout
  3
ObjectDBX Classes
 90
        0
280
     0
281
     0
  0
ENDSEC
  0
SECTION
  2
TABLES
  0
TABLE
  2
VPORT
  5
8
330
0
100
AcDbSymbolTable
 70
     1
  0
VPORT
  5
29
330
8
100
AcDbSymbolTableRecord
100
AcDbViewportTableRecord
  2
*Active
 70
     0
 10
0.0
 20
0.0
 11
1.0
 21
1.0
 12
193.05
 22
136.5
 13
0.0
 23
0.0
 14
10.0
 24
10.0
 15
10.0
 25
10.0
 16
0.0
 26
0.0
 36
1.0
 17
0.0
 27
0.0
 37
0.0
 40
273.0
 41
1.4142857143
 42
50.0
 43
0.0
 44
0.0
 50
0.0
 51
0.0
 71
     0
 72
  2000
 73
     1
 74
     3
 75
     0
 76
     0
 77
     0
 78
     0
281
     0
 65
     1
110
0.0
120
0.0
130
0.0
111
1.0
121
0.0
131
0.0
112
0.0
122
1.0
132
0.0
 79
     0
146
0.0
  0
ENDTAB
  0
TABLE
  2
LTYPE
  5
5
330
0
100
AcDbSymbolTable
 70
     6
  0
LTYPE
  5
14
330
5
100
AcDbSymbolTableRecord
100
AcDbLinetypeTableRecord
  2
ByBlock
 70
     0
  3

 72
    65
 73
     0
 40
0.0
  0
LTYPE
  5
15
330
5
100
AcDbSymbolTableRecord
100
AcDbLinetypeTableRecord
  2
ByLayer
 70
     0
  3

 72
    65
 73
     0
 40
0.0
  0
LTYPE
  5
16
330
5
100
AcDbSymbolTableRecord
100
AcDbLinetypeTableRecord
  2
Continuous
 70
     0
  3
Solid line
 72
    65
 73
     0
 40
0.0
  0
LTYPE
  5
6A
330
5
100
AcDbSymbolTableRecord
100
AcDbLinetypeTableRecord
  2
HIDDEN
 70
     0
  3
Hidden __ __ __ __ __ __ __ __ __ __ __ __ __ __
 72
    65
 73
     2
 40
1.905
 49
1.27
 74
     0
 49
-0.635
 74
     0
  0
LTYPE
  5
6B
330
5
100
AcDbSymbolTableRecord
100
AcDbLinetypeTableRecord
  2
PHANTOM
 70
     0
  3
Phantom ______  __  __  ______  __  __  ______
 72
    65
 73
     6
 40
12.7
 49
6.35
 74
     0
 49
-1.27
 74
     0
 49
1.27
 74
     0
 49
-1.27
 74
     0
 49
1.27
 74
     0
 49
-1.27
 74
     0
  0
LTYPE
  5
6C
330
5
100
AcDbSymbolTableRecord
100
AcDbLinetypeTableRecord
  2
CENTER
 70
     0
  3
Center ____ _ ____ _ ____ _ ____ _ ____ _ ____
 72
    65
 73
     4
 40
10.16
 49
6.35
 74
     0
 49
-1.27
 74
     0
 49
1.27
 74
     0
 49
-1.27
 74
     0
  0
LTYPE
  5
6D
330
5
100
AcDbSymbolTableRecord
100
AcDbLinetypeTableRecord
  2
CENTERX2
 70
     0
  3
Center (2x) ________  __  ________  __  _____
 72
    65
 73
     4
 40
20.32
 49
12.7
 74
     0
 49
-2.54
 74
     0
 49
2.54
 74
     0
 49
-2.54
 74
     0
  0
LTYPE
  5
6E
330
5
100
AcDbSymbolTableRecord
100
AcDbLinetypeTableRecord
  2
DOT2
 70
     0
  3
Dot (.5x) ........................................
 72
    65
 73
     2
 40
0.635
 49
0.0
 74
     0
 49
-0.635
 74
     0
  0
ENDTAB
  0
TABLE
  2
LAYER
  5
2
330
0
100
AcDbSymbolTable
 70
     8
  0
LAYER
  5
10
330
2
100
AcDbSymbolTableRecord
100
AcDbLayerTableRecord
  2
0
 70
     0
 62
     7
  6
Continuous
370
    -3
390
F
  0
LAYER
  5
6F
330
2
100
AcDbSymbolTableRecord
100
AcDbLayerTableRecord
  2
FORMAT
 70
     0
 62
     7
  6
Continuous
370
    -3
390
F
  0
LAYER
  5
70
330
2
100
AcDbSymbolTableRecord
100
AcDbLayerTableRecord
  2
SLD-0
 70
     0
 62
     2
  6
Continuous
370
    -3
390
F
  0
LAYER
  5
71
330
2
100
AcDbSymbolTableRecord
100
AcDbLayerTableRecord
  2
DIM
 70
     0
 62
   179
  6
Continuous
370
    -3
390
F
  0
LAYER
  5
72
330
2
100
AcDbSymbolTableRecord
100
AcDbLayerTableRecord
  2
SLD-DEFPOINTS
 70
     0
 62
   179
  6
Continuous
370
    -3
390
F
  0
LAYER
  5
73
330
2
100
AcDbSymbolTableRecord
100
AcDbLayerTableRecord
  2
HAT
 70
     0
 62
   135
  6
Continuous
370
    -3
390
F
  0
LAYER
  5
74
330
2
100
AcDbSymbolTableRecord
100
AcDbLayerTableRecord
  2
JOB
 70
     0
 62
   201
  6
Continuous
370
    -3
390
F
  0
LAYER
  5
75
330
2
100
AcDbSymbolTableRecord
100
AcDbLayerTableRecord
  2
INSPECTION_REPORT
 70
     0
 62
   255
  6
Continuous
370
    -3
390
F
  0
ENDTAB
  0
TABLE
  2
STYLE
  5
3
330
0
100
AcDbSymbolTable
 70
     4
  0
STYLE
  5
11
330
3
100
AcDbSymbolTableRecord
100
AcDbTextStyleTableRecord
  2
Standard
 70
     0
 40
0.0
 41
1.0
 50
0.0
 71
     0
 42
5.0447222222
  3
txt
  4

  0
STYLE
  5
96
330
3
100
AcDbSymbolTableRecord
100
AcDbTextStyleTableRecord
  2
SLDTEXTSTYLE0
 70
     0
 40
0.0
 41
0.7
 50
0.0
 71
     0
 42
5.0447222222
  3
TXT
  4

  0
STYLE
  5
98
330
3
100
AcDbSymbolTableRecord
100
AcDbTextStyleTableRecord
  2
SLDTEXTSTYLE1
 70
     0
 40
0.0
 41
0.75
 50
0.0
 71
     0
 42
5.0447222222
  3
TXT
  4

  0
STYLE
  5
AB
330
3
100
AcDbSymbolTableRecord
100
AcDbTextStyleTableRecord
  2
SLDTEXTSTYLE2
 70
     0
 40
0.0
 41
0.6875
 50
0.0
 71
     0
 42
5.0447222222
  3
TXT
  4

  0
ENDTAB
  0
TABLE
  2
VIEW
  5
6
330
0
100
AcDbSymbolTable
 70
     0
  0
ENDTAB
  0
TABLE
  2
UCS
  5
7
330
0
100
AcDbSymbolTable
 70
     0
  0
ENDTAB
  0
TABLE
  2
APPID
  5
9
330
0
100
AcDbSymbolTable
 70
     1
  0
APPID
  5
12
330
9
100
AcDbSymbolTableRecord
100
AcDbRegAppTableRecord
  2
ACAD
 70
     0
  0
ENDTAB
  0
TABLE
  2
DIMSTYLE
  5
A
330
0
100
AcDbSymbolTable
 70
     3
100
AcDbDimStyleTable
  0
DIMSTYLE
105
27
330
A
100
AcDbSymbolTableRecord
100
AcDbDimStyleTableRecord
  2
ISO-25
 70
     0
 41
2.5
 42
0.625
 43
3.75
 44
1.25
 73
     0
 74
     0
 77
     1
 78
     8
140
2.5
141
2.5
143
0.0393700787
147
0.625
171
     3
172
     1
178
     0
271
     2
272
     2
274
     3
278
    44
283
     0
284
     8
340
11
  0
DIMSTYLE
105
184
102
{ACAD_REACTORS
330
183
330
18F
330
1A6
330
1B0
330
1BA
102
}
330
A
100
AcDbSymbolTableRecord
100
AcDbDimStyleTableRecord
  2
SLDDIMSTYLE0
 70
     0
 41
4.2926
 44
0.0
 45
0.000000001
 73
     0
 74
     0
 77
     1
 78
    12
 79
     3
140
3.7835416667
147
0.9458854167
173
     1
178
     0
271
     2
272
     2
276
     2
284
    12
340
96
  0
DIMSTYLE
105
19B
102
{ACAD_REACTORS
330
19A
102
}
330
A
100
AcDbSymbolTableRecord
100
AcDbDimStyleTableRecord
  2
SLDDIMSTYLE1
 70
     0
 41
4.2926
 44
0.0
 45
0.000000001
 73
     0
 74
     0
 77
     1
 78
     4
 79
     1
140
3.7835416667
147
0.9458854167
173
     1
178
     0
271
     2
272
     2
276
     2
284
    12
340
96
  0
ENDTAB
  0
TABLE
  2
BLOCK_RECORD
  5
1
330
0
100
AcDbSymbolTable
 70
     8
  0
BLOCK_RECORD
  5
1F
330
1
100
AcDbSymbolTableRecord
100
AcDbBlockTableRecord
  2
*Model_Space
340
22
  0
BLOCK_RECORD
  5
1B
330
1
100
AcDbSymbolTableRecord
100
AcDbBlockTableRecord
  2
*Paper_Space
340
1E
  0
BLOCK_RECORD
  5
23
330
1
100
AcDbSymbolTableRecord
100
AcDbBlockTableRecord
  2
*Paper_Space0
340
26
  0
BLOCK_RECORD
  5
E8
330
1
100
AcDbSymbolTableRecord
100
AcDbBlockTableRecord
  2
SW_CENTERMARKSYMBOL_0
340
0
102
{BLKREFS
331
F3
102
}
  0
BLOCK_RECORD
  5
185
330
1
100
AcDbSymbolTableRecord
100
AcDbBlockTableRecord
  2
_D
340
0
  0
BLOCK_RECORD
  5
190
330
1
100
AcDbSymbolTableRecord
100
AcDbBlockTableRecord
  2
_D_1
340
0
  0
BLOCK_RECORD
  5
19C
330
1
100
AcDbSymbolTableRecord
100
AcDbBlockTableRecord
  2
_D_2
340
0
  0
BLOCK_RECORD
  5
1A7
330
1
100
AcDbSymbolTableRecord
100
AcDbBlockTableRecord
  2
_D_3
340
0
  0
BLOCK_RECORD
  5
1B1
330
1
100
AcDbSymbolTableRecord
100
AcDbBlockTableRecord
  2
_D_4
340
0
  0
BLOCK_RECORD
  5
1BB
330
1
100
AcDbSymbolTableRecord
100
AcDbBlockTableRecord
  2
_D_5
340
0
  0
ENDTAB
  0
ENDSEC
  0
SECTION
  2
BLOCKS
  0
BLOCK
  5
20
330
1F
100
AcDbEntity
  8
0
100
AcDbBlockBegin
  2
*Model_Space
 70
     0
 10
0.0
 20
0.0
 30
0.0
  3
*Model_Space
  1
*Model_Space
  0
ENDBLK
  5
21
330
1F
100
AcDbEntity
  8
0
100
AcDbBlockEnd
  0
BLOCK
  5
1C
330
1B
100
AcDbEntity
 67
     1
  8
0
100
AcDbBlockBegin
  2
*Paper_Space
 70
     0
 10
0.0
 20
0.0
 30
0.0
  3
*Paper_Space
  1
*Paper_Space
  0
ENDBLK
  5
1D
330
1B
100
AcDbEntity
 67
     1
  8
0
100
AcDbBlockEnd
  0
BLOCK
  5
24
330
23
100
AcDbEntity
  8
0
100
AcDbBlockBegin
  2
*Paper_Space0
 70
     0
 10
0.0
 20
0.0
 30
0.0
  3
*Paper_Space0
  1
*Paper_Space0
  0
ENDBLK
  5
25
330
23
100
AcDbEntity
  8
0
100
AcDbBlockEnd
  0
BLOCK
  5
E9
330
E8
100
AcDbEntity
  8
0
100
AcDbBlockBegin
  2
SW_CENTERMARKSYMBOL_0
 70
     0
 10
0.0
 20
0.0
 30
0.0
  3
SW_CENTERMARKSYMBOL_0
  1
SW_CENTERMARKSYMBOL_0
  0
LINE
  5
EB
330
E8
100
AcDbEntity
  8
DIM
 62
     0
100
AcDbLine
 10
0.0
 20
0.0
 30
0.0
 11
0.0
 21
2.5
 31
0.0
  0
LINE
  5
EC
330
E8
100
AcDbEntity
  8
DIM
 62
     0
100
AcDbLine
 10
0.0
 20
0.0
 30
0.0
 11
-2.5
 21
0.0
 31
0.0
  0
LINE
  5
ED
330
E8
100
AcDbEntity
  8
DIM
 62
     0
100
AcDbLine
 10
0.0
 20
0.0
 30
0.0
 11
0.0
 21
-2.5
 31
0.0
  0
LINE
  5
EE
330
E8
100
AcDbEntity
  8
DIM
 62
     0
100
AcDbLine
 10
0.0
 20
0.0
 30
0.0
 11
2.5
 21
0.0
 31
0.0
  0
LINE
  5
EF
330
E8
100
AcDbEntity
  8
DIM
 62
     0
100
AcDbLine
 10
0.0
 20
5.0
 30
0.0
 11
0.0
 21
51.1328427125
 31
0.0
  0
LINE
  5
F0
330
E8
100
AcDbEntity
  8
DIM
 62
     0
100
AcDbLine
 10
-5.0
 20
0.0
 30
0.0
 11
-51.1328427125
 21
0.0
 31
0.0
  0
LINE
  5
F1
330
E8
100
AcDbEntity
  8
DIM
 62
     0
100
AcDbLine
 10
0.0
 20
-5.0
 30
0.0
 11
0.0
 21
-51.1328427125
 31
0.0
  0
LINE
  5
F2
330
E8
100
AcDbEntity
  8
DIM
 62
     0
100
AcDbLine
 10
5.0
 20
0.0
 30
0.0
 11
51.1328427125
 21
0.0
 31
0.0
  0
ENDBLK
  5
EA
330
E8
100
AcDbEntity
  8
0
100
AcDbBlockEnd
  0
BLOCK
  5
186
330
185
100
AcDbEntity
  8
0
100
AcDbBlockBegin
  2
_D
 70
     0
 10
0.0
 20
0.0
 30
0.0
  3
_D
  1
_D
  0
SOLID
  5
188
330
185
100
AcDbEntity
  8
DIM
100
AcDbTrace
 10
345.0816979396
 20
162.0264009278
 30
0.0
 11
344.4212979396
 21
157.7338009278
 31
0.0
 12
345.7420979396
 22
157.7338009278
 32
0.0
 13
345.7420979396
 23
157.7338009278
 33
0.0
  0
SOLID
  5
189
330
185
100
AcDbEntity
  8
DIM
100
AcDbTrace
 10
345.0816979396
 20
122.0264009278
 30
0.0
 11
345.7420979396
 21
126.3190009278
 31
0.0
 12
344.4212979396
 22
126.3190009278
 32
0.0
 13
344.4212979396
 23
126.3190009278
 33
0.0
  0
LINE
  5
18A
330
185
100
AcDbEntity
  8
DIM
100
AcDbLine
 10
322.5580810606
 20
162.0264009278
 30
0.0
 11
346.3816979396
 21
162.0264009278
 31
0.0
  0
LINE
  5
18B
330
185
100
AcDbEntity
  8
DIM
100
AcDbLine
 10
322.5580810606
 20
122.0264009278
 30
0.0
 11
346.3816979396
 21
122.0264009278
 31
0.0
  0
LINE
  5
18C
330
185
100
AcDbEntity
  8
DIM
100
AcDbLine
 10
345.0816979396
 20
162.0264009278
 30
0.0
 11
345.0816979396
 21
122.0264009278
 31
0.0
  0
MTEXT
  5
18D
330
185
100
AcDbEntity
  8
DIM
100
AcDbMText
 10
340.2044561323
 20
136.5435935914
 30
0.0
 40
3.7835416667
 41
0.0
 71
     1
 72
     1
  1
%%c
  7
SLDTEXTSTYLE0
 11
-7.044195017643634E-15
 21
1.0
 31
0.0
 73
     1
 44
1.0
  0
MTEXT
  5
18E
330
185
100
AcDbEntity
  8
DIM
100
AcDbMText
 10
340.2044561323
 20
142.3944202609
 30
0.0
 40
3.7835416667
 41
0.0
 71
     1
 72
     1
  1
40
  7
SLDTEXTSTYLE0
 11
-7.044195017643634E-15
 21
1.0
 31
0.0
 73
     1
 44
1.0
  0
ENDBLK
  5
187
330
185
100
AcDbEntity
  8
0
100
AcDbBlockEnd
  0
BLOCK
  5
191
330
190
100
AcDbEntity
  8
0
100
AcDbBlockBegin
  2
_D_1
 70
     0
 10
0.0
 20
0.0
 30
0.0
  3
_D_1
  1
_D_1
  0
SOLID
  5
193
330
190
100
AcDbEntity
  8
DIM
100
AcDbTrace
 10
354.3734799354
 20
186.0264009278
 30
0.0
 11
353.7130799354
 21
181.7338009278
 31
0.0
 12
355.0338799354
 22
181.7338009278
 32
0.0
 13
355.0338799354
 23
181.7338009278
 33
0.0
  0
SOLID
  5
194
330
190
100
AcDbEntity
  8
DIM
100
AcDbTrace
 10
354.3734799354
 20
98.0264009278
 30
0.0
 11
355.0338799354
 21
102.3190009278
 31
0.0
 12
353.7130799354
 22
102.3190009278
 32
0.0
 13
353.7130799354
 23
102.3190009278
 33
0.0
  0
LINE
  5
195
330
190
100
AcDbEntity
  8
DIM
100
AcDbLine
 10
295.0488287895
 20
186.0264009278
 30
0.0
 11
355.6734799354
 21
186.0264009278
 31
0.0
  0
LINE
  5
196
330
190
100
AcDbEntity
  8
DIM
100
AcDbLine
 10
295.0488287895
 20
98.0264009278
 30
0.0
 11
355.6734799354
 21
98.0264009278
 31
0.0
  0
LINE
  5
197
330
190
100
AcDbEntity
  8
DIM
100
AcDbLine
 10
354.3734799354
 20
186.0264009278
 30
0.0
 11
354.3734799354
 21
98.0264009278
 31
0.0
  0
MTEXT
  5
198
330
190
100
AcDbEntity
  8
DIM
100
AcDbMText
 10
349.4962381281
 20
136.5435935914
 30
0.0
 40
3.7835416667
 41
0.0
 71
     1
 72
     1
  1
%%c
  7
SLDTEXTSTYLE0
 11
-7.044195017643634E-15
 21
1.0
 31
0.0
 73
     1
 44
1.0
  0
MTEXT
  5
199
330
190
100
AcDbEntity
  8
DIM
100
AcDbMText
 10
349.4962381281
 20
142.3944202609
 30
0.0
 40
3.7835416667
 41
0.0
 71
     1
 72
     1
  1
88
  7
SLDTEXTSTYLE0
 11
-7.044195017643634E-15
 21
1.0
 31
0.0
 73
     1
 44
1.0
  0
ENDBLK
  5
192
330
190
100
AcDbEntity
  8
0
100
AcDbBlockEnd
  0
BLOCK
  5
19D
330
19C
100
AcDbEntity
  8
0
100
AcDbBlockBegin
  2
_D_2
 70
     0
 10
0.0
 20
0.0
 30
0.0
  3
_D_2
  1
_D_2
  0
SOLID
  5
19F
330
19C
100
AcDbEntity
  8
DIM
100
AcDbTrace
 10
131.2384891946
 20
190.7764009278
 30
0.0
 11
130.5780891946
 21
186.4838009278
 31
0.0
 12
131.8988891946
 22
186.4838009278
 32
0.0
 13
131.8988891946
 23
186.4838009278
 33
0.0
  0
SOLID
  5
1A0
330
19C
100
AcDbEntity
  8
DIM
100
AcDbTrace
 10
131.2384891946
 20
93.2764009278
 30
0.0
 11
131.8988891946
 21
97.5690009278
 31
0.0
 12
130.5780891946
 22
97.5690009278
 32
0.0
 13
130.5780891946
 23
97.5690009278
 33
0.0
  0
LINE
  5
1A1
330
19C
100
AcDbEntity
  8
DIM
100
AcDbLine
 10
242.8145142144
 20
190.7764009278
 30
0.0
 11
129.9384891946
 21
190.7764009278
 31
0.0
  0
LINE
  5
1A2
330
19C
100
AcDbEntity
  8
DIM
100
AcDbLine
 10
242.8145142144
 20
93.2764009278
 30
0.0
 11
129.9384891946
 21
93.2764009278
 31
0.0
  0
LINE
  5
1A3
330
19C
100
AcDbEntity
  8
DIM
100
AcDbLine
 10
131.2384891946
 20
190.7764009278
 30
0.0
 11
131.2384891946
 21
93.2764009278
 31
0.0
  0
MTEXT
  5
1A4
330
19C
100
AcDbEntity
  8
DIM
100
AcDbMText
 10
126.3612473873
 20
133.313569928
 30
0.0
 40
3.7835416667
 41
0.0
 71
     1
 72
     1
  1
%%c
  7
SLDTEXTSTYLE0
 11
-7.044195017643634E-15
 21
1.0
 31
0.0
 73
     1
 44
1.0
  0
MTEXT
  5
1A5
330
19C
100
AcDbEntity
  8
DIM
100
AcDbMText
 10
126.3612473873
 20
139.1643965974
 30
0.0
 40
3.7835416667
 41
0.0
 71
     1
 72
     1
  1
97.50
  7
SLDTEXTSTYLE0
 11
-7.044195017643634E-15
 21
1.0
 31
0.0
 73
     1
 44
1.0
  0
ENDBLK
  5
19E
330
19C
100
AcDbEntity
  8
0
100
AcDbBlockEnd
  0
BLOCK
  5
1A8
330
1A7
100
AcDbEntity
  8
0
100
AcDbBlockBegin
  2
_D_3
 70
     0
 10
0.0
 20
0.0
 30
0.0
  3
_D_3
  1
_D_3
  0
SOLID
  5
1AA
330
1A7
100
AcDbEntity
  8
DIM
100
AcDbTrace
 10
137.9988287895
 20
64.6763009278
 30
0.0
 11
142.2914287895
 21
64.0159009278
 31
0.0
 12
142.2914287895
 22
65.3367009278
 32
0.0
 13
142.2914287895
 23
65.3367009278
 33
0.0
  0
SOLID
  5
1AB
330
1A7
100
AcDbEntity
  8
DIM
100
AcDbTrace
 10
335.7488287895
 20
64.6763009278
 30
0.0
 11
331.4562287895
 21
65.3367009278
 31
0.0
 12
331.4562287895
 22
64.0159009278
 32
0.0
 13
331.4562287895
 23
64.0159009278
 33
0.0
  0
LINE
  5
1AC
330
1A7
100
AcDbEntity
  8
DIM
100
AcDbLine
 10
137.9988287895
 20
140.7264009278
 30
0.0
 11
137.9988287895
 21
63.3763009278
 31
0.0
  0
LINE
  5
1AD
330
1A7
100
AcDbEntity
  8
DIM
100
AcDbLine
 10
335.7488287895
 20
115.7264009278
 30
0.0
 11
335.7488287895
 21
63.3763009278
 31
0.0
  0
LINE
  5
1AE
330
1A7
100
AcDbEntity
  8
DIM
100
AcDbLine
 10
137.9988287895
 20
64.6763009278
 30
0.0
 11
335.7488287895
 21
64.6763009278
 31
0.0
  0
MTEXT
  5
1AF
330
1A7
100
AcDbEntity
  8
DIM
100
AcDbMText
 10
229.8077141235
 20
69.5535427351
 30
0.0
 40
3.7835416667
 41
0.0
 71
     1
 72
     1
  1
197.75
  7
SLDTEXTSTYLE0
 73
     1
 44
1.0
  0
ENDBLK
  5
1A9
330
1A7
100
AcDbEntity
  8
0
100
AcDbBlockEnd
  0
BLOCK
  5
1B2
330
1B1
100
AcDbEntity
  8
0
100
AcDbBlockBegin
  2
_D_4
 70
     0
 10
0.0
 20
0.0
 30
0.0
  3
_D_4
  1
_D_4
  0
SOLID
  5
1B4
330
1B1
100
AcDbEntity
  8
DIM
100
AcDbTrace
 10
294.7488287895
 20
79.3379642782
 30
0.0
 11
290.4562287895
 21
79.9983642782
 31
0.0
 12
290.4562287895
 22
78.6775642782
 32
0.0
 13
290.4562287895
 23
78.6775642782
 33
0.0
  0
SOLID
  5
1B5
330
1B1
100
AcDbEntity
  8
DIM
100
AcDbTrace
 10
239.7488287895
 20
79.3379642782
 30
0.0
 11
244.0414287895
 21
78.6775642782
 31
0.0
 12
244.0414287895
 22
79.9983642782
 32
0.0
 13
244.0414287895
 23
79.9983642782
 33
0.0
  0
LINE
  5
1B6
330
1B1
100
AcDbEntity
  8
DIM
100
AcDbLine
 10
294.7488287895
 20
97.7264009278
 30
0.0
 11
294.7488287895
 21
78.0379642782
 31
0.0
  0
LINE
  5
1B7
330
1B1
100
AcDbEntity
  8
DIM
100
AcDbLine
 10
239.7488287895
 20
105.8014009278
 30
0.0
 11
239.7488287895
 21
78.0379642782
 31
0.0
  0
LINE
  5
1B8
330
1B1
100
AcDbEntity
  8
DIM
100
AcDbLine
 10
294.7488287895
 20
79.3379642782
 30
0.0
 11
239.7488287895
 21
79.3379642782
 31
0.0
  0
MTEXT
  5
1B9
330
1B1
100
AcDbEntity
  8
DIM
100
AcDbMText
 10
264.6914347878
 20
84.2152060855
 30
0.0
 40
3.7835416667
 41
0.0
 71
     1
 72
     1
  1
55
  7
SLDTEXTSTYLE0
 73
     1
 44
1.0
  0
ENDBLK
  5
1B3
330
1B1
100
AcDbEntity
  8
0
100
AcDbBlockEnd
  0
BLOCK
  5
1BC
330
1BB
100
AcDbEntity
  8
0
100
AcDbBlockBegin
  2
_D_5
 70
     0
 10
0.0
 20
0.0
 30
0.0
  3
_D_5
  1
_D_5
  0
SOLID
  5
1BE
330
1BB
100
AcDbEntity
  8
DIM
100
AcDbTrace
 10
294.7488287895
 20
79.3379642782
 30
0.0
 11
299.0414287895
 21
78.6775642782
 31
0.0
 12
299.0414287895
 22
79.9983642782
 32
0.0
 13
299.0414287895
 23
79.9983642782
 33
0.0
  0
SOLID
  5
1BF
330
1BB
100
AcDbEntity
  8
DIM
100
AcDbTrace
 10
321.7488287895
 20
79.3379642782
 30
0.0
 11
317.4562287895
 21
79.9983642782
 31
0.0
 12
317.4562287895
 22
78.6775642782
 32
0.0
 13
317.4562287895
 23
78.6775642782
 33
0.0
  0
LINE
  5
1C0
330
1BB
100
AcDbEntity
  8
DIM
100
AcDbLine
 10
294.7488287895
 20
97.7264009278
 30
0.0
 11
294.7488287895
 21
78.0379642782
 31
0.0
  0
LINE
  5
1C1
330
1BB
100
AcDbEntity
  8
DIM
100
AcDbLine
 10
321.7488287895
 20
121.5764009278
 30
0.0
 11
321.7488287895
 21
78.0379642782
 31
0.0
  0
LINE
  5
1C2
330
1BB
100
AcDbEntity
  8
DIM
100
AcDbLine
 10
294.7488287895
 20
79.3379642782
 30
0.0
 11
321.7488287895
 21
79.3379642782
 31
0.0
  0
MTEXT
  5
1C3
330
1BB
100
AcDbEntity
  8
DIM
100
AcDbMText
 10
305.6914347878
 20
84.2152060855
 30
0.0
 40
3.7835416667
 41
0.0
 71
     1
 72
     1
  1
27
  7
SLDTEXTSTYLE0
 73
     1
 44
1.0
  0
ENDBLK
  5
1BD
330
1BB
100
AcDbEntity
  8
0
100
AcDbBlockEnd
  0
ENDSEC
  0
SECTION
  2
ENTITIES
  0
LINE
  5
76
330
1F
100
AcDbEntity
  8
DIM
100
AcDbLine
 10
136.1157520957
 20
12.7282888939
 30
0.0
 11
136.1157520957
 21
6.2282888939
 31
0.0
  0
LINE
  5
77
330
1F
100
AcDbEntity
  8
DIM
100
AcDbLine
 10
330.8104822039
 20
12.7282888939
 30
0.0
 11
330.8104822039
 21
6.2282888939
 31
0.0
  0
LINE
  5
78
330
1F
100
AcDbEntity
  8
DIM
100
AcDbLine
 10
308.6872229111
 20
12.7282888939
 30
0.0
 11
308.6872229111
 21
6.2282888939
 31
0.0
  0
LINE
  5
79
330
1F
100
AcDbEntity
  8
DIM
100
AcDbLine
 10
362.5757520957
 20
6.2282888939
 30
0.0
 11
362.5757520957
 21
12.7282888939
 31
0.0
  0
LINE
  5
7A
330
1F
100
AcDbEntity
  8
DIM
100
AcDbLine
 10
146.2557520957
 20
12.7282888939
 30
0.0
 11
146.2557520957
 21
6.2282888939
 31
0.0
  0
LINE
  5
7B
330
1F
100
AcDbEntity
  8
DIM
100
AcDbLine
 10
171.2039902596
 20
12.7282888939
 30
0.0
 11
171.2039902596
 21
6.2282888939
 31
0.0
  0
LINE
  5
7C
330
1F
100
AcDbEntity
  8
DIM
100
AcDbLine
 10
379.4757520957
 20
6.2282888939
 30
0.0
 11
379.4757520957
 21
100.1532888939
 31
0.0
  0
LINE
  5
7D
330
1F
100
AcDbEntity
  8
DIM
100
AcDbLine
 10
371.5647061031
 20
78.0532888939
 30
0.0
 11
379.4757520957
 21
78.0532888939
 31
0.0
  0
LINE
  5
7E
330
1F
100
AcDbEntity
  8
DIM
100
AcDbLine
 10
193.8343561083
 20
11.7532888939
 30
0.0
 11
193.8343561083
 21
6.2282888939
 31
0.0
  0
LINE
  5
7F
330
1F
100
AcDbEntity
  8
DIM
100
AcDbLine
 10
255.7931339086
 20
12.7282888939
 30
0.0
 11
255.7931339086
 21
6.2282888939
 31
0.0
  0
LINE
  5
80
330
1F
100
AcDbEntity
  8
DIM
100
AcDbLine
 10
193.8343561083
 20
12.7282888939
 30
0.0
 11
193.8343561083
 21
11.7532888939
 31
0.0
  0
LINE
  5
81
330
1F
100
AcDbEntity
  8
DIM
100
AcDbLine
 10
372.9757520957
 20
22.8031952939
 30
0.0
 11
379.4757520957
 21
22.8031952939
 31
0.0
  0
LINE
  5
82
330
1F
100
AcDbEntity
  8
DIM
100
AcDbLine
 10
372.9757520957
 20
259.7282888939
 30
0.0
 11
12.8757520957
 21
259.7282888939
 31
0.0
  0
LINE
  5
83
330
1F
100
AcDbEntity
  8
DIM
100
AcDbLine
 10
379.4757520957
 20
266.2282888939
 30
0.0
 11
6.3757520957
 21
266.2282888939
 31
0.0
  0
LINE
  5
84
330
1F
100
AcDbEntity
  8
DIM
100
AcDbLine
 10
12.8757520957
 20
259.7282888939
 30
0.0
 11
12.8757520957
 21
12.7282888939
 31
0.0
  0
LINE
  5
85
330
1F
100
AcDbEntity
  8
DIM
100
AcDbLine
 10
6.3757520957
 20
266.2282888939
 30
0.0
 11
6.3757520957
 21
6.2282888939
 31
0.0
  0
LINE
  5
86
330
1F
100
AcDbEntity
  8
DIM
100
AcDbLine
 10
12.8757520957
 20
71.2282888939
 30
0.0
 11
6.3757520957
 21
71.2282888939
 31
0.0
  0
LINE
  5
87
330
1F
100
AcDbEntity
  8
DIM
100
AcDbLine
 10
6.3757520957
 20
136.2282888939
 30
0.0
 11
12.8757520957
 21
136.2282888939
 31
0.0
  0
LINE
  5
88
330
1F
100
AcDbEntity
  8
DIM
100
AcDbLine
 10
6.3757520957
 20
6.2282888939
 30
0.0
 11
379.4757520957
 21
6.2282888939
 31
0.0
  0
LINE
  5
89
330
1F
100
AcDbEntity
  8
DIM
100
AcDbLine
 10
12.8757520957
 20
12.7282888939
 30
0.0
 11
379.4757520957
 21
12.7282888939
 31
0.0
  0
LINE
  5
8A
330
1F
100
AcDbEntity
  8
DIM
100
AcDbLine
 10
62.9257520957
 20
6.2282888939
 30
0.0
 11
62.9257520957
 21
12.7282888939
 31
0.0
  0
LINE
  5
8B
330
1F
100
AcDbEntity
  8
DIM
100
AcDbLine
 10
127.9257520957
 20
12.7282888939
 30
0.0
 11
127.9257520957
 21
6.2282888939
 31
0.0
  0
LINE
  5
8C
330
1F
100
AcDbEntity
  8
DIM
100
AcDbLine
 10
12.8757520957
 20
201.2282888939
 30
0.0
 11
6.3757520957
 21
201.2282888939
 31
0.0
  0
LINE
  5
8D
330
1F
100
AcDbEntity
  8
DIM
100
AcDbLine
 10
62.9257520957
 20
259.7282888939
 30
0.0
 11
62.9257520957
 21
266.2282888939
 31
0.0
  0
LINE
  5
8E
330
1F
100
AcDbEntity
  8
DIM
100
AcDbLine
 10
127.9257520957
 20
266.2282888939
 30
0.0
 11
127.9257520957
 21
259.7282888939
 31
0.0
  0
LINE
  5
8F
330
1F
100
AcDbEntity
  8
DIM
100
AcDbLine
 10
192.9257520957
 20
266.2282888939
 30
0.0
 11
192.9257520957
 21
259.7282888939
 31
0.0
  0
LINE
  5
90
330
1F
100
AcDbEntity
  8
DIM
100
AcDbLine
 10
372.9757520957
 20
12.7282888939
 30
0.0
 11
372.9757520957
 21
259.7282888939
 31
0.0
  0
LINE
  5
91
330
1F
100
AcDbEntity
  8
DIM
100
AcDbLine
 10
379.4757520957
 20
100.1532888939
 30
0.0
 11
379.4757520957
 21
266.2282888939
 31
0.0
  0
LINE
  5
92
330
1F
100
AcDbEntity
  8
DIM
100
AcDbLine
 10
379.4757520957
 20
136.2282888939
 30
0.0
 11
372.9757520957
 21
136.2282888939
 31
0.0
  0
LINE
  5
93
330
1F
100
AcDbEntity
  8
DIM
100
AcDbLine
 10
257.9257520957
 20
266.2282888939
 30
0.0
 11
257.9257520957
 21
259.7282888939
 31
0.0
  0
LINE
  5
94
330
1F
100
AcDbEntity
  8
DIM
100
AcDbLine
 10
322.9257520957
 20
259.7282888939
 30
0.0
 11
322.9257520957
 21
266.2282888939
 31
0.0
  0
LINE
  5
95
330
1F
100
AcDbEntity
  8
DIM
100
AcDbLine
 10
372.9757520957
 20
201.2282888939
 30
0.0
 11
379.4757520957
 21
201.2282888939
 31
0.0
  0
MTEXT
  5
97
330
1F
100
AcDbEntity
  8
DIM
100
AcDbMText
 10
20.9685714825
 20
252.0284640891
 30
0.0
 40
5.5033333333
 41
0.0
 71
     1
 72
     1
  1
SK 50 FMH-K40 055 AD+B/6.3G15000 SL SP.S
  7
SLDTEXTSTYLE0
 73
     1
 44
1.0
  0
MTEXT
  5
99
330
1F
100
AcDbEntity
  8
DIM
 62
     7
100
AcDbMText
 10
257.0526122406
 20
10.1425369842
 30
0.0
 40
1.94818
 41
0.0
 71
     1
 72
     1
  1
WEIGHT:
  7
SLDTEXTSTYLE1
 73
     1
 44
1.0
  0
MTEXT
  5
9A
330
1F
100
AcDbEntity
  8
DIM
 62
     7
100
AcDbMText
 10
375.1761997812
 20
106.5227975607
 30
0.0
 40
2.4077083333
 41
0.0
 71
     1
 72
     1
  1
C
  7
SLDTEXTSTYLE1
 73
     1
 44
1.0
  0
MTEXT
  5
9B
330
1F
100
AcDbEntity
  8
DIM
 62
     7
100
AcDbMText
 10
367.9566548053
 20
19.3101765787
 30
0.0
 40
3.7835416667
 41
0.0
 71
     1
 72
     1
  1
A4
  7
SLDTEXTSTYLE1
 73
     1
 44
1.0
  0
MTEXT
  5
9C
330
1F
100
AcDbEntity
  8
DIM
 62
     7
100
AcDbMText
 10
354.3424239624
 20
264.4967102185
 30
0.0
 40
2.4077083333
 41
0.0
 71
     1
 72
     1
  1
6
  7
SLDTEXTSTYLE1
 73
     1
 44
1.0
  0
MTEXT
  5
9D
330
1F
100
AcDbEntity
  8
DIM
 62
     7
100
AcDbMText
 10
289.3424239624
 20
264.4967102185
 30
0.0
 40
2.4077083333
 41
0.0
 71
     1
 72
     1
  1
5
  7
SLDTEXTSTYLE1
 73
     1
 44
1.0
  0
MTEXT
  5
9E
330
1F
100
AcDbEntity
  8
DIM
 62
     7
100
AcDbMText
 10
375.1424291624
 20
235.2467102185
 30
0.0
 40
2.4077083333
 41
0.0
 71
     1
 72
     1
  1
A
  7
SLDTEXTSTYLE1
 73
     1
 44
1.0
  0
MTEXT
  5
9F
330
1F
100
AcDbEntity
  8
DIM
 62
     7
100
AcDbMText
 10
375.1424291624
 20
170.2467102185
 30
0.0
 40
2.4077083333
 41
0.0
 71
     1
 72
     1
  1
B
  7
SLDTEXTSTYLE1
 73
     1
 44
1.0
  0
MTEXT
  5
A0
330
1F
100
AcDbEntity
  8
DIM
 62
     7
100
AcDbMText
 10
224.3424239624
 20
264.4967102185
 30
0.0
 40
2.4077083333
 41
0.0
 71
     1
 72
     1
  1
4
  7
SLDTEXTSTYLE1
 73
     1
 44
1.0
  0
MTEXT
  5
A1
330
1F
100
AcDbEntity
  8
DIM
 62
     7
100
AcDbMText
 10
29.884090629
 20
264.4967102185
 30
0.0
 40
2.4077083333
 41
0.0
 71
     1
 72
     1
  1
1
  7
SLDTEXTSTYLE1
 73
     1
 44
1.0
  0
MTEXT
  5
A2
330
1F
100
AcDbEntity
  8
DIM
 62
     7
100
AcDbMText
 10
94.3424239624
 20
264.4967102185
 30
0.0
 40
2.4077083333
 41
0.0
 71
     1
 72
     1
  1
2
  7
SLDTEXTSTYLE1
 73
     1
 44
1.0
  0
MTEXT
  5
A3
330
1F
100
AcDbEntity
  8
DIM
 62
     7
100
AcDbMText
 10
159.3424239624
 20
264.4967102185
 30
0.0
 40
2.4077083333
 41
0.0
 71
     1
 72
     1
  1
3
  7
SLDTEXTSTYLE1
 73
     1
 44
1.0
  0
MTEXT
  5
A4
330
1F
100
AcDbEntity
  8
DIM
 62
     7
100
AcDbMText
 10
8.5424187624
 20
235.2467102185
 30
0.0
 40
2.4077083333
 41
0.0
 71
     1
 72
     1
  1
A
  7
SLDTEXTSTYLE1
 73
     1
 44
1.0
  0
MTEXT
  5
A5
330
1F
100
AcDbEntity
  8
DIM
 62
     7
100
AcDbMText
 10
94.3424239624
 20
10.9967102185
 30
0.0
 40
2.4077083333
 41
0.0
 71
     1
 72
     1
  1
2
  7
SLDTEXTSTYLE1
 73
     1
 44
1.0
  0
MTEXT
  5
A6
330
1F
100
AcDbEntity
  8
DIM
 62
     7
100
AcDbMText
 10
29.884090629
 20
10.9967102185
 30
0.0
 40
2.4077083333
 41
0.0
 71
     1
 72
     1
  1
1
  7
SLDTEXTSTYLE1
 73
     1
 44
1.0
  0
MTEXT
  5
A7
330
1F
100
AcDbEntity
  8
DIM
 62
     7
100
AcDbMText
 10
8.5424187624
 20
40.2467102185
 30
0.0
 40
2.4077083333
 41
0.0
 71
     1
 72
     1
  1
D
  7
SLDTEXTSTYLE1
 73
     1
 44
1.0
  0
MTEXT
  5
A8
330
1F
100
AcDbEntity
  8
DIM
 62
     7
100
AcDbMText
 10
8.5424187624
 20
105.2467102185
 30
0.0
 40
2.4077083333
 41
0.0
 71
     1
 72
     1
  1
C
  7
SLDTEXTSTYLE1
 73
     1
 44
1.0
  0
MTEXT
  5
A9
330
1F
100
AcDbEntity
  8
DIM
 62
     7
100
AcDbMText
 10
8.5424187624
 20
170.2467102185
 30
0.0
 40
2.4077083333
 41
0.0
 71
     1
 72
     1
  1
B
  7
SLDTEXTSTYLE1
 73
     1
 44
1.0
  0
MTEXT
  5
AA
330
1F
100
AcDbEntity
  8
DIM
 62
     7
100
AcDbMText
 10
375.1761997812
 20
106.5227975607
 30
0.0
 40
2.4077083333
 41
0.0
 71
     1
 72
     1
  1
C
  7
SLDTEXTSTYLE1
 73
     1
 44
1.0
  0
MTEXT
  5
AC
330
1F
100
AcDbEntity
  8
DIM
 62
     7
100
AcDbMText
 10
333.4829755563
 20
9.9984023508
 30
0.0
 40
1.95
 41
0.0
 71
     1
 72
     1
  1
SHEET 1 OF 1
  7
SLDTEXTSTYLE2
 73
     1
 44
1.0
  0
MTEXT
  5
AD
330
1F
100
AcDbEntity
  8
DIM
 62
     7
100
AcDbMText
 10
195.4833144985
 20
10.2093777287
 30
0.0
 40
1.95
 41
0.0
 71
     1
 72
     1
  1
MATERIAL:
  7
SLDTEXTSTYLE1
 73
     1
 44
1.0
  0
MTEXT
  5
AE
330
1F
100
AcDbEntity
  8
DIM
 62
     7
100
AcDbMText
 10
354.3424239624
 20
264.4967102185
 30
0.0
 40
2.4077083333
 41
0.0
 71
     1
 72
     1
  1
6
  7
SLDTEXTSTYLE1
 73
     1
 44
1.0
  0
MTEXT
  5
AF
330
1F
100
AcDbEntity
  8
DIM
 62
     7
100
AcDbMText
 10
289.3424239624
 20
264.4967102185
 30
0.0
 40
2.4077083333
 41
0.0
 71
     1
 72
     1
  1
5
  7
SLDTEXTSTYLE1
 73
     1
 44
1.0
  0
MTEXT
  5
B0
330
1F
100
AcDbEntity
  8
DIM
 62
     7
100
AcDbMText
 10
375.1424291624
 20
235.2467102185
 30
0.0
 40
2.4077083333
 41
0.0
 71
     1
 72
     1
  1
A
  7
SLDTEXTSTYLE1
 73
     1
 44
1.0
  0
MTEXT
  5
B1
330
1F
100
AcDbEntity
  8
DIM
 62
     7
100
AcDbMText
 10
375.1424291624
 20
170.2467102185
 30
0.0
 40
2.4077083333
 41
0.0
 71
     1
 72
     1
  1
B
  7
SLDTEXTSTYLE1
 73
     1
 44
1.0
  0
MTEXT
  5
B2
330
1F
100
AcDbEntity
  8
DIM
 62
     7
100
AcDbMText
 10
224.3424239624
 20
264.4967102185
 30
0.0
 40
2.4077083333
 41
0.0
 71
     1
 72
     1
  1
4
  7
SLDTEXTSTYLE1
 73
     1
 44
1.0
  0
MTEXT
  5
B3
330
1F
100
AcDbEntity
  8
DIM
 62
     7
100
AcDbMText
 10
29.884090629
 20
264.4967102185
 30
0.0
 40
2.4077083333
 41
0.0
 71
     1
 72
     1
  1
1
  7
SLDTEXTSTYLE1
 73
     1
 44
1.0
  0
MTEXT
  5
B4
330
1F
100
AcDbEntity
  8
DIM
 62
     7
100
AcDbMText
 10
94.3424239624
 20
264.4967102185
 30
0.0
 40
2.4077083333
 41
0.0
 71
     1
 72
     1
  1
2
  7
SLDTEXTSTYLE1
 73
     1
 44
1.0
  0
MTEXT
  5
B5
330
1F
100
AcDbEntity
  8
DIM
 62
     7
100
AcDbMText
 10
159.3424239624
 20
264.4967102185
 30
0.0
 40
2.4077083333
 41
0.0
 71
     1
 72
     1
  1
3
  7
SLDTEXTSTYLE1
 73
     1
 44
1.0
  0
MTEXT
  5
B6
330
1F
100
AcDbEntity
  8
DIM
 62
     7
100
AcDbMText
 10
8.5424187624
 20
235.2467102185
 30
0.0
 40
2.4077083333
 41
0.0
 71
     1
 72
     1
  1
A
  7
SLDTEXTSTYLE1
 73
     1
 44
1.0
  0
MTEXT
  5
B7
330
1F
100
AcDbEntity
  8
DIM
 62
     7
100
AcDbMText
 10
94.3424239624
 20
10.9967102185
 30
0.0
 40
2.4077083333
 41
0.0
 71
     1
 72
     1
  1
2
  7
SLDTEXTSTYLE1
 73
     1
 44
1.0
  0
MTEXT
  5
B8
330
1F
100
AcDbEntity
  8
DIM
 62
     7
100
AcDbMText
 10
29.884090629
 20
10.9967102185
 30
0.0
 40
2.4077083333
 41
0.0
 71
     1
 72
     1
  1
1
  7
SLDTEXTSTYLE1
 73
     1
 44
1.0
  0
MTEXT
  5
B9
330
1F
100
AcDbEntity
  8
DIM
 62
     7
100
AcDbMText
 10
8.5424187624
 20
40.2467102185
 30
0.0
 40
2.4077083333
 41
0.0
 71
     1
 72
     1
  1
D
  7
SLDTEXTSTYLE1
 73
     1
 44
1.0
  0
MTEXT
  5
BA
330
1F
100
AcDbEntity
  8
DIM
 62
     7
100
AcDbMText
 10
8.5424187624
 20
105.2467102185
 30
0.0
 40
2.4077083333
 41
0.0
 71
     1
 72
     1
  1
C
  7
SLDTEXTSTYLE1
 73
     1
 44
1.0
  0
MTEXT
  5
BB
330
1F
100
AcDbEntity
  8
DIM
 62
     7
100
AcDbMText
 10
8.5424187624
 20
170.2467102185
 30
0.0
 40
2.4077083333
 41
0.0
 71
     1
 72
     1
  1
B
  7
SLDTEXTSTYLE1
 73
     1
 44
1.0
  0
SPLINE
  5
BC
330
1F
100
AcDbEntity
  8
0
  6
Continuous
 62
     7
370
    15
100
AcDbSpline
210
0.0
220
0.0
230
1.0
 70
     8
 71
     3
 72
    14
 73
    10
 74
     0
 42
0.000000001
 43
0.00000001
 40
0.0
 40
0.0
 40
0.0
 40
0.0
 40
0.25
 40
0.25
 40
0.5
 40
0.5
 40
0.75
 40
0.75
 40
1.0
 40
1.0
 40
1.0
 40
1.0
 10
88.18305929917983
 20
142.0264009278198
 30
0.0
 10
88.18305929917983
 20
136.9286665510453
 30
0.0
 10
86.15783287311089
 20
132.0393374463533
 30
0.0
 10
78.94854778010091
 20
124.8300523533433
 30
0.0
 10
74.05921867540889
 20
122.8048259272744
 30
0.0
 10
63.86374992186
 20
122.8048259272744
 30
0.0
 10
58.97442081716796
 20
124.8300523533433
 30
0.0
 10
51.76513572415799
 20
132.0393374463533
 30
0.0
 10
49.73990929808905
 20
136.9286665510453
 30
0.0
 10
49.73990929808904
 20
142.0264009278198
 30
0.0
  0
SPLINE
  5
BD
330
1F
100
AcDbEntity
  8
0
  6
Continuous
 62
     7
370
    15
100
AcDbSpline
210
0.0
220
0.0
230
1.0
 70
     8
 71
     3
 72
    14
 73
    10
 74
     0
 42
0.000000001
 43
0.00000001
 40
0.0
 40
0.0
 40
0.0
 40
0.0
 40
0.25
 40
0.25
 40
0.5
 40
0.5
 40
0.75
 40
0.75
 40
1.0
 40
1.0
 40
1.0
 40
1.0
 10
49.73990929808905
 20
142.0264009278198
 30
0.0
 10
49.73990929808905
 20
147.1241353045942
 30
0.0
 10
51.76513572415799
 20
152.0134644092863
 30
0.0
 10
58.97442081716796
 20
159.2227495022962
 30
0.0
 10
63.86374992185999
 20
161.2479759283652
 30
0.0
 10
74.05921867540889
 20
161.2479759283652
 30
0.0
 10
78.94854778010091
 20
159.2227495022962
 30
0.0
 10
86.15783287311089
 20
152.0134644092863
 30
0.0
 10
88.18305929917983
 20
147.1241353045942
 30
0.0
 10
88.18305929917983
 20
142.0264009278198
 30
0.0
  0
CIRCLE
  5
BE
330
1F
100
AcDbEntity
  8
0
  6
Continuous
 62
     7
370
    15
100
AcDbCircle
 10
68.9614842986
 20
142.0264009278
 30
0.0
 40
20.21110778703758
  0
CIRCLE
  5
BF
330
1F
100
AcDbEntity
  8
0
  6
Continuous
 62
     7
370
    15
100
AcDbCircle
 10
68.9614842986
 20
142.0264009278
 30
0.0
 40
34.92499999999999
  0
SPLINE
  5
C0
330
1F
100
AcDbEntity
  8
0
  6
Continuous
 62
     7
370
    15
100
AcDbSpline
210
0.0
220
0.0
230
1.0
 70
     8
 71
     3
 72
    52
 73
    48
 74
     0
 42
0.000000001
 43
0.00000001
 40
0.0
 40
0.0
 40
0.0
 40
0.0
 40
0.0053074994726554
 40
0.0106084744807156
 40
0.0159043870752884
 40
0.0211967035030982
 40
0.0264868930010475
 40
0.031776426578386
 40
0.0370667757915106
 40
0.0423594115164833
 40
0.0476558027243854
 40
0.0529574152645906
 40
0.0582657106609693
 40
0.0891348494758177
 40
0.1200087595578935
 40
0.1521645941108524
 40
0.1843252192282218
 40
0.2171652710885947
 40
0.2500102154523581
 40
0.2828502674523063
 40
0.3156952119562962
 40
0.3478510468948057
 40
0.380011672397905
 40
0.4108808109142898
 40
0.4417547207534483
 40
0.470875333637603
 40
0.5000007798720159
 40
0.5291213927975412
 40
0.5582468390472084
 40
0.5891159778617261
 40
0.6199898879441322
 40
0.652145722497098
 40
0.6843063476144644
 40
0.7171463994755694
 40
0.7499913438386044
 40
0.7828313958395676
 40
0.8156763403425417
 40
0.8478321752819549
 40
0.8799928007841501
 40
0.9108619393016738
 40
0.941735849139696
 40
0.9514609652020397
 40
0.9611682412334405
 40
0.9708667191333772
 40
0.9805654654081966
 40
0.9902735458123287
 40
1.0
 40
1.0
 40
1.0
 40
1.0
 10
33.96148429863443
 20
142.0264009278198
 30
0.0
 10
33.96241232954489
 20
142.2208630858727
 30
0.0
 10
33.96426725054521
 20
142.6095483512784
 30
0.0
 10
33.97929628489683
 20
143.1921113212999
 30
0.0
 10
34.00329491393121
 20
143.7737972086693
 30
0.0
 10
34.03713921801432
 20
144.3546059034864
 30
0.0
 10
34.08059475974792
 20
144.9345372519056
 30
0.0
 10
34.13372432081398
 20
145.5135911723303
 30
0.0
 10
34.19651099053617
 20
146.0917673364669
 30
0.0
 10
34.26895958305274
 20
146.6690663338353
 30
0.0
 10
34.35106762054576
 20
147.2454853339829
 30
0.0
 10
34.44284002253941
 20
147.821034295561
 30
0.0
 10
34.70697952417282
 20
149.3176468990746
 30
0.0
 10
35.27074727707822
 20
151.7133537602427
 30
0.0
 10
36.38336445741694
 20
154.9742248662952
 30
0.0
 10
37.83053067295754
 20
158.1541137485889
 30
0.0
 10
39.62970630236425
 20
161.2326126803446
 30
0.0
 10
41.7461268779246
 20
164.1340725883815
 30
0.0
 10
44.16901207143972
 20
166.8186195643754
 30
0.0
 10
46.85367255005819
 20
169.2416447393219
 30
0.0
 10
49.75497268961848
 20
171.357983975399
 30
0.0
 10
52.83362578764547
 20
173.157276167518
 30
0.0
 10
56.01328922165379
 20
174.6043843007254
 30
0.0
 10
59.27452551966011
 20
175.7171141177303
 30
0.0
 10
62.52026981839413
 20
176.4810016031264
 30
0.0
 10
65.75913593655005
 20
176.9292796031368
 30
0.0
 10
68.96130732647991
 20
177.074957467977
 30
0.0
 10
72.16365479712617
 20
176.9292960905285
 30
0.0
 10
75.40235305684008
 20
176.4810658980675
 30
0.0
 10
78.64827366641313
 20
175.7171638389447
 30
0.0
 10
81.90935406697258
 20
174.604513509586
 30
0.0
 10
85.08918463542767
 20
173.1573565345307
 30
0.0
 10
88.16769947563768
 20
171.3581783673015
 30
0.0
 10
91.06915503176425
 20
169.241758550454
 30
0.0
 10
93.75370318977376
 20
166.8188729093436
 30
0.0
 10
96.17672801935653
 20
164.1342134568582
 30
0.0
 10
98.29306745352153
 20
161.2329096855053
 30
0.0
 10
100.0923592061596
 20
158.1542698229232
 30
0.0
 10
101.5394688755192
 20
154.9745578774994
 30
0.0
 10
102.6521931991825
 20
151.7134956678241
 30
0.0
 10
103.2530391312253
 20
149.1600815824699
 30
0.0
 10
103.5609792107444
 20
147.3426618768682
 30
0.0
 10
103.707118321667
 20
146.2852151386397
 30
0.0
 10
103.8209243489281
 20
145.2247778852649
 30
0.0
 10
103.9016196697347
 20
144.1613239111128
 30
0.0
 10
103.9521412051503
 20
143.0948635423784
 30
0.0
 10
103.958367971838
 20
142.3827795386527
 30
0.0
 10
103.9614842986344
 20
142.0264009278198
 30
0.0
  0
SPLINE
  5
C1
330
1F
100
AcDbEntity
  8
0
  6
Continuous
 62
     7
370
    15
100
AcDbSpline
210
0.0
220
0.0
230
1.0
 70
     8
 71
     3
 72
    52
 73
    48
 74
     0
 42
0.000000001
 43
0.00000001
 40
0.0
 40
0.0
 40
0.0
 40
0.0
 40
0.0053074994726554
 40
0.0106084744807156
 40
0.0159043870752884
 40
0.0211967035030983
 40
0.0264868930010475
 40
0.0317764265783861
 40
0.0370667757915106
 40
0.0423594115164834
 40
0.0476558027243854
 40
0.0529574152645907
 40
0.0582657106609694
 40
0.0891348494759667
 40
0.1200087595578951
 40
0.1521645941111445
 40
0.1843252192282232
 40
0.2171652710889209
 40
0.25001021545236
 40
0.2828502674525652
 40
0.315695211956297
 40
0.3478510468951538
 40
0.3800116723979077
 40
0.41088081091547
 40
0.4417547207534571
 40
0.4708753336379863
 40
0.5000007798720127
 40
0.5291213927971703
 40
0.5582468390472111
 40
0.5891159778626601
 40
0.6199898879441411
 40
0.6521457224976949
 40
0.6843063476144631
 40
0.7171463994753853
 40
0.7499913438386053
 40
0.7828313958393156
 40
0.8156763403425399
 40
0.8478321752809374
 40
0.8799928007841432
 40
0.9108619393011222
 40
0.9417358491396983
 40
0.9514609652021586
 40
0.9611682412336295
 40
0.9708667191335897
 40
0.9805654654083855
 40
0.9902735458124469
 40
1.0
 40
1.0
 40
1.0
 40
1.0
 10
103.9614842986344
 20
142.0264009278198
 30
0.0
 10
103.960556267724
 20
141.8319387697668
 30
0.0
 10
103.9587013467237
 20
141.4432535043612
 30
0.0
 10
103.9436723123721
 20
140.8606905343396
 30
0.0
 10
103.9196736833377
 20
140.2790046469703
 30
0.0
 10
103.8858293792545
 20
139.6981959521532
 30
0.0
 10
103.842373837521
 20
139.1182646037339
 30
0.0
 10
103.7892442764549
 20
138.5392106833092
 30
0.0
 10
103.7264576067327
 20
137.9610345191726
 30
0.0
 10
103.6540090142161
 20
137.3837355218043
 30
0.0
 10
103.5719009767231
 20
136.8073165216567
 30
0.0
 10
103.4801285747295
 20
136.2317675600786
 30
0.0
 10
103.215989073095
 20
134.7351549565595
 30
0.0
 10
102.6522213201919
 20
132.3394480953907
 30
0.0
 10
101.5396041398455
 20
129.0785769893296
 30
0.0
 10
100.0924379243065
 20
125.898688107041
 30
0.0
 10
98.29326229489217
 20
122.8201891752761
 30
0.0
 10
96.17684171933722
 20
119.9187292672483
 30
0.0
 10
93.7539565258142
 20
117.2341822912489
 30
0.0
 10
91.06929604720214
 20
114.8111571163129
 30
0.0
 10
88.16799590763169
 20
112.6948178802289
 30
0.0
 10
85.08934280961392
 20
110.8955256881117
 30
0.0
 10
81.9096793755625
 20
109.4484175548956
 30
0.0
 10
78.64844307757014
 20
108.3356877378876
 30
0.0
 10
75.40269877881896
 20
107.5718002525002
 30
0.0
 10
72.1638326607027
 20
107.1235222525245
 30
0.0
 10
68.96166127078891
 20
106.9778443876606
 30
0.0
 10
65.759313800155
 20
107.1235057650991
 30
0.0
 10
62.5206155404093
 20
107.571735957579
 30
0.0
 10
59.27469493081995
 20
108.3356380166935
 30
0.0
 10
56.013614530244
 20
109.4482883460736
 30
0.0
 10
52.83378396182984
 20
110.8954453211344
 30
0.0
 10
49.75526912161737
 20
112.694623488344
 30
0.0
 10
46.85381356550855
 20
114.8110433051798
 30
0.0
 10
44.16926540750585
 20
117.2339289462841
 30
0.0
 10
41.74624057792248
 20
119.9185883987775
 30
0.0
 10
39.62990114377091
 20
122.8198921700943
 30
0.0
 10
37.83060939113422
 20
125.8985320326873
 30
0.0
 10
36.38349972177227
 20
129.0782439780873
 30
0.0
 10
35.27077539807555
 20
132.3393061877912
 30
0.0
 10
34.66992946604504
 20
134.8927202731537
 30
0.0
 10
34.36198938652481
 20
136.7101399787826
 30
0.0
 10
34.21585027560221
 20
137.7675867170189
 30
0.0
 10
34.10204424834104
 20
138.8280239703963
 30
0.0
 10
34.0213489275344
 20
139.8914779445458
 30
0.0
 10
33.97082739211859
 20
140.9579383132724
 30
0.0
 10
33.96460062543089
 20
141.6700223169912
 30
0.0
 10
33.96148429863443
 20
142.0264009278198
 30
0.0
  0
SPLINE
  5
C2
330
1F
100
AcDbEntity
  8
0
  6
Continuous
 62
     7
370
    15
100
AcDbSpline
210
0.0
220
0.0
230
1.0
 70
    24
 71
     3
 72
     8
 73
     4
 74
     0
 42
0.000000001
 43
0.00000001
 40
0.0
 40
0.0
 40
0.0
 40
0.0
 40
1.0
 40
1.0
 40
1.0
 40
1.0
 10
38.96148429863442
 20
179.3260624113868
 30
0.0
 10
38.96148429863442
 20
179.2225533671524
 30
0.0
 10
38.96148429863443
 20
179.0931298053203
 30
0.0
 10
38.96148429863443
 20
178.9623860044005
 30
0.0
  0
ARC
  5
C3
330
1F
100
AcDbEntity
  8
0
  6
Continuous
 62
     7
370
    15
100
AcDbCircle
 10
68.9614842986
 20
142.0264009278
 30
0.0
 40
47.58431457505079
100
AcDbArc
 50
129.0840578538
 51
140.9159421462
  0
SPLINE
  5
C4
330
1F
100
AcDbEntity
  8
0
  6
Continuous
 62
     7
370
    15
100
AcDbSpline
210
0.0
220
0.0
230
1.0
 70
    24
 71
     3
 72
     8
 73
     4
 74
     0
 42
0.000000001
 43
0.00000001
 40
0.0
 40
0.0
 40
0.0
 40
0.0
 40
1.0
 40
1.0
 40
1.0
 40
1.0
 10
32.02549922205378
 20
172.0264009278198
 30
0.0
 10
31.89479507244689
 20
172.0264009278198
 30
0.0
 10
31.76525810543072
 20
172.0264009278197
 30
0.0
 10
31.66182281506739
 20
172.0264009278197
 30
0.0
  0
ARC
  5
C5
330
1F
100
AcDbEntity
  8
0
  6
Continuous
 62
     7
370
    15
100
AcDbCircle
 10
68.9614842986
 20
142.0264009278
 30
0.0
 40
47.86715728752537
100
AcDbArc
 50
128.8096103904
 51
141.1903896096
  0
SPLINE
  5
C6
330
1F
100
AcDbEntity
  8
0
  6
Continuous
 62
     7
370
    15
100
AcDbSpline
210
0.0
220
0.0
230
1.0
 70
     8
 71
     3
 72
    10
 73
     6
 74
     0
 42
0.000000001
 43
0.00000001
 40
0.0
 40
0.0
 40
0.0
 40
0.0
 40
0.5
 40
0.5
 40
1.0
 40
1.0
 40
1.0
 40
1.0
 10
114.5757857136226
 20
155.5764009278197
 30
0.0
 10
114.6397374024657
 20
155.5764009278197
 30
0.0
 10
114.7013017409168
 20
155.5625550517949
 30
0.0
 10
114.8119270917658
 20
155.5203892756076
 30
0.0
 10
114.8616137834353
 20
155.4918985753445
 30
0.0
 10
114.9051833601011
 20
155.4592436402944
 30
0.0
  0
ARC
  5
C7
330
1F
100
AcDbEntity
  8
0
  6
Continuous
 62
     7
370
    15
100
AcDbCircle
 10
68.9614842986
 20
142.0264009278
 30
0.0
 40
47.86715728752538
100
AcDbArc
 50
343.7023380383
 51
16.2976619617
  0
SPLINE
  5
C8
330
1F
100
AcDbEntity
  8
0
  6
Continuous
 62
     7
370
    15
100
AcDbSpline
210
0.0
220
0.0
230
1.0
 70
     8
 71
     3
 72
    10
 73
     6
 74
     0
 42
0.000000001
 43
0.00000001
 40
0.0
 40
0.0
 40
0.0
 40
0.0
 40
0.5
 40
0.5
 40
1.0
 40
1.0
 40
1.0
 40
1.0
 10
114.9051833601011
 20
128.5935582153452
 30
0.0
 10
114.8616429686824
 20
128.5609251543278
 30
0.0
 10
114.8130883645646
 20
128.5329442680616
 30
0.0
 10
114.7016388288027
 20
128.4902874176866
 30
0.0
 10
114.6396805762136
 20
128.4764009278198
 30
0.0
 10
114.5757857136226
 20
128.4764009278198
 30
0.0
  0
ARC
  5
C9
330
1F
100
AcDbEntity
  8
0
  6
Continuous
 62
     7
370
    15
100
AcDbCircle
 10
68.9614842986
 20
142.0264009278
 30
0.0
 40
47.58431457505078
100
AcDbArc
 50
343.4556342686
 51
16.5443657314
  0
ARC
  5
CA
330
1F
100
AcDbEntity
  8
0
  6
Continuous
 62
     7
370
    15
100
AcDbCircle
 10
68.9614842986
 20
142.0264009278
 30
0.0
 40
47.58431457505077
100
AcDbArc
 50
163.4556342686
 51
196.5443657314
  0
SPLINE
  5
CB
330
1F
100
AcDbEntity
  8
0
  6
Continuous
 62
     7
370
    15
100
AcDbSpline
210
0.0
220
0.0
230
1.0
 70
     8
 71
     3
 72
    10
 73
     6
 74
     0
 42
0.000000001
 43
0.00000001
 40
0.0
 40
0.0
 40
0.0
 40
0.0
 40
0.5
 40
0.5
 40
1.0
 40
1.0
 40
1.0
 40
1.0
 10
23.34718288364627
 20
128.4764009278198
 30
0.0
 10
23.28323119480313
 20
128.4764009278198
 30
0.0
 10
23.22166685635203
 20
128.4902468038447
 30
0.0
 10
23.111041505503
 20
128.532412580032
 30
0.0
 10
23.06135481383359
 20
128.5609032802951
 30
0.0
 10
23.01778523716777
 20
128.5935582153452
 30
0.0
  0
ARC
  5
CC
330
1F
100
AcDbEntity
  8
0
  6
Continuous
 62
     7
370
    15
100
AcDbCircle
 10
68.9614842986
 20
142.0264009278
 30
0.0
 40
47.86715728752538
100
AcDbArc
 50
163.7023380383
 51
196.2976619617
  0
SPLINE
  5
CD
330
1F
100
AcDbEntity
  8
0
  6
Continuous
 62
     7
370
    15
100
AcDbSpline
210
0.0
220
0.0
230
1.0
 70
     8
 71
     3
 72
    10
 73
     6
 74
     0
 42
0.000000001
 43
0.00000001
 40
0.0
 40
0.0
 40
0.0
 40
0.0
 40
0.5
 40
0.5
 40
1.0
 40
1.0
 40
1.0
 40
1.0
 10
23.3471828836463
 20
155.5764009278198
 30
0.0
 10
23.28323119480316
 20
155.5764009278198
 30
0.0
 10
23.22166685635202
 20
155.5625550517949
 30
0.0
 10
23.11104150550303
 20
155.5203892756076
 30
0.0
 10
23.06135481383359
 20
155.4918985753445
 30
0.0
 10
23.01778523716777
 20
155.4592436402944
 30
0.0
  0
SPLINE
  5
CE
330
1F
100
AcDbEntity
  8
0
  6
Continuous
 62
     7
370
    15
100
AcDbSpline
210
0.0
220
0.0
230
1.0
 70
     8
 71
     3
 72
    40
 73
    36
 74
     0
 42
0.000000001
 43
0.00000001
 40
0.0
 40
0.0
 40
0.0
 40
0.0
 40
0.0076138096090706
 40
0.015222703696619
 40
0.0228283796622113
 40
0.0304325370604607
 40
0.0380368764641707
 40
0.0456430983240686
 40
0.0532529018289472
 40
0.0608679837700325
 40
0.0919930035882894
 40
0.1231236538966525
 40
0.1547321881285151
 40
0.1863461940165317
 40
0.2182020912711853
 40
0.2500635030030784
 40
0.3137495787501998
 40
0.3769416086590435
 40
0.439168148565131
 40
0.5000004350472922
 40
0.5608327215294534
 40
0.6230592614355407
 40
0.6862512913443847
 40
0.7499373670915059
 40
0.7817932643700992
 40
0.813654676120411
 40
0.8452632104154371
 40
0.8768772163635395
 40
0.9080022357785864
 40
0.9391328857746177
 40
0.9513123423166135
 40
0.963481817855821
 40
0.9756482751522532
 40
0.9878186821461872
 40
1.0
 40
1.0
 40
1.0
 40
1.0
 10
114.5757857136226
 20
155.5764009278197
 30
0.0
 10
114.5072863027903
 20
155.8034136855424
 30
0.0
 10
114.3703317047596
 20
156.2572926401787
 30
0.0
 10
114.1521016156225
 20
156.933959861349
 30
0.0
 10
113.924605994227
 20
157.6072305619159
 30
0.0
 10
113.6869210300589
 20
158.2768300927061
 30
0.0
 10
113.4392938840171
 20
158.9428322330564
 30
0.0
 10
113.1816594539656
 20
159.6052157680753
 30
0.0
 10
112.914031273618
 20
160.2639912030882
 30
0.0
 10
112.3508386236281
 20
161.5930949383284
 30
0.0
 10
111.4258199514623
 20
163.5643957097383
 30
0.0
 10
110.0234072390116
 20
166.1312407891528
 30
0.0
 10
108.4578676309033
 20
168.6201906155601
 30
0.0
 10
106.7273561756498
 20
171.0252200276556
 30
0.0
 10
104.8457017384851
 20
173.3243303853949
 30
0.0
 10
102.1438719713871
 20
176.232924259346
 30
0.0
 10
98.44450823386812
 20
179.5335031058049
 30
0.0
 10
93.58423132872926
 20
182.885552423379
 30
0.0
 10
88.4279436278747
 20
185.5738632123557
 30
0.0
 10
83.05477981236363
 20
187.5944918796286
 30
0.0
 10
77.47904313909696
 20
188.9601382809243
 30
0.0
 10
71.7053695919619
 20
189.652245011476
 30
0.0
 10
65.80130293728861
 20
189.6293910787509
 30
0.0
 10
60.88467521187321
 20
188.9936400667011
 30
0.0
 10
57.01252941992592
 20
188.1182650404612
 30
0.0
 10
54.16160196842623
 20
187.2829592551384
 30
0.0
 10
51.37530415032551
 20
186.2747932644532
 30
0.0
 10
48.67811872038408
 20
185.1043528699412
 30
0.0
 10
46.07127598889573
 20
183.7773675571675
 30
0.0
 10
44.07230406318971
 20
182.600347529619
 30
0.0
 10
42.6218398293047
 20
181.6612738439671
 30
0.0
 10
41.6821075712915
 20
181.0206320406175
 30
0.0
 10
40.758545494795
 20
180.3574502993227
 30
0.0
 10
39.84958901070272
 20
179.6736351114277
 30
0.0
 10
39.25760761564222
 20
179.1995398466554
 30
0.0
 10
38.96148429863445
 20
178.9623860044004
 30
0.0
  0
SPLINE
  5
CF
330
1F
100
AcDbEntity
  8
0
  6
Continuous
 62
     7
370
    15
100
AcDbSpline
210
0.0
220
0.0
230
1.0
 70
     8
 71
     3
 72
    48
 73
    44
 74
     0
 42
0.000000001
 43
0.00000001
 40
0.0
 40
0.0
 40
0.0
 40
0.0
 40
0.0054347037865788
 40
0.0108647463477061
 40
0.0162911759166432
 40
0.0217150428214259
 40
0.0271373988792792
 40
0.0325592967867153
 40
0.037981789507076
 40
0.0434059296572976
 40
0.0488327688956858
 40
0.0542633573124739
 40
0.0596987428249262
 40
0.0907177253989547
 40
0.1217409090757452
 40
0.1535986684460869
 40
0.1854607425290368
 40
0.2177550902636995
 40
0.2500538118399324
 40
0.282348159626834
 40
0.314646881254197
 40
0.3465046407741307
 40
0.3783667150011463
 40
0.4403596830876957
 40
0.5000005600694934
 40
0.5596414370512913
 40
0.6216344051378407
 40
0.6534921645077113
 40
0.6853542385911362
 40
0.717648586324291
 40
0.7499473079020208
 40
0.7822416556861282
 40
0.8145403773162874
 40
0.8463981368338116
 40
0.8782602110632376
 40
0.9092791938587534
 40
0.9403023777537924
 40
0.9502622131366215
 40
0.9602093142095486
 40
0.9701501568332104
 40
0.9800912290989782
 40
0.990039018648895
 40
1.0
 40
1.0
 40
1.0
 40
1.0
 10
23.34718288364629
 20
128.4764009278198
 30
0.0
 10
23.4109433807295
 20
128.2648615914095
 30
0.0
 10
23.5384096889252
 20
127.8419643512074
 30
0.0
 10
23.74067321993542
 20
127.2112901090219
 30
0.0
 10
23.95091778842653
 20
126.583712629371
 30
0.0
 10
24.16994325316458
 20
125.9594695779392
 30
0.0
 10
24.39753545649068
 20
125.338497430155
 30
0.0
 10
24.63375174397031
 20
124.7208132561051
 30
0.0
 10
24.87857662682669
 20
124.1064126892563
 30
0.0
 10
25.13201457173916
 20
123.4952965495288
 30
0.0
 10
25.39406301474378
 20
122.8874663334104
 30
0.0
 10
25.66472754229593
 20
122.2829156262743
 30
0.0
 10
26.38200678262621
 20
120.7386170311268
 30
0.0
 10
27.65352030977435
 20
118.3041745620794
 30
0.0
 10
29.68728546009621
 20
115.0692289030299
 30
0.0
 10
31.99450852204364
 20
111.9797499054381
 30
0.0
 10
34.58147418790451
 20
109.0511600927886
 30
0.0
 10
37.41220360820817
 20
106.3312561683499
 30
0.0
 10
40.47286919638766
 20
103.8449942586447
 30
0.0
 10
43.72789805971063
 20
101.6189030813092
 30
0.0
 10
47.14104145447153
 20
99.67994262517776
 30
0.0
 10
50.68543548117292
 20
98.03394636884285
 30
0.0
 10
55.48567028314441
 20
96.26646044154712
 30
0.0
 10
61.58559257762247
 20
94.82109903490687
 30
0.0
 10
68.9614843404774
 20
94.25624456822435
 30
0.0
 10
76.33737584897392
 20
94.82109910461098
 30
0.0
 10
82.4371273342946
 20
96.2664195792368
 30
0.0
 10
87.23736974858002
 20
98.0338793139025
 30
0.0
 10
90.78161336822917
 20
99.67978080433132
 30
0.0
 10
94.19491850563078
 20
101.6188084873415
 30
0.0
 10
97.44981449464578
 20
103.8447816849509
 30
0.0
 10
100.5106311349027
 20
106.3311374393962
 30
0.0
 10
103.3412494823512
 20
109.050905105608
 30
0.0
 10
105.9283509654931
 20
111.9796134774232
 30
0.0
 10
108.2354811198876
 20
115.0689394676944
 30
0.0
 10
110.2693854112981
 20
118.3040405182291
 30
0.0
 10
111.6260895252712
 20
120.9016523874167
 30
0.0
 10
112.4875235202324
 20
122.7845398174204
 30
0.0
 10
112.9640703138833
 20
123.900594791816
 30
0.0
 10
113.4118168432578
 20
125.0276889268253
 30
0.0
 10
113.8300559840053
 20
126.1660538504956
 30
0.0
 10
114.2214691883298
 20
127.3148853318117
 30
0.0
 10
114.4576280445854
 20
128.0890580702964
 30
0.0
 10
114.5757857136226
 20
128.4764009278198
 30
0.0
  0
SPLINE
  5
D0
330
1F
100
AcDbEntity
  8
0
  6
Continuous
 62
     7
370
    15
100
AcDbSpline
210
0.0
220
0.0
230
1.0
 70
     8
 71
     3
 72
    27
 73
    23
 74
     0
 42
0.000000001
 43
0.00000001
 40
0.0
 40
0.0
 40
0.0
 40
0.0
 40
0.0385569892848211
 40
0.0770658329194701
 40
0.1155353026399639
 40
0.1539741971376514
 40
0.1923913361118491
 40
0.2307955542506346
 40
0.2691956951601454
 40
0.3076006052631416
 40
0.3460191276878565
 40
0.3844600961682111
 40
0.4229323289763935
 40
0.461444622908547
 40
0.5000057473438686
 40
0.5715713334491092
 40
0.6429967682524639
 40
0.7143384572505677
 40
0.7856530046539444
 40
0.8569970792753662
 40
0.9284272796518032
 40
1.0
 40
1.0
 40
1.0
 40
1.0
 10
32.02549922205378
 20
172.0264009278198
 30
0.0
 10
31.87462988622385
 20
171.8389957436479
 30
0.0
 10
31.5730796032945
 20
171.4644193859104
 30
0.0
 10
31.13179392378874
 20
170.8943086924927
 30
0.0
 10
30.69900680250326
 20
170.3186668571215
 30
0.0
 10
30.27548278634099
 20
169.7368730215807
 30
0.0
 10
29.86101740808139
 20
169.1490934109017
 30
0.0
 10
29.45566549026227
 20
168.5552836418209
 30
0.0
 10
29.05941244287278
 20
167.9554557153833
 30
0.0
 10
28.67226225327495
 20
167.349606528184
 30
0.0
 10
28.2942139335219
 20
166.7377370706121
 30
0.0
 10
27.92526778983839
 20
166.1198470789026
 30
0.0
 10
27.56542389008112
 20
165.4959372314963
 30
0.0
 10
27.21468192203355
 20
164.8660057051979
 30
0.0
 10
26.77575116410191
 20
164.0489545562155
 30
0.0
 10
26.26110993897623
 20
163.0395989634586
 30
0.0
 10
25.68721872072275
 20
161.8314355624468
 30
0.0
 10
25.14824143743374
 20
160.6090108835689
 30
0.0
 10
24.64394986641602
 20
159.3724014555457
 30
0.0
 10
24.17521355741126
 20
158.1213500138753
 30
0.0
 10
23.73878366485543
 20
156.8568244716719
 30
0.0
 10
23.47780317708447
 20
156.0034922592178
 30
0.0
 10
23.34718288364631
 20
155.5764009278198
 30
0.0
  0
ARC
  5
D1
330
1F
100
AcDbEntity
  8
0
  6
Continuous
 62
     7
370
    15
100
AcDbCircle
 10
68.9614842986
 20
142.0264009278
 30
0.0
 40
47.86715728752539
100
AcDbArc
 50
196.2976619617
 51
343.7023380383
  0
ARC
  5
D2
330
1F
100
AcDbEntity
  8
0
  6
Continuous
 62
     7
370
    15
100
AcDbCircle
 10
68.9614842986
 20
142.0264009278
 30
0.0
 40
47.86715728752541
100
AcDbArc
 50
16.2976619617
 51
128.8096103904
  0
ARC
  5
D3
330
1F
100
AcDbEntity
  8
0
  6
Continuous
 62
     7
370
    15
100
AcDbCircle
 10
68.9614842986
 20
142.0264009278
 30
0.0
 40
47.86715728752538
100
AcDbArc
 50
141.1903896096
 51
163.7023380383
  0
ARC
  5
D4
330
1F
100
AcDbEntity
  8
0
  6
Continuous
 62
     7
370
    15
100
AcDbCircle
 10
68.9614842986
 20
142.0264009278
 30
0.0
 40
48.63284271247462
100
AcDbArc
 50
141.9122882504
 51
164.0342140175
  0
ARC
  5
D5
330
1F
100
AcDbEntity
  8
0
  6
Continuous
 62
     7
370
    15
100
AcDbCircle
 10
68.9614842986
 20
142.0264009278
 30
0.0
 40
48.63284271247461
100
AcDbArc
 50
128.0877117496
 51
141.9122882504
  0
ARC
  5
D6
330
1F
100
AcDbEntity
  8
0
  6
Continuous
 62
     7
370
    15
100
AcDbCircle
 10
68.9614842986
 20
142.0264009278
 30
0.0
 40
48.63284271247463
100
AcDbArc
 50
15.8741097166
 51
128.0877117496
  0
ARC
  5
D7
330
1F
100
AcDbEntity
  8
0
  6
Continuous
 62
     7
370
    15
100
AcDbCircle
 10
68.9614842986
 20
142.0264009278
 30
0.0
 40
48.63284271247461
100
AcDbArc
 50
344.1258902834
 51
15.8741097166
  0
ARC
  5
D8
330
1F
100
AcDbEntity
  8
0
  6
Continuous
 62
     7
370
    15
100
AcDbCircle
 10
68.9614842986
 20
142.0264009278
 30
0.0
 40
48.63284271247462
100
AcDbArc
 50
195.9657859825
 51
344.1258902834
  0
ARC
  5
D9
330
1F
100
AcDbEntity
  8
0
  6
Continuous
 62
     7
370
    15
100
AcDbCircle
 10
68.9614842986
 20
142.0264009278
 30
0.0
 40
48.63284271247461
100
AcDbArc
 50
164.0342140175
 51
195.9657859825
  0
SPLINE
  5
DA
330
1F
100
AcDbEntity
  8
0
  6
Continuous
 62
     7
370
    15
100
AcDbSpline
210
0.0
220
0.0
230
1.0
 70
    24
 71
     3
 72
     8
 73
     4
 74
     0
 42
0.000000001
 43
0.00000001
 40
0.0
 40
0.0
 40
0.0
 40
0.0
 40
1.0
 40
1.0
 40
1.0
 40
1.0
 10
38.96148429863444
 20
180.4524663001683
 30
0.0
 10
38.96148429863444
 20
180.4524663001683
 30
0.0
 10
38.96148429863443
 20
180.3909507517369
 30
0.0
 10
38.96148429863443
 20
180.3037230689557
 30
0.0
  0
SPLINE
  5
DB
330
1F
100
AcDbEntity
  8
0
  6
Continuous
 62
     7
370
    15
100
AcDbSpline
210
0.0
220
0.0
230
1.0
 70
    24
 71
     3
 72
     8
 73
     4
 74
     0
 42
0.000000001
 43
0.00000001
 40
0.0
 40
0.0
 40
0.0
 40
0.0
 40
1.0
 40
1.0
 40
1.0
 40
1.0
 10
30.6841621574985
 20
172.0264009278198
 30
0.0
 10
30.59688774128441
 20
172.0264009278198
 30
0.0
 10
30.53541892628592
 20
172.0264009278197
 30
0.0
 10
30.53541892628592
 20
172.0264009278197
 30
0.0
  0
ARC
  5
DC
330
1F
100
AcDbEntity
  8
0
  6
Continuous
 62
     7
370
    15
100
AcDbCircle
 10
68.9614842986
 20
142.0264009278
 30
0.0
 40
48.74999999999999
100
AcDbArc
 50
127.9798724449
 51
142.0201275551
  0
SPLINE
  5
DD
330
1F
100
AcDbEntity
  8
0
  6
Continuous
 62
     7
370
    15
100
AcDbSpline
210
0.0
220
0.0
230
1.0
 70
    24
 71
     3
 72
     8
 73
     4
 74
     0
 42
0.000000001
 43
0.00000001
 40
0.0
 40
0.0
 40
0.0
 40
0.0
 40
1.0
 40
1.0
 40
1.0
 40
1.0
 10
115.8345127528431
 20
155.4234790992325
 30
0.0
 10
115.8345127528431
 20
155.4234790992325
 30
0.0
 10
115.7974161597769
 20
155.3863825061662
 30
0.0
 10
115.7397138216799
 20
155.3286801680692
 30
0.0
  0
ARC
  5
DE
330
1F
100
AcDbEntity
  8
0
  6
Continuous
 62
     7
370
    15
100
AcDbCircle
 10
68.9614842986
 20
142.0264009278
 30
0.0
 40
48.75000000000002
100
AcDbArc
 50
344.0491974398
 51
15.9508025602
  0
SPLINE
  5
DF
330
1F
100
AcDbEntity
  8
0
  6
Continuous
 62
     7
370
    15
100
AcDbSpline
210
0.0
220
0.0
230
1.0
 70
    24
 71
     3
 72
     8
 73
     4
 74
     0
 42
0.000000001
 43
0.00000001
 40
0.0
 40
0.0
 40
0.0
 40
0.0
 40
1.0
 40
1.0
 40
1.0
 40
1.0
 10
115.8345127528431
 20
128.629322756407
 30
0.0
 10
115.8345127528431
 20
128.629322756407
 30
0.0
 10
115.7974161597769
 20
128.6664193494733
 30
0.0
 10
115.7397138216799
 20
128.7241216875703
 30
0.0
  0
SPLINE
  5
E0
330
1F
100
AcDbEntity
  8
0
  6
Continuous
 62
     7
370
    15
100
AcDbSpline
210
0.0
220
0.0
230
1.0
 70
    24
 71
     3
 72
    10
 73
     6
 74
     0
 42
0.000000001
 43
0.00000001
 40
0.0
 40
0.0
 40
0.0
 40
0.0
 40
0.5
 40
0.5
 40
1.0
 40
1.0
 40
1.0
 40
1.0
 10
22.20459899421006
 20
128.6492911157116
 30
0.0
 10
22.18165747397294
 20
128.6090977834484
 30
0.0
 10
22.16153638375336
 20
128.5738458186118
 30
0.0
 10
22.13226710969684
 20
128.5225663199081
 30
0.0
 10
22.12352051218306
 20
128.5072423615824
 30
0.0
 10
22.12352051218306
 20
128.5072423615824
 30
0.0
  0
ARC
  5
E1
330
1F
100
AcDbEntity
  8
0
  6
Continuous
 62
     7
370
    15
100
AcDbCircle
 10
68.9614842986
 20
142.0264009278
 30
0.0
 40
48.74999999999999
100
AcDbArc
 50
163.8999153276
 51
196.1000846724
  0
SPLINE
  5
E2
330
1F
100
AcDbEntity
  8
0
  6
Continuous
 62
     7
370
    15
100
AcDbSpline
210
0.0
220
0.0
230
1.0
 70
    24
 71
     3
 72
    10
 73
     6
 74
     0
 42
0.000000001
 43
0.00000001
 40
0.0
 40
0.0
 40
0.0
 40
0.0
 40
0.5
 40
0.5
 40
1.0
 40
1.0
 40
1.0
 40
1.0
 10
22.20459899421005
 20
155.4035107399279
 30
0.0
 10
22.18165747397294
 20
155.4437040721911
 30
0.0
 10
22.16153638375336
 20
155.4789560370278
 30
0.0
 10
22.13226710969682
 20
155.5302355357314
 30
0.0
 10
22.12352051218305
 20
155.5455594940571
 30
0.0
 10
22.12352051218306
 20
155.5455594940571
 30
0.0
  0
ARC
  5
E3
330
1F
100
AcDbEntity
  8
0
  6
Continuous
 62
     7
370
    15
100
AcDbCircle
 10
68.9614842986
 20
142.0264009278
 30
0.0
 40
48.74999999999999
100
AcDbArc
 50
142.0201275551
 51
163.8999153276
  0
ARC
  5
E4
330
1F
100
AcDbEntity
  8
0
  6
Continuous
 62
     7
370
    15
100
AcDbCircle
 10
68.9614842986
 20
142.0264009278
 30
0.0
 40
48.75000000000002
100
AcDbArc
 50
15.9508025602
 51
127.9798724449
  0
ARC
  5
E5
330
1F
100
AcDbEntity
  8
0
  6
Continuous
 62
     7
370
    15
100
AcDbCircle
 10
68.9614842986
 20
142.0264009278
 30
0.0
 40
48.75000000000002
100
AcDbArc
 50
196.1000846724
 51
344.0491974398
  0
ARC
  5
E6
330
1F
100
AcDbEntity
  8
0
  6
Continuous
 62
     7
370
    15
100
AcDbCircle
 10
68.9614842986
 20
142.0264009278
 30
0.0
 40
48.74999999999999
100
AcDbArc
 50
180.0
 51
196.1000846724
  0
ARC
  5
E7
330
1F
100
AcDbEntity
  8
0
  6
Continuous
 62
     7
370
    15
100
AcDbCircle
 10
68.9614842986
 20
142.0264009278
 30
0.0
 40
48.74999999999999
100
AcDbArc
 50
163.8999153276
 51
180.0
  0
INSERT
  5
F3
330
1F
100
AcDbEntity
  8
DIM
100
AcDbBlockReference
  2
SW_CENTERMARKSYMBOL_0
 10
68.9614842986
 20
142.0264009278
 30
0.0
  0
LINE
  5
F4
330
1F
100
AcDbEntity
  8
0
  6
Continuous
 62
     7
370
    15
100
AcDbLine
 10
254.0964240536
 20
93.2764009278
 30
0.0
 11
257.6831433645
 21
93.2764009278
 31
0.0
  0
LINE
  5
F5
330
1F
100
AcDbEntity
  8
0
  6
Continuous
 62
     7
370
    15
100
AcDbLine
 10
257.6831433645
 20
190.7764009278
 30
0.0
 11
254.0964240536
 21
190.7764009278
 31
0.0
  0
LINE
  5
F6
330
1F
100
AcDbEntity
  8
0
  6
Continuous
 62
     7
370
    15
100
AcDbLine
 10
254.0964240536
 20
190.7764009278
 30
0.0
 11
252.7488287895
 21
188.4422974622
 31
0.0
  0
LINE
  5
F7
330
1F
100
AcDbEntity
  8
0
  6
Continuous
 62
     7
370
    15
100
AcDbLine
 10
252.7488287895
 20
95.6105043934
 30
0.0
 11
254.0964240536
 21
93.2764009278
 31
0.0
  0
LINE
  5
F8
330
1F
100
AcDbEntity
  8
0
  6
Continuous
 62
     7
370
    15
100
AcDbLine
 10
247.6012335253
 20
93.2764009278
 30
0.0
 11
248.9488287895
 21
95.6105043934
 31
0.0
  0
LINE
  5
F9
330
1F
100
AcDbEntity
  8
0
  6
Continuous
 62
     7
370
    15
100
AcDbLine
 10
248.9488287895
 20
188.4422974622
 30
0.0
 11
247.6012335253
 21
190.7764009278
 31
0.0
  0
LINE
  5
FA
330
1F
100
AcDbEntity
  8
0
  6
Continuous
 62
     7
370
    15
100
AcDbLine
 10
244.1145142144
 20
93.2764009278
 30
0.0
 11
247.6012335253
 21
93.2764009278
 31
0.0
  0
LINE
  5
FB
330
1F
100
AcDbEntity
  8
0
  6
Continuous
 62
     7
370
    15
100
AcDbLine
 10
247.6012335253
 20
190.7764009278
 30
0.0
 11
244.1145142144
 21
190.7764009278
 31
0.0
  0
LINE
  5
FC
330
1F
100
AcDbEntity
  8
0
  6
Continuous
 62
     7
370
    15
100
AcDbLine
 10
257.965986077
 20
93.3935582153
 30
0.0
 11
258.7316715019
 21
94.1592436403
 31
0.0
  0
LINE
  5
FD
330
1F
100
AcDbEntity
  8
0
  6
Continuous
 62
     7
370
    15
100
AcDbLine
 10
258.7316715019
 20
189.8935582153
 30
0.0
 11
257.965986077
 21
190.6592436403
 31
0.0
  0
LINE
  5
FE
330
1F
100
AcDbEntity
  8
0
  6
Continuous
 62
     7
370
    15
100
AcDbLine
 10
243.8316715019
 20
190.6592436403
 30
0.0
 11
243.065986077
 21
189.8935582153
 31
0.0
  0
LINE
  5
FF
330
1F
100
AcDbEntity
  8
0
  6
Continuous
 62
     7
370
    15
100
AcDbLine
 10
243.065986077
 20
94.1592436403
 30
0.0
 11
243.8316715019
 21
93.3935582153
 31
0.0
  0
ARC
  5
100
330
1F
100
AcDbEntity
  8
0
  6
Continuous
 62
     7
370
    15
100
AcDbCircle
 10
257.6831433645
 20
93.6764009278
 30
0.0
 40
0.4000000000000199
100
AcDbArc
 50
270.0
 51
315.0
  0
ARC
  5
101
330
1F
100
AcDbEntity
  8
0
  6
Continuous
 62
     7
370
    15
100
AcDbCircle
 10
244.1145142144
 20
93.6764009278
 30
0.0
 40
0.4000000000000199
100
AcDbArc
 50
225.0
 51
270.0
  0
ARC
  5
102
330
1F
100
AcDbEntity
  8
0
  6
Continuous
 62
     7
370
    15
100
AcDbCircle
 10
257.6831433645
 20
190.3764009278
 30
0.0
 40
0.4000000000000193
100
AcDbArc
 50
45.0
 51
90.0
  0
ARC
  5
103
330
1F
100
AcDbEntity
  8
0
  6
Continuous
 62
     7
370
    15
100
AcDbCircle
 10
244.1145142144
 20
190.3764009278
 30
0.0
 40
0.4000000000000193
100
AcDbArc
 50
90.0
 51
135.0
  0
ARC
  5
104
330
1F
100
AcDbEntity
  8
0
  6
Continuous
 62
     7
370
    15
100
AcDbCircle
 10
258.4488287895
 20
94.4420863528
 30
0.0
 40
0.3999999999999891
100
AcDbArc
 50
315.0
 51
0.0
  0
ARC
  5
105
330
1F
100
AcDbEntity
  8
0
  6
Continuous
 62
     7
370
    15
100
AcDbCircle
 10
258.4488287895
 20
189.6107155029
 30
0.0
 40
0.3999999999999992
100
AcDbArc
 50
0.0
 51
45.0
  0
ARC
  5
106
330
1F
100
AcDbEntity
  8
0
  6
Continuous
 62
     7
370
    15
100
AcDbCircle
 10
243.3488287895
 20
94.4420863528
 30
0.0
 40
0.4000000000000057
100
AcDbArc
 50
180.0
 51
225.0
  0
ARC
  5
107
330
1F
100
AcDbEntity
  8
0
  6
Continuous
 62
     7
370
    15
100
AcDbCircle
 10
243.3488287895
 20
189.6107155029
 30
0.0
 40
0.4000000000000057
100
AcDbArc
 50
135.0
 51
180.0
  0
LINE
  5
108
330
1F
100
AcDbEntity
  8
0
  6
Continuous
 62
     7
370
    15
100
AcDbLine
 10
248.9488287895
 20
96.5264009278
 30
0.0
 11
252.7488287895
 21
96.5264009278
 31
0.0
  0
LINE
  5
109
330
1F
100
AcDbEntity
  8
0
  6
Continuous
 62
     7
370
    15
100
AcDbLine
 10
252.7488287895
 20
187.5264009278
 30
0.0
 11
248.9488287895
 21
187.5264009278
 31
0.0
  0
LINE
  5
10A
330
1F
100
AcDbEntity
  8
0
  6
Continuous
 62
     7
370
    15
100
AcDbLine
 10
293.7488287895
 20
98.0264009278
 30
0.0
 11
294.7488287895
 21
99.0264009278
 31
0.0
  0
LINE
  5
10B
330
1F
100
AcDbEntity
  8
0
  6
Continuous
 62
     7
370
    15
100
AcDbLine
 10
294.7488287895
 20
185.0264009278
 30
0.0
 11
293.7488287895
 21
186.0264009278
 31
0.0
  0
LINE
  5
10C
330
1F
100
AcDbEntity
  8
0
  6
Continuous
 62
     7
370
    15
100
AcDbLine
 10
276.7488287895
 20
98.0264009278
 30
0.0
 11
293.7488287895
 21
98.0264009278
 31
0.0
  0
LINE
  5
10D
330
1F
100
AcDbEntity
  8
0
  6
Continuous
 62
     7
370
    15
100
AcDbLine
 10
293.7488287895
 20
186.0264009278
 30
0.0
 11
276.7488287895
 21
186.0264009278
 31
0.0
  0
LINE
  5
10E
330
1F
100
AcDbEntity
  8
0
  6
Continuous
 62
     7
370
    15
100
AcDbLine
 10
276.7488287895
 20
186.0264009278
 30
0.0
 11
275.7488287895
 21
185.0264009278
 31
0.0
  0
LINE
  5
10F
330
1F
100
AcDbEntity
  8
0
  6
Continuous
 62
     7
370
    15
100
AcDbLine
 10
275.7488287895
 20
99.0264009278
 30
0.0
 11
276.7488287895
 21
98.0264009278
 31
0.0
  0
ARC
  5
110
330
1F
100
AcDbEntity
  8
0
  6
Continuous
 62
     7
370
    15
100
AcDbCircle
 10
261.8488287895
 20
184.7764009278
 30
0.0
 40
3.000000000000057
100
AcDbArc
 50
180.0
 51
270.0
  0
ARC
  5
111
330
1F
100
AcDbEntity
  8
0
  6
Continuous
 62
     7
370
    15
100
AcDbCircle
 10
261.8488287895
 20
99.2764009278
 30
0.0
 40
3.0
100
AcDbArc
 50
90.0
 51
180.0
  0
ARC
  5
112
330
1F
100
AcDbEntity
  8
0
  6
Continuous
 62
     7
370
    15
100
AcDbCircle
 10
275.2488287895
 20
101.7764009278
 30
0.0
 40
0.5000000000000568
100
AcDbArc
 50
0.0
 51
90.0
  0
ARC
  5
113
330
1F
100
AcDbEntity
  8
0
  6
Continuous
 62
     7
370
    15
100
AcDbCircle
 10
275.2488287895
 20
182.2764009278
 30
0.0
 40
0.5000000000000568
100
AcDbArc
 50
270.0
 51
0.0
  0
LINE
  5
114
330
1F
100
AcDbEntity
  8
0
  6
Continuous
 62
     7
370
    15
100
AcDbLine
 10
261.8488287895
 20
102.2764009278
 30
0.0
 11
275.2488287895
 21
102.2764009278
 31
0.0
  0
LINE
  5
115
330
1F
100
AcDbEntity
  8
0
  6
Continuous
 62
     7
370
    15
100
AcDbLine
 10
275.2488287895
 20
181.7764009278
 30
0.0
 11
261.8488287895
 21
181.7764009278
 31
0.0
  0
ARC
  5
116
330
1F
100
AcDbEntity
  8
0
  6
Continuous
 62
     7
370
    15
100
AcDbCircle
 10
242.4488287895
 20
107.0264009278
 30
0.0
 40
0.5000000000000284
100
AcDbArc
 50
0.0
 51
90.0
  0
ARC
  5
117
330
1F
100
AcDbEntity
  8
0
  6
Continuous
 62
     7
370
    15
100
AcDbCircle
 10
242.4488287895
 20
177.0264009278
 30
0.0
 40
0.5000000000000284
100
AcDbArc
 50
270.0
 51
0.0
  0
LINE
  5
118
330
1F
100
AcDbEntity
  8
0
  6
Continuous
 62
     7
370
    15
100
AcDbLine
 10
239.7488287895
 20
176.9514009278
 30
0.0
 11
138.8545205622
 21
162.2375087149
 31
0.0
  0
LINE
  5
119
330
1F
100
AcDbEntity
  8
0
  6
Continuous
 62
     7
370
    15
100
AcDbLine
 10
138.8545205622
 20
121.8152931408
 30
0.0
 11
239.7488287895
 21
107.1014009278
 31
0.0
  0
LINE
  5
11A
330
1F
100
AcDbEntity
  8
0
  6
Continuous
 62
     7
370
    15
100
AcDbLine
 10
239.7488287895
 20
107.1014009278
 30
0.0
 11
240.6602442307
 21
107.5264009278
 31
0.0
  0
LINE
  5
11B
330
1F
100
AcDbEntity
  8
0
  6
Continuous
 62
     7
370
    15
100
AcDbLine
 10
240.6602442307
 20
176.5264009278
 30
0.0
 11
239.7488287895
 21
176.9514009278
 31
0.0
  0
LINE
  5
11C
330
1F
100
AcDbEntity
  8
0
  6
Continuous
 62
     7
370
    15
100
AcDbLine
 10
240.6602442307
 20
107.5264009278
 30
0.0
 11
242.4488287895
 21
107.5264009278
 31
0.0
  0
LINE
  5
11D
330
1F
100
AcDbEntity
  8
0
  6
Continuous
 62
     7
370
    15
100
AcDbLine
 10
242.4488287895
 20
176.5264009278
 30
0.0
 11
240.6602442307
 21
176.5264009278
 31
0.0
  0
LINE
  5
11E
330
1F
100
AcDbEntity
  8
0
  6
Continuous
 62
     7
370
    15
100
AcDbLine
 10
334.7488287895
 20
116.0264009278
 30
0.0
 11
335.7488287895
 21
117.0264009278
 31
0.0
  0
LINE
  5
11F
330
1F
100
AcDbEntity
  8
0
  6
Continuous
 62
     7
370
    15
100
AcDbLine
 10
335.7488287895
 20
167.0264009278
 30
0.0
 11
334.7488287895
 21
168.0264009278
 31
0.0
  0
LINE
  5
120
330
1F
100
AcDbEntity
  8
0
  6
Continuous
 62
     7
370
    15
100
AcDbLine
 10
325.7488287895
 20
116.0264009278
 30
0.0
 11
334.7488287895
 21
116.0264009278
 31
0.0
  0
LINE
  5
121
330
1F
100
AcDbEntity
  8
0
  6
Continuous
 62
     7
370
    15
100
AcDbLine
 10
334.7488287895
 20
168.0264009278
 30
0.0
 11
325.7488287895
 21
168.0264009278
 31
0.0
  0
LINE
  5
122
330
1F
100
AcDbEntity
  8
0
  6
Continuous
 62
     7
370
    15
100
AcDbLine
 10
325.7488287895
 20
168.0264009278
 30
0.0
 11
324.7488287895
 21
167.0264009278
 31
0.0
  0
LINE
  5
123
330
1F
100
AcDbEntity
  8
0
  6
Continuous
 62
     7
370
    15
100
AcDbLine
 10
324.7488287895
 20
117.0264009278
 30
0.0
 11
325.7488287895
 21
116.0264009278
 31
0.0
  0
ARC
  5
124
330
1F
100
AcDbEntity
  8
0
  6
Continuous
 62
     7
370
    15
100
AcDbCircle
 10
138.9988287895
 20
122.8048259273
 30
0.0
 40
1.0
100
AcDbArc
 50
180.0
 51
261.7027777778
  0
ARC
  5
125
330
1F
100
AcDbEntity
  8
0
  6
Continuous
 62
     7
370
    15
100
AcDbCircle
 10
138.9988287895
 20
161.2479759284
 30
0.0
 40
1.0
100
AcDbArc
 50
98.2972222222
 51
180.0
  0
LINE
  5
126
330
1F
100
AcDbEntity
  8
0
  6
Continuous
 62
     7
370
    15
100
AcDbLine
 10
321.2580810606
 20
122.0264009278
 30
0.0
 11
321.7488287895
 21
122.8764009278
 31
0.0
  0
LINE
  5
127
330
1F
100
AcDbEntity
  8
0
  6
Continuous
 62
     7
370
    15
100
AcDbLine
 10
321.7488287895
 20
161.1764009278
 30
0.0
 11
321.2580810606
 21
162.0264009278
 31
0.0
  0
LINE
  5
128
330
1F
100
AcDbEntity
  8
0
  6
Continuous
 62
     7
370
    15
100
AcDbLine
 10
294.7488287895
 20
122.0264009278
 30
0.0
 11
321.2580810606
 21
122.0264009278
 31
0.0
  0
LINE
  5
129
330
1F
100
AcDbEntity
  8
0
  6
Continuous
 62
     7
370
    15
100
AcDbLine
 10
321.2580810606
 20
162.0264009278
 30
0.0
 11
294.7488287895
 21
162.0264009278
 31
0.0
  0
ARC
  5
12A
330
1F
100
AcDbEntity
  8
0
  6
Continuous
 62
     7
370
    15
100
AcDbCircle
 10
324.2488287895
 20
131.5264009278
 30
0.0
 40
0.5
100
AcDbArc
 50
0.0
 51
90.0
  0
ARC
  5
12B
330
1F
100
AcDbEntity
  8
0
  6
Continuous
 62
     7
370
    15
100
AcDbCircle
 10
324.2488287895
 20
152.5264009278
 30
0.0
 40
0.5
100
AcDbArc
 50
270.0
 51
0.0
  0
LINE
  5
12C
330
1F
100
AcDbEntity
  8
0
  6
Continuous
 62
     7
370
    15
100
AcDbLine
 10
321.7488287895
 20
132.0264009278
 30
0.0
 11
324.2488287895
 21
132.0264009278
 31
0.0
  0
LINE
  5
12D
330
1F
100
AcDbEntity
  8
0
  6
Continuous
 62
     7
370
    15
100
AcDbLine
 10
324.2488287895
 20
152.0264009278
 30
0.0
 11
321.7488287895
 21
152.0264009278
 31
0.0
  0
SPLINE
  5
12E
330
1F
100
AcDbEntity
  8
0
  6
Continuous
 62
     7
370
    15
100
AcDbSpline
210
0.0
220
0.0
230
1.0
 70
     8
 71
     3
 72
     8
 73
     4
 74
     0
 42
0.000000001
 43
0.00000001
 40
0.0
 40
0.0
 40
0.0
 40
0.0
 40
1.0
 40
1.0
 40
1.0
 40
1.0
 10
257.6831433645046
 20
155.4234790992325
 30
0.0
 10
257.7916603559557
 20
155.4234790992324
 30
0.0
 10
257.894701207818
 20
155.3863825061662
 30
0.0
 10
257.9659860769793
 20
155.3286801680692
 30
0.0
  0
LINE
  5
12F
330
1F
100
AcDbEntity
  8
0
  6
Continuous
 62
     7
370
    15
100
AcDbLine
 10
257.965986077
 20
128.7241216876
 30
0.0
 11
257.965986077
 21
155.3286801681
 31
0.0
  0
SPLINE
  5
130
330
1F
100
AcDbEntity
  8
0
  6
Continuous
 62
     7
370
    15
100
AcDbSpline
210
0.0
220
0.0
230
1.0
 70
     8
 71
     3
 72
     8
 73
     4
 74
     0
 42
0.000000001
 43
0.00000001
 40
0.0
 40
0.0
 40
0.0
 40
0.0
 40
1.0
 40
1.0
 40
1.0
 40
1.0
 10
257.9659860769792
 20
128.7241216875703
 30
0.0
 10
257.8946702647973
 20
128.6663943022976
 30
0.0
 10
257.7917691071605
 20
128.6293227564071
 30
0.0
 10
257.6831433645046
 20
128.629322756407
 30
0.0
  0
LINE
  5
131
330
1F
100
AcDbEntity
  8
0
  6
Continuous
 62
     7
370
    15
100
AcDbLine
 10
257.6831433645
 20
128.6293227564
 30
0.0
 11
257.6831433645
 21
155.4234790992
 31
0.0
  0
LINE
  5
132
330
1F
100
AcDbEntity
  8
0
  6
Continuous
 62
     7
370
    15
100
AcDbLine
 10
254.0964240536
 20
93.2764009278
 30
0.0
 11
254.0964240536
 21
190.7764009278
 31
0.0
  0
LINE
  5
133
330
1F
100
AcDbEntity
  8
0
  6
Continuous
 62
     7
370
    15
100
AcDbLine
 10
252.7488287895
 20
188.4422974622
 30
0.0
 11
252.7488287895
 21
95.6105043934
 31
0.0
  0
LINE
  5
134
330
1F
100
AcDbEntity
  8
0
  6
Continuous
 62
     7
370
    15
100
AcDbLine
 10
248.9488287895
 20
142.0264009278
 30
0.0
 11
248.9488287895
 21
188.4422974622
 31
0.0
  0
LINE
  5
135
330
1F
100
AcDbEntity
  8
0
  6
Continuous
 62
     7
370
    15
100
AcDbLine
 10
248.9488287895
 20
95.6105043934
 30
0.0
 11
248.9488287895
 21
142.0264009278
 31
0.0
  0
LINE
  5
136
330
1F
100
AcDbEntity
  8
0
  6
Continuous
 62
     7
370
    15
100
AcDbLine
 10
247.6012335253
 20
142.0264009278
 30
0.0
 11
247.6012335253
 21
190.7764009278
 31
0.0
  0
LINE
  5
137
330
1F
100
AcDbEntity
  8
0
  6
Continuous
 62
     7
370
    15
100
AcDbLine
 10
247.6012335253
 20
93.2764009278
 30
0.0
 11
247.6012335253
 21
142.0264009278
 31
0.0
  0
LINE
  5
138
330
1F
100
AcDbEntity
  8
0
  6
Continuous
 62
     7
370
    15
100
AcDbLine
 10
244.1145142144
 20
128.6293227564
 30
0.0
 11
244.1145142144
 21
155.4234790992
 31
0.0
  0
SPLINE
  5
139
330
1F
100
AcDbEntity
  8
0
  6
Continuous
 62
     7
370
    15
100
AcDbSpline
210
0.0
220
0.0
230
1.0
 70
     8
 71
     3
 72
     8
 73
     4
 74
     0
 42
0.000000001
 43
0.00000001
 40
0.0
 40
0.0
 40
0.0
 40
0.0
 40
1.0
 40
1.0
 40
1.0
 40
1.0
 10
244.1145142144031
 20
155.4234790992325
 30
0.0
 10
244.0059972229521
 20
155.4234790992325
 30
0.0
 10
243.9029563710897
 20
155.3863825061662
 30
0.0
 10
243.8316715019285
 20
155.3286801680692
 30
0.0
  0
SPLINE
  5
13A
330
1F
100
AcDbEntity
  8
0
  6
Continuous
 62
     7
370
    15
100
AcDbSpline
210
0.0
220
0.0
230
1.0
 70
     8
 71
     3
 72
     8
 73
     4
 74
     0
 42
0.000000001
 43
0.00000001
 40
0.0
 40
0.0
 40
0.0
 40
0.0
 40
1.0
 40
1.0
 40
1.0
 40
1.0
 10
244.1145142144031
 20
128.629322756407
 30
0.0
 10
244.0059972229521
 20
128.629322756407
 30
0.0
 10
243.9029563710898
 20
128.6664193494733
 30
0.0
 10
243.8316715019285
 20
128.7241216875703
 30
0.0
  0
LINE
  5
13B
330
1F
100
AcDbEntity
  8
0
  6
Continuous
 62
     7
370
    15
100
AcDbLine
 10
243.8316715019
 20
128.7241216876
 30
0.0
 11
243.8316715019
 21
155.3286801681
 31
0.0
  0
LINE
  5
13C
330
1F
100
AcDbEntity
  8
0
  6
Continuous
 62
     7
370
    15
100
AcDbLine
 10
258.7316715019
 20
129.1764009278
 30
0.0
 11
258.7316715019
 21
154.8764009278
 31
0.0
  0
LINE
  5
13D
330
1F
100
AcDbEntity
  8
0
  6
Continuous
 62
     7
370
    15
100
AcDbLine
 10
243.065986077
 20
128.5935582153
 30
0.0
 11
243.065986077
 21
155.4592436403
 31
0.0
  0
SPLINE
  5
13E
330
1F
100
AcDbEntity
  8
0
  6
Continuous
 62
     7
370
    15
100
AcDbSpline
210
0.0
220
0.0
230
1.0
 70
    24
 71
     3
 72
     8
 73
     4
 74
     0
 42
0.000000001
 43
0.00000001
 40
0.0
 40
0.0
 40
0.0
 40
0.0
 40
1.0
 40
1.0
 40
1.0
 40
1.0
 10
258.8488287894539
 20
154.8764009278198
 30
0.0
 10
258.8488287894539
 20
154.8764009278198
 30
0.0
 10
258.8072850555017
 20
154.8764009278198
 30
0.0
 10
258.7316715019291
 20
154.8764009278198
 30
0.0
  0
LINE
  5
13F
330
1F
100
AcDbEntity
  8
0
  6
Continuous
 62
     7
370
    15
100
AcDbLine
 10
258.8488287842
 20
129.1763761751
 30
0.0
 11
258.8488287842
 21
154.8764256806
 31
0.0
  0
SPLINE
  5
140
330
1F
100
AcDbEntity
  8
0
  6
Continuous
 62
     7
370
    15
100
AcDbSpline
210
0.0
220
0.0
230
1.0
 70
    24
 71
     3
 72
     8
 73
     4
 74
     0
 42
0.000000001
 43
0.00000001
 40
0.0
 40
0.0
 40
0.0
 40
0.0
 40
1.0
 40
1.0
 40
1.0
 40
1.0
 10
258.8488287894539
 20
129.1764009278198
 30
0.0
 10
258.8488287894538
 20
129.1764009278198
 30
0.0
 10
258.8072850555014
 20
129.1764009278198
 30
0.0
 10
258.7316715019285
 20
129.1764009278198
 30
0.0
  0
SPLINE
  5
141
330
1F
100
AcDbEntity
  8
0
  6
Continuous
 62
     7
370
    15
100
AcDbSpline
210
0.0
220
0.0
230
1.0
 70
    24
 71
     3
 72
    10
 73
     6
 74
     0
 42
0.000000001
 43
0.00000001
 40
0.0
 40
0.0
 40
0.0
 40
0.0
 40
0.5
 40
0.5
 40
1.0
 40
1.0
 40
1.0
 40
1.0
 10
242.9488287894539
 20
155.5764009278197
 30
0.0
 10
242.9488287894539
 20
155.5764009278197
 30
0.0
 10
242.9626746654787
 20
155.5625550517949
 30
0.0
 10
243.0048404416661
 20
155.5203892756076
 30
0.0
 10
243.0333311419292
 20
155.4918985753445
 30
0.0
 10
243.0659860769793
 20
155.4592436402944
 30
0.0
  0
SPLINE
  5
142
330
1F
100
AcDbEntity
  8
0
  6
Continuous
 62
     7
370
    15
100
AcDbSpline
210
0.0
220
0.0
230
1.0
 70
    24
 71
     3
 72
    10
 73
     6
 74
     0
 42
0.000000001
 43
0.00000001
 40
0.0
 40
0.0
 40
0.0
 40
0.0
 40
0.5
 40
0.5
 40
1.0
 40
1.0
 40
1.0
 40
1.0
 10
243.0659860769793
 20
128.5935582153452
 30
0.0
 10
243.0333530159619
 20
128.5609251543278
 30
0.0
 10
243.0053721296958
 20
128.5329442680616
 30
0.0
 10
242.9627152793207
 20
128.4902874176866
 30
0.0
 10
242.9488287894539
 20
128.4764009278198
 30
0.0
 10
242.9488287894539
 20
128.4764009278198
 30
0.0
  0
LINE
  5
143
330
1F
100
AcDbEntity
  8
0
  6
Continuous
 62
     7
370
    15
100
AcDbLine
 10
242.9488287895
 20
128.4764009278
 30
0.0
 11
242.9488287895
 21
155.5764009278
 31
0.0
  0
SPLINE
  5
144
330
1F
100
AcDbEntity
  8
0
  6
Continuous
 62
     7
370
    15
100
AcDbSpline
210
0.0
220
0.0
230
1.0
 70
    24
 71
     3
 72
    36
 73
    32
 74
     0
 42
0.000000001
 43
0.00000001
 40
0.0
 40
0.0
 40
0.0
 40
0.0
 40
0.0108550601157133
 40
0.0217006032483287
 40
0.032538768348585
 40
0.0433716987375759
 40
0.0542015408443823
 40
0.0650304429344976
 40
0.0758605538328023
 40
0.0866940216448727
 40
0.0975329924804308
 40
0.1083796091827167
 40
0.1192360100675338
 40
0.181247834122379
 40
0.2432679244012009
 40
0.30699904894893
 40
0.3707386689215396
 40
0.4353656024878496
 40
0.5000011508910772
 40
0.5646280845649078
 40
0.6292636330748689
 40
0.6929947579296986
 40
0.7567343782029038
 40
0.81874620271251
 40
0.8807662934441527
 40
0.9006583299602561
 40
0.920524832491279
 40
0.9403790153804317
 40
0.9602341175685428
 40
0.9801033761588474
 40
1.0
 40
1.0
 40
1.0
 40
1.0
 10
258.8488287894539
 20
129.1764009278198
 30
0.0
 10
258.8488287894539
 20
128.9616140534495
 30
0.0
 10
258.8488287894539
 20
128.5322286153245
 30
0.0
 10
258.8488287894539
 20
127.8917321052048
 30
0.0
 10
258.8488287894539
 20
127.2542818937616
 30
0.0
 10
258.8488287894539
 20
126.6201082392796
 30
0.0
 10
258.8488287894539
 20
125.9891496072866
 30
0.0
 10
258.8488287894539
 20
125.3614225387023
 30
0.0
 10
258.8488287894539
 20
124.7369228196284
 30
0.0
 10
258.8488287894539
 20
124.1156512141128
 30
0.0
 10
258.8488287894539
 20
123.4976093148224
 30
0.0
 10
258.8488287894539
 20
122.8827904027
 30
0.0
 10
258.8488287894539
 20
121.3109327460565
 30
0.0
 10
258.8488287894539
 20
118.8312834520374
 30
0.0
 10
258.8488287894539
 20
115.5326103935589
 30
0.0
 10
258.8488287894539
 20
112.3792334683704
 30
0.0
 10
258.8488287894539
 20
109.3871607598058
 30
0.0
 10
258.8488287894539
 20
106.6064145511961
 30
0.0
 10
258.8488287894539
 20
104.0631152441199
 30
0.0
 10
258.8488287894539
 20
101.7851037590585
 30
0.0
 10
258.8488287894539
 20
99.80067126334282
 30
0.0
 10
258.8488287894539
 20
98.11591802626398
 30
0.0
 10
258.8488287894539
 20
96.7530575327151
 30
0.0
 10
258.8488287894539
 20
95.70087921205513
 30
0.0
 10
258.8488287894539
 20
95.12737776000144
 30
0.0
 10
258.8488287894539
 20
94.83135035931753
 30
0.0
 10
258.8488287894539
 20
94.68933527387172
 30
0.0
 10
258.8488287894539
 20
94.57873308130993
 30
0.0
 10
258.8488287894539
 20
94.50030355209599
 30
0.0
 10
258.8488287894539
 20
94.45118744029125
 30
0.0
 10
258.8488287894539
 20
94.44512144006733
 30
0.0
 10
258.8488287894539
 20
94.44208635276901
 30
0.0
  0
SPLINE
  5
145
330
1F
100
AcDbEntity
  8
0
  6
Continuous
 62
     7
370
    15
100
AcDbSpline
210
0.0
220
0.0
230
1.0
 70
    24
 71
     3
 72
    23
 73
    19
 74
     0
 42
0.000000001
 43
0.00000001
 40
0.0
 40
0.0
 40
0.0
 40
0.0
 40
0.049344142439785
 40
0.1126391337887782
 40
0.1752432992499413
 40
0.2371050695636289
 40
0.2989591199343767
 40
0.3615634382303971
 40
0.4248659973704123
 40
0.4891594850324235
 40
0.5537405807095876
 40
0.6185525319731143
 40
0.6833570688697037
 40
0.7479382231567704
 40
0.812239066728002
 40
0.8755340580753496
 40
0.9381401318495213
 40
1.0
 40
1.0
 40
1.0
 40
1.0
 10
258.8488287894539
 20
189.5812274037866
 30
0.0
 10
258.8488287894539
 20
189.5742803225574
 30
0.0
 10
258.8488287894539
 20
189.5584220428644
 30
0.0
 10
258.8488287894539
 20
189.1516706299499
 30
0.0
 10
258.8488287894539
 20
188.4418554160567
 30
0.0
 10
258.8488287894539
 20
187.425448490557
 30
0.0
 10
258.8488287894539
 20
186.1185790054368
 30
0.0
 10
258.8488287894539
 20
184.5118669964729
 30
0.0
 10
258.8488287894539
 20
182.5990218637637
 30
0.0
 10
258.8488287894539
 20
180.3874559521063
 30
0.0
 10
258.8488287894539
 20
177.889949712826
 30
0.0
 10
258.8488287894539
 20
175.1330265609992
 30
0.0
 10
258.8488287894539
 20
172.142709299659
 30
0.0
 10
258.8488287894539
 20
168.9484819973035
 30
0.0
 10
258.8488287894539
 20
165.59260236234
 30
0.0
 10
258.8488287894539
 20
162.109518004068
 30
0.0
 10
258.8488287894539
 20
158.5441075051997
 30
0.0
 10
258.8488287894539
 20
156.0940735905598
 30
0.0
 10
258.8488287894539
 20
154.8764009278198
 30
0.0
  0
SPLINE
  5
146
330
1F
100
AcDbEntity
  8
0
  6
Continuous
 62
     7
370
    15
100
AcDbSpline
210
0.0
220
0.0
230
1.0
 70
    24
 71
     3
 72
    36
 73
    32
 74
     0
 42
0.000000001
 43
0.00000001
 40
0.0
 40
0.0
 40
0.0
 40
0.0
 40
0.0108663901689341
 40
0.0217235992681966
 40
0.0325737239450683
 40
0.0434188649555587
 40
0.0542611259525282
 40
0.0651026122653268
 40
0.0759454296745621
 40
0.0867916831855511
 40
0.0976434758040309
 40
0.1085029073176763
 40
0.1193720730869444
 40
0.1813968254445624
 40
0.2434299782168946
 40
0.3071319268816632
 40
0.3708425031356528
 40
0.4354174425585807
 40
0.5000011278075839
 40
0.5645760673323957
 40
0.6291597526862351
 40
0.692861701646248
 40
0.7565722781921773
 40
0.8185970309920263
 40
0.8806301842014286
 40
0.9005456124931797
 40
0.9204355775894111
 40
0.9403130284529501
 40
0.9601909385028826
 40
0.9800822802598312
 40
1.0
 40
1.0
 40
1.0
 40
1.0
 10
242.9488287894539
 20
94.44208635276901
 30
0.0
 10
242.9488287894539
 20
94.44296739965088
 30
0.0
 10
242.9488287894539
 20
94.44472874901356
 30
0.0
 10
242.9488287894539
 20
94.45902399586033
 30
0.0
 10
242.9488287894539
 20
94.48185289238573
 30
0.0
 10
242.9488287894539
 20
94.51405001132095
 30
0.0
 10
242.9488287894539
 20
94.55539192689038
 30
0.0
 10
242.9488287894539
 20
94.6059384848561
 30
0.0
 10
242.9488287894539
 20
94.66567358828704
 30
0.0
 10
242.9488287894539
 20
94.73460176055964
 30
0.0
 10
242.9488287894539
 20
94.81272094241756
 30
0.0
 10
242.9488287894539
 20
94.90003476341032
 30
0.0
 10
242.9488287894539
 20
95.14787147779447
 30
0.0
 10
242.9488287894539
 20
95.67351929284696
 30
0.0
 10
242.9488287894539
 20
96.70191029932204
 30
0.0
 10
242.9488287894539
 20
98.03386011261244
 30
0.0
 10
242.9488287894539
 20
99.67978602734316
 30
0.0
 10
242.9488287894539
 20
101.6188070796558
 30
0.0
 10
242.9488287894539
 20
103.8447820621147
 30
0.0
 10
242.9488287894539
 20
106.3311373382792
 30
0.0
 10
242.9488287894539
 20
109.0509051322942
 30
0.0
 10
242.9488287894539
 20
111.9796134703056
 30
0.0
 10
242.9488287894539
 20
115.0689394695502
 30
0.0
 10
242.9488287894539
 20
118.3040405177206
 30
0.0
 10
242.9488287894539
 20
120.9016523874556
 30
0.0
 10
242.9488287894539
 20
122.7845398174149
 30
0.0
 10
242.9488287894539
 20
123.9005947918175
 30
0.0
 10
242.9488287894539
 20
125.0276889268249
 30
0.0
 10
242.9488287894539
 20
126.1660538504957
 30
0.0
 10
242.9488287894539
 20
127.3148853318117
 30
0.0
 10
242.9488287894539
 20
128.0890580702964
 30
0.0
 10
242.9488287894539
 20
128.4764009278198
 30
0.0
  0
SPLINE
  5
147
330
1F
100
AcDbEntity
  8
0
  6
Continuous
 62
     7
370
    15
100
AcDbSpline
210
0.0
220
0.0
230
1.0
 70
    24
 71
     3
 72
    23
 73
    19
 74
     0
 42
0.000000001
 43
0.00000001
 40
0.0
 40
0.0
 40
0.0
 40
0.0
 40
0.0621371780016823
 40
0.1250125041989178
 40
0.18858029616004
 40
0.253127189537456
 40
0.3179582992717379
 40
0.3830175621109775
 40
0.4480693138239227
 40
0.5129004819881641
 40
0.5774548282112543
 40
0.6410149507156808
 40
0.70389205390056
 40
0.7660351298220105
 40
0.8281703793520515
 40
0.8910476401564842
 40
0.9546154321206017
 40
1.0
 40
1.0
 40
1.0
 40
1.0
 10
242.9488287894539
 20
155.5764009278197
 30
0.0
 10
242.9488287894539
 20
156.7793560877245
 30
0.0
 10
242.9488287894539
 20
159.199556711812
 30
0.0
 10
242.9488287894539
 20
162.7164011807025
 30
0.0
 10
242.9488287894539
 20
166.1477425437264
 30
0.0
 10
242.9488287894539
 20
169.449537206801
 30
0.0
 10
242.9488287894539
 20
172.5884377027547
 30
0.0
 10
242.9488287894539
 20
175.5233933497652
 30
0.0
 10
242.9488287894539
 20
178.2259691802143
 30
0.0
 10
242.9488287894539
 20
180.6711305929873
 30
0.0
 10
242.9488287894539
 20
182.8332538903534
 30
0.0
 10
242.9488287894539
 20
184.7001790744108
 30
0.0
 10
242.9488287894539
 20
186.2650336734241
 30
0.0
 10
242.9488287894539
 20
187.5336801372155
 30
0.0
 10
242.9488287894539
 20
188.5157694225236
 30
0.0
 10
242.9488287894539
 20
189.193815520662
 30
0.0
 10
242.9488287894539
 20
189.5699446515627
 30
0.0
 10
242.9488287894539
 20
189.5747549341765
 30
0.0
 10
242.9488287894539
 20
189.5767586778138
 30
0.0
  0
LINE
  5
148
330
1F
100
AcDbEntity
  8
0
  6
Continuous
 62
     7
370
    15
100
AcDbLine
 10
294.7488287895
 20
99.0264009278
 30
0.0
 11
294.7488287895
 21
185.0264009278
 31
0.0
  0
LINE
  5
149
330
1F
100
AcDbEntity
  8
0
  6
Continuous
 62
     7
370
    15
100
AcDbLine
 10
293.7488287895
 20
142.0264009278
 30
0.0
 11
293.7488287895
 21
186.0264009278
 31
0.0
  0
LINE
  5
14A
330
1F
100
AcDbEntity
  8
0
  6
Continuous
 62
     7
370
    15
100
AcDbLine
 10
293.7488287895
 20
98.0264009278
 30
0.0
 11
293.7488287895
 21
142.0264009278
 31
0.0
  0
LINE
  5
14B
330
1F
100
AcDbEntity
  8
0
  6
Continuous
 62
     7
370
    15
100
AcDbLine
 10
276.7488287895
 20
98.0264009278
 30
0.0
 11
276.7488287895
 21
186.0264009278
 31
0.0
  0
LINE
  5
14C
330
1F
100
AcDbEntity
  8
0
  6
Continuous
 62
     7
370
    15
100
AcDbLine
 10
275.7488287895
 20
99.0264009278
 30
0.0
 11
275.7488287895
 21
185.0264009278
 31
0.0
  0
SPLINE
  5
14D
330
1F
100
AcDbEntity
  8
0
  6
Continuous
 62
     7
370
    15
100
AcDbSpline
210
0.0
220
0.0
230
1.0
 70
    24
 71
     3
 72
    14
 73
    10
 74
     0
 42
0.000000001
 43
0.00000001
 40
0.0
 40
0.0
 40
0.0
 40
0.0
 40
0.25
 40
0.25
 40
0.5
 40
0.5
 40
0.75
 40
0.75
 40
1.0
 40
1.0
 40
1.0
 40
1.0
 10
261.0988287894539
 20
154.8764009278198
 30
0.0
 10
260.7679077238609
 20
154.8764009278198
 30
0.0
 10
260.4621856622052
 20
154.8764009278198
 30
0.0
 10
259.9022621195147
 20
154.8764009278198
 30
0.0
 10
259.6618713454544
 20
154.8764009278198
 30
0.0
 10
259.2611870695039
 20
154.8764009278198
 30
0.0
 10
259.109261462215
 20
154.8764009278198
 30
0.0
 10
258.9008130221293
 20
154.8764009278198
 30
0.0
 10
258.8488287894539
 20
154.8764009278198
 30
0.0
 10
258.8488287894539
 20
154.8764009278198
 30
0.0
  0
SPLINE
  5
14E
330
1F
100
AcDbEntity
  8
0
  6
Continuous
 62
     7
370
    15
100
AcDbSpline
210
0.0
220
0.0
230
1.0
 70
     8
 71
     3
 72
     8
 73
     4
 74
     0
 42
0.000000001
 43
0.00000001
 40
0.0
 40
0.0
 40
0.0
 40
0.0
 40
1.0
 40
1.0
 40
1.0
 40
1.0
 10
261.8488287894539
 20
154.8544950964794
 30
0.0
 10
261.5945613132053
 20
154.8693609529877
 30
0.0
 10
261.3445728725603
 20
154.8764009278198
 30
0.0
 10
261.0988287894539
 20
154.8764009278198
 30
0.0
  0
LINE
  5
14F
330
1F
100
AcDbEntity
  8
0
  6
Continuous
 62
     7
370
    15
100
AcDbLine
 10
261.8488287895
 20
129.1983067592
 30
0.0
 11
261.8488287895
 21
154.8544950965
 31
0.0
  0
SPLINE
  5
150
330
1F
100
AcDbEntity
  8
0
  6
Continuous
 62
     7
370
    15
100
AcDbSpline
210
0.0
220
0.0
230
1.0
 70
     8
 71
     3
 72
     8
 73
     4
 74
     0
 42
0.000000001
 43
0.00000001
 40
0.0
 40
0.0
 40
0.0
 40
0.0
 40
1.0
 40
1.0
 40
1.0
 40
1.0
 10
261.8488287894539
 20
129.1983067591601
 30
0.0
 10
261.5945613132053
 20
129.1834409026518
 30
0.0
 10
261.3445728725603
 20
129.1764009278198
 30
0.0
 10
261.0988287894539
 20
129.1764009278198
 30
0.0
  0
SPLINE
  5
151
330
1F
100
AcDbEntity
  8
0
  6
Continuous
 62
     7
370
    15
100
AcDbSpline
210
0.0
220
0.0
230
1.0
 70
    24
 71
     3
 72
    20
 73
    16
 74
     0
 42
0.000000001
 43
0.00000001
 40
0.0
 40
0.0
 40
0.0
 40
0.0
 40
0.2500000000000042
 40
0.2500000000000042
 40
0.3750000000000034
 40
0.3750000000000034
 40
0.5000000000000028
 40
0.5000000000000028
 40
0.6250000000000021
 40
0.6250000000000021
 40
0.7500000000000013
 40
0.7500000000000013
 40
0.8750000000000007
 40
0.8750000000000007
 40
1.0
 40
1.0
 40
1.0
 40
1.0
 10
258.8488287894539
 20
129.1764009278198
 30
0.0
 10
258.8488287894539
 20
129.1764009278198
 30
0.0
 10
258.9008453205885
 20
129.1764009278198
 30
0.0
 10
259.0565261417113
 20
129.1764009278198
 30
0.0
 10
259.1212565677812
 20
129.1764009278198
 30
0.0
 10
259.2731134061244
 20
129.1764009278197
 30
0.0
 10
259.3605787975472
 20
129.1764009278197
 30
0.0
 10
259.559497195118
 20
129.1764009278197
 30
0.0
 10
259.6713244937501
 20
129.1764009278198
 30
0.0
 10
259.9113404498831
 20
129.1764009278197
 30
0.0
 10
260.0404230343223
 20
129.1764009278198
 30
0.0
 10
260.3173593293074
 20
129.1764009278198
 30
0.0
 10
260.4663045457292
 20
129.1764009278198
 30
0.0
 10
260.7738130838584
 20
129.1764009278198
 30
0.0
 10
260.9333174712852
 20
129.1764009278198
 30
0.0
 10
261.0988287894539
 20
129.1764009278198
 30
0.0
  0
LINE
  5
152
330
1F
100
AcDbEntity
  8
0
  6
Continuous
 62
     7
370
    15
100
AcDbLine
 10
239.7488287895
 20
107.1014009278
 30
0.0
 11
239.7488287895
 21
176.9514009278
 31
0.0
  0
LINE
  5
153
330
1F
100
AcDbEntity
  8
0
  6
Continuous
 62
     7
370
    15
100
AcDbLine
 10
240.6602442307
 20
142.0264009278
 30
0.0
 11
240.6602442307
 21
176.5264009278
 31
0.0
  0
LINE
  5
154
330
1F
100
AcDbEntity
  8
0
  6
Continuous
 62
     7
370
    15
100
AcDbLine
 10
240.6602442307
 20
107.5264009278
 30
0.0
 11
240.6602442307
 21
142.0264009278
 31
0.0
  0
LINE
  5
155
330
1F
100
AcDbEntity
  8
0
  6
Continuous
 62
     7
370
    15
100
AcDbLine
 10
335.7488287895
 20
117.0264009278
 30
0.0
 11
335.7488287895
 21
167.0264009278
 31
0.0
  0
LINE
  5
156
330
1F
100
AcDbEntity
  8
0
  6
Continuous
 62
     7
370
    15
100
AcDbLine
 10
334.7488287895
 20
142.0264009278
 30
0.0
 11
334.7488287895
 21
168.0264009278
 31
0.0
  0
LINE
  5
157
330
1F
100
AcDbEntity
  8
0
  6
Continuous
 62
     7
370
    15
100
AcDbLine
 10
334.7488287895
 20
116.0264009278
 30
0.0
 11
334.7488287895
 21
142.0264009278
 31
0.0
  0
LINE
  5
158
330
1F
100
AcDbEntity
  8
0
  6
Continuous
 62
     7
370
    15
100
AcDbLine
 10
325.7488287895
 20
116.0264009278
 30
0.0
 11
325.7488287895
 21
168.0264009278
 31
0.0
  0
LINE
  5
159
330
1F
100
AcDbEntity
  8
0
  6
Continuous
 62
     7
370
    15
100
AcDbLine
 10
324.7488287895
 20
117.0264009278
 30
0.0
 11
324.7488287895
 21
167.0264009278
 31
0.0
  0
SPLINE
  5
15A
330
1F
100
AcDbEntity
  8
0
  6
Continuous
 62
     7
370
    15
100
AcDbSpline
210
0.0
220
0.0
230
1.0
 70
    24
 71
     3
 72
    10
 73
     6
 74
     0
 42
0.000000001
 43
0.00000001
 40
0.0
 40
0.0
 40
0.0
 40
0.0
 40
0.4999999999999997
 40
0.4999999999999997
 40
0.9999999999999999
 40
0.9999999999999999
 40
0.9999999999999999
 40
0.9999999999999999
 10
137.9988287894539
 20
161.2479759283652
 30
0.0
 10
137.9988287894539
 20
161.247975928365
 30
0.0
 10
137.9988287894539
 20
159.2227495022961
 30
0.0
 10
137.9988287894539
 20
152.013464409286
 30
0.0
 10
137.9988287894539
 20
147.1241353045942
 30
0.0
 10
137.9988287894539
 20
142.0264009278198
 30
0.0
  0
SPLINE
  5
15B
330
1F
100
AcDbEntity
  8
0
  6
Continuous
 62
     7
370
    15
100
AcDbSpline
210
0.0
220
0.0
230
1.0
 70
    24
 71
     3
 72
    10
 73
     6
 74
     0
 42
0.000000001
 43
0.00000001
 40
0.0
 40
0.0
 40
0.0
 40
0.0
 40
0.4999999999999999
 40
0.4999999999999999
 40
0.9999999999999999
 40
0.9999999999999999
 40
0.9999999999999999
 40
0.9999999999999999
 10
137.9988287894539
 20
142.0264009278198
 30
0.0
 10
137.9988287894539
 20
136.9286665510453
 30
0.0
 10
137.9988287894539
 20
132.0393374463531
 30
0.0
 10
137.9988287894539
 20
124.8300523533432
 30
0.0
 10
137.9988287894539
 20
122.8048259272742
 30
0.0
 10
137.9988287894539
 20
122.8048259272744
 30
0.0
  0
LINE
  5
15C
330
1F
100
AcDbEntity
  8
0
  6
Continuous
 62
     7
370
    15
100
AcDbLine
 10
321.2580810606
 20
142.0264009278
 30
0.0
 11
321.2580810606
 21
162.0264009278
 31
0.0
  0
LINE
  5
15D
330
1F
100
AcDbEntity
  8
0
  6
Continuous
 62
     7
370
    15
100
AcDbLine
 10
321.2580810606
 20
122.0264009278
 30
0.0
 11
321.2580810606
 21
142.0264009278
 31
0.0
  0
LINE
  5
15E
330
1F
100
AcDbEntity
  8
0
  6
Continuous
 62
     7
370
    15
100
AcDbLine
 10
321.7488287895
 20
142.0264009278
 30
0.0
 11
321.7488287895
 21
161.1764009278
 31
0.0
  0
LINE
  5
15F
330
1F
100
AcDbEntity
  8
0
  6
Continuous
 62
     7
370
    15
100
AcDbLine
 10
321.7488287895
 20
122.8764009278
 30
0.0
 11
321.7488287895
 21
142.0264009278
 31
0.0
  0
LINE
  5
160
330
1F
100
AcDbEntity
  8
0
  6
Continuous
 62
     7
370
    15
100
AcDbLine
 10
294.7488287895
 20
117.5264009278
 30
0.0
 11
302.5488287895
 21
117.5264009278
 31
0.0
  0
LINE
  5
161
330
1F
100
AcDbEntity
  8
0
  6
Continuous
 62
     7
370
    15
100
AcDbLine
 10
302.5488287895
 20
117.5264009278
 30
0.0
 11
302.5488287895
 21
102.5264009278
 31
0.0
  0
LINE
  5
162
330
1F
100
AcDbEntity
  8
0
  6
Continuous
 62
     7
370
    15
100
AcDbLine
 10
302.5488287895
 20
102.5264009278
 30
0.0
 11
294.7488287895
 21
102.5264009278
 31
0.0
  0
LINE
  5
163
330
1F
100
AcDbEntity
  8
0
  6
Continuous
 62
     7
370
    15
100
AcDbLine
 10
302.5488287895
 20
118.0264009278
 30
0.0
 11
294.7488287895
 21
118.0264009278
 31
0.0
  0
LINE
  5
164
330
1F
100
AcDbEntity
  8
0
  6
Continuous
 62
     7
370
    15
100
AcDbLine
 10
302.5488287895
 20
118.0264009278
 30
0.0
 11
302.5488287895
 21
117.5264009278
 31
0.0
  0
LINE
  5
165
330
1F
100
AcDbEntity
  8
0
  6
Continuous
 62
     7
370
    15
100
AcDbLine
 10
294.7488287895
 20
102.0264009278
 30
0.0
 11
302.5488287895
 21
102.0264009278
 31
0.0
  0
LINE
  5
166
330
1F
100
AcDbEntity
  8
0
  6
Continuous
 62
     7
370
    15
100
AcDbLine
 10
302.5488287895
 20
102.5264009278
 30
0.0
 11
302.5488287895
 21
102.0264009278
 31
0.0
  0
LINE
  5
167
330
1F
100
AcDbEntity
  8
0
  6
Continuous
 62
     7
370
    15
100
AcDbLine
 10
302.5488287895
 20
182.0264009278
 30
0.0
 11
302.5488287895
 21
181.5264009278
 31
0.0
  0
LINE
  5
168
330
1F
100
AcDbEntity
  8
0
  6
Continuous
 62
     7
370
    15
100
AcDbLine
 10
294.7488287895
 20
181.5264009278
 30
0.0
 11
302.5488287895
 21
181.5264009278
 31
0.0
  0
LINE
  5
169
330
1F
100
AcDbEntity
  8
0
  6
Continuous
 62
     7
370
    15
100
AcDbLine
 10
302.5488287895
 20
182.0264009278
 30
0.0
 11
294.7488287895
 21
182.0264009278
 31
0.0
  0
LINE
  5
16A
330
1F
100
AcDbEntity
  8
0
  6
Continuous
 62
     7
370
    15
100
AcDbLine
 10
302.5488287895
 20
181.5264009278
 30
0.0
 11
302.5488287895
 21
166.5264009278
 31
0.0
  0
LINE
  5
16B
330
1F
100
AcDbEntity
  8
0
  6
Continuous
 62
     7
370
    15
100
AcDbLine
 10
302.5488287895
 20
166.5264009278
 30
0.0
 11
294.7488287895
 21
166.5264009278
 31
0.0
  0
LINE
  5
16C
330
1F
100
AcDbEntity
  8
0
  6
Continuous
 62
     7
370
    15
100
AcDbLine
 10
302.5488287895
 20
166.5264009278
 30
0.0
 11
302.5488287895
 21
166.0264009278
 31
0.0
  0
LINE
  5
16D
330
1F
100
AcDbEntity
  8
0
  6
Continuous
 62
     7
370
    15
100
AcDbLine
 10
294.7488287895
 20
166.0264009278
 30
0.0
 11
302.5488287895
 21
166.0264009278
 31
0.0
  0
LINE
  5
16E
330
1F
100
AcDbEntity
  8
0
  6
Continuous
 62
     8
370
    15
100
AcDbLine
 10
257.6831433645
 20
155.4234790992
 30
0.0
 11
257.6831433645
 21
190.7764009278
 31
0.0
  0
LINE
  5
16F
330
1F
100
AcDbEntity
  8
0
  6
Continuous
 62
     8
370
    15
100
AcDbLine
 10
257.6831433645
 20
93.2764009278
 30
0.0
 11
257.6831433645
 21
128.6293227564
 31
0.0
  0
LINE
  5
170
330
1F
100
AcDbEntity
  8
0
  6
Continuous
 62
     8
370
    15
100
AcDbLine
 10
244.1145142144
 20
93.2764009278
 30
0.0
 11
244.1145142144
 21
128.6293227564
 31
0.0
  0
LINE
  5
171
330
1F
100
AcDbEntity
  8
0
  6
Continuous
 62
     8
370
    15
100
AcDbLine
 10
244.1145142144
 20
190.7764009278
 30
0.0
 11
244.1145142144
 21
155.4234790992
 31
0.0
  0
LINE
  5
172
330
1F
100
AcDbEntity
  8
0
  6
Continuous
 62
     8
370
    15
100
AcDbLine
 10
258.7316715019
 20
189.8935582153
 30
0.0
 11
258.7316715019
 21
154.8764009278
 31
0.0
  0
LINE
  5
173
330
1F
100
AcDbEntity
  8
0
  6
Continuous
 62
     8
370
    15
100
AcDbLine
 10
258.7316715019
 20
129.1764009278
 30
0.0
 11
258.7316715019
 21
94.1592436403
 31
0.0
  0
LINE
  5
174
330
1F
100
AcDbEntity
  8
0
  6
Continuous
 62
     8
370
    15
100
AcDbLine
 10
257.965986077
 20
128.7241216876
 30
0.0
 11
257.965986077
 21
93.3935582153
 31
0.0
  0
LINE
  5
175
330
1F
100
AcDbEntity
  8
0
  6
Continuous
 62
     8
370
    15
100
AcDbLine
 10
257.965986077
 20
155.3286801681
 30
0.0
 11
257.965986077
 21
190.6592436403
 31
0.0
  0
LINE
  5
176
330
1F
100
AcDbEntity
  8
0
  6
Continuous
 62
     8
370
    15
100
AcDbLine
 10
243.065986077
 20
94.1592436403
 30
0.0
 11
243.065986077
 21
128.5935582153
 31
0.0
  0
LINE
  5
177
330
1F
100
AcDbEntity
  8
0
  6
Continuous
 62
     8
370
    15
100
AcDbLine
 10
243.065986077
 20
155.4592436403
 30
0.0
 11
243.065986077
 21
189.8935582153
 31
0.0
  0
LINE
  5
178
330
1F
100
AcDbEntity
  8
0
  6
Continuous
 62
     8
370
    15
100
AcDbLine
 10
243.8316715019
 20
155.3286801681
 30
0.0
 11
243.8316715019
 21
190.6592436403
 31
0.0
  0
LINE
  5
179
330
1F
100
AcDbEntity
  8
0
  6
Continuous
 62
     8
370
    15
100
AcDbLine
 10
243.8316715019
 20
93.3935582153
 30
0.0
 11
243.8316715019
 21
128.7241216876
 31
0.0
  0
LINE
  5
17A
330
1F
100
AcDbEntity
  8
0
  6
Continuous
 62
     8
370
    15
100
AcDbLine
 10
261.8488287895
 20
181.7764009278
 30
0.0
 11
261.8488287895
 21
154.8544950965
 31
0.0
  0
LINE
  5
17B
330
1F
100
AcDbEntity
  8
0
  6
Continuous
 62
     8
370
    15
100
AcDbLine
 10
261.8488287895
 20
129.1983067592
 30
0.0
 11
261.8488287895
 21
102.2764009278
 31
0.0
  0
LINE
  5
17C
330
1F
100
AcDbEntity
  8
0
  6
Continuous
 62
     8
370
    15
100
AcDbLine
 10
275.2488287895
 20
142.0264009278
 30
0.0
 11
275.2488287895
 21
181.7764009278
 31
0.0
  0
LINE
  5
17D
330
1F
100
AcDbEntity
  8
0
  6
Continuous
 62
     8
370
    15
100
AcDbLine
 10
275.2488287895
 20
102.2764009278
 30
0.0
 11
275.2488287895
 21
142.0264009278
 31
0.0
  0
LINE
  5
17E
330
1F
100
AcDbEntity
  8
0
  6
Continuous
 62
     8
370
    15
100
AcDbLine
 10
242.4488287895
 20
142.0264009278
 30
0.0
 11
242.4488287895
 21
176.5264009278
 31
0.0
  0
LINE
  5
17F
330
1F
100
AcDbEntity
  8
0
  6
Continuous
 62
     8
370
    15
100
AcDbLine
 10
242.4488287895
 20
107.5264009278
 30
0.0
 11
242.4488287895
 21
142.0264009278
 31
0.0
  0
LINE
  5
180
330
1F
100
AcDbEntity
  8
0
  6
Continuous
 62
     8
370
    15
100
AcDbLine
 10
138.8545205622
 20
162.2375087149
 30
0.0
 11
138.8545205622
 21
121.8152931408
 31
0.0
  0
LINE
  5
181
330
1F
100
AcDbEntity
  8
0
  6
Continuous
 62
     8
370
    15
100
AcDbLine
 10
324.2488287895
 20
142.0264009278
 30
0.0
 11
324.2488287895
 21
152.0264009278
 31
0.0
  0
LINE
  5
182
330
1F
100
AcDbEntity
  8
0
  6
Continuous
 62
     8
370
    15
100
AcDbLine
 10
324.2488287895
 20
132.0264009278
 30
0.0
 11
324.2488287895
 21
142.0264009278
 31
0.0
  0
DIMENSION
  5
183
330
1F
100
AcDbEntity
  8
DIM
100
AcDbDimension
  2
_D
 10
345.0816979396
 20
122.0264009278
 30
0.0
 11
345.0816979396
 21
142.0264009278
 31
0.0
 70
   160
  1
%%c<>
 71
     2
 42
-1.0
  3
SLDDIMSTYLE0
100
AcDbAlignedDimension
 13
321.2580810606
 23
162.0264009278
 33
0.0
 14
321.2580810606
 24
122.0264009278
 34
0.0
 50
90.0
100
AcDbRotatedDimension
  0
DIMENSION
  5
18F
330
1F
100
AcDbEntity
  8
DIM
100
AcDbDimension
  2
_D_1
 10
354.3734799354
 20
98.0264009278
 30
0.0
 11
354.3734799354
 21
142.0264009278
 31
0.0
 70
   160
  1
%%c<>
 71
     2
 42
-1.0
  3
SLDDIMSTYLE0
100
AcDbAlignedDimension
 13
293.7488287895
 23
186.0264009278
 33
0.0
 14
293.7488287895
 24
98.0264009278
 34
0.0
 50
90.0
100
AcDbRotatedDimension
  0
DIMENSION
  5
19A
330
1F
100
AcDbEntity
  8
DIM
100
AcDbDimension
  2
_D_2
 10
131.2384891946
 20
93.2764009278
 30
0.0
 11
131.2384891946
 21
142.0264009278
 31
0.0
 70
   160
  1
%%c<>
 71
     2
 42
-1.0
  3
SLDDIMSTYLE1
100
AcDbAlignedDimension
 13
244.1145142144
 23
190.7764009278
 33
0.0
 14
244.1145142144
 24
93.2764009278
 34
0.0
 50
90.0
100
AcDbRotatedDimension
  0
DIMENSION
  5
1A6
330
1F
100
AcDbEntity
  8
DIM
100
AcDbDimension
  2
_D_3
 10
335.7488287895
 20
64.6763009278
 30
0.0
 11
236.8738287895
 21
64.6763009278
 31
0.0
 70
   160
  1
<>
 71
     2
 42
-1.0
  3
SLDDIMSTYLE0
100
AcDbAlignedDimension
 13
137.9988287895
 23
142.0264009278
 33
0.0
 14
335.7488287895
 24
117.0264009278
 34
0.0
100
AcDbRotatedDimension
  0
DIMENSION
  5
1B0
330
1F
100
AcDbEntity
  8
DIM
100
AcDbDimension
  2
_D_4
 10
239.7488287895
 20
79.3379642782
 30
0.0
 11
267.2488287895
 21
79.3379642782
 31
0.0
 70
   160
  1
<>
 71
     2
 42
-1.0
  3
SLDDIMSTYLE0
100
AcDbAlignedDimension
 13
294.7488287895
 23
99.0264009278
 33
0.0
 14
239.7488287895
 24
107.1014009278
 34
0.0
100
AcDbRotatedDimension
  0
DIMENSION
  5
1BA
330
1F
100
AcDbEntity
  8
DIM
100
AcDbDimension
  2
_D_5
 10
321.7488287895
 20
79.3379642782
 30
0.0
 11
308.2488287895
 21
79.3379642782
 31
0.0
 70
   160
  1
<>
 71
     2
 42
-1.0
  3
SLDDIMSTYLE0
100
AcDbAlignedDimension
 13
294.7488287895
 23
99.0264009278
 33
0.0
 14
321.7488287895
 24
122.8764009278
 34
0.0
100
AcDbRotatedDimension
  0
LINE
  5
1C4
330
1F
100
AcDbEntity
  8
DIM
  6
CENTERX2
 48
1.5384615385
370
     0
100
AcDbLine
 10
138.4399541709
 20
142.0264009278
 30
0.0
 11
340.651787236
 21
142.0264009278
 31
0.0
  0
ENDSEC
  0
SECTION
  2
OBJECTS
  0
DICTIONARY
  5
C
330
0
100
AcDbDictionary
281
     1
  3
ACAD_GROUP
350
D
  3
ACAD_LAYOUT
350
1A
  3
ACAD_MLINESTYLE
350
17
  3
ACAD_PLOTSETTINGS
350
19
  3
ACAD_PLOTSTYLENAME
350
E
  3
ACAD_SCALELIST
350
47
  0
DICTIONARY
  5
D
102
{ACAD_REACTORS
330
C
102
}
330
C
100
AcDbDictionary
281
     1
  0
DICTIONARY
  5
1A
102
{ACAD_REACTORS
330
C
102
}
330
C
100
AcDbDictionary
281
     1
  3
Layout1
350
1E
  3
Layout2
350
26
  3
Model
350
22
  0
DICTIONARY
  5
17
102
{ACAD_REACTORS
330
C
102
}
330
C
100
AcDbDictionary
281
     1
  3
Standard
350
18
  0
DICTIONARY
  5
19
102
{ACAD_REACTORS
330
C
102
}
330
C
100
AcDbDictionary
281
     1
  0
ACDBDICTIONARYWDFLT
  5
E
102
{ACAD_REACTORS
330
C
102
}
330
C
100
AcDbDictionary
281
     1
  3
Normal
350
F
100
AcDbDictionaryWithDefault
340
F
  0
DICTIONARY
  5
47
102
{ACAD_REACTORS
330
C
102
}
330
C
100
AcDbDictionary
281
     1
  3
A0
350
48
  3
A1
350
49
  3
A2
350
4A
  3
A3
350
4B
  3
A4
350
4C
  3
A5
350
4D
  3
A6
350
4E
  3
A7
350
4F
  3
A8
350
50
  3
A9
350
51
  3
B0
350
52
  3
B1
350
53
  3
B2
350
54
  3
B3
350
55
  3
B4
350
56
  3
B5
350
57
  3
B6
350
58
  3
B7
350
59
  3
B8
350
5A
  3
B9
350
5B
  3
C0
350
5C
  3
C1
350
5D
  3
C2
350
5E
  3
C3
350
5F
  3
C4
350
60
  3
C5
350
61
  3
C6
350
62
  3
C7
350
63
  3
C8
350
64
  3
C9
350
65
  3
D0
350
66
  3
D1
350
67
  3
D2
350
68
  0
LAYOUT
  5
1E
102
{ACAD_REACTORS
330
1A
102
}
330
1A
100
AcDbPlotSettings
  1

  2
none_device
  4

  6

 40
0.0
 41
0.0
 42
0.0
 43
0.0
 44
0.0
 45
0.0
 46
0.0
 47
0.0
 48
0.0
 49
0.0
140
0.0
141
0.0
142
1.0
143
1.0
 70
   688
 72
     1
 73
     0
 74
     5
  7

 75
    16
147
1.0
148
0.0
149
0.0
100
AcDbLayout
  1
Layout1
 70
     1
 71
     1
 10
0.0
 20
0.0
 11
420.0
 21
297.0
 12
0.0
 22
0.0
 32
0.0
 14
1.0000000000E+20
 24
1.0000000000E+20
 34
1.0000000000E+20
 15
-1.0000000000E+20
 25
-1.0000000000E+20
 35
-1.0000000000E+20
146
0.0
 13
0.0
 23
0.0
 33
0.0
 16
1.0
 26
0.0
 36
0.0
 17
0.0
 27
1.0
 37
0.0
 76
     0
330
1B
  0
LAYOUT
  5
26
102
{ACAD_REACTORS
330
1A
102
}
330
1A
100
AcDbPlotSettings
  1

  2
none_device
  4

  6

 40
0.0
 41
0.0
 42
0.0
 43
0.0
 44
0.0
 45
0.0
 46
0.0
 47
0.0
 48
0.0
 49
0.0
140
0.0
141
0.0
142
1.0
143
1.0
 70
   688
 72
     1
 73
     0
 74
     5
  7

 75
    16
147
1.0
148
0.0
149
0.0
100
AcDbLayout
  1
Layout2
 70
     1
 71
     2
 10
0.0
 20
0.0
 11
0.0
 21
0.0
 12
0.0
 22
0.0
 32
0.0
 14
0.0
 24
0.0
 34
0.0
 15
0.0
 25
0.0
 35
0.0
146
0.0
 13
0.0
 23
0.0
 33
0.0
 16
1.0
 26
0.0
 36
0.0
 17
0.0
 27
1.0
 37
0.0
 76
     0
330
23
  0
LAYOUT
  5
22
102
{ACAD_REACTORS
330
1A
102
}
330
1A
100
AcDbPlotSettings
  1

  2
none_device
  4
Letter_(8.50_x_11.00_Inches)
  6

 40
6.35
 41
6.35
 42
6.35000508
 43
6.35000508
 44
215.9
 45
279.4
 46
0.0
 47
0.0
 48
0.0
 49
0.0
140
0.0
141
0.0
142
1.0
143
1.0
 70
  1712
 72
     1
 73
     0
 74
     0
  7

 75
     0
147
1.0
148
0.0
149
0.0
100
AcDbLayout
  1
Model
 70
     1
 71
     0
 10
0.0
 20
0.0
 11
386.1
 21
273.0
 12
0.0
 22
0.0
 32
0.0
 14
0.0
 24
0.0
 34
0.0
 15
386.1
 25
273.0
 35
0.0
146
0.0
 13
0.0
 23
0.0
 33
0.0
 16
1.0
 26
0.0
 36
0.0
 17
0.0
 27
1.0
 37
0.0
 76
     0
330
1F
331
29
  0
MLINESTYLE
  5
18
102
{ACAD_REACTORS
330
17
102
}
330
17
100
AcDbMlineStyle
  2
Standard
 70
     0
  3

 62
   256
 51
90.0
 52
90.0
 71
     2
 49
0.5
 62
   256
  6
BYLAYER
 49
-0.5
 62
   256
  6
BYLAYER
  0
ACDBPLACEHOLDER
  5
F
102
{ACAD_REACTORS
330
E
102
}
330
E
  0
SCALE
  5
48
102
{ACAD_REACTORS
330
47
102
}
330
47
100
AcDbScale
 70
     0
300
1:1
140
1.0
141
1.0
290
     1
  0
SCALE
  5
49
102
{ACAD_REACTORS
330
47
102
}
330
47
100
AcDbScale
 70
     0
300
1:2
140
1.0
141
2.0
290
     0
  0
SCALE
  5
4A
102
{ACAD_REACTORS
330
47
102
}
330
47
100
AcDbScale
 70
     0
300
1:4
140
1.0
141
4.0
290
     0
  0
SCALE
  5
4B
102
{ACAD_REACTORS
330
47
102
}
330
47
100
AcDbScale
 70
     0
300
1:5
140
1.0
141
5.0
290
     0
  0
SCALE
  5
4C
102
{ACAD_REACTORS
330
47
102
}
330
47
100
AcDbScale
 70
     0
300
1:8
140
1.0
141
8.0
290
     0
  0
SCALE
  5
4D
102
{ACAD_REACTORS
330
47
102
}
330
47
100
AcDbScale
 70
     0
300
1:10
140
1.0
141
10.0
290
     0
  0
SCALE
  5
4E
102
{ACAD_REACTORS
330
47
102
}
330
47
100
AcDbScale
 70
     0
300
1:16
140
1.0
141
16.0
290
     0
  0
SCALE
  5
4F
102
{ACAD_REACTORS
330
47
102
}
330
47
100
AcDbScale
 70
     0
300
1:20
140
1.0
141
20.0
290
     0
  0
SCALE
  5
50
102
{ACAD_REACTORS
330
47
102
}
330
47
100
AcDbScale
 70
     0
300
1:30
140
1.0
141
30.0
290
     0
  0
SCALE
  5
51
102
{ACAD_REACTORS
330
47
102
}
330
47
100
AcDbScale
 70
     0
300
1:40
140
1.0
141
40.0
290
     0
  0
SCALE
  5
52
102
{ACAD_REACTORS
330
47
102
}
330
47
100
AcDbScale
 70
     0
300
1:50
140
1.0
141
50.0
290
     0
  0
SCALE
  5
53
102
{ACAD_REACTORS
330
47
102
}
330
47
100
AcDbScale
 70
     0
300
1:100
140
1.0
141
100.0
290
     0
  0
SCALE
  5
54
102
{ACAD_REACTORS
330
47
102
}
330
47
100
AcDbScale
 70
     0
300
2:1
140
2.0
141
1.0
290
     0
  0
SCALE
  5
55
102
{ACAD_REACTORS
330
47
102
}
330
47
100
AcDbScale
 70
     0
300
4:1
140
4.0
141
1.0
290
     0
  0
SCALE
  5
56
102
{ACAD_REACTORS
330
47
102
}
330
47
100
AcDbScale
 70
     0
300
8:1
140
8.0
141
1.0
290
     0
  0
SCALE
  5
57
102
{ACAD_REACTORS
330
47
102
}
330
47
100
AcDbScale
 70
     0
300
10:1
140
10.0
141
1.0
290
     0
  0
SCALE
  5
58
102
{ACAD_REACTORS
330
47
102
}
330
47
100
AcDbScale
 70
     0
300
100:1
140
100.0
141
1.0
290
     0
  0
SCALE
  5
59
102
{ACAD_REACTORS
330
47
102
}
330
47
100
AcDbScale
 70
     0
300
1/128" = 1'-0"
140
0.0078125
141
12.0
290
     0
  0
SCALE
  5
5A
102
{ACAD_REACTORS
330
47
102
}
330
47
100
AcDbScale
 70
     0
300
1/64" = 1'-0"
140
0.015625
141
12.0
290
     0
  0
SCALE
  5
5B
102
{ACAD_REACTORS
330
47
102
}
330
47
100
AcDbScale
 70
     0
300
1/32" = 1'-0"
140
0.03125
141
12.0
290
     0
  0
SCALE
  5
5C
102
{ACAD_REACTORS
330
47
102
}
330
47
100
AcDbScale
 70
     0
300
1/16" = 1'-0"
140
0.0625
141
12.0
290
     0
  0
SCALE
  5
5D
102
{ACAD_REACTORS
330
47
102
}
330
47
100
AcDbScale
 70
     0
300
3/32" = 1'-0"
140
0.09375
141
12.0
290
     0
  0
SCALE
  5
5E
102
{ACAD_REACTORS
330
47
102
}
330
47
100
AcDbScale
 70
     0
300
1/8" = 1'-0"
140
0.125
141
12.0
290
     0
  0
SCALE
  5
5F
102
{ACAD_REACTORS
330
47
102
}
330
47
100
AcDbScale
 70
     0
300
3/16" = 1'-0"
140
0.1875
141
12.0
290
     0
  0
SCALE
  5
60
102
{ACAD_REACTORS
330
47
102
}
330
47
100
AcDbScale
 70
     0
300
1/4" = 1'-0"
140
0.25
141
12.0
290
     0
  0
SCALE
  5
61
102
{ACAD_REACTORS
330
47
102
}
330
47
100
AcDbScale
 70
     0
300
3/8" = 1'-0"
140
0.375
141
12.0
290
     0
  0
SCALE
  5
62
102
{ACAD_REACTORS
330
47
102
}
330
47
100
AcDbScale
 70
     0
300
1/2" = 1'-0"
140
0.5
141
12.0
290
     0
  0
SCALE
  5
63
102
{ACAD_REACTORS
330
47
102
}
330
47
100
AcDbScale
 70
     0
300
3/4" = 1'-0"
140
0.75
141
12.0
290
     0
  0
SCALE
  5
64
102
{ACAD_REACTORS
330
47
102
}
330
47
100
AcDbScale
 70
     0
300
1" = 1'-0"
140
1.0
141
12.0
290
     0
  0
SCALE
  5
65
102
{ACAD_REACTORS
330
47
102
}
330
47
100
AcDbScale
 70
     0
300
1-1/2" = 1'-0"
140
1.5
141
12.0
290
     0
  0
SCALE
  5
66
102
{ACAD_REACTORS
330
47
102
}
330
47
100
AcDbScale
 70
     0
300
3" = 1'-0"
140
3.0
141
12.0
290
     0
  0
SCALE
  5
67
102
{ACAD_REACTORS
330
47
102
}
330
47
100
AcDbScale
 70
     0
300
6" = 1'-0"
140
6.0
141
12.0
290
     0
  0
SCALE
  5
68
102
{ACAD_REACTORS
330
47
102
}
330
47
100
AcDbScale
 70
     0
300
1'-0" = 1'-0"
140
12.0
141
12.0
290
     0
  0
ENDSEC
  0
EOF
