  0
SECTION
  2
HEADER
  9
$ACADVER
  1
AC1015
  9
$ACADMAINTVER
 70
     6
  9
$DWGCODEPAGE
  3
ANSI_1252
  9
$INSBASE
 10
0.0
 20
0.0
 30
0.0
  9
$EXTMIN
 10
0.0
 20
0.0
 30
0.0
  9
$EXTMAX
 10
445.5
 20
315.0
 30
0.0
  9
$LIMMIN
 10
0.0
 20
0.0
  9
$LIMMAX
 10
445.5
 20
315.0
  9
$ORTHOMODE
 70
     0
  9
$REGENMODE
 70
     1
  9
$FILLMODE
 70
     1
  9
$QTEXTMODE
 70
     0
  9
$MIRRTEXT
 70
     1
  9
$LTSCALE
 40
1.5
  9
$ATTMODE
 70
     1
  9
$TEXTSIZE
 40
5.8208333333
  9
$TRACEWID
 40
1.0
  9
$TEXTSTYLE
  7
Standard
  9
$CLAYER
  8
0
  9
$CELTYPE
  6
ByLayer
  9
$CECOLOR
 62
   256
  9
$CELTSCALE
 40
1.0
  9
$DISPSILH
 70
     0
  9
$DIMSCALE
 40
1.0
  9
$DIMASZ
 40
4.953
  9
$DIMEXO
 40
1.5
  9
$DIMDLI
 40
3.75
  9
$DIMRND
 40
0.0
  9
$DIMDLE
 40
0.0
  9
$DIMEXE
 40
1.5
  9
$DIMTP
 40
0.0
  9
$DIMTM
 40
0.0
  9
$DIMTXT
 40
5.8208333333
  9
$DIMCEN
 40
2.5
  9
$DIMTSZ
 40
0.0
  9
$DIMTOL
 70
     0
  9
$DIMLIM
 70
     0
  9
$DIMTIH
 70
     1
  9
$DIMTOH
 70
     1
  9
$DIMSE1
 70
     0
  9
$DIMSE2
 70
     0
  9
$DIMTAD
 70
     1
  9
$DIMZIN
 70
     0
  9
$DIMBLK
  1

  9
$DIMASO
 70
     1
  9
$DIMSHO
 70
     1
  9
$DIMPOST
  1

  9
$DIMAPOST
  1

  9
$DIMALT
 70
     0
  9
$DIMALTD
 70
     3
  9
$DIMALTF
 40
0.0393700787
  9
$DIMLFAC
 40
1.0
  9
$DIMTOFL
 70
     1
  9
$DIMTVP
 40
0.0
  9
$DIMTIX
 70
     0
  9
$DIMSOXD
 70
     0
  9
$DIMSAH
 70
     0
  9
$DIMBLK1
  1

  9
$DIMBLK2
  1

  9
$DIMSTYLE
  2
ISO-25
  9
$DIMCLRD
 70
     0
  9
$DIMCLRE
 70
     0
  9
$DIMCLRT
 70
     0
  9
$DIMTFAC
 40
1.0
  9
$DIMGAP
 40
2.286
  9
$DIMJUST
 70
     0
  9
$DIMSD1
 70
     0
  9
$DIMSD2
 70
     0
  9
$DIMTOLJ
 70
     0
  9
$DIMTZIN
 70
     0
  9
$DIMALTZ
 70
     0
  9
$DIMALTTZ
 70
     0
  9
$DIMUPT
 70
     0
  9
$DIMDEC
 70
     2
  9
$DIMTDEC
 70
     2
  9
$DIMALTU
 70
     2
  9
$DIMALTTD
 70
     3
  9
$DIMTXSTY
  7
Standard
  9
$DIMAUNIT
 70
     0
  9
$DIMADEC
 70
     2
  9
$DIMALTRND
 40
0.0
  9
$DIMAZIN
 70
     0
  9
$DIMDSEP
 70
    44
  9
$DIMATFIT
 70
     3
  9
$DIMFRAC
 70
     0
  9
$DIMLDRBLK
  1

  9
$DIMLUNIT
 70
     2
  9
$DIMLWD
 70
    -2
  9
$DIMLWE
 70
    -2
  9
$DIMTMOVE
 70
     0
  9
$LUNITS
 70
     2
  9
$LUPREC
 70
     2
  9
$SKETCHINC
 40
1.0
  9
$FILLETRAD
 40
10.0
  9
$AUNITS
 70
     1
  9
$AUPREC
 70
     2
  9
$MENU
  1
.
  9
$ELEVATION
 40
0.0
  9
$PELEVATION
 40
0.0
  9
$THICKNESS
 40
0.0
  9
$LIMCHECK
 70
     0
  9
$CHAMFERA
 40
0.0
  9
$CHAMFERB
 40
0.0
  9
$CHAMFERC
 40
0.0
  9
$CHAMFERD
 40
0.0
  9
$SKPOLY
 70
     0
  9
$TDCREATE
 40
2458606.659444144
  9
$TDUCREATE
 40
2458606.430277477
  9
$TDUPDATE
 40
2458606.659445185
  9
$TDUUPDATE
 40
2458606.430278519
  9
$TDINDWG
 40
0.0000000116
  9
$TDUSRTIMER
 40
0.0000000116
  9
$USRTIMER
 70
     1
  9
$ANGBASE
 50
0.0
  9
$ANGDIR
 70
     0
  9
$PDMODE
 70
     0
  9
$PDSIZE
 40
-1.0
  9
$PLINEWID
 40
0.0
  9
$SPLFRAME
 70
     0
  9
$SPLINETYPE
 70
     6
  9
$SPLINESEGS
 70
     8
  9
$HANDSEED
  5
1CC
  9
$SURFTAB1
 70
     6
  9
$SURFTAB2
 70
     6
  9
$SURFTYPE
 70
     6
  9
$SURFU
 70
     6
  9
$SURFV
 70
     6
  9
$UCSBASE
  2

  9
$UCSNAME
  2

  9
$UCSORG
 10
0.0
 20
0.0
 30
0.0
  9
$UCSXDIR
 10
1.0
 20
0.0
 30
0.0
  9
$UCSYDIR
 10
0.0
 20
1.0
 30
0.0
  9
$UCSORTHOREF
  2

  9
$UCSORTHOVIEW
 70
     0
  9
$UCSORGTOP
 10
0.0
 20
0.0
 30
0.0
  9
$UCSORGBOTTOM
 10
0.0
 20
0.0
 30
0.0
  9
$UCSORGLEFT
 10
0.0
 20
0.0
 30
0.0
  9
$UCSORGRIGHT
 10
0.0
 20
0.0
 30
0.0
  9
$UCSORGFRONT
 10
0.0
 20
0.0
 30
0.0
  9
$UCSORGBACK
 10
0.0
 20
0.0
 30
0.0
  9
$PUCSBASE
  2

  9
$PUCSNAME
  2

  9
$PUCSORG
 10
0.0
 20
0.0
 30
0.0
  9
$PUCSXDIR
 10
1.0
 20
0.0
 30
0.0
  9
$PUCSYDIR
 10
0.0
 20
1.0
 30
0.0
  9
$PUCSORTHOREF
  2

  9
$PUCSORTHOVIEW
 70
     0
  9
$PUCSORGTOP
 10
0.0
 20
0.0
 30
0.0
  9
$PUCSORGBOTTOM
 10
0.0
 20
0.0
 30
0.0
  9
$PUCSORGLEFT
 10
0.0
 20
0.0
 30
0.0
  9
$PUCSORGRIGHT
 10
0.0
 20
0.0
 30
0.0
  9
$PUCSORGFRONT
 10
0.0
 20
0.0
 30
0.0
  9
$PUCSORGBACK
 10
0.0
 20
0.0
 30
0.0
  9
$USERI1
 70
     0
  9
$USERI2
 70
     0
  9
$USERI3
 70
     0
  9
$USERI4
 70
     0
  9
$USERI5
 70
     0
  9
$USERR1
 40
0.0
  9
$USERR2
 40
0.0
  9
$USERR3
 40
0.0
  9
$USERR4
 40
0.0
  9
$USERR5
 40
0.0
  9
$WORLDVIEW
 70
     1
  9
$SHADEDGE
 70
     3
  9
$SHADEDIF
 70
    70
  9
$TILEMODE
 70
     1
  9
$MAXACTVP
 70
    64
  9
$PINSBASE
 10
0.0
 20
0.0
 30
0.0
  9
$PLIMCHECK
 70
     0
  9
$PEXTMIN
 10
1.0000000000E+20
 20
1.0000000000E+20
 30
1.0000000000E+20
  9
$PEXTMAX
 10
-1.0000000000E+20
 20
-1.0000000000E+20
 30
-1.0000000000E+20
  9
$PLIMMIN
 10
0.0
 20
0.0
  9
$PLIMMAX
 10
420.0
 20
297.0
  9
$UNITMODE
 70
     0
  9
$VISRETAIN
 70
     1
  9
$PLINEGEN
 70
     0
  9
$PSLTSCALE
 70
     1
  9
$TREEDEPTH
 70
  3020
  9
$CMLSTYLE
  2
Standard
  9
$CMLJUST
 70
     0
  9
$CMLSCALE
 40
20.0
  9
$PROXYGRAPHICS
 70
     1
  9
$MEASUREMENT
 70
     1
  9
$CELWEIGHT
370
    -1
  9
$ENDCAPS
280
     0
  9
$JOINSTYLE
280
     0
  9
$LWDISPLAY
290
     1
  9
$INSUNITS
 70
     4
  9
$HYPERLINKBASE
  1

  9
$STYLESHEET
  1

  9
$XEDIT
290
     1
  9
$CEPSNTYPE
380
     0
  9
$PSTYLEMODE
290
     1
  9
$FINGERPRINTGUID
  2
{584D2908-86CC-40E6-A449-1D76AA4F5B6F}
  9
$VERSIONGUID
  2
{FAEB1C32-E019-11D5-929B-00C0DF256EC4}
  9
$EXTNAMES
290
     1
  9
$PSVPSCALE
 40
0.0
  9
$OLESTARTUP
290
     0
  0
ENDSEC
  0
SECTION
  2
CLASSES
  0
CLASS
  1
ACDBDICTIONARYWDFLT
  2
AcDbDictionaryWithDefault
  3
ObjectDBX Classes
 90
        0
280
     0
281
     0
  0
CLASS
  1
VISUALSTYLE
  2
AcDbVisualStyle
  3
ObjectDBX Classes
 90
     4095
280
     0
281
     0
  0
CLASS
  1
MATERIAL
  2
AcDbMaterial
  3
ObjectDBX Classes
 90
     1153
280
     0
281
     0
  0
CLASS
  1
SCALE
  2
AcDbScale
  3
ObjectDBX Classes
 90
     1153
280
     0
281
     0
  0
CLASS
  1
SUN
  2
AcDbSun
  3
SCENEOE
 90
     1153
280
     0
281
     0
  0
CLASS
  1
ACDBPLACEHOLDER
  2
AcDbPlaceHolder
  3
ObjectDBX Classes
 90
        0
280
     0
281
     0
  0
CLASS
  1
LAYOUT
  2
AcDbLayout
  3
ObjectDBX Classes
 90
        0
280
     0
281
     0
  0
ENDSEC
  0
SECTION
  2
TABLES
  0
TABLE
  2
VPORT
  5
8
330
0
100
AcDbSymbolTable
 70
     1
  0
VPORT
  5
29
330
8
100
AcDbSymbolTableRecord
100
AcDbViewportTableRecord
  2
*Active
 70
     0
 10
0.0
 20
0.0
 11
1.0
 21
1.0
 12
222.75
 22
157.5
 13
0.0
 23
0.0
 14
10.0
 24
10.0
 15
10.0
 25
10.0
 16
0.0
 26
0.0
 36
1.0
 17
0.0
 27
0.0
 37
0.0
 40
315.0
 41
1.4142857143
 42
50.0
 43
0.0
 44
0.0
 50
0.0
 51
0.0
 71
     0
 72
  2000
 73
     1
 74
     3
 75
     0
 76
     0
 77
     0
 78
     0
281
     0
 65
     1
110
0.0
120
0.0
130
0.0
111
1.0
121
0.0
131
0.0
112
0.0
122
1.0
132
0.0
 79
     0
146
0.0
  0
ENDTAB
  0
TABLE
  2
LTYPE
  5
5
330
0
100
AcDbSymbolTable
 70
     6
  0
LTYPE
  5
14
330
5
100
AcDbSymbolTableRecord
100
AcDbLinetypeTableRecord
  2
ByBlock
 70
     0
  3

 72
    65
 73
     0
 40
0.0
  0
LTYPE
  5
15
330
5
100
AcDbSymbolTableRecord
100
AcDbLinetypeTableRecord
  2
ByLayer
 70
     0
  3

 72
    65
 73
     0
 40
0.0
  0
LTYPE
  5
16
330
5
100
AcDbSymbolTableRecord
100
AcDbLinetypeTableRecord
  2
Continuous
 70
     0
  3
Solid line
 72
    65
 73
     0
 40
0.0
  0
LTYPE
  5
6A
330
5
100
AcDbSymbolTableRecord
100
AcDbLinetypeTableRecord
  2
HIDDEN
 70
     0
  3
Hidden __ __ __ __ __ __ __ __ __ __ __ __ __ __
 72
    65
 73
     2
 40
1.905
 49
1.27
 74
     0
 49
-0.635
 74
     0
  0
LTYPE
  5
6B
330
5
100
AcDbSymbolTableRecord
100
AcDbLinetypeTableRecord
  2
PHANTOM
 70
     0
  3
Phantom ______  __  __  ______  __  __  ______
 72
    65
 73
     6
 40
12.7
 49
6.35
 74
     0
 49
-1.27
 74
     0
 49
1.27
 74
     0
 49
-1.27
 74
     0
 49
1.27
 74
     0
 49
-1.27
 74
     0
  0
LTYPE
  5
6C
330
5
100
AcDbSymbolTableRecord
100
AcDbLinetypeTableRecord
  2
CENTER
 70
     0
  3
Center ____ _ ____ _ ____ _ ____ _ ____ _ ____
 72
    65
 73
     4
 40
10.16
 49
6.35
 74
     0
 49
-1.27
 74
     0
 49
1.27
 74
     0
 49
-1.27
 74
     0
  0
LTYPE
  5
6D
330
5
100
AcDbSymbolTableRecord
100
AcDbLinetypeTableRecord
  2
CENTERX2
 70
     0
  3
Center (2x) ________  __  ________  __  _____
 72
    65
 73
     4
 40
20.32
 49
12.7
 74
     0
 49
-2.54
 74
     0
 49
2.54
 74
     0
 49
-2.54
 74
     0
  0
LTYPE
  5
6E
330
5
100
AcDbSymbolTableRecord
100
AcDbLinetypeTableRecord
  2
DOT2
 70
     0
  3
Dot (.5x) ........................................
 72
    65
 73
     2
 40
0.635
 49
0.0
 74
     0
 49
-0.635
 74
     0
  0
ENDTAB
  0
TABLE
  2
LAYER
  5
2
330
0
100
AcDbSymbolTable
 70
     8
  0
LAYER
  5
10
330
2
100
AcDbSymbolTableRecord
100
AcDbLayerTableRecord
  2
0
 70
     0
 62
     7
  6
Continuous
370
    -3
390
F
  0
LAYER
  5
6F
330
2
100
AcDbSymbolTableRecord
100
AcDbLayerTableRecord
  2
FORMAT
 70
     0
 62
     7
  6
Continuous
370
    -3
390
F
  0
LAYER
  5
70
330
2
100
AcDbSymbolTableRecord
100
AcDbLayerTableRecord
  2
SLD-0
 70
     0
 62
     2
  6
Continuous
370
    -3
390
F
  0
LAYER
  5
71
330
2
100
AcDbSymbolTableRecord
100
AcDbLayerTableRecord
  2
DIM
 70
     0
 62
   179
  6
Continuous
370
    -3
390
F
  0
LAYER
  5
72
330
2
100
AcDbSymbolTableRecord
100
AcDbLayerTableRecord
  2
SLD-DEFPOINTS
 70
     0
 62
   179
  6
Continuous
370
    -3
390
F
  0
LAYER
  5
73
330
2
100
AcDbSymbolTableRecord
100
AcDbLayerTableRecord
  2
HAT
 70
     0
 62
   135
  6
Continuous
370
    -3
390
F
  0
LAYER
  5
74
330
2
100
AcDbSymbolTableRecord
100
AcDbLayerTableRecord
  2
JOB
 70
     0
 62
   201
  6
Continuous
370
    -3
390
F
  0
LAYER
  5
75
330
2
100
AcDbSymbolTableRecord
100
AcDbLayerTableRecord
  2
INSPECTION_REPORT
 70
     0
 62
   255
  6
Continuous
370
    -3
390
F
  0
ENDTAB
  0
TABLE
  2
STYLE
  5
3
330
0
100
AcDbSymbolTable
 70
     4
  0
STYLE
  5
11
330
3
100
AcDbSymbolTableRecord
100
AcDbTextStyleTableRecord
  2
Standard
 70
     0
 40
0.0
 41
1.0
 50
0.0
 71
     0
 42
5.8208333333
  3
txt
  4

  0
STYLE
  5
96
330
3
100
AcDbSymbolTableRecord
100
AcDbTextStyleTableRecord
  2
SLDTEXTSTYLE0
 70
     0
 40
0.0
 41
0.7
 50
0.0
 71
     0
 42
5.8208333333
  3
TXT
  4

  0
STYLE
  5
98
330
3
100
AcDbSymbolTableRecord
100
AcDbTextStyleTableRecord
  2
SLDTEXTSTYLE1
 70
     0
 40
0.0
 41
0.75
 50
0.0
 71
     0
 42
5.8208333333
  3
TXT
  4

  0
STYLE
  5
AB
330
3
100
AcDbSymbolTableRecord
100
AcDbTextStyleTableRecord
  2
SLDTEXTSTYLE2
 70
     0
 40
0.0
 41
0.6875
 50
0.0
 71
     0
 42
5.8208333333
  3
TXT
  4

  0
ENDTAB
  0
TABLE
  2
VIEW
  5
6
330
0
100
AcDbSymbolTable
 70
     0
  0
ENDTAB
  0
TABLE
  2
UCS
  5
7
330
0
100
AcDbSymbolTable
 70
     0
  0
ENDTAB
  0
TABLE
  2
APPID
  5
9
330
0
100
AcDbSymbolTable
 70
     1
  0
APPID
  5
12
330
9
100
AcDbSymbolTableRecord
100
AcDbRegAppTableRecord
  2
ACAD
 70
     0
  0
ENDTAB
  0
TABLE
  2
DIMSTYLE
  5
A
330
0
100
AcDbSymbolTable
 70
     4
100
AcDbDimStyleTable
  0
DIMSTYLE
105
27
330
A
100
AcDbSymbolTableRecord
100
AcDbDimStyleTableRecord
  2
ISO-25
 70
     0
 41
2.5
 42
0.625
 43
3.75
 44
1.25
 73
     0
 74
     0
 77
     1
 78
     8
140
2.5
141
2.5
143
0.0393700787
147
0.625
171
     3
172
     1
178
     0
271
     2
272
     2
274
     3
278
    44
283
     0
284
     8
340
11
  0
DIMSTYLE
105
18A
102
{ACAD_REACTORS
330
189
330
195
330
1AB
330
1C1
102
}
330
A
100
AcDbSymbolTableRecord
100
AcDbDimStyleTableRecord
  2
SLDDIMSTYLE0
 70
     0
 41
4.953
 44
0.0
 45
0.000000001
 73
     0
 74
     0
 77
     1
 78
    12
 79
     3
140
4.365625
147
1.09140625
173
     1
178
     0
271
     2
272
     2
276
     2
284
    12
340
96
  0
DIMSTYLE
105
1A1
102
{ACAD_REACTORS
330
1A0
102
}
330
A
100
AcDbSymbolTableRecord
100
AcDbDimStyleTableRecord
  2
SLDDIMSTYLE1
 70
     0
 41
4.953
 44
0.0
 45
0.000000001
 73
     0
 74
     0
 77
     1
 78
    12
 79
     3
140
4.365625
147
1.09140625
172
     1
173
     1
178
     0
271
     2
272
     2
276
     2
284
    12
289
     0
340
96
  0
DIMSTYLE
105
1B6
102
{ACAD_REACTORS
330
1B5
102
}
330
A
100
AcDbSymbolTableRecord
100
AcDbDimStyleTableRecord
  2
SLDDIMSTYLE2
 70
     0
 41
4.953
 44
0.0
 45
0.000000001
 73
     0
 74
     0
 77
     1
 78
     4
 79
     1
140
4.365625
147
1.09140625
173
     1
178
     0
271
     2
272
     2
276
     2
284
    12
340
96
  0
ENDTAB
  0
TABLE
  2
BLOCK_RECORD
  5
1
330
0
100
AcDbSymbolTable
 70
     8
  0
BLOCK_RECORD
  5
1F
330
1
100
AcDbSymbolTableRecord
100
AcDbBlockTableRecord
  2
*Model_Space
340
22
  0
BLOCK_RECORD
  5
1B
330
1
100
AcDbSymbolTableRecord
100
AcDbBlockTableRecord
  2
*Paper_Space
340
1E
  0
BLOCK_RECORD
  5
23
330
1
100
AcDbSymbolTableRecord
100
AcDbBlockTableRecord
  2
*Paper_Space0
340
26
  0
BLOCK_RECORD
  5
E8
330
1
100
AcDbSymbolTableRecord
100
AcDbBlockTableRecord
  2
SW_CENTERMARKSYMBOL_0
340
0
102
{BLKREFS
331
F3
102
}
  0
BLOCK_RECORD
  5
18B
330
1
100
AcDbSymbolTableRecord
100
AcDbBlockTableRecord
  2
_D
340
0
  0
BLOCK_RECORD
  5
196
330
1
100
AcDbSymbolTableRecord
100
AcDbBlockTableRecord
  2
_D_1
340
0
  0
BLOCK_RECORD
  5
1A2
330
1
100
AcDbSymbolTableRecord
100
AcDbBlockTableRecord
  2
_D_2
340
0
  0
BLOCK_RECORD
  5
1AC
330
1
100
AcDbSymbolTableRecord
100
AcDbBlockTableRecord
  2
_D_3
340
0
  0
BLOCK_RECORD
  5
1B7
330
1
100
AcDbSymbolTableRecord
100
AcDbBlockTableRecord
  2
_D_4
340
0
  0
BLOCK_RECORD
  5
1C2
330
1
100
AcDbSymbolTableRecord
100
AcDbBlockTableRecord
  2
_D_5
340
0
  0
ENDTAB
  0
ENDSEC
  0
SECTION
  2
BLOCKS
  0
BLOCK
  5
20
330
1F
100
AcDbEntity
  8
0
100
AcDbBlockBegin
  2
*Model_Space
 70
     0
 10
0.0
 20
0.0
 30
0.0
  3
*Model_Space
  1
*Model_Space
  0
ENDBLK
  5
21
330
1F
100
AcDbEntity
  8
0
100
AcDbBlockEnd
  0
BLOCK
  5
1C
330
1B
100
AcDbEntity
 67
     1
  8
0
100
AcDbBlockBegin
  2
*Paper_Space
 70
     0
 10
0.0
 20
0.0
 30
0.0
  3
*Paper_Space
  1
*Paper_Space
  0
ENDBLK
  5
1D
330
1B
100
AcDbEntity
 67
     1
  8
0
100
AcDbBlockEnd
  0
BLOCK
  5
24
330
23
100
AcDbEntity
  8
0
100
AcDbBlockBegin
  2
*Paper_Space0
 70
     0
 10
0.0
 20
0.0
 30
0.0
  3
*Paper_Space0
  1
*Paper_Space0
  0
ENDBLK
  5
25
330
23
100
AcDbEntity
  8
0
100
AcDbBlockEnd
  0
BLOCK
  5
E9
330
E8
100
AcDbEntity
  8
0
100
AcDbBlockBegin
  2
SW_CENTERMARKSYMBOL_0
 70
     0
 10
0.0
 20
0.0
 30
0.0
  3
SW_CENTERMARKSYMBOL_0
  1
SW_CENTERMARKSYMBOL_0
  0
LINE
  5
EB
330
E8
100
AcDbEntity
  8
DIM
 62
     0
100
AcDbLine
 10
0.0
 20
0.0
 30
0.0
 11
0.0
 21
2.5
 31
0.0
  0
LINE
  5
EC
330
E8
100
AcDbEntity
  8
DIM
 62
     0
100
AcDbLine
 10
0.0
 20
0.0
 30
0.0
 11
-2.5
 21
0.0
 31
0.0
  0
LINE
  5
ED
330
E8
100
AcDbEntity
  8
DIM
 62
     0
100
AcDbLine
 10
0.0
 20
0.0
 30
0.0
 11
0.0
 21
-2.5
 31
0.0
  0
LINE
  5
EE
330
E8
100
AcDbEntity
  8
DIM
 62
     0
100
AcDbLine
 10
0.0
 20
0.0
 30
0.0
 11
2.5
 21
0.0
 31
0.0
  0
LINE
  5
EF
330
E8
100
AcDbEntity
  8
DIM
 62
     0
100
AcDbLine
 10
0.0
 20
5.0
 30
0.0
 11
0.0
 21
51.1328427125
 31
0.0
  0
LINE
  5
F0
330
E8
100
AcDbEntity
  8
DIM
 62
     0
100
AcDbLine
 10
-5.0
 20
0.0
 30
0.0
 11
-51.1328427125
 21
0.0
 31
0.0
  0
LINE
  5
F1
330
E8
100
AcDbEntity
  8
DIM
 62
     0
100
AcDbLine
 10
0.0
 20
-5.0
 30
0.0
 11
0.0
 21
-51.1328427125
 31
0.0
  0
LINE
  5
F2
330
E8
100
AcDbEntity
  8
DIM
 62
     0
100
AcDbLine
 10
5.0
 20
0.0
 30
0.0
 11
51.1328427125
 21
0.0
 31
0.0
  0
ENDBLK
  5
EA
330
E8
100
AcDbEntity
  8
0
100
AcDbBlockEnd
  0
BLOCK
  5
18C
330
18B
100
AcDbEntity
  8
0
100
AcDbBlockBegin
  2
_D
 70
     0
 10
0.0
 20
0.0
 30
0.0
  3
_D
  1
_D
  0
SOLID
  5
18E
330
18B
100
AcDbEntity
  8
DIM
100
AcDbTrace
 10
412.5869761347
 20
207.8766164552
 30
0.0
 11
411.8249761347
 21
202.9236164552
 31
0.0
 12
413.3489761347
 22
202.9236164552
 32
0.0
 13
413.3489761347
 23
202.9236164552
 33
0.0
  0
SOLID
  5
18F
330
18B
100
AcDbEntity
  8
DIM
100
AcDbTrace
 10
412.5869761347
 20
119.8766164552
 30
0.0
 11
413.3489761347
 21
124.8296164552
 31
0.0
 12
411.8249761347
 22
124.8296164552
 32
0.0
 13
411.8249761347
 23
124.8296164552
 33
0.0
  0
LINE
  5
190
330
18B
100
AcDbEntity
  8
DIM
100
AcDbLine
 10
354.2243735068
 20
207.8766164552
 30
0.0
 11
414.0869761347
 21
207.8766164552
 31
0.0
  0
LINE
  5
191
330
18B
100
AcDbEntity
  8
DIM
100
AcDbLine
 10
354.2243735068
 20
119.8766164552
 30
0.0
 11
414.0869761347
 21
119.8766164552
 31
0.0
  0
LINE
  5
192
330
18B
100
AcDbEntity
  8
DIM
100
AcDbLine
 10
412.5869761347
 20
207.8766164552
 30
0.0
 11
412.5869761347
 21
119.8766164552
 31
0.0
  0
MTEXT
  5
193
330
18B
100
AcDbEntity
  8
DIM
100
AcDbMText
 10
406.959389434
 20
157.5503002978
 30
0.0
 40
4.365625
 41
0.0
 71
     1
 72
     1
  1
%%c
  7
SLDTEXTSTYLE0
 11
-7.044195017643634E-15
 21
1.0
 31
0.0
 73
     1
 44
1.0
  0
MTEXT
  5
194
330
18B
100
AcDbEntity
  8
DIM
100
AcDbMText
 10
406.959389434
 20
164.3012541472
 30
0.0
 40
4.365625
 41
0.0
 71
     1
 72
     1
  1
88
  7
SLDTEXTSTYLE0
 11
-7.044195017643634E-15
 21
1.0
 31
0.0
 73
     1
 44
1.0
  0
ENDBLK
  5
18D
330
18B
100
AcDbEntity
  8
0
100
AcDbBlockEnd
  0
BLOCK
  5
197
330
196
100
AcDbEntity
  8
0
100
AcDbBlockBegin
  2
_D_1
 70
     0
 10
0.0
 20
0.0
 30
0.0
  3
_D_1
  1
_D_1
  0
SOLID
  5
199
330
196
100
AcDbEntity
  8
DIM
100
AcDbTrace
 10
403.4228948991
 20
183.8766164552
 30
0.0
 11
402.6608948991
 21
178.9236164552
 31
0.0
 12
404.1848948991
 22
178.9236164552
 32
0.0
 13
404.1848948991
 23
178.9236164552
 33
0.0
  0
SOLID
  5
19A
330
196
100
AcDbEntity
  8
DIM
100
AcDbTrace
 10
403.4228948991
 20
143.8766164552
 30
0.0
 11
404.1848948991
 21
148.8296164552
 31
0.0
 12
402.6608948991
 22
148.8296164552
 32
0.0
 13
402.6608948991
 23
148.8296164552
 33
0.0
  0
LINE
  5
19B
330
196
100
AcDbEntity
  8
DIM
100
AcDbLine
 10
381.733625778
 20
183.8766164552
 30
0.0
 11
404.9228948991
 21
183.8766164552
 31
0.0
  0
LINE
  5
19C
330
196
100
AcDbEntity
  8
DIM
100
AcDbLine
 10
381.733625778
 20
143.8766164552
 30
0.0
 11
404.9228948991
 21
143.8766164552
 31
0.0
  0
LINE
  5
19D
330
196
100
AcDbEntity
  8
DIM
100
AcDbLine
 10
403.4228948991
 20
183.8766164552
 30
0.0
 11
403.4228948991
 21
143.8766164552
 31
0.0
  0
MTEXT
  5
19E
330
196
100
AcDbEntity
  8
DIM
100
AcDbMText
 10
397.7953081985
 20
157.5503002978
 30
0.0
 40
4.365625
 41
0.0
 71
     1
 72
     1
  1
%%c
  7
SLDTEXTSTYLE0
 11
-7.044195017643634E-15
 21
1.0
 31
0.0
 73
     1
 44
1.0
  0
MTEXT
  5
19F
330
196
100
AcDbEntity
  8
DIM
100
AcDbMText
 10
397.7953081985
 20
164.3012541472
 30
0.0
 40
4.365625
 41
0.0
 71
     1
 72
     1
  1
40
  7
SLDTEXTSTYLE0
 11
-7.044195017643634E-15
 21
1.0
 31
0.0
 73
     1
 44
1.0
  0
ENDBLK
  5
198
330
196
100
AcDbEntity
  8
0
100
AcDbBlockEnd
  0
BLOCK
  5
1A3
330
1A2
100
AcDbEntity
  8
0
100
AcDbBlockBegin
  2
_D_2
 70
     0
 10
0.0
 20
0.0
 30
0.0
  3
_D_2
  1
_D_2
  0
SOLID
  5
1A5
330
1A2
100
AcDbEntity
  8
DIM
100
AcDbTrace
 10
380.7243735068
 20
98.9579787718
 30
0.0
 11
375.7713735068
 21
99.7199787718
 31
0.0
 12
375.7713735068
 22
98.1959787718
 32
0.0
 13
375.7713735068
 23
98.1959787718
 33
0.0
  0
SOLID
  5
1A6
330
1A2
100
AcDbEntity
  8
DIM
100
AcDbTrace
 10
353.7243735068
 20
98.9579787718
 30
0.0
 11
358.6773735068
 21
98.1959787718
 31
0.0
 12
358.6773735068
 22
99.7199787718
 32
0.0
 13
358.6773735068
 23
99.7199787718
 33
0.0
  0
LINE
  5
1A7
330
1A2
100
AcDbEntity
  8
DIM
100
AcDbLine
 10
380.7243735068
 20
143.2266164552
 30
0.0
 11
380.7243735068
 21
97.4579787718
 31
0.0
  0
LINE
  5
1A8
330
1A2
100
AcDbEntity
  8
DIM
100
AcDbLine
 10
353.7243735068
 20
119.3766164552
 30
0.0
 11
353.7243735068
 21
97.4579787718
 31
0.0
  0
LINE
  5
1A9
330
1A2
100
AcDbEntity
  8
DIM
100
AcDbLine
 10
380.7243735068
 20
98.9579787718
 30
0.0
 11
353.7243735068
 21
98.9579787718
 31
0.0
  0
MTEXT
  5
1AA
330
1A2
100
AcDbEntity
  8
DIM
100
AcDbMText
 10
364.2735342741
 20
104.5855654725
 30
0.0
 40
4.365625
 41
0.0
 71
     1
 72
     1
  1
27
  7
SLDTEXTSTYLE0
 73
     1
 44
1.0
  0
ENDBLK
  5
1A4
330
1A2
100
AcDbEntity
  8
0
100
AcDbBlockEnd
  0
BLOCK
  5
1AD
330
1AC
100
AcDbEntity
  8
0
100
AcDbBlockBegin
  2
_D_3
 70
     0
 10
0.0
 20
0.0
 30
0.0
  3
_D_3
  1
_D_3
  0
SOLID
  5
1AF
330
1AC
100
AcDbEntity
  8
DIM
100
AcDbTrace
 10
353.7243735068
 20
98.9579787718
 30
0.0
 11
348.7713735068
 21
99.7199787718
 31
0.0
 12
348.7713735068
 22
98.1959787718
 32
0.0
 13
348.7713735068
 23
98.1959787718
 33
0.0
  0
SOLID
  5
1B0
330
1AC
100
AcDbEntity
  8
DIM
100
AcDbTrace
 10
253.7243735068
 20
98.9579787718
 30
0.0
 11
258.6773735068
 21
98.1959787718
 31
0.0
 12
258.6773735068
 22
99.7199787718
 32
0.0
 13
258.6773735068
 23
99.7199787718
 33
0.0
  0
LINE
  5
1B1
330
1AC
100
AcDbEntity
  8
DIM
100
AcDbLine
 10
353.7243735068
 20
122.3766164552
 30
0.0
 11
353.7243735068
 21
97.4579787718
 31
0.0
  0
LINE
  5
1B2
330
1AC
100
AcDbEntity
  8
DIM
100
AcDbLine
 10
253.7243735068
 20
127.4516164552
 30
0.0
 11
253.7243735068
 21
97.4579787718
 31
0.0
  0
LINE
  5
1B3
330
1AC
100
AcDbEntity
  8
DIM
100
AcDbLine
 10
353.7243735068
 20
98.9579787718
 30
0.0
 11
253.7243735068
 21
98.9579787718
 31
0.0
  0
MTEXT
  5
1B4
330
1AC
100
AcDbEntity
  8
DIM
100
AcDbMText
 10
299.2981146578
 20
104.5855654725
 30
0.0
 40
4.365625
 41
0.0
 71
     1
 72
     1
  1
100
  7
SLDTEXTSTYLE0
 73
     1
 44
1.0
  0
ENDBLK
  5
1AE
330
1AC
100
AcDbEntity
  8
0
100
AcDbBlockEnd
  0
BLOCK
  5
1B8
330
1B7
100
AcDbEntity
  8
0
100
AcDbBlockBegin
  2
_D_4
 70
     0
 10
0.0
 20
0.0
 30
0.0
  3
_D_4
  1
_D_4
  0
SOLID
  5
1BA
330
1B7
100
AcDbEntity
  8
DIM
100
AcDbTrace
 10
143.361544411
 20
212.6266164552
 30
0.0
 11
142.599544411
 21
207.6736164552
 31
0.0
 12
144.123544411
 22
207.6736164552
 32
0.0
 13
144.123544411
 23
207.6736164552
 33
0.0
  0
SOLID
  5
1BB
330
1B7
100
AcDbEntity
  8
DIM
100
AcDbTrace
 10
143.361544411
 20
115.1266164552
 30
0.0
 11
144.123544411
 21
120.0796164552
 31
0.0
 12
142.599544411
 22
120.0796164552
 32
0.0
 13
142.599544411
 23
120.0796164552
 33
0.0
  0
LINE
  5
1BC
330
1B7
100
AcDbEntity
  8
DIM
100
AcDbLine
 10
256.5900589317
 20
212.6266164552
 30
0.0
 11
141.861544411
 21
212.6266164552
 31
0.0
  0
LINE
  5
1BD
330
1B7
100
AcDbEntity
  8
DIM
100
AcDbLine
 10
256.5900589317
 20
115.1266164552
 30
0.0
 11
141.861544411
 21
115.1266164552
 31
0.0
  0
LINE
  5
1BE
330
1B7
100
AcDbEntity
  8
DIM
100
AcDbLine
 10
143.361544411
 20
212.6266164552
 30
0.0
 11
143.361544411
 21
115.1266164552
 31
0.0
  0
MTEXT
  5
1BF
330
1B7
100
AcDbEntity
  8
DIM
100
AcDbMText
 10
137.7339577103
 20
153.8233499169
 30
0.0
 40
4.365625
 41
0.0
 71
     1
 72
     1
  1
%%c
  7
SLDTEXTSTYLE0
 11
-7.044195017643634E-15
 21
1.0
 31
0.0
 73
     1
 44
1.0
  0
MTEXT
  5
1C0
330
1B7
100
AcDbEntity
  8
DIM
100
AcDbMText
 10
137.7339577103
 20
160.5743037663
 30
0.0
 40
4.365625
 41
0.0
 71
     1
 72
     1
  1
97.50
  7
SLDTEXTSTYLE0
 11
-7.044195017643634E-15
 21
1.0
 31
0.0
 73
     1
 44
1.0
  0
ENDBLK
  5
1B9
330
1B7
100
AcDbEntity
  8
0
100
AcDbBlockEnd
  0
BLOCK
  5
1C3
330
1C2
100
AcDbEntity
  8
0
100
AcDbBlockBegin
  2
_D_5
 70
     0
 10
0.0
 20
0.0
 30
0.0
  3
_D_5
  1
_D_5
  0
SOLID
  5
1C5
330
1C2
100
AcDbEntity
  8
DIM
100
AcDbTrace
 10
151.9743735068
 20
91.1265164552
 30
0.0
 11
156.9273735068
 21
90.3645164552
 31
0.0
 12
156.9273735068
 22
91.8885164552
 32
0.0
 13
156.9273735068
 23
91.8885164552
 33
0.0
  0
SOLID
  5
1C6
330
1C2
100
AcDbEntity
  8
DIM
100
AcDbTrace
 10
394.7243735068
 20
91.1265164552
 30
0.0
 11
389.7713735068
 21
91.8885164552
 31
0.0
 12
389.7713735068
 22
90.3645164552
 32
0.0
 13
389.7713735068
 23
90.3645164552
 33
0.0
  0
LINE
  5
1C7
330
1C2
100
AcDbEntity
  8
DIM
100
AcDbLine
 10
151.9743735068
 20
162.3766164552
 30
0.0
 11
151.9743735068
 21
89.6265164552
 31
0.0
  0
LINE
  5
1C8
330
1C2
100
AcDbEntity
  8
DIM
100
AcDbLine
 10
394.7243735068
 20
137.3766164552
 30
0.0
 11
394.7243735068
 21
89.6265164552
 31
0.0
  0
LINE
  5
1C9
330
1C2
100
AcDbEntity
  8
DIM
100
AcDbLine
 10
151.9743735068
 20
91.1265164552
 30
0.0
 11
394.7243735068
 21
91.1265164552
 31
0.0
  0
MTEXT
  5
1CA
330
1C2
100
AcDbEntity
  8
DIM
100
AcDbMText
 10
265.1961642769
 20
96.7541031559
 30
0.0
 40
4.365625
 41
0.0
 71
     1
 72
     1
  1
242.75
  7
SLDTEXTSTYLE0
 73
     1
 44
1.0
  0
ENDBLK
  5
1C4
330
1C2
100
AcDbEntity
  8
0
100
AcDbBlockEnd
  0
ENDSEC
  0
SECTION
  2
ENTITIES
  0
LINE
  5
76
330
1F
100
AcDbEntity
  8
DIM
100
AcDbLine
 10
157.0566370335
 20
14.6864871853
 30
0.0
 11
157.0566370335
 21
7.1864871853
 31
0.0
  0
LINE
  5
77
330
1F
100
AcDbEntity
  8
DIM
100
AcDbLine
 10
381.7044025429
 20
14.6864871853
 30
0.0
 11
381.7044025429
 21
7.1864871853
 31
0.0
  0
LINE
  5
78
330
1F
100
AcDbEntity
  8
DIM
100
AcDbLine
 10
356.1775648974
 20
14.6864871853
 30
0.0
 11
356.1775648974
 21
7.1864871853
 31
0.0
  0
LINE
  5
79
330
1F
100
AcDbEntity
  8
DIM
100
AcDbLine
 10
418.3566370335
 20
7.1864871853
 30
0.0
 11
418.3566370335
 21
14.6864871853
 31
0.0
  0
LINE
  5
7A
330
1F
100
AcDbEntity
  8
DIM
100
AcDbLine
 10
168.7566370335
 20
14.6864871853
 30
0.0
 11
168.7566370335
 21
7.1864871853
 31
0.0
  0
LINE
  5
7B
330
1F
100
AcDbEntity
  8
DIM
100
AcDbLine
 10
197.5430656842
 20
14.6864871853
 30
0.0
 11
197.5430656842
 21
7.1864871853
 31
0.0
  0
LINE
  5
7C
330
1F
100
AcDbEntity
  8
DIM
100
AcDbLine
 10
437.8566370335
 20
7.1864871853
 30
0.0
 11
437.8566370335
 21
115.5614871853
 31
0.0
  0
LINE
  5
7D
330
1F
100
AcDbEntity
  8
DIM
100
AcDbLine
 10
428.728507042
 20
90.0614871853
 30
0.0
 11
437.8566370335
 21
90.0614871853
 31
0.0
  0
LINE
  5
7E
330
1F
100
AcDbEntity
  8
DIM
100
AcDbLine
 10
223.6550262788
 20
13.5614871853
 30
0.0
 11
223.6550262788
 21
7.1864871853
 31
0.0
  0
LINE
  5
7F
330
1F
100
AcDbEntity
  8
DIM
100
AcDbLine
 10
295.1459237406
 20
14.6864871853
 30
0.0
 11
295.1459237406
 21
7.1864871853
 31
0.0
  0
LINE
  5
80
330
1F
100
AcDbEntity
  8
DIM
100
AcDbLine
 10
223.6550262788
 20
14.6864871853
 30
0.0
 11
223.6550262788
 21
13.5614871853
 31
0.0
  0
LINE
  5
81
330
1F
100
AcDbEntity
  8
DIM
100
AcDbLine
 10
430.3566370335
 20
26.3113791853
 30
0.0
 11
437.8566370335
 21
26.3113791853
 31
0.0
  0
LINE
  5
82
330
1F
100
AcDbEntity
  8
DIM
100
AcDbLine
 10
430.3566370335
 20
299.6864871853
 30
0.0
 11
14.8566370335
 21
299.6864871853
 31
0.0
  0
LINE
  5
83
330
1F
100
AcDbEntity
  8
DIM
100
AcDbLine
 10
437.8566370335
 20
307.1864871853
 30
0.0
 11
7.3566370335
 21
307.1864871853
 31
0.0
  0
LINE
  5
84
330
1F
100
AcDbEntity
  8
DIM
100
AcDbLine
 10
14.8566370335
 20
299.6864871853
 30
0.0
 11
14.8566370335
 21
14.6864871853
 31
0.0
  0
LINE
  5
85
330
1F
100
AcDbEntity
  8
DIM
100
AcDbLine
 10
7.3566370335
 20
307.1864871853
 30
0.0
 11
7.3566370335
 21
7.1864871853
 31
0.0
  0
LINE
  5
86
330
1F
100
AcDbEntity
  8
DIM
100
AcDbLine
 10
14.8566370335
 20
82.1864871853
 30
0.0
 11
7.3566370335
 21
82.1864871853
 31
0.0
  0
LINE
  5
87
330
1F
100
AcDbEntity
  8
DIM
100
AcDbLine
 10
7.3566370335
 20
157.1864871853
 30
0.0
 11
14.8566370335
 21
157.1864871853
 31
0.0
  0
LINE
  5
88
330
1F
100
AcDbEntity
  8
DIM
100
AcDbLine
 10
7.3566370335
 20
7.1864871853
 30
0.0
 11
437.8566370335
 21
7.1864871853
 31
0.0
  0
LINE
  5
89
330
1F
100
AcDbEntity
  8
DIM
100
AcDbLine
 10
14.8566370335
 20
14.6864871853
 30
0.0
 11
437.8566370335
 21
14.6864871853
 31
0.0
  0
LINE
  5
8A
330
1F
100
AcDbEntity
  8
DIM
100
AcDbLine
 10
72.6066370335
 20
7.1864871853
 30
0.0
 11
72.6066370335
 21
14.6864871853
 31
0.0
  0
LINE
  5
8B
330
1F
100
AcDbEntity
  8
DIM
100
AcDbLine
 10
147.6066370335
 20
14.6864871853
 30
0.0
 11
147.6066370335
 21
7.1864871853
 31
0.0
  0
LINE
  5
8C
330
1F
100
AcDbEntity
  8
DIM
100
AcDbLine
 10
14.8566370335
 20
232.1864871853
 30
0.0
 11
7.3566370335
 21
232.1864871853
 31
0.0
  0
LINE
  5
8D
330
1F
100
AcDbEntity
  8
DIM
100
AcDbLine
 10
72.6066370335
 20
299.6864871853
 30
0.0
 11
72.6066370335
 21
307.1864871853
 31
0.0
  0
LINE
  5
8E
330
1F
100
AcDbEntity
  8
DIM
100
AcDbLine
 10
147.6066370335
 20
307.1864871853
 30
0.0
 11
147.6066370335
 21
299.6864871853
 31
0.0
  0
LINE
  5
8F
330
1F
100
AcDbEntity
  8
DIM
100
AcDbLine
 10
222.6066370335
 20
307.1864871853
 30
0.0
 11
222.6066370335
 21
299.6864871853
 31
0.0
  0
LINE
  5
90
330
1F
100
AcDbEntity
  8
DIM
100
AcDbLine
 10
430.3566370335
 20
14.6864871853
 30
0.0
 11
430.3566370335
 21
299.6864871853
 31
0.0
  0
LINE
  5
91
330
1F
100
AcDbEntity
  8
DIM
100
AcDbLine
 10
437.8566370335
 20
115.5614871853
 30
0.0
 11
437.8566370335
 21
307.1864871853
 31
0.0
  0
LINE
  5
92
330
1F
100
AcDbEntity
  8
DIM
100
AcDbLine
 10
437.8566370335
 20
157.1864871853
 30
0.0
 11
430.3566370335
 21
157.1864871853
 31
0.0
  0
LINE
  5
93
330
1F
100
AcDbEntity
  8
DIM
100
AcDbLine
 10
297.6066370335
 20
307.1864871853
 30
0.0
 11
297.6066370335
 21
299.6864871853
 31
0.0
  0
LINE
  5
94
330
1F
100
AcDbEntity
  8
DIM
100
AcDbLine
 10
372.6066370335
 20
299.6864871853
 30
0.0
 11
372.6066370335
 21
307.1864871853
 31
0.0
  0
LINE
  5
95
330
1F
100
AcDbEntity
  8
DIM
100
AcDbLine
 10
430.3566370335
 20
232.1864871853
 30
0.0
 11
437.8566370335
 21
232.1864871853
 31
0.0
  0
MTEXT
  5
97
330
1F
100
AcDbEntity
  8
DIM
100
AcDbMText
 10
24.1945055567
 20
290.8020739489
 30
0.0
 40
6.35
 41
0.0
 71
     1
 72
     1
  1
SK 50 FMH-K40 100 AD+B/6.3G15000 SL SP.S
  7
SLDTEXTSTYLE0
 73
     1
 44
1.0
  0
MTEXT
  5
99
330
1F
100
AcDbEntity
  8
DIM
 62
     7
100
AcDbMText
 10
296.59916797
 20
11.7029272894
 30
0.0
 40
2.2479
 41
0.0
 71
     1
 72
     1
  1
WEIGHT:
  7
SLDTEXTSTYLE1
 73
     1
 44
1.0
  0
MTEXT
  5
9A
330
1F
100
AcDbEntity
  8
DIM
 62
     7
100
AcDbMText
 10
432.8956151322
 20
122.9109202624
 30
0.0
 40
2.778125
 41
0.0
 71
     1
 72
     1
  1
C
  7
SLDTEXTSTYLE1
 73
     1
 44
1.0
  0
MTEXT
  5
9B
330
1F
100
AcDbEntity
  8
DIM
 62
     7
100
AcDbMText
 10
424.5653709292
 20
22.2809729754
 30
0.0
 40
4.365625
 41
0.0
 71
     1
 72
     1
  1
A4
  7
SLDTEXTSTYLE1
 73
     1
 44
1.0
  0
MTEXT
  5
9C
330
1F
100
AcDbEntity
  8
DIM
 62
     7
100
AcDbMText
 10
408.8566430335
 20
305.1885117906
 30
0.0
 40
2.778125
 41
0.0
 71
     1
 72
     1
  1
6
  7
SLDTEXTSTYLE1
 73
     1
 44
1.0
  0
MTEXT
  5
9D
330
1F
100
AcDbEntity
  8
DIM
 62
     7
100
AcDbMText
 10
333.8566430335
 20
305.1885117906
 30
0.0
 40
2.778125
 41
0.0
 71
     1
 72
     1
  1
5
  7
SLDTEXTSTYLE1
 73
     1
 44
1.0
  0
MTEXT
  5
9E
330
1F
100
AcDbEntity
  8
DIM
 62
     7
100
AcDbMText
 10
432.8566490335
 20
271.4385117906
 30
0.0
 40
2.778125
 41
0.0
 71
     1
 72
     1
  1
A
  7
SLDTEXTSTYLE1
 73
     1
 44
1.0
  0
MTEXT
  5
9F
330
1F
100
AcDbEntity
  8
DIM
 62
     7
100
AcDbMText
 10
432.8566490335
 20
196.4385117906
 30
0.0
 40
2.778125
 41
0.0
 71
     1
 72
     1
  1
B
  7
SLDTEXTSTYLE1
 73
     1
 44
1.0
  0
MTEXT
  5
A0
330
1F
100
AcDbEntity
  8
DIM
 62
     7
100
AcDbMText
 10
258.8566430335
 20
305.1885117906
 30
0.0
 40
2.778125
 41
0.0
 71
     1
 72
     1
  1
4
  7
SLDTEXTSTYLE1
 73
     1
 44
1.0
  0
MTEXT
  5
A1
330
1F
100
AcDbEntity
  8
DIM
 62
     7
100
AcDbMText
 10
34.4816430335
 20
305.1885117906
 30
0.0
 40
2.778125
 41
0.0
 71
     1
 72
     1
  1
1
  7
SLDTEXTSTYLE1
 73
     1
 44
1.0
  0
MTEXT
  5
A2
330
1F
100
AcDbEntity
  8
DIM
 62
     7
100
AcDbMText
 10
108.8566430335
 20
305.1885117906
 30
0.0
 40
2.778125
 41
0.0
 71
     1
 72
     1
  1
2
  7
SLDTEXTSTYLE1
 73
     1
 44
1.0
  0
MTEXT
  5
A3
330
1F
100
AcDbEntity
  8
DIM
 62
     7
100
AcDbMText
 10
183.8566430335
 20
305.1885117906
 30
0.0
 40
2.778125
 41
0.0
 71
     1
 72
     1
  1
3
  7
SLDTEXTSTYLE1
 73
     1
 44
1.0
  0
MTEXT
  5
A4
330
1F
100
AcDbEntity
  8
DIM
 62
     7
100
AcDbMText
 10
9.8566370335
 20
271.4385117906
 30
0.0
 40
2.778125
 41
0.0
 71
     1
 72
     1
  1
A
  7
SLDTEXTSTYLE1
 73
     1
 44
1.0
  0
MTEXT
  5
A5
330
1F
100
AcDbEntity
  8
DIM
 62
     7
100
AcDbMText
 10
108.8566430335
 20
12.6885117906
 30
0.0
 40
2.778125
 41
0.0
 71
     1
 72
     1
  1
2
  7
SLDTEXTSTYLE1
 73
     1
 44
1.0
  0
MTEXT
  5
A6
330
1F
100
AcDbEntity
  8
DIM
 62
     7
100
AcDbMText
 10
34.4816430335
 20
12.6885117906
 30
0.0
 40
2.778125
 41
0.0
 71
     1
 72
     1
  1
1
  7
SLDTEXTSTYLE1
 73
     1
 44
1.0
  0
MTEXT
  5
A7
330
1F
100
AcDbEntity
  8
DIM
 62
     7
100
AcDbMText
 10
9.8566370335
 20
46.4385117906
 30
0.0
 40
2.778125
 41
0.0
 71
     1
 72
     1
  1
D
  7
SLDTEXTSTYLE1
 73
     1
 44
1.0
  0
MTEXT
  5
A8
330
1F
100
AcDbEntity
  8
DIM
 62
     7
100
AcDbMText
 10
9.8566370335
 20
121.4385117906
 30
0.0
 40
2.778125
 41
0.0
 71
     1
 72
     1
  1
C
  7
SLDTEXTSTYLE1
 73
     1
 44
1.0
  0
MTEXT
  5
A9
330
1F
100
AcDbEntity
  8
DIM
 62
     7
100
AcDbMText
 10
9.8566370335
 20
196.4385117906
 30
0.0
 40
2.778125
 41
0.0
 71
     1
 72
     1
  1
B
  7
SLDTEXTSTYLE1
 73
     1
 44
1.0
  0
MTEXT
  5
AA
330
1F
100
AcDbEntity
  8
DIM
 62
     7
100
AcDbMText
 10
432.8956151322
 20
122.9109202624
 30
0.0
 40
2.778125
 41
0.0
 71
     1
 72
     1
  1
C
  7
SLDTEXTSTYLE1
 73
     1
 44
1.0
  0
MTEXT
  5
AC
330
1F
100
AcDbEntity
  8
DIM
 62
     7
100
AcDbMText
 10
384.7880487188
 20
11.5366180971
 30
0.0
 40
2.25
 41
0.0
 71
     1
 72
     1
  1
SHEET 1 OF 1
  7
SLDTEXTSTYLE2
 73
     1
 44
1.0
  0
MTEXT
  5
AD
330
1F
100
AcDbEntity
  8
DIM
 62
     7
100
AcDbMText
 10
225.5576705752
 20
11.7800512255
 30
0.0
 40
2.25
 41
0.0
 71
     1
 72
     1
  1
MATERIAL:
  7
SLDTEXTSTYLE1
 73
     1
 44
1.0
  0
MTEXT
  5
AE
330
1F
100
AcDbEntity
  8
DIM
 62
     7
100
AcDbMText
 10
408.8566430335
 20
305.1885117906
 30
0.0
 40
2.778125
 41
0.0
 71
     1
 72
     1
  1
6
  7
SLDTEXTSTYLE1
 73
     1
 44
1.0
  0
MTEXT
  5
AF
330
1F
100
AcDbEntity
  8
DIM
 62
     7
100
AcDbMText
 10
333.8566430335
 20
305.1885117906
 30
0.0
 40
2.778125
 41
0.0
 71
     1
 72
     1
  1
5
  7
SLDTEXTSTYLE1
 73
     1
 44
1.0
  0
MTEXT
  5
B0
330
1F
100
AcDbEntity
  8
DIM
 62
     7
100
AcDbMText
 10
432.8566490335
 20
271.4385117906
 30
0.0
 40
2.778125
 41
0.0
 71
     1
 72
     1
  1
A
  7
SLDTEXTSTYLE1
 73
     1
 44
1.0
  0
MTEXT
  5
B1
330
1F
100
AcDbEntity
  8
DIM
 62
     7
100
AcDbMText
 10
432.8566490335
 20
196.4385117906
 30
0.0
 40
2.778125
 41
0.0
 71
     1
 72
     1
  1
B
  7
SLDTEXTSTYLE1
 73
     1
 44
1.0
  0
MTEXT
  5
B2
330
1F
100
AcDbEntity
  8
DIM
 62
     7
100
AcDbMText
 10
258.8566430335
 20
305.1885117906
 30
0.0
 40
2.778125
 41
0.0
 71
     1
 72
     1
  1
4
  7
SLDTEXTSTYLE1
 73
     1
 44
1.0
  0
MTEXT
  5
B3
330
1F
100
AcDbEntity
  8
DIM
 62
     7
100
AcDbMText
 10
34.4816430335
 20
305.1885117906
 30
0.0
 40
2.778125
 41
0.0
 71
     1
 72
     1
  1
1
  7
SLDTEXTSTYLE1
 73
     1
 44
1.0
  0
MTEXT
  5
B4
330
1F
100
AcDbEntity
  8
DIM
 62
     7
100
AcDbMText
 10
108.8566430335
 20
305.1885117906
 30
0.0
 40
2.778125
 41
0.0
 71
     1
 72
     1
  1
2
  7
SLDTEXTSTYLE1
 73
     1
 44
1.0
  0
MTEXT
  5
B5
330
1F
100
AcDbEntity
  8
DIM
 62
     7
100
AcDbMText
 10
183.8566430335
 20
305.1885117906
 30
0.0
 40
2.778125
 41
0.0
 71
     1
 72
     1
  1
3
  7
SLDTEXTSTYLE1
 73
     1
 44
1.0
  0
MTEXT
  5
B6
330
1F
100
AcDbEntity
  8
DIM
 62
     7
100
AcDbMText
 10
9.8566370335
 20
271.4385117906
 30
0.0
 40
2.778125
 41
0.0
 71
     1
 72
     1
  1
A
  7
SLDTEXTSTYLE1
 73
     1
 44
1.0
  0
MTEXT
  5
B7
330
1F
100
AcDbEntity
  8
DIM
 62
     7
100
AcDbMText
 10
108.8566430335
 20
12.6885117906
 30
0.0
 40
2.778125
 41
0.0
 71
     1
 72
     1
  1
2
  7
SLDTEXTSTYLE1
 73
     1
 44
1.0
  0
MTEXT
  5
B8
330
1F
100
AcDbEntity
  8
DIM
 62
     7
100
AcDbMText
 10
34.4816430335
 20
12.6885117906
 30
0.0
 40
2.778125
 41
0.0
 71
     1
 72
     1
  1
1
  7
SLDTEXTSTYLE1
 73
     1
 44
1.0
  0
MTEXT
  5
B9
330
1F
100
AcDbEntity
  8
DIM
 62
     7
100
AcDbMText
 10
9.8566370335
 20
46.4385117906
 30
0.0
 40
2.778125
 41
0.0
 71
     1
 72
     1
  1
D
  7
SLDTEXTSTYLE1
 73
     1
 44
1.0
  0
MTEXT
  5
BA
330
1F
100
AcDbEntity
  8
DIM
 62
     7
100
AcDbMText
 10
9.8566370335
 20
121.4385117906
 30
0.0
 40
2.778125
 41
0.0
 71
     1
 72
     1
  1
C
  7
SLDTEXTSTYLE1
 73
     1
 44
1.0
  0
MTEXT
  5
BB
330
1F
100
AcDbEntity
  8
DIM
 62
     7
100
AcDbMText
 10
9.8566370335
 20
196.4385117906
 30
0.0
 40
2.778125
 41
0.0
 71
     1
 72
     1
  1
B
  7
SLDTEXTSTYLE1
 73
     1
 44
1.0
  0
SPLINE
  5
BC
330
1F
100
AcDbEntity
  8
0
  6
Continuous
 62
     7
370
    15
100
AcDbSpline
210
0.0
220
0.0
230
1.0
 70
     8
 71
     3
 72
    14
 73
    10
 74
     0
 42
0.000000001
 43
0.00000001
 40
0.0
 40
0.0
 40
0.0
 40
0.0
 40
0.25
 40
0.25
 40
0.5
 40
0.5
 40
0.75
 40
0.75
 40
1.0
 40
1.0
 40
1.0
 40
1.0
 10
98.79251842204668
 20
163.8766164551766
 30
0.0
 10
98.79251842204668
 20
158.7788820784022
 30
0.0
 10
96.76729199597774
 20
153.8895529737102
 30
0.0
 10
89.55800690296775
 20
146.6802678807002
 30
0.0
 10
84.66867779827572
 20
144.6550414546313
 30
0.0
 10
74.47320904472683
 20
144.6550414546313
 30
0.0
 10
69.58387994003479
 20
146.6802678807002
 30
0.0
 10
62.37459484702483
 20
153.8895529737102
 30
0.0
 10
60.34936842095588
 20
158.7788820784022
 30
0.0
 10
60.34936842095587
 20
163.8766164551766
 30
0.0
  0
SPLINE
  5
BD
330
1F
100
AcDbEntity
  8
0
  6
Continuous
 62
     7
370
    15
100
AcDbSpline
210
0.0
220
0.0
230
1.0
 70
     8
 71
     3
 72
    14
 73
    10
 74
     0
 42
0.000000001
 43
0.00000001
 40
0.0
 40
0.0
 40
0.0
 40
0.0
 40
0.25
 40
0.25
 40
0.5
 40
0.5
 40
0.75
 40
0.75
 40
1.0
 40
1.0
 40
1.0
 40
1.0
 10
60.34936842095588
 20
163.8766164551766
 30
0.0
 10
60.34936842095588
 20
168.9743508319511
 30
0.0
 10
62.37459484702482
 20
173.8636799366431
 30
0.0
 10
69.58387994003479
 20
181.0729650296531
 30
0.0
 10
74.47320904472683
 20
183.098191455722
 30
0.0
 10
84.66867779827571
 20
183.098191455722
 30
0.0
 10
89.55800690296775
 20
181.0729650296531
 30
0.0
 10
96.76729199597774
 20
173.8636799366431
 30
0.0
 10
98.79251842204668
 20
168.9743508319511
 30
0.0
 10
98.79251842204668
 20
163.8766164551766
 30
0.0
  0
CIRCLE
  5
BE
330
1F
100
AcDbEntity
  8
0
  6
Continuous
 62
     7
370
    15
100
AcDbCircle
 10
79.5709434215
 20
163.8766164552
 30
0.0
 40
20.21110778703757
  0
CIRCLE
  5
BF
330
1F
100
AcDbEntity
  8
0
  6
Continuous
 62
     7
370
    15
100
AcDbCircle
 10
79.5709434215
 20
163.8766164552
 30
0.0
 40
34.92499999999999
  0
SPLINE
  5
C0
330
1F
100
AcDbEntity
  8
0
  6
Continuous
 62
     7
370
    15
100
AcDbSpline
210
0.0
220
0.0
230
1.0
 70
     8
 71
     3
 72
    52
 73
    48
 74
     0
 42
0.000000001
 43
0.00000001
 40
0.0
 40
0.0
 40
0.0
 40
0.0
 40
0.0053074994726554
 40
0.0106084744807156
 40
0.0159043870752884
 40
0.0211967035030982
 40
0.0264868930010475
 40
0.031776426578386
 40
0.0370667757915106
 40
0.0423594115164833
 40
0.0476558027243854
 40
0.0529574152645906
 40
0.0582657106609693
 40
0.0891348494758177
 40
0.1200087595578935
 40
0.1521645941108524
 40
0.1843252192282218
 40
0.2171652710885947
 40
0.2500102154523581
 40
0.2828502674523063
 40
0.3156952119562962
 40
0.3478510468948057
 40
0.380011672397905
 40
0.4108808109142898
 40
0.4417547207534483
 40
0.470875333637603
 40
0.5000007798720159
 40
0.5291213927975412
 40
0.5582468390472084
 40
0.5891159778617261
 40
0.6199898879441322
 40
0.652145722497098
 40
0.6843063476144644
 40
0.7171463994755694
 40
0.7499913438386044
 40
0.7828313958395676
 40
0.8156763403425417
 40
0.8478321752819549
 40
0.8799928007841501
 40
0.9108619393016738
 40
0.941735849139696
 40
0.9514609652020397
 40
0.9611682412334405
 40
0.9708667191333772
 40
0.9805654654081966
 40
0.9902735458123287
 40
1.0
 40
1.0
 40
1.0
 40
1.0
 10
44.57094342150127
 20
163.8766164551766
 30
0.0
 10
44.57187145241172
 20
164.0710786132296
 30
0.0
 10
44.57372637341204
 20
164.4597638786353
 30
0.0
 10
44.58875540776366
 20
165.0423268486568
 30
0.0
 10
44.61275403679804
 20
165.6240127360261
 30
0.0
 10
44.64659834088116
 20
166.2048214308433
 30
0.0
 10
44.69005388261476
 20
166.7847527792625
 30
0.0
 10
44.74318344368081
 20
167.3638066996872
 30
0.0
 10
44.805970113403
 20
167.9419828638238
 30
0.0
 10
44.87841870591958
 20
168.5192818611922
 30
0.0
 10
44.96052674341259
 20
169.0957008613397
 30
0.0
 10
45.05229914540625
 20
169.6712498229178
 30
0.0
 10
45.31643864703965
 20
171.1678624264316
 30
0.0
 10
45.88020639994505
 20
173.5635692875996
 30
0.0
 10
46.99282358028378
 20
176.8244403936521
 30
0.0
 10
48.43998979582438
 20
180.0043292759458
 30
0.0
 10
50.23916542523108
 20
183.0828282077015
 30
0.0
 10
52.35558600079143
 20
185.9842881157384
 30
0.0
 10
54.77847119430656
 20
188.6688350917323
 30
0.0
 10
57.46313167292502
 20
191.0918602666788
 30
0.0
 10
60.36443181248531
 20
193.2081995027559
 30
0.0
 10
63.4430849105123
 20
195.0074916948749
 30
0.0
 10
66.62274834452063
 20
196.4545998280823
 30
0.0
 10
69.88398464252695
 20
197.5673296450872
 30
0.0
 10
73.12972894126095
 20
198.3312171304833
 30
0.0
 10
76.36859505941688
 20
198.7794951304937
 30
0.0
 10
79.57076644934673
 20
198.9251729953339
 30
0.0
 10
82.77311391999301
 20
198.7795116178854
 30
0.0
 10
86.01181217970692
 20
198.3312814254244
 30
0.0
 10
89.25773278927997
 20
197.5673793663016
 30
0.0
 10
92.51881318983942
 20
196.4547290369429
 30
0.0
 10
95.69864375829451
 20
195.0075720618875
 30
0.0
 10
98.77715859850451
 20
193.2083938946584
 30
0.0
 10
101.6786141546311
 20
191.0919740778109
 30
0.0
 10
104.3631623126406
 20
188.6690884367005
 30
0.0
 10
106.7861871422234
 20
185.984428984215
 30
0.0
 10
108.9025265763884
 20
183.0831252128622
 30
0.0
 10
110.7018183290265
 20
180.0044853502801
 30
0.0
 10
112.1489279983861
 20
176.8247734048563
 30
0.0
 10
113.2616523220493
 20
173.563711195181
 30
0.0
 10
113.8624982540921
 20
171.0102971098268
 30
0.0
 10
114.1704383336113
 20
169.1928774042251
 30
0.0
 10
114.3165774445338
 20
168.1354306659966
 30
0.0
 10
114.4303834717949
 20
167.0749934126218
 30
0.0
 10
114.5110787926015
 20
166.0115394384697
 30
0.0
 10
114.5616003280172
 20
164.9450790697352
 30
0.0
 10
114.5678270947048
 20
164.2329950660096
 30
0.0
 10
114.5709434215013
 20
163.8766164551766
 30
0.0
  0
SPLINE
  5
C1
330
1F
100
AcDbEntity
  8
0
  6
Continuous
 62
     7
370
    15
100
AcDbSpline
210
0.0
220
0.0
230
1.0
 70
     8
 71
     3
 72
    52
 73
    48
 74
     0
 42
0.000000001
 43
0.00000001
 40
0.0
 40
0.0
 40
0.0
 40
0.0
 40
0.0053074994726554
 40
0.0106084744807156
 40
0.0159043870752884
 40
0.0211967035030983
 40
0.0264868930010475
 40
0.0317764265783861
 40
0.0370667757915106
 40
0.0423594115164834
 40
0.0476558027243854
 40
0.0529574152645907
 40
0.0582657106609694
 40
0.0891348494759667
 40
0.1200087595578951
 40
0.1521645941111445
 40
0.1843252192282232
 40
0.2171652710889209
 40
0.25001021545236
 40
0.2828502674525652
 40
0.315695211956297
 40
0.3478510468951538
 40
0.3800116723979077
 40
0.41088081091547
 40
0.4417547207534571
 40
0.4708753336379863
 40
0.5000007798720127
 40
0.5291213927971703
 40
0.5582468390472111
 40
0.5891159778626601
 40
0.6199898879441411
 40
0.6521457224976949
 40
0.6843063476144631
 40
0.7171463994753853
 40
0.7499913438386053
 40
0.7828313958393156
 40
0.8156763403425399
 40
0.8478321752809374
 40
0.8799928007841432
 40
0.9108619393011222
 40
0.9417358491396983
 40
0.9514609652021586
 40
0.9611682412336295
 40
0.9708667191335897
 40
0.9805654654083855
 40
0.9902735458124469
 40
1.0
 40
1.0
 40
1.0
 40
1.0
 10
114.5709434215013
 20
163.8766164551766
 30
0.0
 10
114.5700153905908
 20
163.6821542971237
 30
0.0
 10
114.5681604695905
 20
163.293469031718
 30
0.0
 10
114.5531314352389
 20
162.7109060616965
 30
0.0
 10
114.5291328062045
 20
162.1292201743271
 30
0.0
 10
114.4952885021214
 20
161.54841147951
 30
0.0
 10
114.4518329603878
 20
160.9684801310908
 30
0.0
 10
114.3987033993217
 20
160.3894262106662
 30
0.0
 10
114.3359167295995
 20
159.8112500465295
 30
0.0
 10
114.263468137083
 20
159.2339510491611
 30
0.0
 10
114.18136009959
 20
158.6575320490136
 30
0.0
 10
114.0895876975963
 20
158.0819830874354
 30
0.0
 10
113.8254481959619
 20
156.5853704839164
 30
0.0
 10
113.2616804430587
 20
154.1896636227476
 30
0.0
 10
112.1490632627124
 20
150.9287925166865
 30
0.0
 10
110.7018970471734
 20
147.7489036343979
 30
0.0
 10
108.902721417759
 20
144.670404702633
 30
0.0
 10
106.786300842204
 20
141.7689447946052
 30
0.0
 10
104.363415648681
 20
139.0843978186058
 30
0.0
 10
101.678755170069
 20
136.6613726436698
 30
0.0
 10
98.77745503049854
 20
134.5450334075858
 30
0.0
 10
95.69880193248076
 20
132.7457412154686
 30
0.0
 10
92.51913849842934
 20
131.2986330822525
 30
0.0
 10
89.25790220043697
 20
130.1859032652445
 30
0.0
 10
86.0121579016858
 20
129.4220157798571
 30
0.0
 10
82.77329178356953
 20
128.9737377798814
 30
0.0
 10
79.57112039365573
 20
128.8280599150175
 30
0.0
 10
76.36877292302184
 20
128.973721292456
 30
0.0
 10
73.13007466327613
 20
129.4219514849359
 30
0.0
 10
69.88415405368679
 20
130.1858535440504
 30
0.0
 10
66.62307365311084
 20
131.2985038734305
 30
0.0
 10
63.44324308469668
 20
132.7456608484913
 30
0.0
 10
60.36472824448421
 20
134.5448390157009
 30
0.0
 10
57.46327268837539
 20
136.6612588325367
 30
0.0
 10
54.77872453037268
 20
139.084144473641
 30
0.0
 10
52.35569970078932
 20
141.7688039261344
 30
0.0
 10
50.23936026663775
 20
144.6701076974512
 30
0.0
 10
48.44006851400107
 20
147.7487475600442
 30
0.0
 10
46.9929588446391
 20
150.9284595054442
 30
0.0
 10
45.88023452094238
 20
154.1895217151481
 30
0.0
 10
45.27938858891187
 20
156.7429358005106
 30
0.0
 10
44.97144850939165
 20
158.5603555061395
 30
0.0
 10
44.82530939846904
 20
159.6178022443758
 30
0.0
 10
44.71150337120788
 20
160.6782394977532
 30
0.0
 10
44.63080805040123
 20
161.7416934719027
 30
0.0
 10
44.58028651498543
 20
162.8081538406293
 30
0.0
 10
44.57405974829773
 20
163.5202378443481
 30
0.0
 10
44.57094342150127
 20
163.8766164551766
 30
0.0
  0
SPLINE
  5
C2
330
1F
100
AcDbEntity
  8
0
  6
Continuous
 62
     7
370
    15
100
AcDbSpline
210
0.0
220
0.0
230
1.0
 70
    24
 71
     3
 72
     8
 73
     4
 74
     0
 42
0.000000001
 43
0.00000001
 40
0.0
 40
0.0
 40
0.0
 40
0.0
 40
1.0
 40
1.0
 40
1.0
 40
1.0
 10
49.57094342150125
 20
201.1762779387437
 30
0.0
 10
49.57094342150125
 20
201.0727688945093
 30
0.0
 10
49.57094342150128
 20
200.9433453326772
 30
0.0
 10
49.57094342150128
 20
200.8126015317573
 30
0.0
  0
ARC
  5
C3
330
1F
100
AcDbEntity
  8
0
  6
Continuous
 62
     7
370
    15
100
AcDbCircle
 10
79.5709434215
 20
163.8766164552
 30
0.0
 40
47.58431457505079
100
AcDbArc
 50
129.0840578538
 51
140.9159421462
  0
SPLINE
  5
C4
330
1F
100
AcDbEntity
  8
0
  6
Continuous
 62
     7
370
    15
100
AcDbSpline
210
0.0
220
0.0
230
1.0
 70
    24
 71
     3
 72
     8
 73
     4
 74
     0
 42
0.000000001
 43
0.00000001
 40
0.0
 40
0.0
 40
0.0
 40
0.0
 40
1.0
 40
1.0
 40
1.0
 40
1.0
 10
42.63495834492063
 20
193.8766164551766
 30
0.0
 10
42.50425419531373
 20
193.8766164551766
 30
0.0
 10
42.37471722829757
 20
193.8766164551766
 30
0.0
 10
42.27128193793422
 20
193.8766164551766
 30
0.0
  0
ARC
  5
C5
330
1F
100
AcDbEntity
  8
0
  6
Continuous
 62
     7
370
    15
100
AcDbCircle
 10
79.5709434215
 20
163.8766164552
 30
0.0
 40
47.86715728752537
100
AcDbArc
 50
128.8096103904
 51
141.1903896096
  0
SPLINE
  5
C6
330
1F
100
AcDbEntity
  8
0
  6
Continuous
 62
     7
370
    15
100
AcDbSpline
210
0.0
220
0.0
230
1.0
 70
     8
 71
     3
 72
    10
 73
     6
 74
     0
 42
0.000000001
 43
0.00000001
 40
0.0
 40
0.0
 40
0.0
 40
0.0
 40
0.5
 40
0.5
 40
1.0
 40
1.0
 40
1.0
 40
1.0
 10
125.1852448364894
 20
177.4266164551766
 30
0.0
 10
125.2491965253325
 20
177.4266164551766
 30
0.0
 10
125.3107608637837
 20
177.4127705791518
 30
0.0
 10
125.4213862146327
 20
177.3706048029645
 30
0.0
 10
125.4710729063021
 20
177.3421141027014
 30
0.0
 10
125.5146424829679
 20
177.3094591676513
 30
0.0
  0
ARC
  5
C7
330
1F
100
AcDbEntity
  8
0
  6
Continuous
 62
     7
370
    15
100
AcDbCircle
 10
79.5709434215
 20
163.8766164552
 30
0.0
 40
47.86715728752539
100
AcDbArc
 50
343.7023380383
 51
16.2976619617
  0
SPLINE
  5
C8
330
1F
100
AcDbEntity
  8
0
  6
Continuous
 62
     7
370
    15
100
AcDbSpline
210
0.0
220
0.0
230
1.0
 70
     8
 71
     3
 72
    10
 73
     6
 74
     0
 42
0.000000001
 43
0.00000001
 40
0.0
 40
0.0
 40
0.0
 40
0.0
 40
0.5
 40
0.5
 40
1.0
 40
1.0
 40
1.0
 40
1.0
 10
125.5146424829679
 20
150.443773742702
 30
0.0
 10
125.4711020915492
 20
150.4111406816847
 30
0.0
 10
125.4225474874314
 20
150.3831597954185
 30
0.0
 10
125.3110979516695
 20
150.3405029450435
 30
0.0
 10
125.2491396990804
 20
150.3266164551766
 30
0.0
 10
125.1852448364894
 20
150.3266164551766
 30
0.0
  0
ARC
  5
C9
330
1F
100
AcDbEntity
  8
0
  6
Continuous
 62
     7
370
    15
100
AcDbCircle
 10
79.5709434215
 20
163.8766164552
 30
0.0
 40
47.58431457505078
100
AcDbArc
 50
343.4556342686
 51
16.5443657314
  0
ARC
  5
CA
330
1F
100
AcDbEntity
  8
0
  6
Continuous
 62
     7
370
    15
100
AcDbCircle
 10
79.5709434215
 20
163.8766164552
 30
0.0
 40
47.58431457505077
100
AcDbArc
 50
163.4556342686
 51
196.5443657314
  0
SPLINE
  5
CB
330
1F
100
AcDbEntity
  8
0
  6
Continuous
 62
     7
370
    15
100
AcDbSpline
210
0.0
220
0.0
230
1.0
 70
     8
 71
     3
 72
    10
 73
     6
 74
     0
 42
0.000000001
 43
0.00000001
 40
0.0
 40
0.0
 40
0.0
 40
0.0
 40
0.5
 40
0.5
 40
1.0
 40
1.0
 40
1.0
 40
1.0
 10
33.95664200651314
 20
150.3266164551766
 30
0.0
 10
33.89269031767
 20
150.3266164551766
 30
0.0
 10
33.83112597921887
 20
150.3404623312015
 30
0.0
 10
33.72050062836986
 20
150.3826281073888
 30
0.0
 10
33.67081393670043
 20
150.4111188076519
 30
0.0
 10
33.62724436003462
 20
150.443773742702
 30
0.0
  0
ARC
  5
CC
330
1F
100
AcDbEntity
  8
0
  6
Continuous
 62
     7
370
    15
100
AcDbCircle
 10
79.5709434215
 20
163.8766164552
 30
0.0
 40
47.86715728752539
100
AcDbArc
 50
163.7023380383
 51
196.2976619617
  0
SPLINE
  5
CD
330
1F
100
AcDbEntity
  8
0
  6
Continuous
 62
     7
370
    15
100
AcDbSpline
210
0.0
220
0.0
230
1.0
 70
     8
 71
     3
 72
    10
 73
     6
 74
     0
 42
0.000000001
 43
0.00000001
 40
0.0
 40
0.0
 40
0.0
 40
0.0
 40
0.5
 40
0.5
 40
1.0
 40
1.0
 40
1.0
 40
1.0
 10
33.95664200651316
 20
177.4266164551767
 30
0.0
 10
33.89269031767002
 20
177.4266164551767
 30
0.0
 10
33.83112597921887
 20
177.4127705791519
 30
0.0
 10
33.72050062836986
 20
177.3706048029645
 30
0.0
 10
33.67081393670043
 20
177.3421141027014
 30
0.0
 10
33.62724436003462
 20
177.3094591676513
 30
0.0
  0
SPLINE
  5
CE
330
1F
100
AcDbEntity
  8
0
  6
Continuous
 62
     7
370
    15
100
AcDbSpline
210
0.0
220
0.0
230
1.0
 70
     8
 71
     3
 72
    40
 73
    36
 74
     0
 42
0.000000001
 43
0.00000001
 40
0.0
 40
0.0
 40
0.0
 40
0.0
 40
0.0076138096090706
 40
0.015222703696619
 40
0.0228283796622113
 40
0.0304325370604607
 40
0.0380368764641707
 40
0.0456430983240686
 40
0.0532529018289472
 40
0.0608679837700325
 40
0.0919930035882894
 40
0.1231236538966525
 40
0.1547321881285151
 40
0.1863461940165317
 40
0.2182020912711853
 40
0.2500635030030784
 40
0.3137495787501998
 40
0.3769416086590435
 40
0.439168148565131
 40
0.5000004350472922
 40
0.5608327215294534
 40
0.6230592614355407
 40
0.6862512913443847
 40
0.7499373670915059
 40
0.7817932643700992
 40
0.813654676120411
 40
0.8452632104154371
 40
0.8768772163635395
 40
0.9080022357785864
 40
0.9391328857746177
 40
0.9513123423166135
 40
0.963481817855821
 40
0.9756482751522532
 40
0.9878186821461872
 40
1.0
 40
1.0
 40
1.0
 40
1.0
 10
125.1852448364894
 20
177.4266164551766
 30
0.0
 10
125.1167454256571
 20
177.6536292128993
 30
0.0
 10
124.9797908276264
 20
178.1075081675356
 30
0.0
 10
124.7615607384894
 20
178.7841753887058
 30
0.0
 10
124.5340651170939
 20
179.4574460892727
 30
0.0
 10
124.2963801529257
 20
180.127045620063
 30
0.0
 10
124.0487530068839
 20
180.7930477604133
 30
0.0
 10
123.7911185768325
 20
181.4554312954322
 30
0.0
 10
123.5234903964849
 20
182.114206730445
 30
0.0
 10
122.960297746495
 20
183.4433104656853
 30
0.0
 10
122.0352790743292
 20
185.4146112370952
 30
0.0
 10
120.6328663618784
 20
187.9814563165097
 30
0.0
 10
119.0673267537701
 20
190.470406142917
 30
0.0
 10
117.3368152985167
 20
192.8754355550125
 30
0.0
 10
115.455160861352
 20
195.1745459127518
 30
0.0
 10
112.7533310942539
 20
198.0831397867029
 30
0.0
 10
109.0539673567349
 20
201.3837186331618
 30
0.0
 10
104.1936904515961
 20
204.7357679507359
 30
0.0
 10
99.03740275074153
 20
207.4240787397126
 30
0.0
 10
93.66423893523047
 20
209.4447074069854
 30
0.0
 10
88.0885022619638
 20
210.8103538082812
 30
0.0
 10
82.31482871482874
 20
211.5024605388329
 30
0.0
 10
76.41076206015543
 20
211.4796066061078
 30
0.0
 10
71.49413433474005
 20
210.843855594058
 30
0.0
 10
67.62198854279275
 20
209.968480567818
 30
0.0
 10
64.77106109129305
 20
209.1331747824953
 30
0.0
 10
61.98476327319235
 20
208.1250087918101
 30
0.0
 10
59.28757784325092
 20
206.9545683972981
 30
0.0
 10
56.68073511176257
 20
205.6275830845244
 30
0.0
 10
54.68176318605654
 20
204.4505630569759
 30
0.0
 10
53.23129895217154
 20
203.511489371324
 30
0.0
 10
52.29156669415835
 20
202.8708475679745
 30
0.0
 10
51.36800461766183
 20
202.2076658266797
 30
0.0
 10
50.45904813356955
 20
201.5238506387846
 30
0.0
 10
49.86706673850906
 20
201.0497553740123
 30
0.0
 10
49.57094342150128
 20
200.8126015317573
 30
0.0
  0
SPLINE
  5
CF
330
1F
100
AcDbEntity
  8
0
  6
Continuous
 62
     7
370
    15
100
AcDbSpline
210
0.0
220
0.0
230
1.0
 70
     8
 71
     3
 72
    48
 73
    44
 74
     0
 42
0.000000001
 43
0.00000001
 40
0.0
 40
0.0
 40
0.0
 40
0.0
 40
0.0054347037869356
 40
0.0108647463483483
 40
0.0162911759174995
 40
0.0217150428224247
 40
0.0271373988803493
 40
0.0325592967877855
 40
0.037981789508075
 40
0.0434059296581547
 40
0.0488327688963303
 40
0.0542633573128355
 40
0.0596987428249349
 40
0.0907177253991405
 40
0.1217409090757419
 40
0.1535986684451744
 40
0.1854607425290399
 40
0.2177550902626613
 40
0.2500538118399289
 40
0.2823481596262394
 40
0.3146468812542043
 40
0.3465046407732615
 40
0.3783667150011422
 40
0.4403596830876916
 40
0.5000005600694902
 40
0.5596414370512883
 40
0.6216344051378377
 40
0.6534921645076887
 40
0.6853542385911356
 40
0.7176485863251213
 40
0.7499473079020246
 40
0.7822416556859216
 40
0.8145403773162806
 40
0.8463981368323479
 40
0.8782602110632335
 40
0.9092791938581978
 40
0.940302377753792
 40
0.9502622131366211
 40
0.9602093142095482
 40
0.9701501568332102
 40
0.980091229098978
 40
0.9900390186488949
 40
1.0
 40
1.0
 40
1.0
 40
1.0
 10
33.95664200651314
 20
150.3266164551766
 30
0.0
 10
34.02040250360045
 20
150.1150771187524
 30
0.0
 10
34.14786881180359
 20
149.6921798785253
 30
0.0
 10
34.35013234282359
 20
149.0615056363064
 30
0.0
 10
34.56037691132214
 20
148.4339281566305
 30
0.0
 10
34.77940237606506
 20
147.809685105182
 30
0.0
 10
35.00699457939361
 20
147.1887129573894
 30
0.0
 10
35.24321086687316
 20
146.5710287833394
 30
0.0
 10
35.48803574972701
 20
145.9566282164989
 30
0.0
 10
35.74147369463447
 20
145.3455120767881
 30
0.0
 10
36.00352213763167
 20
144.7376818606947
 30
0.0
 10
36.27418666517368
 20
144.1331311535918
 30
0.0
 10
36.99146590551238
 20
142.5888325584687
 30
0.0
 10
38.26297943266986
 20
140.1543900894444
 30
0.0
 10
40.2967445829439
 20
136.9194444304097
 30
0.0
 10
42.6039676448779
 20
133.8299654328163
 30
0.0
 10
45.19093331071622
 20
130.9013756202023
 30
0.0
 10
48.02166273105318
 20
128.181471695746
 30
0.0
 10
51.08232831920179
 20
125.6952097860422
 30
0.0
 10
54.33735718254503
 20
123.4691186086604
 30
0.0
 10
57.75050057728524
 20
121.5301581525608
 30
0.0
 10
61.29489460401721
 20
119.8841618962387
 30
0.0
 10
66.09512940597156
 20
118.1166759688978
 30
0.0
 10
72.19505170049109
 20
116.6713145622683
 30
0.0
 10
79.57094346334368
 20
116.1064600955802
 30
0.0
 10
86.94683497184128
 20
116.6713146319673
 30
0.0
 10
93.04658645715953
 20
118.1166351065962
 30
0.0
 10
97.84682887144817
 20
119.8840948412542
 30
0.0
 10
101.3910724911244
 20
121.529996331705
 30
0.0
 10
104.8043776285305
 20
123.469024014709
 30
0.0
 10
108.0592736175349
 20
125.6949972123208
 30
0.0
 10
111.1200902577454
 20
128.1813529667677
 30
0.0
 10
113.9507086051735
 20
130.9011206329137
 30
0.0
 10
116.5378100883263
 20
133.829829004731
 30
0.0
 10
118.8449402427062
 20
136.9191549949851
 30
0.0
 10
120.8788445341623
 20
140.1542560455613
 30
0.0
 10
122.235548648128
 20
142.7518679147534
 30
0.0
 10
123.0969826430993
 20
144.6347553447772
 30
0.0
 10
123.5735294367501
 20
145.7508103191729
 30
0.0
 10
124.0212759661246
 20
146.8779044541822
 30
0.0
 10
124.4395151068722
 20
148.0162693778524
 30
0.0
 10
124.8309283111966
 20
149.1651008591686
 30
0.0
 10
125.0670871674522
 20
149.9392735976533
 30
0.0
 10
125.1852448364894
 20
150.3266164551766
 30
0.0
  0
SPLINE
  5
D0
330
1F
100
AcDbEntity
  8
0
  6
Continuous
 62
     7
370
    15
100
AcDbSpline
210
0.0
220
0.0
230
1.0
 70
     8
 71
     3
 72
    27
 73
    23
 74
     0
 42
0.000000001
 43
0.00000001
 40
0.0
 40
0.0
 40
0.0
 40
0.0
 40
0.0385569892858478
 40
0.0770658329213524
 40
0.1155353026425303
 40
0.1539741971407304
 40
0.1923913361152691
 40
0.2307955542542259
 40
0.2691956951637363
 40
0.3076006052665624
 40
0.346019127690938
 40
0.3844600961707844
 40
0.4229323289782913
 40
0.4614446229096024
 40
0.5000057473439155
 40
0.5715713334508973
 40
0.6429967682554181
 40
0.7143384572541074
 40
0.7856530046574839
 40
0.8569970792783167
 40
0.9284272796535741
 40
1.0
 40
1.0
 40
1.0
 40
1.0
 10
42.63495834492062
 20
193.8766164551766
 30
0.0
 10
42.48408900908665
 20
193.6892112709998
 30
0.0
 10
42.18253872614988
 20
193.3146349132532
 30
0.0
 10
41.74125304663399
 20
192.7445242198231
 30
0.0
 10
41.30846592534041
 20
192.1688823844419
 30
0.0
 10
40.88494190917205
 20
191.5870885488937
 30
0.0
 10
40.47047653090841
 20
190.9993089382097
 30
0.0
 10
40.06512461308724
 20
190.4054991691265
 30
0.0
 10
39.66887156569774
 20
189.8056712426888
 30
0.0
 10
39.28172137610193
 20
189.1998220554921
 30
0.0
 10
38.90367305635285
 20
188.5879525979252
 30
0.0
 10
38.53472691267538
 20
187.9700626062231
 30
0.0
 10
38.17488301292617
 20
187.3461527588267
 30
0.0
 10
37.82414104488861
 20
186.7162212325408
 30
0.0
 10
37.38521028696177
 20
185.8991700835566
 30
0.0
 10
36.87056906183558
 20
184.8898144907867
 30
0.0
 10
36.29667784357553
 20
183.6816510897539
 30
0.0
 10
35.75770056028337
 20
182.4592264108656
 30
0.0
 10
35.25340898926544
 20
181.2226169828424
 30
0.0
 10
34.78467268026374
 20
179.9715655411827
 30
0.0
 10
34.34824278771399
 20
178.7070399990005
 30
0.0
 10
34.08726229994819
 20
177.8537077865641
 30
0.0
 10
33.95664200651314
 20
177.4266164551767
 30
0.0
  0
ARC
  5
D1
330
1F
100
AcDbEntity
  8
0
  6
Continuous
 62
     7
370
    15
100
AcDbCircle
 10
79.5709434215
 20
163.8766164552
 30
0.0
 40
47.86715728752539
100
AcDbArc
 50
196.2976619617
 51
343.7023380383
  0
ARC
  5
D2
330
1F
100
AcDbEntity
  8
0
  6
Continuous
 62
     7
370
    15
100
AcDbCircle
 10
79.5709434215
 20
163.8766164552
 30
0.0
 40
47.86715728752542
100
AcDbArc
 50
16.2976619617
 51
128.8096103904
  0
ARC
  5
D3
330
1F
100
AcDbEntity
  8
0
  6
Continuous
 62
     7
370
    15
100
AcDbCircle
 10
79.5709434215
 20
163.8766164552
 30
0.0
 40
47.86715728752538
100
AcDbArc
 50
141.1903896096
 51
163.7023380383
  0
ARC
  5
D4
330
1F
100
AcDbEntity
  8
0
  6
Continuous
 62
     7
370
    15
100
AcDbCircle
 10
79.5709434215
 20
163.8766164552
 30
0.0
 40
48.63284271247463
100
AcDbArc
 50
141.9122882504
 51
164.0342140175
  0
ARC
  5
D5
330
1F
100
AcDbEntity
  8
0
  6
Continuous
 62
     7
370
    15
100
AcDbCircle
 10
79.5709434215
 20
163.8766164552
 30
0.0
 40
48.63284271247463
100
AcDbArc
 50
128.0877117496
 51
141.9122882504
  0
ARC
  5
D6
330
1F
100
AcDbEntity
  8
0
  6
Continuous
 62
     7
370
    15
100
AcDbCircle
 10
79.5709434215
 20
163.8766164552
 30
0.0
 40
48.63284271247465
100
AcDbArc
 50
15.8741097166
 51
128.0877117496
  0
ARC
  5
D7
330
1F
100
AcDbEntity
  8
0
  6
Continuous
 62
     7
370
    15
100
AcDbCircle
 10
79.5709434215
 20
163.8766164552
 30
0.0
 40
48.63284271247462
100
AcDbArc
 50
344.1258902834
 51
15.8741097166
  0
ARC
  5
D8
330
1F
100
AcDbEntity
  8
0
  6
Continuous
 62
     7
370
    15
100
AcDbCircle
 10
79.5709434215
 20
163.8766164552
 30
0.0
 40
48.63284271247461
100
AcDbArc
 50
195.9657859825
 51
344.1258902834
  0
ARC
  5
D9
330
1F
100
AcDbEntity
  8
0
  6
Continuous
 62
     7
370
    15
100
AcDbCircle
 10
79.5709434215
 20
163.8766164552
 30
0.0
 40
48.63284271247461
100
AcDbArc
 50
164.0342140175
 51
195.9657859825
  0
SPLINE
  5
DA
330
1F
100
AcDbEntity
  8
0
  6
Continuous
 62
     7
370
    15
100
AcDbSpline
210
0.0
220
0.0
230
1.0
 70
    24
 71
     3
 72
     8
 73
     4
 74
     0
 42
0.000000001
 43
0.00000001
 40
0.0
 40
0.0
 40
0.0
 40
0.0
 40
1.0
 40
1.0
 40
1.0
 40
1.0
 10
49.57094342150128
 20
202.3026818275251
 30
0.0
 10
49.57094342150128
 20
202.3026818275251
 30
0.0
 10
49.57094342150128
 20
202.2411662790937
 30
0.0
 10
49.57094342150128
 20
202.1539385963126
 30
0.0
  0
SPLINE
  5
DB
330
1F
100
AcDbEntity
  8
0
  6
Continuous
 62
     7
370
    15
100
AcDbSpline
210
0.0
220
0.0
230
1.0
 70
    24
 71
     3
 72
     8
 73
     4
 74
     0
 42
0.000000001
 43
0.00000001
 40
0.0
 40
0.0
 40
0.0
 40
0.0
 40
1.0
 40
1.0
 40
1.0
 40
1.0
 10
41.29362128036534
 20
193.8766164551767
 30
0.0
 10
41.20634686415125
 20
193.8766164551767
 30
0.0
 10
41.14487804915276
 20
193.8766164551766
 30
0.0
 10
41.14487804915275
 20
193.8766164551766
 30
0.0
  0
ARC
  5
DC
330
1F
100
AcDbEntity
  8
0
  6
Continuous
 62
     7
370
    15
100
AcDbCircle
 10
79.5709434215
 20
163.8766164552
 30
0.0
 40
48.75000000000001
100
AcDbArc
 50
127.9798724449
 51
142.0201275551
  0
SPLINE
  5
DD
330
1F
100
AcDbEntity
  8
0
  6
Continuous
 62
     7
370
    15
100
AcDbSpline
210
0.0
220
0.0
230
1.0
 70
    24
 71
     3
 72
     8
 73
     4
 74
     0
 42
0.000000001
 43
0.00000001
 40
0.0
 40
0.0
 40
0.0
 40
0.0
 40
1.0
 40
1.0
 40
1.0
 40
1.0
 10
126.4439718757099
 20
177.2736946265893
 30
0.0
 10
126.4439718757099
 20
177.2736946265893
 30
0.0
 10
126.4068752826437
 20
177.2365980335231
 30
0.0
 10
126.3491729445467
 20
177.1788956954261
 30
0.0
  0
ARC
  5
DE
330
1F
100
AcDbEntity
  8
0
  6
Continuous
 62
     7
370
    15
100
AcDbCircle
 10
79.5709434215
 20
163.8766164552
 30
0.0
 40
48.75000000000002
100
AcDbArc
 50
344.0491974398
 51
15.9508025602
  0
SPLINE
  5
DF
330
1F
100
AcDbEntity
  8
0
  6
Continuous
 62
     7
370
    15
100
AcDbSpline
210
0.0
220
0.0
230
1.0
 70
    24
 71
     3
 72
     8
 73
     4
 74
     0
 42
0.000000001
 43
0.00000001
 40
0.0
 40
0.0
 40
0.0
 40
0.0
 40
1.0
 40
1.0
 40
1.0
 40
1.0
 10
126.4439718757099
 20
150.479538283764
 30
0.0
 10
126.4439718757099
 20
150.479538283764
 30
0.0
 10
126.4068752826437
 20
150.5166348768302
 30
0.0
 10
126.3491729445467
 20
150.5743372149271
 30
0.0
  0
SPLINE
  5
E0
330
1F
100
AcDbEntity
  8
0
  6
Continuous
 62
     7
370
    15
100
AcDbSpline
210
0.0
220
0.0
230
1.0
 70
    24
 71
     3
 72
    10
 73
     6
 74
     0
 42
0.000000001
 43
0.00000001
 40
0.0
 40
0.0
 40
0.0
 40
0.0
 40
0.5
 40
0.5
 40
1.0
 40
1.0
 40
1.0
 40
1.0
 10
32.81405811707688
 20
150.4995066430685
 30
0.0
 10
32.79111659683976
 20
150.4593133108053
 30
0.0
 10
32.77099550662019
 20
150.4240613459687
 30
0.0
 10
32.74172623256366
 20
150.372781847265
 30
0.0
 10
32.73297963504986
 20
150.3574578889393
 30
0.0
 10
32.73297963504986
 20
150.3574578889393
 30
0.0
  0
ARC
  5
E1
330
1F
100
AcDbEntity
  8
0
  6
Continuous
 62
     7
370
    15
100
AcDbCircle
 10
79.5709434215
 20
163.8766164552
 30
0.0
 40
48.75
100
AcDbArc
 50
163.8999153276
 51
196.1000846724
  0
SPLINE
  5
E2
330
1F
100
AcDbEntity
  8
0
  6
Continuous
 62
     7
370
    15
100
AcDbSpline
210
0.0
220
0.0
230
1.0
 70
    24
 71
     3
 72
    10
 73
     6
 74
     0
 42
0.000000001
 43
0.00000001
 40
0.0
 40
0.0
 40
0.0
 40
0.0
 40
0.5
 40
0.5
 40
1.0
 40
1.0
 40
1.0
 40
1.0
 10
32.81405811707688
 20
177.2537262672847
 30
0.0
 10
32.79111659683976
 20
177.293919599548
 30
0.0
 10
32.77099550662021
 20
177.3291715643846
 30
0.0
 10
32.74172623256368
 20
177.3804510630883
 30
0.0
 10
32.73297963504987
 20
177.395775021414
 30
0.0
 10
32.73297963504987
 20
177.395775021414
 30
0.0
  0
ARC
  5
E3
330
1F
100
AcDbEntity
  8
0
  6
Continuous
 62
     7
370
    15
100
AcDbCircle
 10
79.5709434215
 20
163.8766164552
 30
0.0
 40
48.75
100
AcDbArc
 50
142.0201275551
 51
163.8999153276
  0
ARC
  5
E4
330
1F
100
AcDbEntity
  8
0
  6
Continuous
 62
     7
370
    15
100
AcDbCircle
 10
79.5709434215
 20
163.8766164552
 30
0.0
 40
48.75000000000002
100
AcDbArc
 50
196.1000846724
 51
344.0491974398
  0
ARC
  5
E5
330
1F
100
AcDbEntity
  8
0
  6
Continuous
 62
     7
370
    15
100
AcDbCircle
 10
79.5709434215
 20
163.8766164552
 30
0.0
 40
48.75000000000001
100
AcDbArc
 50
15.9508025602
 51
127.9798724449
  0
ARC
  5
E6
330
1F
100
AcDbEntity
  8
0
  6
Continuous
 62
     7
370
    15
100
AcDbCircle
 10
79.5709434215
 20
163.8766164552
 30
0.0
 40
48.75
100
AcDbArc
 50
180.0
 51
196.1000846724
  0
ARC
  5
E7
330
1F
100
AcDbEntity
  8
0
  6
Continuous
 62
     7
370
    15
100
AcDbCircle
 10
79.5709434215
 20
163.8766164552
 30
0.0
 40
48.75
100
AcDbArc
 50
163.8999153276
 51
180.0
  0
INSERT
  5
F3
330
1F
100
AcDbEntity
  8
DIM
100
AcDbBlockReference
  2
SW_CENTERMARKSYMBOL_0
 10
79.5709434215
 20
163.8766164552
 30
0.0
  0
LINE
  5
F4
330
1F
100
AcDbEntity
  8
0
  6
Continuous
 62
     7
370
    15
100
AcDbLine
 10
268.071968771
 20
115.1266164552
 30
0.0
 11
271.6586880818
 21
115.1266164552
 31
0.0
  0
LINE
  5
F5
330
1F
100
AcDbEntity
  8
0
  6
Continuous
 62
     7
370
    15
100
AcDbLine
 10
271.6586880818
 20
212.6266164552
 30
0.0
 11
268.071968771
 21
212.6266164552
 31
0.0
  0
LINE
  5
F6
330
1F
100
AcDbEntity
  8
0
  6
Continuous
 62
     7
370
    15
100
AcDbLine
 10
268.071968771
 20
212.6266164552
 30
0.0
 11
266.7243735068
 21
210.2925129896
 31
0.0
  0
LINE
  5
F7
330
1F
100
AcDbEntity
  8
0
  6
Continuous
 62
     7
370
    15
100
AcDbLine
 10
266.7243735068
 20
117.4607199208
 30
0.0
 11
268.071968771
 21
115.1266164552
 31
0.0
  0
LINE
  5
F8
330
1F
100
AcDbEntity
  8
0
  6
Continuous
 62
     7
370
    15
100
AcDbLine
 10
261.5767782426
 20
115.1266164552
 30
0.0
 11
262.9243735068
 21
117.4607199208
 31
0.0
  0
LINE
  5
F9
330
1F
100
AcDbEntity
  8
0
  6
Continuous
 62
     7
370
    15
100
AcDbLine
 10
262.9243735068
 20
210.2925129896
 30
0.0
 11
261.5767782426
 21
212.6266164552
 31
0.0
  0
LINE
  5
FA
330
1F
100
AcDbEntity
  8
0
  6
Continuous
 62
     7
370
    15
100
AcDbLine
 10
258.0900589317
 20
115.1266164552
 30
0.0
 11
261.5767782426
 21
115.1266164552
 31
0.0
  0
LINE
  5
FB
330
1F
100
AcDbEntity
  8
0
  6
Continuous
 62
     7
370
    15
100
AcDbLine
 10
261.5767782426
 20
212.6266164552
 30
0.0
 11
258.0900589317
 21
212.6266164552
 31
0.0
  0
LINE
  5
FC
330
1F
100
AcDbEntity
  8
0
  6
Continuous
 62
     7
370
    15
100
AcDbLine
 10
257.8072162193
 20
212.5094591677
 30
0.0
 11
257.0415307943
 21
211.7437737427
 31
0.0
  0
LINE
  5
FD
330
1F
100
AcDbEntity
  8
0
  6
Continuous
 62
     7
370
    15
100
AcDbLine
 10
257.0415307943
 20
116.0094591677
 30
0.0
 11
257.8072162193
 21
115.2437737427
 31
0.0
  0
ARC
  5
FE
330
1F
100
AcDbEntity
  8
0
  6
Continuous
 62
     7
370
    15
100
AcDbCircle
 10
271.6586880818
 20
115.5266164552
 30
0.0
 40
0.4000000000000193
100
AcDbArc
 50
270.0
 51
315.0
  0
ARC
  5
FF
330
1F
100
AcDbEntity
  8
0
  6
Continuous
 62
     7
370
    15
100
AcDbCircle
 10
258.0900589317
 20
115.5266164552
 30
0.0
 40
0.4000000000000057
100
AcDbArc
 50
225.0
 51
270.0
  0
ARC
  5
100
330
1F
100
AcDbEntity
  8
0
  6
Continuous
 62
     7
370
    15
100
AcDbCircle
 10
271.6586880818
 20
212.2266164552
 30
0.0
 40
0.4000000000000057
100
AcDbArc
 50
45.0
 51
90.0
  0
ARC
  5
101
330
1F
100
AcDbEntity
  8
0
  6
Continuous
 62
     7
370
    15
100
AcDbCircle
 10
258.0900589317
 20
212.2266164552
 30
0.0
 40
0.4000000000000057
100
AcDbArc
 50
90.0
 51
135.0
  0
LINE
  5
102
330
1F
100
AcDbEntity
  8
0
  6
Continuous
 62
     7
370
    15
100
AcDbLine
 10
271.9415307943
 20
115.2437737427
 30
0.0
 11
272.7072162193
 21
116.0094591677
 31
0.0
  0
LINE
  5
103
330
1F
100
AcDbEntity
  8
0
  6
Continuous
 62
     7
370
    15
100
AcDbLine
 10
272.7072162193
 20
211.7437737427
 30
0.0
 11
271.9415307943
 21
212.5094591677
 31
0.0
  0
ARC
  5
104
330
1F
100
AcDbEntity
  8
0
  6
Continuous
 62
     7
370
    15
100
AcDbCircle
 10
272.4243735068
 20
116.2923018801
 30
0.0
 40
0.4000000000000341
100
AcDbArc
 50
315.0
 51
0.0
  0
ARC
  5
105
330
1F
100
AcDbEntity
  8
0
  6
Continuous
 62
     7
370
    15
100
AcDbCircle
 10
272.4243735068
 20
211.4609310302
 30
0.0
 40
0.4000000000000341
100
AcDbArc
 50
0.0
 51
45.0
  0
ARC
  5
106
330
1F
100
AcDbEntity
  8
0
  6
Continuous
 62
     7
370
    15
100
AcDbCircle
 10
257.3243735068
 20
116.2923018801
 30
0.0
 40
0.4000000000000341
100
AcDbArc
 50
180.0
 51
225.0
  0
ARC
  5
107
330
1F
100
AcDbEntity
  8
0
  6
Continuous
 62
     7
370
    15
100
AcDbCircle
 10
257.3243735068
 20
211.4609310302
 30
0.0
 40
0.4000000000000341
100
AcDbArc
 50
135.0
 51
180.0
  0
LINE
  5
108
330
1F
100
AcDbEntity
  8
0
  6
Continuous
 62
     7
370
    15
100
AcDbLine
 10
262.9243735068
 20
118.3766164552
 30
0.0
 11
266.7243735068
 21
118.3766164552
 31
0.0
  0
LINE
  5
109
330
1F
100
AcDbEntity
  8
0
  6
Continuous
 62
     7
370
    15
100
AcDbLine
 10
266.7243735068
 20
209.3766164552
 30
0.0
 11
262.9243735068
 21
209.3766164552
 31
0.0
  0
LINE
  5
10A
330
1F
100
AcDbEntity
  8
0
  6
Continuous
 62
     7
370
    15
100
AcDbLine
 10
290.7243735068
 20
119.8766164552
 30
0.0
 11
352.7243735068
 21
119.8766164552
 31
0.0
  0
LINE
  5
10B
330
1F
100
AcDbEntity
  8
0
  6
Continuous
 62
     7
370
    15
100
AcDbLine
 10
352.7243735068
 20
207.8766164552
 30
0.0
 11
290.7243735068
 21
207.8766164552
 31
0.0
  0
LINE
  5
10C
330
1F
100
AcDbEntity
  8
0
  6
Continuous
 62
     7
370
    15
100
AcDbLine
 10
352.7243735068
 20
119.8766164552
 30
0.0
 11
353.7243735068
 21
120.8766164552
 31
0.0
  0
LINE
  5
10D
330
1F
100
AcDbEntity
  8
0
  6
Continuous
 62
     7
370
    15
100
AcDbLine
 10
353.7243735068
 20
206.8766164552
 30
0.0
 11
352.7243735068
 21
207.8766164552
 31
0.0
  0
LINE
  5
10E
330
1F
100
AcDbEntity
  8
0
  6
Continuous
 62
     7
370
    15
100
AcDbLine
 10
290.7243735068
 20
207.8766164552
 30
0.0
 11
289.7243735068
 21
206.8766164552
 31
0.0
  0
LINE
  5
10F
330
1F
100
AcDbEntity
  8
0
  6
Continuous
 62
     7
370
    15
100
AcDbLine
 10
289.7243735068
 20
120.8766164552
 30
0.0
 11
290.7243735068
 21
119.8766164552
 31
0.0
  0
ARC
  5
110
330
1F
100
AcDbEntity
  8
0
  6
Continuous
 62
     7
370
    15
100
AcDbCircle
 10
275.8243735068
 20
206.6266164552
 30
0.0
 40
3.0
100
AcDbArc
 50
180.0
 51
270.0
  0
ARC
  5
111
330
1F
100
AcDbEntity
  8
0
  6
Continuous
 62
     7
370
    15
100
AcDbCircle
 10
275.8243735068
 20
121.1266164552
 30
0.0
 40
3.0
100
AcDbArc
 50
90.0
 51
180.0
  0
ARC
  5
112
330
1F
100
AcDbEntity
  8
0
  6
Continuous
 62
     7
370
    15
100
AcDbCircle
 10
289.2243735068
 20
123.6266164552
 30
0.0
 40
0.5000000000000142
100
AcDbArc
 50
0.0
 51
90.0
  0
ARC
  5
113
330
1F
100
AcDbEntity
  8
0
  6
Continuous
 62
     7
370
    15
100
AcDbCircle
 10
289.2243735068
 20
204.1266164552
 30
0.0
 40
0.5
100
AcDbArc
 50
270.0
 51
0.0
  0
LINE
  5
114
330
1F
100
AcDbEntity
  8
0
  6
Continuous
 62
     7
370
    15
100
AcDbLine
 10
275.8243735068
 20
124.1266164552
 30
0.0
 11
289.2243735068
 21
124.1266164552
 31
0.0
  0
LINE
  5
115
330
1F
100
AcDbEntity
  8
0
  6
Continuous
 62
     7
370
    15
100
AcDbLine
 10
289.2243735068
 20
203.6266164552
 30
0.0
 11
275.8243735068
 21
203.6266164552
 31
0.0
  0
ARC
  5
116
330
1F
100
AcDbEntity
  8
0
  6
Continuous
 62
     7
370
    15
100
AcDbCircle
 10
256.4243735068
 20
128.8766164552
 30
0.0
 40
0.5000000000000284
100
AcDbArc
 50
0.0
 51
90.0
  0
ARC
  5
117
330
1F
100
AcDbEntity
  8
0
  6
Continuous
 62
     7
370
    15
100
AcDbCircle
 10
256.4243735068
 20
198.8766164552
 30
0.0
 40
0.5000000000000284
100
AcDbArc
 50
270.0
 51
0.0
  0
LINE
  5
118
330
1F
100
AcDbEntity
  8
0
  6
Continuous
 62
     7
370
    15
100
AcDbLine
 10
253.7243735068
 20
128.9516164552
 30
0.0
 11
254.635788948
 21
129.3766164552
 31
0.0
  0
LINE
  5
119
330
1F
100
AcDbEntity
  8
0
  6
Continuous
 62
     7
370
    15
100
AcDbLine
 10
254.635788948
 20
198.3766164552
 30
0.0
 11
253.7243735068
 21
198.8016164552
 31
0.0
  0
LINE
  5
11A
330
1F
100
AcDbEntity
  8
0
  6
Continuous
 62
     7
370
    15
100
AcDbLine
 10
253.7243735068
 20
198.8016164552
 30
0.0
 11
152.8300652795
 21
184.0877242422
 31
0.0
  0
LINE
  5
11B
330
1F
100
AcDbEntity
  8
0
  6
Continuous
 62
     7
370
    15
100
AcDbLine
 10
152.8300652795
 20
143.6655086681
 30
0.0
 11
253.7243735068
 21
128.9516164552
 31
0.0
  0
LINE
  5
11C
330
1F
100
AcDbEntity
  8
0
  6
Continuous
 62
     7
370
    15
100
AcDbLine
 10
254.635788948
 20
129.3766164552
 30
0.0
 11
256.4243735068
 21
129.3766164552
 31
0.0
  0
LINE
  5
11D
330
1F
100
AcDbEntity
  8
0
  6
Continuous
 62
     7
370
    15
100
AcDbLine
 10
256.4243735068
 20
198.3766164552
 30
0.0
 11
254.635788948
 21
198.3766164552
 31
0.0
  0
LINE
  5
11E
330
1F
100
AcDbEntity
  8
0
  6
Continuous
 62
     7
370
    15
100
AcDbLine
 10
393.7243735068
 20
137.8766164552
 30
0.0
 11
394.7243735068
 21
138.8766164552
 31
0.0
  0
LINE
  5
11F
330
1F
100
AcDbEntity
  8
0
  6
Continuous
 62
     7
370
    15
100
AcDbLine
 10
394.7243735068
 20
188.8766164552
 30
0.0
 11
393.7243735068
 21
189.8766164552
 31
0.0
  0
LINE
  5
120
330
1F
100
AcDbEntity
  8
0
  6
Continuous
 62
     7
370
    15
100
AcDbLine
 10
384.7243735068
 20
137.8766164552
 30
0.0
 11
393.7243735068
 21
137.8766164552
 31
0.0
  0
LINE
  5
121
330
1F
100
AcDbEntity
  8
0
  6
Continuous
 62
     7
370
    15
100
AcDbLine
 10
393.7243735068
 20
189.8766164552
 30
0.0
 11
384.7243735068
 21
189.8766164552
 31
0.0
  0
LINE
  5
122
330
1F
100
AcDbEntity
  8
0
  6
Continuous
 62
     7
370
    15
100
AcDbLine
 10
384.7243735068
 20
189.8766164552
 30
0.0
 11
383.7243735068
 21
188.8766164552
 31
0.0
  0
LINE
  5
123
330
1F
100
AcDbEntity
  8
0
  6
Continuous
 62
     7
370
    15
100
AcDbLine
 10
383.7243735068
 20
138.8766164552
 30
0.0
 11
384.7243735068
 21
137.8766164552
 31
0.0
  0
ARC
  5
124
330
1F
100
AcDbEntity
  8
0
  6
Continuous
 62
     7
370
    15
100
AcDbCircle
 10
152.9743735068
 20
144.6550414546
 30
0.0
 40
1.0
100
AcDbArc
 50
180.0
 51
261.7027777778
  0
ARC
  5
125
330
1F
100
AcDbEntity
  8
0
  6
Continuous
 62
     7
370
    15
100
AcDbCircle
 10
152.9743735068
 20
183.0981914557
 30
0.0
 40
1.000000000000014
100
AcDbArc
 50
98.2972222222
 51
180.0
  0
LINE
  5
126
330
1F
100
AcDbEntity
  8
0
  6
Continuous
 62
     7
370
    15
100
AcDbLine
 10
380.233625778
 20
143.8766164552
 30
0.0
 11
380.7243735068
 21
144.7266164552
 31
0.0
  0
LINE
  5
127
330
1F
100
AcDbEntity
  8
0
  6
Continuous
 62
     7
370
    15
100
AcDbLine
 10
380.7243735068
 20
183.0266164552
 30
0.0
 11
380.233625778
 21
183.8766164552
 31
0.0
  0
LINE
  5
128
330
1F
100
AcDbEntity
  8
0
  6
Continuous
 62
     7
370
    15
100
AcDbLine
 10
353.7243735068
 20
143.8766164552
 30
0.0
 11
380.233625778
 21
143.8766164552
 31
0.0
  0
LINE
  5
129
330
1F
100
AcDbEntity
  8
0
  6
Continuous
 62
     7
370
    15
100
AcDbLine
 10
380.233625778
 20
183.8766164552
 30
0.0
 11
353.7243735068
 21
183.8766164552
 31
0.0
  0
ARC
  5
12A
330
1F
100
AcDbEntity
  8
0
  6
Continuous
 62
     7
370
    15
100
AcDbCircle
 10
383.2243735068
 20
153.3766164552
 30
0.0
 40
0.5000000000000568
100
AcDbArc
 50
0.0
 51
90.0
  0
ARC
  5
12B
330
1F
100
AcDbEntity
  8
0
  6
Continuous
 62
     7
370
    15
100
AcDbCircle
 10
383.2243735068
 20
174.3766164552
 30
0.0
 40
0.5000000000000568
100
AcDbArc
 50
270.0
 51
0.0
  0
LINE
  5
12C
330
1F
100
AcDbEntity
  8
0
  6
Continuous
 62
     7
370
    15
100
AcDbLine
 10
380.7243735068
 20
153.8766164552
 30
0.0
 11
383.2243735068
 21
153.8766164552
 31
0.0
  0
LINE
  5
12D
330
1F
100
AcDbEntity
  8
0
  6
Continuous
 62
     7
370
    15
100
AcDbLine
 10
383.2243735068
 20
173.8766164552
 30
0.0
 11
380.7243735068
 21
173.8766164552
 31
0.0
  0
LINE
  5
12E
330
1F
100
AcDbEntity
  8
0
  6
Continuous
 62
     7
370
    15
100
AcDbLine
 10
271.6586880818
 20
150.4795382838
 30
0.0
 11
271.6586880818
 21
177.2736946266
 31
0.0
  0
LINE
  5
12F
330
1F
100
AcDbEntity
  8
0
  6
Continuous
 62
     7
370
    15
100
AcDbLine
 10
268.071968771
 20
115.1266164552
 30
0.0
 11
268.071968771
 21
212.6266164552
 31
0.0
  0
SPLINE
  5
130
330
1F
100
AcDbEntity
  8
0
  6
Continuous
 62
     7
370
    15
100
AcDbSpline
210
0.0
220
0.0
230
1.0
 70
     8
 71
     3
 72
     8
 73
     4
 74
     0
 42
0.000000001
 43
0.00000001
 40
0.0
 40
0.0
 40
0.0
 40
0.0
 40
1.0
 40
1.0
 40
1.0
 40
1.0
 10
271.6586880818341
 20
177.2736946265893
 30
0.0
 10
271.7672050732851
 20
177.2736946265893
 30
0.0
 10
271.8702459251475
 20
177.2365980335231
 30
0.0
 10
271.9415307943087
 20
177.1788956954261
 30
0.0
  0
LINE
  5
131
330
1F
100
AcDbEntity
  8
0
  6
Continuous
 62
     7
370
    15
100
AcDbLine
 10
271.9415307943
 20
150.5743372149
 30
0.0
 11
271.9415307943
 21
177.1788956954
 31
0.0
  0
SPLINE
  5
132
330
1F
100
AcDbEntity
  8
0
  6
Continuous
 62
     7
370
    15
100
AcDbSpline
210
0.0
220
0.0
230
1.0
 70
     8
 71
     3
 72
     8
 73
     4
 74
     0
 42
0.000000001
 43
0.00000001
 40
0.0
 40
0.0
 40
0.0
 40
0.0
 40
1.0
 40
1.0
 40
1.0
 40
1.0
 10
271.9415307943087
 20
150.5743372149271
 30
0.0
 10
271.8702149821268
 20
150.5166098296545
 30
0.0
 10
271.76731382449
 20
150.479538283764
 30
0.0
 10
271.6586880818341
 20
150.479538283764
 30
0.0
  0
LINE
  5
133
330
1F
100
AcDbEntity
  8
0
  6
Continuous
 62
     7
370
    15
100
AcDbLine
 10
266.7243735068
 20
210.2925129896
 30
0.0
 11
266.7243735068
 21
117.4607199208
 31
0.0
  0
LINE
  5
134
330
1F
100
AcDbEntity
  8
0
  6
Continuous
 62
     7
370
    15
100
AcDbLine
 10
262.9243735068
 20
163.8766164552
 30
0.0
 11
262.9243735068
 21
210.2925129896
 31
0.0
  0
LINE
  5
135
330
1F
100
AcDbEntity
  8
0
  6
Continuous
 62
     7
370
    15
100
AcDbLine
 10
262.9243735068
 20
117.4607199208
 30
0.0
 11
262.9243735068
 21
163.8766164552
 31
0.0
  0
LINE
  5
136
330
1F
100
AcDbEntity
  8
0
  6
Continuous
 62
     7
370
    15
100
AcDbLine
 10
261.5767782426
 20
163.8766164552
 30
0.0
 11
261.5767782426
 21
212.6266164552
 31
0.0
  0
LINE
  5
137
330
1F
100
AcDbEntity
  8
0
  6
Continuous
 62
     7
370
    15
100
AcDbLine
 10
261.5767782426
 20
115.1266164552
 30
0.0
 11
261.5767782426
 21
163.8766164552
 31
0.0
  0
LINE
  5
138
330
1F
100
AcDbEntity
  8
0
  6
Continuous
 62
     7
370
    15
100
AcDbLine
 10
258.0900589317
 20
150.4795382838
 30
0.0
 11
258.0900589317
 21
177.2736946266
 31
0.0
  0
SPLINE
  5
139
330
1F
100
AcDbEntity
  8
0
  6
Continuous
 62
     7
370
    15
100
AcDbSpline
210
0.0
220
0.0
230
1.0
 70
     8
 71
     3
 72
     8
 73
     4
 74
     0
 42
0.000000001
 43
0.00000001
 40
0.0
 40
0.0
 40
0.0
 40
0.0
 40
1.0
 40
1.0
 40
1.0
 40
1.0
 10
258.0900589317326
 20
177.2736946265893
 30
0.0
 10
257.9815419402815
 20
177.2736946265893
 30
0.0
 10
257.8785010884192
 20
177.2365980335231
 30
0.0
 10
257.807216219258
 20
177.1788956954261
 30
0.0
  0
SPLINE
  5
13A
330
1F
100
AcDbEntity
  8
0
  6
Continuous
 62
     7
370
    15
100
AcDbSpline
210
0.0
220
0.0
230
1.0
 70
     8
 71
     3
 72
     8
 73
     4
 74
     0
 42
0.000000001
 43
0.00000001
 40
0.0
 40
0.0
 40
0.0
 40
0.0
 40
1.0
 40
1.0
 40
1.0
 40
1.0
 10
258.0900589317326
 20
150.479538283764
 30
0.0
 10
257.9815419402816
 20
150.479538283764
 30
0.0
 10
257.8785010884192
 20
150.5166348768302
 30
0.0
 10
257.807216219258
 20
150.5743372149271
 30
0.0
  0
LINE
  5
13B
330
1F
100
AcDbEntity
  8
0
  6
Continuous
 62
     7
370
    15
100
AcDbLine
 10
257.8072162193
 20
150.5743372149
 30
0.0
 11
257.8072162193
 21
177.1788956954
 31
0.0
  0
SPLINE
  5
13C
330
1F
100
AcDbEntity
  8
0
  6
Continuous
 62
     7
370
    15
100
AcDbSpline
210
0.0
220
0.0
230
1.0
 70
     8
 71
     3
 72
     8
 73
     4
 74
     0
 42
0.000000001
 43
0.00000001
 40
0.0
 40
0.0
 40
0.0
 40
0.0
 40
0.0008486337084206
 40
0.0008486337084206
 40
0.0008486337084206
 40
0.0008486337084206
 10
272.4992638386424
 20
176.7266164551741
 30
0.0
 10
272.3135461450606
 20
176.877495290978
 30
0.0
 10
272.1276324636024
 20
177.0282536087064
 30
0.0
 10
271.9415307943087
 20
177.1788956954261
 30
0.0
  0
LINE
  5
13D
330
1F
100
AcDbEntity
  8
0
  6
Continuous
 62
     7
370
    15
100
AcDbLine
 10
272.4992638386
 20
176.7266164552
 30
0.0
 11
272.7072162193
 21
176.7266164552
 31
0.0
  0
LINE
  5
13E
330
1F
100
AcDbEntity
  8
0
  6
Continuous
 62
     7
370
    15
100
AcDbLine
 10
272.707216223
 20
151.0266164552
 30
0.0
 11
272.707216223
 21
176.7266164552
 31
0.0
  0
LINE
  5
13F
330
1F
100
AcDbEntity
  8
0
  6
Continuous
 62
     7
370
    15
100
AcDbLine
 10
272.7072162193
 20
151.0266164552
 30
0.0
 11
272.4992639341
 21
151.0266164552
 31
0.0
  0
SPLINE
  5
140
330
1F
100
AcDbEntity
  8
0
  6
Continuous
 62
     7
370
    15
100
AcDbSpline
210
0.0
220
0.0
230
1.0
 70
     8
 71
     3
 72
     8
 73
     4
 74
     0
 42
0.000000001
 43
0.00000001
 40
0.0
 40
0.0
 40
0.0
 40
0.0
 40
0.0008486338238814
 40
0.0008486338238814
 40
0.0008486338238814
 40
0.0008486338238814
 10
272.4992639144459
 20
151.0266165167627
 30
0.0
 10
272.3135461956496
 20
150.8757376603982
 30
0.0
 10
272.1276324889224
 20
150.7249793221425
 30
0.0
 10
271.9415307943087
 20
150.5743372149272
 30
0.0
  0
LINE
  5
141
330
1F
100
AcDbEntity
  8
0
  6
Continuous
 62
     7
370
    15
100
AcDbLine
 10
257.0415307943
 20
150.4437737427
 30
0.0
 11
257.0415307943
 21
177.3094591677
 31
0.0
  0
SPLINE
  5
142
330
1F
100
AcDbEntity
  8
0
  6
Continuous
 62
     7
370
    15
100
AcDbSpline
210
0.0
220
0.0
230
1.0
 70
    24
 71
     3
 72
     8
 73
     4
 74
     0
 42
0.000000001
 43
0.00000001
 40
0.0
 40
0.0
 40
0.0
 40
0.0
 40
1.0
 40
1.0
 40
1.0
 40
1.0
 10
272.8243735067834
 20
176.7266164551766
 30
0.0
 10
272.8243735067834
 20
176.7266164551766
 30
0.0
 10
272.7828297728312
 20
176.7266164551766
 30
0.0
 10
272.7072162192586
 20
176.7266164551766
 30
0.0
  0
LINE
  5
143
330
1F
100
AcDbEntity
  8
0
  6
Continuous
 62
     7
370
    15
100
AcDbLine
 10
272.8243735068
 20
151.0265917024
 30
0.0
 11
272.8243735068
 21
176.7266412079
 31
0.0
  0
SPLINE
  5
144
330
1F
100
AcDbEntity
  8
0
  6
Continuous
 62
     7
370
    15
100
AcDbSpline
210
0.0
220
0.0
230
1.0
 70
    24
 71
     3
 72
     8
 73
     4
 74
     0
 42
0.000000001
 43
0.00000001
 40
0.0
 40
0.0
 40
0.0
 40
0.0
 40
1.0
 40
1.0
 40
1.0
 40
1.0
 10
272.8243735067834
 20
151.0266164551767
 30
0.0
 10
272.8243735067833
 20
151.0266164551767
 30
0.0
 10
272.7828297728308
 20
151.0266164551767
 30
0.0
 10
272.707216219258
 20
151.0266164551767
 30
0.0
  0
SPLINE
  5
145
330
1F
100
AcDbEntity
  8
0
  6
Continuous
 62
     7
370
    15
100
AcDbSpline
210
0.0
220
0.0
230
1.0
 70
    24
 71
     3
 72
    10
 73
     6
 74
     0
 42
0.000000001
 43
0.00000001
 40
0.0
 40
0.0
 40
0.0
 40
0.0
 40
0.5
 40
0.5
 40
1.0
 40
1.0
 40
1.0
 40
1.0
 10
256.9243735067834
 20
177.4266164551766
 30
0.0
 10
256.9243735067834
 20
177.4266164551766
 30
0.0
 10
256.9382193828081
 20
177.4127705791518
 30
0.0
 10
256.9803851589955
 20
177.3706048029645
 30
0.0
 10
257.0088758592587
 20
177.3421141027014
 30
0.0
 10
257.0415307943088
 20
177.3094591676513
 30
0.0
  0
SPLINE
  5
146
330
1F
100
AcDbEntity
  8
0
  6
Continuous
 62
     7
370
    15
100
AcDbSpline
210
0.0
220
0.0
230
1.0
 70
    24
 71
     3
 72
    10
 73
     6
 74
     0
 42
0.000000001
 43
0.00000001
 40
0.0
 40
0.0
 40
0.0
 40
0.0
 40
0.5
 40
0.5
 40
1.0
 40
1.0
 40
1.0
 40
1.0
 10
257.0415307943088
 20
150.443773742702
 30
0.0
 10
257.0088977332915
 20
150.4111406816847
 30
0.0
 10
256.9809168470252
 20
150.3831597954185
 30
0.0
 10
256.9382599966502
 20
150.3405029450435
 30
0.0
 10
256.9243735067834
 20
150.3266164551766
 30
0.0
 10
256.9243735067834
 20
150.3266164551766
 30
0.0
  0
LINE
  5
147
330
1F
100
AcDbEntity
  8
0
  6
Continuous
 62
     7
370
    15
100
AcDbLine
 10
256.9243735068
 20
150.3266164552
 30
0.0
 11
256.9243735068
 21
177.4266164552
 31
0.0
  0
SPLINE
  5
148
330
1F
100
AcDbEntity
  8
0
  6
Continuous
 62
     7
370
    15
100
AcDbSpline
210
0.0
220
0.0
230
1.0
 70
    24
 71
     3
 72
    36
 73
    32
 74
     0
 42
0.000000001
 43
0.00000001
 40
0.0
 40
0.0
 40
0.0
 40
0.0
 40
0.0108550601157133
 40
0.0217006032483287
 40
0.032538768348585
 40
0.0433716987375759
 40
0.0542015408443823
 40
0.0650304429344976
 40
0.0758605538328023
 40
0.0866940216448727
 40
0.0975329924804308
 40
0.1083796091827167
 40
0.1192360100675338
 40
0.181247834122379
 40
0.2432679244012009
 40
0.30699904894893
 40
0.3707386689215396
 40
0.4353656024878496
 40
0.5000011508910772
 40
0.5646280845649078
 40
0.6292636330748689
 40
0.6929947579296986
 40
0.7567343782029038
 40
0.81874620271251
 40
0.8807662934441527
 40
0.9006583299602561
 40
0.920524832491279
 40
0.9403790153804317
 40
0.9602341175685428
 40
0.9801033761588474
 40
1.0
 40
1.0
 40
1.0
 40
1.0
 10
272.8243735067834
 20
151.0266164551767
 30
0.0
 10
272.8243735067834
 20
150.8118295808063
 30
0.0
 10
272.8243735067834
 20
150.3824441426814
 30
0.0
 10
272.8243735067834
 20
149.7419476325617
 30
0.0
 10
272.8243735067834
 20
149.1044974211185
 30
0.0
 10
272.8243735067834
 20
148.4703237666365
 30
0.0
 10
272.8243735067834
 20
147.8393651346435
 30
0.0
 10
272.8243735067834
 20
147.2116380660592
 30
0.0
 10
272.8243735067834
 20
146.5871383469853
 30
0.0
 10
272.8243735067834
 20
145.9658667414697
 30
0.0
 10
272.8243735067834
 20
145.3478248421793
 30
0.0
 10
272.8243735067834
 20
144.7330059300569
 30
0.0
 10
272.8243735067834
 20
143.1611482734134
 30
0.0
 10
272.8243735067834
 20
140.6814989793943
 30
0.0
 10
272.8243735067834
 20
137.3828259209158
 30
0.0
 10
272.8243735067834
 20
134.2294489957273
 30
0.0
 10
272.8243735067834
 20
131.2373762871626
 30
0.0
 10
272.8243735067834
 20
128.456630078553
 30
0.0
 10
272.8243735067834
 20
125.9133307714768
 30
0.0
 10
272.8243735067834
 20
123.6353192864154
 30
0.0
 10
272.8243735067834
 20
121.6508867906997
 30
0.0
 10
272.8243735067834
 20
119.9661335536209
 30
0.0
 10
272.8243735067834
 20
118.603273060072
 30
0.0
 10
272.8243735067834
 20
117.551094739412
 30
0.0
 10
272.8243735067834
 20
116.9775932873583
 30
0.0
 10
272.8243735067834
 20
116.6815658866744
 30
0.0
 10
272.8243735067834
 20
116.5395508012286
 30
0.0
 10
272.8243735067834
 20
116.4289486086668
 30
0.0
 10
272.8243735067834
 20
116.3505190794529
 30
0.0
 10
272.8243735067834
 20
116.3014029676481
 30
0.0
 10
272.8243735067834
 20
116.2953369674242
 30
0.0
 10
272.8243735067834
 20
116.2923018801259
 30
0.0
  0
SPLINE
  5
149
330
1F
100
AcDbEntity
  8
0
  6
Continuous
 62
     7
370
    15
100
AcDbSpline
210
0.0
220
0.0
230
1.0
 70
    24
 71
     3
 72
    23
 73
    19
 74
     0
 42
0.000000001
 43
0.00000001
 40
0.0
 40
0.0
 40
0.0
 40
0.0
 40
0.049344142439785
 40
0.1126391337887782
 40
0.1752432992499413
 40
0.2371050695636289
 40
0.2989591199343767
 40
0.3615634382303971
 40
0.4248659973704123
 40
0.4891594850324235
 40
0.5537405807095876
 40
0.6185525319731143
 40
0.6833570688697037
 40
0.7479382231567704
 40
0.812239066728002
 40
0.8755340580753496
 40
0.9381401318495213
 40
1.0
 40
1.0
 40
1.0
 40
1.0
 10
272.8243735067834
 20
211.4314429311435
 30
0.0
 10
272.8243735067834
 20
211.4244958499143
 30
0.0
 10
272.8243735067834
 20
211.4086375702213
 30
0.0
 10
272.8243735067834
 20
211.0018861573068
 30
0.0
 10
272.8243735067834
 20
210.2920709434136
 30
0.0
 10
272.8243735067834
 20
209.2756640179139
 30
0.0
 10
272.8243735067834
 20
207.9687945327937
 30
0.0
 10
272.8243735067834
 20
206.3620825238298
 30
0.0
 10
272.8243735067834
 20
204.4492373911206
 30
0.0
 10
272.8243735067834
 20
202.2376714794632
 30
0.0
 10
272.8243735067834
 20
199.7401652401829
 30
0.0
 10
272.8243735067834
 20
196.9832420883561
 30
0.0
 10
272.8243735067834
 20
193.9929248270159
 30
0.0
 10
272.8243735067834
 20
190.7986975246604
 30
0.0
 10
272.8243735067834
 20
187.4428178896969
 30
0.0
 10
272.8243735067834
 20
183.9597335314248
 30
0.0
 10
272.8243735067834
 20
180.3943230325567
 30
0.0
 10
272.8243735067834
 20
177.9442891179167
 30
0.0
 10
272.8243735067834
 20
176.7266164551766
 30
0.0
  0
SPLINE
  5
14A
330
1F
100
AcDbEntity
  8
0
  6
Continuous
 62
     7
370
    15
100
AcDbSpline
210
0.0
220
0.0
230
1.0
 70
    24
 71
     3
 72
    36
 73
    32
 74
     0
 42
0.000000001
 43
0.00000001
 40
0.0
 40
0.0
 40
0.0
 40
0.0
 40
0.0108663901693847
 40
0.0217235992690075
 40
0.0325737239461495
 40
0.0434188649568199
 40
0.0542611259538793
 40
0.0651026122666778
 40
0.0759454296758234
 40
0.0867916831866332
 40
0.0976434758048445
 40
0.1085029073181326
 40
0.119372073086955
 40
0.1813968254456262
 40
0.2434299782168939
 40
0.3071319268816227
 40
0.3708425031356559
 40
0.4354174425602448
 40
0.5000011278075948
 40
0.5645760673319853
 40
0.6291597526862239
 40
0.6928617016433232
 40
0.7565722781921707
 40
0.8185970309909163
 40
0.8806301842014286
 40
0.9005456124931797
 40
0.9204355775894112
 40
0.9403130284529503
 40
0.9601909385028828
 40
0.9800822802598314
 40
1.0
 40
1.0
 40
1.0
 40
1.0
 10
256.9243735067834
 20
116.2923018801259
 30
0.0
 10
256.9243735067834
 20
116.2931829270077
 30
0.0
 10
256.9243735067834
 20
116.2949442763704
 30
0.0
 10
256.9243735067834
 20
116.3092395232172
 30
0.0
 10
256.9243735067834
 20
116.3320684197425
 30
0.0
 10
256.9243735067834
 20
116.3642655386777
 30
0.0
 10
256.9243735067834
 20
116.405607454247
 30
0.0
 10
256.9243735067834
 20
116.4561540122127
 30
0.0
 10
256.9243735067834
 20
116.5158891156437
 30
0.0
 10
256.9243735067834
 20
116.5848172879162
 30
0.0
 10
256.9243735067834
 20
116.6629364697742
 30
0.0
 10
256.9243735067834
 20
116.7502502907667
 30
0.0
 10
256.9243735067834
 20
116.9980870051631
 30
0.0
 10
256.9243735067834
 20
117.5237348202197
 30
0.0
 10
256.9243735067834
 20
118.5521258266844
 30
0.0
 10
256.9243735067834
 20
119.8840756399648
 30
0.0
 10
256.9243735067834
 20
121.5300015547167
 30
0.0
 10
256.9243735067834
 20
123.4690226070234
 30
0.0
 10
256.9243735067834
 20
125.6949975894846
 30
0.0
 10
256.9243735067834
 20
128.1813528656507
 30
0.0
 10
256.9243735067834
 20
130.9011206595999
 30
0.0
 10
256.9243735067834
 20
133.8298289976134
 30
0.0
 10
256.9243735067834
 20
136.9191549968409
 30
0.0
 10
256.9243735067834
 20
140.1542560450529
 30
0.0
 10
256.9243735067834
 20
142.7518679147922
 30
0.0
 10
256.9243735067834
 20
144.6347553447717
 30
0.0
 10
256.9243735067834
 20
145.7508103191743
 30
0.0
 10
256.9243735067834
 20
146.8779044541818
 30
0.0
 10
256.9243735067834
 20
148.0162693778526
 30
0.0
 10
256.9243735067834
 20
149.1651008591685
 30
0.0
 10
256.9243735067834
 20
149.9392735976532
 30
0.0
 10
256.9243735067834
 20
150.3266164551766
 30
0.0
  0
SPLINE
  5
14B
330
1F
100
AcDbEntity
  8
0
  6
Continuous
 62
     7
370
    15
100
AcDbSpline
210
0.0
220
0.0
230
1.0
 70
    24
 71
     3
 72
    22
 73
    18
 74
     0
 42
0.000000001
 43
0.00000001
 40
0.0
 40
0.0
 40
0.0
 40
0.0
 40
0.0621428574948281
 40
0.1250239306537967
 40
0.1885975328697511
 40
0.2854115349927219
 40
0.3829824451451522
 40
0.4480401427505545
 40
0.5128772366453658
 40
0.5774374832968099
 40
0.6410034153550611
 40
0.7038862656640945
 40
0.7660350216177754
 40
0.8281759504646952
 40
0.8910589584076889
 40
0.9546325606266389
 40
1.0
 40
1.0
 40
1.0
 40
1.0
 10
256.9243735067834
 20
177.4266164551766
 30
0.0
 10
256.9243735067834
 20
178.6295657238186
 30
0.0
 10
256.9243735067834
 20
181.0497544953962
 30
0.0
 10
256.9243735067834
 20
184.5666889985231
 30
0.0
 10
256.9243735067834
 20
188.5771775356598
 30
0.0
 10
256.9243735067834
 20
192.9380066879539
 30
0.0
 10
256.9243735067834
 20
196.9233613636528
 30
0.0
 10
256.9243735067834
 20
200.0761074761667
 30
0.0
 10
256.9243735067834
 20
202.5213642908141
 30
0.0
 10
256.9243735067834
 20
204.6834735271815
 30
0.0
 10
256.9243735067834
 20
206.5503610886261
 30
0.0
 10
256.9243735067834
 20
208.1153771298607
 30
0.0
 10
256.9243735067834
 20
209.3834229734352
 30
0.0
 10
256.9243735067834
 20
210.3677588069181
 30
0.0
 10
256.9243735067834
 20
211.0372913494491
 30
0.0
 10
256.9243735067834
 20
211.4424801248059
 30
0.0
 10
256.9243735067834
 20
211.3910537500043
 30
0.0
 10
256.9243735067834
 20
211.3696377353702
 30
0.0
  0
LINE
  5
14C
330
1F
100
AcDbEntity
  8
0
  6
Continuous
 62
     7
370
    15
100
AcDbLine
 10
352.7243735068
 20
163.8766164552
 30
0.0
 11
352.7243735068
 21
207.8766164552
 31
0.0
  0
LINE
  5
14D
330
1F
100
AcDbEntity
  8
0
  6
Continuous
 62
     7
370
    15
100
AcDbLine
 10
352.7243735068
 20
119.8766164552
 30
0.0
 11
352.7243735068
 21
163.8766164552
 31
0.0
  0
LINE
  5
14E
330
1F
100
AcDbEntity
  8
0
  6
Continuous
 62
     7
370
    15
100
AcDbLine
 10
290.7243735068
 20
119.8766164552
 30
0.0
 11
290.7243735068
 21
207.8766164552
 31
0.0
  0
LINE
  5
14F
330
1F
100
AcDbEntity
  8
0
  6
Continuous
 62
     7
370
    15
100
AcDbLine
 10
353.7243735068
 20
163.8766164552
 30
0.0
 11
353.7243735068
 21
206.8766164552
 31
0.0
  0
LINE
  5
150
330
1F
100
AcDbEntity
  8
0
  6
Continuous
 62
     7
370
    15
100
AcDbLine
 10
353.7243735068
 20
120.8766164552
 30
0.0
 11
353.7243735068
 21
163.8766164552
 31
0.0
  0
LINE
  5
151
330
1F
100
AcDbEntity
  8
0
  6
Continuous
 62
     7
370
    15
100
AcDbLine
 10
289.7243735068
 20
120.8766164552
 30
0.0
 11
289.7243735068
 21
206.8766164552
 31
0.0
  0
SPLINE
  5
152
330
1F
100
AcDbEntity
  8
0
  6
Continuous
 62
     7
370
    15
100
AcDbSpline
210
0.0
220
0.0
230
1.0
 70
    24
 71
     3
 72
    14
 73
    10
 74
     0
 42
0.000000001
 43
0.00000001
 40
0.0
 40
0.0
 40
0.0
 40
0.0
 40
0.25
 40
0.25
 40
0.5
 40
0.5
 40
0.75
 40
0.75
 40
1.0
 40
1.0
 40
1.0
 40
1.0
 10
275.0743735067834
 20
176.7266164551766
 30
0.0
 10
274.7434524411904
 20
176.7266164551766
 30
0.0
 10
274.4377303795347
 20
176.7266164551766
 30
0.0
 10
273.8778068368442
 20
176.7266164551766
 30
0.0
 10
273.6374160627839
 20
176.7266164551766
 30
0.0
 10
273.2367317868334
 20
176.7266164551766
 30
0.0
 10
273.0848061795445
 20
176.7266164551766
 30
0.0
 10
272.8763577394588
 20
176.7266164551766
 30
0.0
 10
272.8243735067834
 20
176.7266164551766
 30
0.0
 10
272.8243735067834
 20
176.7266164551766
 30
0.0
  0
SPLINE
  5
153
330
1F
100
AcDbEntity
  8
0
  6
Continuous
 62
     7
370
    15
100
AcDbSpline
210
0.0
220
0.0
230
1.0
 70
     8
 71
     3
 72
     8
 73
     4
 74
     0
 42
0.000000001
 43
0.00000001
 40
0.0
 40
0.0
 40
0.0
 40
0.0
 40
1.0
 40
1.0
 40
1.0
 40
1.0
 10
275.8243735067834
 20
176.7047106238363
 30
0.0
 10
275.5701060305348
 20
176.7195764803446
 30
0.0
 10
275.3201175898898
 20
176.7266164551766
 30
0.0
 10
275.0743735067834
 20
176.7266164551766
 30
0.0
  0
LINE
  5
154
330
1F
100
AcDbEntity
  8
0
  6
Continuous
 62
     7
370
    15
100
AcDbLine
 10
275.8243735068
 20
151.0485222865
 30
0.0
 11
275.8243735068
 21
176.7047106238
 31
0.0
  0
SPLINE
  5
155
330
1F
100
AcDbEntity
  8
0
  6
Continuous
 62
     7
370
    15
100
AcDbSpline
210
0.0
220
0.0
230
1.0
 70
     8
 71
     3
 72
     8
 73
     4
 74
     0
 42
0.000000001
 43
0.00000001
 40
0.0
 40
0.0
 40
0.0
 40
0.0
 40
1.0
 40
1.0
 40
1.0
 40
1.0
 10
275.8243735067834
 20
151.048522286517
 30
0.0
 10
275.5701060305348
 20
151.0336564300087
 30
0.0
 10
275.3201175898898
 20
151.0266164551767
 30
0.0
 10
275.0743735067834
 20
151.0266164551767
 30
0.0
  0
SPLINE
  5
156
330
1F
100
AcDbEntity
  8
0
  6
Continuous
 62
     7
370
    15
100
AcDbSpline
210
0.0
220
0.0
230
1.0
 70
    24
 71
     3
 72
    20
 73
    16
 74
     0
 42
0.000000001
 43
0.00000001
 40
0.0
 40
0.0
 40
0.0
 40
0.0
 40
0.2500000000000042
 40
0.2500000000000042
 40
0.3750000000000034
 40
0.3750000000000034
 40
0.5000000000000028
 40
0.5000000000000028
 40
0.6250000000000021
 40
0.6250000000000021
 40
0.7500000000000013
 40
0.7500000000000013
 40
0.8750000000000007
 40
0.8750000000000007
 40
1.0
 40
1.0
 40
1.0
 40
1.0
 10
272.8243735067834
 20
151.0266164551767
 30
0.0
 10
272.8243735067834
 20
151.0266164551767
 30
0.0
 10
272.876390037918
 20
151.0266164551767
 30
0.0
 10
273.0320708590409
 20
151.0266164551767
 30
0.0
 10
273.0968012851107
 20
151.0266164551767
 30
0.0
 10
273.2486581234539
 20
151.0266164551767
 30
0.0
 10
273.3361235148766
 20
151.0266164551766
 30
0.0
 10
273.5350419124475
 20
151.0266164551766
 30
0.0
 10
273.6468692110795
 20
151.0266164551767
 30
0.0
 10
273.8868851672127
 20
151.0266164551767
 30
0.0
 10
274.0159677516518
 20
151.0266164551767
 30
0.0
 10
274.2929040466369
 20
151.0266164551767
 30
0.0
 10
274.4418492630587
 20
151.0266164551767
 30
0.0
 10
274.7493578011879
 20
151.0266164551767
 30
0.0
 10
274.9088621886148
 20
151.0266164551767
 30
0.0
 10
275.0743735067834
 20
151.0266164551767
 30
0.0
  0
LINE
  5
157
330
1F
100
AcDbEntity
  8
0
  6
Continuous
 62
     7
370
    15
100
AcDbLine
 10
254.635788948
 20
163.8766164552
 30
0.0
 11
254.635788948
 21
198.3766164552
 31
0.0
  0
LINE
  5
158
330
1F
100
AcDbEntity
  8
0
  6
Continuous
 62
     7
370
    15
100
AcDbLine
 10
254.635788948
 20
129.3766164552
 30
0.0
 11
254.635788948
 21
163.8766164552
 31
0.0
  0
LINE
  5
159
330
1F
100
AcDbEntity
  8
0
  6
Continuous
 62
     7
370
    15
100
AcDbLine
 10
253.7243735068
 20
128.9516164552
 30
0.0
 11
253.7243735068
 21
198.8016164552
 31
0.0
  0
LINE
  5
15A
330
1F
100
AcDbEntity
  8
0
  6
Continuous
 62
     7
370
    15
100
AcDbLine
 10
394.7243735068
 20
163.8766164552
 30
0.0
 11
394.7243735068
 21
188.8766164552
 31
0.0
  0
LINE
  5
15B
330
1F
100
AcDbEntity
  8
0
  6
Continuous
 62
     7
370
    15
100
AcDbLine
 10
394.7243735068
 20
138.8766164552
 30
0.0
 11
394.7243735068
 21
163.8766164552
 31
0.0
  0
LINE
  5
15C
330
1F
100
AcDbEntity
  8
0
  6
Continuous
 62
     7
370
    15
100
AcDbLine
 10
393.7243735068
 20
163.8766164552
 30
0.0
 11
393.7243735068
 21
189.8766164552
 31
0.0
  0
LINE
  5
15D
330
1F
100
AcDbEntity
  8
0
  6
Continuous
 62
     7
370
    15
100
AcDbLine
 10
393.7243735068
 20
137.8766164552
 30
0.0
 11
393.7243735068
 21
163.8766164552
 31
0.0
  0
LINE
  5
15E
330
1F
100
AcDbEntity
  8
0
  6
Continuous
 62
     7
370
    15
100
AcDbLine
 10
384.7243735068
 20
137.8766164552
 30
0.0
 11
384.7243735068
 21
189.8766164552
 31
0.0
  0
LINE
  5
15F
330
1F
100
AcDbEntity
  8
0
  6
Continuous
 62
     7
370
    15
100
AcDbLine
 10
383.7243735068
 20
138.8766164552
 30
0.0
 11
383.7243735068
 21
188.8766164552
 31
0.0
  0
SPLINE
  5
160
330
1F
100
AcDbEntity
  8
0
  6
Continuous
 62
     7
370
    15
100
AcDbSpline
210
0.0
220
0.0
230
1.0
 70
    24
 71
     3
 72
    10
 73
     6
 74
     0
 42
0.000000001
 43
0.00000001
 40
0.0
 40
0.0
 40
0.0
 40
0.0
 40
0.4999999999999997
 40
0.4999999999999997
 40
0.9999999999999999
 40
0.9999999999999999
 40
0.9999999999999999
 40
0.9999999999999999
 10
151.9743735067834
 20
183.098191455722
 30
0.0
 10
151.9743735067834
 20
183.0981914557219
 30
0.0
 10
151.9743735067834
 20
181.072965029653
 30
0.0
 10
151.9743735067834
 20
173.8636799366429
 30
0.0
 10
151.9743735067834
 20
168.9743508319511
 30
0.0
 10
151.9743735067834
 20
163.8766164551766
 30
0.0
  0
SPLINE
  5
161
330
1F
100
AcDbEntity
  8
0
  6
Continuous
 62
     7
370
    15
100
AcDbSpline
210
0.0
220
0.0
230
1.0
 70
    24
 71
     3
 72
    10
 73
     6
 74
     0
 42
0.000000001
 43
0.00000001
 40
0.0
 40
0.0
 40
0.0
 40
0.0
 40
0.4999999999999999
 40
0.4999999999999999
 40
0.9999999999999999
 40
0.9999999999999999
 40
0.9999999999999999
 40
0.9999999999999999
 10
151.9743735067834
 20
163.8766164551766
 30
0.0
 10
151.9743735067834
 20
158.7788820784022
 30
0.0
 10
151.9743735067834
 20
153.88955297371
 30
0.0
 10
151.9743735067834
 20
146.6802678807001
 30
0.0
 10
151.9743735067834
 20
144.6550414546311
 30
0.0
 10
151.9743735067834
 20
144.6550414546313
 30
0.0
  0
LINE
  5
162
330
1F
100
AcDbEntity
  8
0
  6
Continuous
 62
     7
370
    15
100
AcDbLine
 10
380.233625778
 20
163.8766164552
 30
0.0
 11
380.233625778
 21
183.8766164552
 31
0.0
  0
LINE
  5
163
330
1F
100
AcDbEntity
  8
0
  6
Continuous
 62
     7
370
    15
100
AcDbLine
 10
380.233625778
 20
143.8766164552
 30
0.0
 11
380.233625778
 21
163.8766164552
 31
0.0
  0
LINE
  5
164
330
1F
100
AcDbEntity
  8
0
  6
Continuous
 62
     7
370
    15
100
AcDbLine
 10
380.7243735068
 20
163.8766164552
 30
0.0
 11
380.7243735068
 21
183.0266164552
 31
0.0
  0
LINE
  5
165
330
1F
100
AcDbEntity
  8
0
  6
Continuous
 62
     7
370
    15
100
AcDbLine
 10
380.7243735068
 20
144.7266164552
 30
0.0
 11
380.7243735068
 21
163.8766164552
 31
0.0
  0
LINE
  5
166
330
1F
100
AcDbEntity
  8
0
  6
Continuous
 62
     7
370
    15
100
AcDbLine
 10
361.5243735068
 20
124.3766164552
 30
0.0
 11
361.5243735068
 21
123.8766164552
 31
0.0
  0
LINE
  5
167
330
1F
100
AcDbEntity
  8
0
  6
Continuous
 62
     7
370
    15
100
AcDbLine
 10
353.7243735068
 20
123.8766164552
 30
0.0
 11
361.5243735068
 21
123.8766164552
 31
0.0
  0
LINE
  5
168
330
1F
100
AcDbEntity
  8
0
  6
Continuous
 62
     7
370
    15
100
AcDbLine
 10
361.5243735068
 20
124.3766164552
 30
0.0
 11
353.7243735068
 21
124.3766164552
 31
0.0
  0
LINE
  5
169
330
1F
100
AcDbEntity
  8
0
  6
Continuous
 62
     7
370
    15
100
AcDbLine
 10
361.5243735068
 20
139.8766164552
 30
0.0
 11
361.5243735068
 21
139.3766164552
 31
0.0
  0
LINE
  5
16A
330
1F
100
AcDbEntity
  8
0
  6
Continuous
 62
     7
370
    15
100
AcDbLine
 10
353.7243735068
 20
139.3766164552
 30
0.0
 11
361.5243735068
 21
139.3766164552
 31
0.0
  0
LINE
  5
16B
330
1F
100
AcDbEntity
  8
0
  6
Continuous
 62
     7
370
    15
100
AcDbLine
 10
361.5243735068
 20
139.8766164552
 30
0.0
 11
353.7243735068
 21
139.8766164552
 31
0.0
  0
LINE
  5
16C
330
1F
100
AcDbEntity
  8
0
  6
Continuous
 62
     7
370
    15
100
AcDbLine
 10
361.5243735068
 20
139.3766164552
 30
0.0
 11
361.5243735068
 21
124.3766164552
 31
0.0
  0
LINE
  5
16D
330
1F
100
AcDbEntity
  8
0
  6
Continuous
 62
     7
370
    15
100
AcDbLine
 10
361.5243735068
 20
203.8766164552
 30
0.0
 11
361.5243735068
 21
203.3766164552
 31
0.0
  0
LINE
  5
16E
330
1F
100
AcDbEntity
  8
0
  6
Continuous
 62
     7
370
    15
100
AcDbLine
 10
353.7243735068
 20
203.3766164552
 30
0.0
 11
361.5243735068
 21
203.3766164552
 31
0.0
  0
LINE
  5
16F
330
1F
100
AcDbEntity
  8
0
  6
Continuous
 62
     7
370
    15
100
AcDbLine
 10
361.5243735068
 20
203.8766164552
 30
0.0
 11
353.7243735068
 21
203.8766164552
 31
0.0
  0
LINE
  5
170
330
1F
100
AcDbEntity
  8
0
  6
Continuous
 62
     7
370
    15
100
AcDbLine
 10
361.5243735068
 20
203.3766164552
 30
0.0
 11
361.5243735068
 21
188.3766164552
 31
0.0
  0
LINE
  5
171
330
1F
100
AcDbEntity
  8
0
  6
Continuous
 62
     7
370
    15
100
AcDbLine
 10
361.5243735068
 20
188.3766164552
 30
0.0
 11
353.7243735068
 21
188.3766164552
 31
0.0
  0
LINE
  5
172
330
1F
100
AcDbEntity
  8
0
  6
Continuous
 62
     7
370
    15
100
AcDbLine
 10
353.7243735068
 20
187.8766164552
 30
0.0
 11
361.5243735068
 21
187.8766164552
 31
0.0
  0
LINE
  5
173
330
1F
100
AcDbEntity
  8
0
  6
Continuous
 62
     7
370
    15
100
AcDbLine
 10
361.5243735068
 20
188.3766164552
 30
0.0
 11
361.5243735068
 21
187.8766164552
 31
0.0
  0
LINE
  5
174
330
1F
100
AcDbEntity
  8
0
  6
Continuous
 62
     8
370
    15
100
AcDbLine
 10
271.6586880818
 20
177.2736946266
 30
0.0
 11
271.6586880818
 21
212.6266164552
 31
0.0
  0
LINE
  5
175
330
1F
100
AcDbEntity
  8
0
  6
Continuous
 62
     8
370
    15
100
AcDbLine
 10
271.6586880818
 20
115.1266164552
 30
0.0
 11
271.6586880818
 21
150.4795382838
 31
0.0
  0
LINE
  5
176
330
1F
100
AcDbEntity
  8
0
  6
Continuous
 62
     8
370
    15
100
AcDbLine
 10
258.0900589317
 20
115.1266164552
 30
0.0
 11
258.0900589317
 21
150.4795382838
 31
0.0
  0
LINE
  5
177
330
1F
100
AcDbEntity
  8
0
  6
Continuous
 62
     8
370
    15
100
AcDbLine
 10
258.0900589317
 20
212.6266164552
 30
0.0
 11
258.0900589317
 21
177.2736946266
 31
0.0
  0
LINE
  5
178
330
1F
100
AcDbEntity
  8
0
  6
Continuous
 62
     8
370
    15
100
AcDbLine
 10
257.0415307943
 20
116.0094591677
 30
0.0
 11
257.0415307943
 21
150.4437737427
 31
0.0
  0
LINE
  5
179
330
1F
100
AcDbEntity
  8
0
  6
Continuous
 62
     8
370
    15
100
AcDbLine
 10
257.0415307943
 20
177.3094591677
 30
0.0
 11
257.0415307943
 21
211.7437737427
 31
0.0
  0
LINE
  5
17A
330
1F
100
AcDbEntity
  8
0
  6
Continuous
 62
     8
370
    15
100
AcDbLine
 10
257.8072162193
 20
177.1788956954
 30
0.0
 11
257.8072162193
 21
212.5094591677
 31
0.0
  0
LINE
  5
17B
330
1F
100
AcDbEntity
  8
0
  6
Continuous
 62
     8
370
    15
100
AcDbLine
 10
257.8072162193
 20
115.2437737427
 30
0.0
 11
257.8072162193
 21
150.5743372149
 31
0.0
  0
LINE
  5
17C
330
1F
100
AcDbEntity
  8
0
  6
Continuous
 62
     8
370
    15
100
AcDbLine
 10
271.9415307943
 20
150.5743372149
 30
0.0
 11
271.9415307943
 21
115.2437737427
 31
0.0
  0
LINE
  5
17D
330
1F
100
AcDbEntity
  8
0
  6
Continuous
 62
     8
370
    15
100
AcDbLine
 10
271.9415307943
 20
177.1788956954
 30
0.0
 11
271.9415307943
 21
212.5094591677
 31
0.0
  0
LINE
  5
17E
330
1F
100
AcDbEntity
  8
0
  6
Continuous
 62
     8
370
    15
100
AcDbLine
 10
272.7072162193
 20
151.0266164562
 30
0.0
 11
272.7072162193
 21
116.0094591677
 31
0.0
  0
LINE
  5
17F
330
1F
100
AcDbEntity
  8
0
  6
Continuous
 62
     8
370
    15
100
AcDbLine
 10
272.7072162193
 20
211.7437737427
 30
0.0
 11
272.7072162193
 21
176.7266164552
 31
0.0
  0
LINE
  5
180
330
1F
100
AcDbEntity
  8
0
  6
Continuous
 62
     8
370
    15
100
AcDbLine
 10
275.8243735068
 20
203.6266164552
 30
0.0
 11
275.8243735068
 21
176.7047106238
 31
0.0
  0
LINE
  5
181
330
1F
100
AcDbEntity
  8
0
  6
Continuous
 62
     8
370
    15
100
AcDbLine
 10
275.8243735068
 20
151.0485222865
 30
0.0
 11
275.8243735068
 21
124.1266164552
 31
0.0
  0
LINE
  5
182
330
1F
100
AcDbEntity
  8
0
  6
Continuous
 62
     8
370
    15
100
AcDbLine
 10
289.2243735068
 20
163.8766164552
 30
0.0
 11
289.2243735068
 21
203.6266164552
 31
0.0
  0
LINE
  5
183
330
1F
100
AcDbEntity
  8
0
  6
Continuous
 62
     8
370
    15
100
AcDbLine
 10
289.2243735068
 20
124.1266164552
 30
0.0
 11
289.2243735068
 21
163.8766164552
 31
0.0
  0
LINE
  5
184
330
1F
100
AcDbEntity
  8
0
  6
Continuous
 62
     8
370
    15
100
AcDbLine
 10
256.4243735068
 20
163.8766164552
 30
0.0
 11
256.4243735068
 21
198.3766164552
 31
0.0
  0
LINE
  5
185
330
1F
100
AcDbEntity
  8
0
  6
Continuous
 62
     8
370
    15
100
AcDbLine
 10
256.4243735068
 20
129.3766164552
 30
0.0
 11
256.4243735068
 21
163.8766164552
 31
0.0
  0
LINE
  5
186
330
1F
100
AcDbEntity
  8
0
  6
Continuous
 62
     8
370
    15
100
AcDbLine
 10
152.8300652795
 20
184.0877242422
 30
0.0
 11
152.8300652795
 21
143.6655086681
 31
0.0
  0
LINE
  5
187
330
1F
100
AcDbEntity
  8
0
  6
Continuous
 62
     8
370
    15
100
AcDbLine
 10
383.2243735068
 20
163.8766164552
 30
0.0
 11
383.2243735068
 21
173.8766164552
 31
0.0
  0
LINE
  5
188
330
1F
100
AcDbEntity
  8
0
  6
Continuous
 62
     8
370
    15
100
AcDbLine
 10
383.2243735068
 20
153.8766164552
 30
0.0
 11
383.2243735068
 21
163.8766164552
 31
0.0
  0
DIMENSION
  5
189
330
1F
100
AcDbEntity
  8
DIM
100
AcDbDimension
  2
_D
 10
412.5869761347
 20
119.8766164552
 30
0.0
 11
412.5869761347
 21
163.8766164552
 31
0.0
 70
   160
  1
%%c<>
 71
     2
 42
-1.0
  3
SLDDIMSTYLE0
100
AcDbAlignedDimension
 13
352.7243735068
 23
207.8766164552
 33
0.0
 14
352.7243735068
 24
119.8766164552
 34
0.0
 50
90.0
100
AcDbRotatedDimension
  0
DIMENSION
  5
195
330
1F
100
AcDbEntity
  8
DIM
100
AcDbDimension
  2
_D_1
 10
403.4228948991
 20
143.8766164552
 30
0.0
 11
403.4228948991
 21
163.8766164552
 31
0.0
 70
   160
  1
%%c<>
 71
     2
 42
-1.0
  3
SLDDIMSTYLE0
100
AcDbAlignedDimension
 13
380.233625778
 23
183.8766164552
 33
0.0
 14
380.233625778
 24
143.8766164552
 34
0.0
 50
90.0
100
AcDbRotatedDimension
  0
DIMENSION
  5
1A0
330
1F
100
AcDbEntity
  8
DIM
100
AcDbDimension
  2
_D_2
 10
353.7243735068
 20
98.9579787718
 30
0.0
 11
367.2243735068
 21
98.9579787718
 31
0.0
 70
   160
  1
<>
 71
     2
 42
-1.0
  3
SLDDIMSTYLE1
100
AcDbAlignedDimension
 13
380.7243735068
 23
144.7266164552
 33
0.0
 14
353.7243735068
 24
120.8766164552
 34
0.0
100
AcDbRotatedDimension
  0
DIMENSION
  5
1AB
330
1F
100
AcDbEntity
  8
DIM
100
AcDbDimension
  2
_D_3
 10
253.7243735068
 20
98.9579787718
 30
0.0
 11
303.7243735068
 21
98.9579787718
 31
0.0
 70
   160
  1
<>
 71
     2
 42
-1.0
  3
SLDDIMSTYLE0
100
AcDbAlignedDimension
 13
353.7243735068
 23
123.8766164552
 33
0.0
 14
253.7243735068
 24
128.9516164552
 34
0.0
100
AcDbRotatedDimension
  0
DIMENSION
  5
1B5
330
1F
100
AcDbEntity
  8
DIM
100
AcDbDimension
  2
_D_4
 10
143.361544411
 20
115.1266164552
 30
0.0
 11
143.361544411
 21
163.8766164552
 31
0.0
 70
   160
  1
%%c<>
 71
     2
 42
-1.0
  3
SLDDIMSTYLE2
100
AcDbAlignedDimension
 13
258.0900589317
 23
212.6266164552
 33
0.0
 14
258.0900589317
 24
115.1266164552
 34
0.0
 50
90.0
100
AcDbRotatedDimension
  0
DIMENSION
  5
1C1
330
1F
100
AcDbEntity
  8
DIM
100
AcDbDimension
  2
_D_5
 10
394.7243735068
 20
91.1265164552
 30
0.0
 11
273.3493735068
 21
91.1265164552
 31
0.0
 70
   160
  1
<>
 71
     2
 42
-1.0
  3
SLDDIMSTYLE0
100
AcDbAlignedDimension
 13
151.9743735068
 23
163.8766164552
 33
0.0
 14
394.7243735068
 24
138.8766164552
 34
0.0
 50
0.0
100
AcDbRotatedDimension
  0
LINE
  5
1CB
330
1F
100
AcDbEntity
  8
DIM
  6
CENTERX2
 48
1.3333333333
370
     0
100
AcDbLine
 10
152.4154988882
 20
163.8766164552
 30
0.0
 11
394.0767604737
 21
163.8766164552
 31
0.0
  0
ENDSEC
  0
SECTION
  2
OBJECTS
  0
DICTIONARY
  5
C
330
0
100
AcDbDictionary
281
     1
  3
ACAD_GROUP
350
D
  3
ACAD_LAYOUT
350
1A
  3
ACAD_MLINESTYLE
350
17
  3
ACAD_PLOTSETTINGS
350
19
  3
ACAD_PLOTSTYLENAME
350
E
  3
ACAD_SCALELIST
350
47
  0
DICTIONARY
  5
D
102
{ACAD_REACTORS
330
C
102
}
330
C
100
AcDbDictionary
281
     1
  0
DICTIONARY
  5
1A
102
{ACAD_REACTORS
330
C
102
}
330
C
100
AcDbDictionary
281
     1
  3
Layout1
350
1E
  3
Layout2
350
26
  3
Model
350
22
  0
DICTIONARY
  5
17
102
{ACAD_REACTORS
330
C
102
}
330
C
100
AcDbDictionary
281
     1
  3
Standard
350
18
  0
DICTIONARY
  5
19
102
{ACAD_REACTORS
330
C
102
}
330
C
100
AcDbDictionary
281
     1
  0
ACDBDICTIONARYWDFLT
  5
E
102
{ACAD_REACTORS
330
C
102
}
330
C
100
AcDbDictionary
281
     1
  3
Normal
350
F
100
AcDbDictionaryWithDefault
340
F
  0
DICTIONARY
  5
47
102
{ACAD_REACTORS
330
C
102
}
330
C
100
AcDbDictionary
281
     1
  3
A0
350
48
  3
A1
350
49
  3
A2
350
4A
  3
A3
350
4B
  3
A4
350
4C
  3
A5
350
4D
  3
A6
350
4E
  3
A7
350
4F
  3
A8
350
50
  3
A9
350
51
  3
B0
350
52
  3
B1
350
53
  3
B2
350
54
  3
B3
350
55
  3
B4
350
56
  3
B5
350
57
  3
B6
350
58
  3
B7
350
59
  3
B8
350
5A
  3
B9
350
5B
  3
C0
350
5C
  3
C1
350
5D
  3
C2
350
5E
  3
C3
350
5F
  3
C4
350
60
  3
C5
350
61
  3
C6
350
62
  3
C7
350
63
  3
C8
350
64
  3
C9
350
65
  3
D0
350
66
  3
D1
350
67
  3
D2
350
68
  0
LAYOUT
  5
1E
102
{ACAD_REACTORS
330
1A
102
}
330
1A
100
AcDbPlotSettings
  1

  2
none_device
  4

  6

 40
0.0
 41
0.0
 42
0.0
 43
0.0
 44
0.0
 45
0.0
 46
0.0
 47
0.0
 48
0.0
 49
0.0
140
0.0
141
0.0
142
1.0
143
1.0
 70
   688
 72
     1
 73
     0
 74
     5
  7

 75
    16
147
1.0
148
0.0
149
0.0
100
AcDbLayout
  1
Layout1
 70
     1
 71
     1
 10
0.0
 20
0.0
 11
420.0
 21
297.0
 12
0.0
 22
0.0
 32
0.0
 14
1.0000000000E+20
 24
1.0000000000E+20
 34
1.0000000000E+20
 15
-1.0000000000E+20
 25
-1.0000000000E+20
 35
-1.0000000000E+20
146
0.0
 13
0.0
 23
0.0
 33
0.0
 16
1.0
 26
0.0
 36
0.0
 17
0.0
 27
1.0
 37
0.0
 76
     0
330
1B
  0
LAYOUT
  5
26
102
{ACAD_REACTORS
330
1A
102
}
330
1A
100
AcDbPlotSettings
  1

  2
none_device
  4

  6

 40
0.0
 41
0.0
 42
0.0
 43
0.0
 44
0.0
 45
0.0
 46
0.0
 47
0.0
 48
0.0
 49
0.0
140
0.0
141
0.0
142
1.0
143
1.0
 70
   688
 72
     1
 73
     0
 74
     5
  7

 75
    16
147
1.0
148
0.0
149
0.0
100
AcDbLayout
  1
Layout2
 70
     1
 71
     2
 10
0.0
 20
0.0
 11
0.0
 21
0.0
 12
0.0
 22
0.0
 32
0.0
 14
0.0
 24
0.0
 34
0.0
 15
0.0
 25
0.0
 35
0.0
146
0.0
 13
0.0
 23
0.0
 33
0.0
 16
1.0
 26
0.0
 36
0.0
 17
0.0
 27
1.0
 37
0.0
 76
     0
330
23
  0
LAYOUT
  5
22
102
{ACAD_REACTORS
330
1A
102
}
330
1A
100
AcDbPlotSettings
  1

  2
none_device
  4
Letter_(8.50_x_11.00_Inches)
  6

 40
6.35
 41
6.35
 42
6.35000508
 43
6.35000508
 44
215.9
 45
279.4
 46
0.0
 47
0.0
 48
0.0
 49
0.0
140
0.0
141
0.0
142
1.0
143
1.0
 70
  1712
 72
     1
 73
     0
 74
     0
  7

 75
     0
147
1.0
148
0.0
149
0.0
100
AcDbLayout
  1
Model
 70
     1
 71
     0
 10
0.0
 20
0.0
 11
445.5
 21
315.0
 12
0.0
 22
0.0
 32
0.0
 14
0.0
 24
0.0
 34
0.0
 15
445.5
 25
315.0
 35
0.0
146
0.0
 13
0.0
 23
0.0
 33
0.0
 16
1.0
 26
0.0
 36
0.0
 17
0.0
 27
1.0
 37
0.0
 76
     0
330
1F
331
29
  0
MLINESTYLE
  5
18
102
{ACAD_REACTORS
330
17
102
}
330
17
100
AcDbMlineStyle
  2
Standard
 70
     0
  3

 62
   256
 51
90.0
 52
90.0
 71
     2
 49
0.5
 62
   256
  6
BYLAYER
 49
-0.5
 62
   256
  6
BYLAYER
  0
ACDBPLACEHOLDER
  5
F
102
{ACAD_REACTORS
330
E
102
}
330
E
  0
SCALE
  5
48
102
{ACAD_REACTORS
330
47
102
}
330
47
100
AcDbScale
 70
     0
300
1:1
140
1.0
141
1.0
290
     1
  0
SCALE
  5
49
102
{ACAD_REACTORS
330
47
102
}
330
47
100
AcDbScale
 70
     0
300
1:2
140
1.0
141
2.0
290
     0
  0
SCALE
  5
4A
102
{ACAD_REACTORS
330
47
102
}
330
47
100
AcDbScale
 70
     0
300
1:4
140
1.0
141
4.0
290
     0
  0
SCALE
  5
4B
102
{ACAD_REACTORS
330
47
102
}
330
47
100
AcDbScale
 70
     0
300
1:5
140
1.0
141
5.0
290
     0
  0
SCALE
  5
4C
102
{ACAD_REACTORS
330
47
102
}
330
47
100
AcDbScale
 70
     0
300
1:8
140
1.0
141
8.0
290
     0
  0
SCALE
  5
4D
102
{ACAD_REACTORS
330
47
102
}
330
47
100
AcDbScale
 70
     0
300
1:10
140
1.0
141
10.0
290
     0
  0
SCALE
  5
4E
102
{ACAD_REACTORS
330
47
102
}
330
47
100
AcDbScale
 70
     0
300
1:16
140
1.0
141
16.0
290
     0
  0
SCALE
  5
4F
102
{ACAD_REACTORS
330
47
102
}
330
47
100
AcDbScale
 70
     0
300
1:20
140
1.0
141
20.0
290
     0
  0
SCALE
  5
50
102
{ACAD_REACTORS
330
47
102
}
330
47
100
AcDbScale
 70
     0
300
1:30
140
1.0
141
30.0
290
     0
  0
SCALE
  5
51
102
{ACAD_REACTORS
330
47
102
}
330
47
100
AcDbScale
 70
     0
300
1:40
140
1.0
141
40.0
290
     0
  0
SCALE
  5
52
102
{ACAD_REACTORS
330
47
102
}
330
47
100
AcDbScale
 70
     0
300
1:50
140
1.0
141
50.0
290
     0
  0
SCALE
  5
53
102
{ACAD_REACTORS
330
47
102
}
330
47
100
AcDbScale
 70
     0
300
1:100
140
1.0
141
100.0
290
     0
  0
SCALE
  5
54
102
{ACAD_REACTORS
330
47
102
}
330
47
100
AcDbScale
 70
     0
300
2:1
140
2.0
141
1.0
290
     0
  0
SCALE
  5
55
102
{ACAD_REACTORS
330
47
102
}
330
47
100
AcDbScale
 70
     0
300
4:1
140
4.0
141
1.0
290
     0
  0
SCALE
  5
56
102
{ACAD_REACTORS
330
47
102
}
330
47
100
AcDbScale
 70
     0
300
8:1
140
8.0
141
1.0
290
     0
  0
SCALE
  5
57
102
{ACAD_REACTORS
330
47
102
}
330
47
100
AcDbScale
 70
     0
300
10:1
140
10.0
141
1.0
290
     0
  0
SCALE
  5
58
102
{ACAD_REACTORS
330
47
102
}
330
47
100
AcDbScale
 70
     0
300
100:1
140
100.0
141
1.0
290
     0
  0
SCALE
  5
59
102
{ACAD_REACTORS
330
47
102
}
330
47
100
AcDbScale
 70
     0
300
1/128" = 1'-0"
140
0.0078125
141
12.0
290
     0
  0
SCALE
  5
5A
102
{ACAD_REACTORS
330
47
102
}
330
47
100
AcDbScale
 70
     0
300
1/64" = 1'-0"
140
0.015625
141
12.0
290
     0
  0
SCALE
  5
5B
102
{ACAD_REACTORS
330
47
102
}
330
47
100
AcDbScale
 70
     0
300
1/32" = 1'-0"
140
0.03125
141
12.0
290
     0
  0
SCALE
  5
5C
102
{ACAD_REACTORS
330
47
102
}
330
47
100
AcDbScale
 70
     0
300
1/16" = 1'-0"
140
0.0625
141
12.0
290
     0
  0
SCALE
  5
5D
102
{ACAD_REACTORS
330
47
102
}
330
47
100
AcDbScale
 70
     0
300
3/32" = 1'-0"
140
0.09375
141
12.0
290
     0
  0
SCALE
  5
5E
102
{ACAD_REACTORS
330
47
102
}
330
47
100
AcDbScale
 70
     0
300
1/8" = 1'-0"
140
0.125
141
12.0
290
     0
  0
SCALE
  5
5F
102
{ACAD_REACTORS
330
47
102
}
330
47
100
AcDbScale
 70
     0
300
3/16" = 1'-0"
140
0.1875
141
12.0
290
     0
  0
SCALE
  5
60
102
{ACAD_REACTORS
330
47
102
}
330
47
100
AcDbScale
 70
     0
300
1/4" = 1'-0"
140
0.25
141
12.0
290
     0
  0
SCALE
  5
61
102
{ACAD_REACTORS
330
47
102
}
330
47
100
AcDbScale
 70
     0
300
3/8" = 1'-0"
140
0.375
141
12.0
290
     0
  0
SCALE
  5
62
102
{ACAD_REACTORS
330
47
102
}
330
47
100
AcDbScale
 70
     0
300
1/2" = 1'-0"
140
0.5
141
12.0
290
     0
  0
SCALE
  5
63
102
{ACAD_REACTORS
330
47
102
}
330
47
100
AcDbScale
 70
     0
300
3/4" = 1'-0"
140
0.75
141
12.0
290
     0
  0
SCALE
  5
64
102
{ACAD_REACTORS
330
47
102
}
330
47
100
AcDbScale
 70
     0
300
1" = 1'-0"
140
1.0
141
12.0
290
     0
  0
SCALE
  5
65
102
{ACAD_REACTORS
330
47
102
}
330
47
100
AcDbScale
 70
     0
300
1-1/2" = 1'-0"
140
1.5
141
12.0
290
     0
  0
SCALE
  5
66
102
{ACAD_REACTORS
330
47
102
}
330
47
100
AcDbScale
 70
     0
300
3" = 1'-0"
140
3.0
141
12.0
290
     0
  0
SCALE
  5
67
102
{ACAD_REACTORS
330
47
102
}
330
47
100
AcDbScale
 70
     0
300
6" = 1'-0"
140
6.0
141
12.0
290
     0
  0
SCALE
  5
68
102
{ACAD_REACTORS
330
47
102
}
330
47
100
AcDbScale
 70
     0
300
1'-0" = 1'-0"
140
12.0
141
12.0
290
     0
  0
ENDSEC
  0
EOF
