  0
SECTION
  2
HEADER
  9
$ACADVER
  1
AC1015
  9
$ACADMAINTVER
 70
     6
  9
$DWGCODEPAGE
  3
ANSI_1252
  9
$INSBASE
 10
0.0
 20
0.0
 30
0.0
  9
$EXTMIN
 10
0.0
 20
0.0
 30
0.0
  9
$EXTMAX
 10
504.9
 20
357.0
 30
0.0
  9
$LIMMIN
 10
0.0
 20
0.0
  9
$LIMMAX
 10
504.9
 20
357.0
  9
$ORTHOMODE
 70
     0
  9
$REGENMODE
 70
     1
  9
$FILLMODE
 70
     1
  9
$QTEXTMODE
 70
     0
  9
$MIRRTEXT
 70
     1
  9
$LTSCALE
 40
1.7
  9
$ATTMODE
 70
     1
  9
$TEXTSIZE
 40
6.5969444444
  9
$TRACEWID
 40
1.0
  9
$TEXTSTYLE
  7
Standard
  9
$CLAYER
  8
0
  9
$CELTYPE
  6
ByLayer
  9
$CECOLOR
 62
   256
  9
$CELTSCALE
 40
1.0
  9
$DISPSILH
 70
     0
  9
$DIMSCALE
 40
1.0
  9
$DIMASZ
 40
5.6134
  9
$DIMEXO
 40
1.7
  9
$DIMDLI
 40
3.75
  9
$DIMRND
 40
0.0
  9
$DIMDLE
 40
0.0
  9
$DIMEXE
 40
1.7
  9
$DIMTP
 40
0.0
  9
$DIMTM
 40
0.0
  9
$DIMTXT
 40
6.5969444444
  9
$DIMCEN
 40
2.5
  9
$DIMTSZ
 40
0.0
  9
$DIMTOL
 70
     0
  9
$DIMLIM
 70
     0
  9
$DIMTIH
 70
     1
  9
$DIMTOH
 70
     1
  9
$DIMSE1
 70
     0
  9
$DIMSE2
 70
     0
  9
$DIMTAD
 70
     1
  9
$DIMZIN
 70
     0
  9
$DIMBLK
  1

  9
$DIMASO
 70
     1
  9
$DIMSHO
 70
     1
  9
$DIMPOST
  1

  9
$DIMAPOST
  1

  9
$DIMALT
 70
     0
  9
$DIMALTD
 70
     3
  9
$DIMALTF
 40
0.0393700787
  9
$DIMLFAC
 40
1.0
  9
$DIMTOFL
 70
     1
  9
$DIMTVP
 40
0.0
  9
$DIMTIX
 70
     0
  9
$DIMSOXD
 70
     0
  9
$DIMSAH
 70
     0
  9
$DIMBLK1
  1

  9
$DIMBLK2
  1

  9
$DIMSTYLE
  2
ISO-25
  9
$DIMCLRD
 70
     0
  9
$DIMCLRE
 70
     0
  9
$DIMCLRT
 70
     0
  9
$DIMTFAC
 40
1.0
  9
$DIMGAP
 40
2.5908
  9
$DIMJUST
 70
     0
  9
$DIMSD1
 70
     0
  9
$DIMSD2
 70
     0
  9
$DIMTOLJ
 70
     0
  9
$DIMTZIN
 70
     0
  9
$DIMALTZ
 70
     0
  9
$DIMALTTZ
 70
     0
  9
$DIMUPT
 70
     0
  9
$DIMDEC
 70
     2
  9
$DIMTDEC
 70
     2
  9
$DIMALTU
 70
     2
  9
$DIMALTTD
 70
     3
  9
$DIMTXSTY
  7
Standard
  9
$DIMAUNIT
 70
     0
  9
$DIMADEC
 70
     2
  9
$DIMALTRND
 40
0.0
  9
$DIMAZIN
 70
     0
  9
$DIMDSEP
 70
    44
  9
$DIMATFIT
 70
     3
  9
$DIMFRAC
 70
     0
  9
$DIMLDRBLK
  1

  9
$DIMLUNIT
 70
     2
  9
$DIMLWD
 70
    -2
  9
$DIMLWE
 70
    -2
  9
$DIMTMOVE
 70
     0
  9
$LUNITS
 70
     2
  9
$LUPREC
 70
     2
  9
$SKETCHINC
 40
1.0
  9
$FILLETRAD
 40
10.0
  9
$AUNITS
 70
     1
  9
$AUPREC
 70
     2
  9
$MENU
  1
.
  9
$ELEVATION
 40
0.0
  9
$PELEVATION
 40
0.0
  9
$THICKNESS
 40
0.0
  9
$LIMCHECK
 70
     0
  9
$CHAMFERA
 40
0.0
  9
$CHAMFERB
 40
0.0
  9
$CHAMFERC
 40
0.0
  9
$CHAMFERD
 40
0.0
  9
$SKPOLY
 70
     0
  9
$TDCREATE
 40
2458606.659974803
  9
$TDUCREATE
 40
2458606.430808137
  9
$TDUPDATE
 40
2458606.659975961
  9
$TDUUPDATE
 40
2458606.430809294
  9
$TDINDWG
 40
0.0000000116
  9
$TDUSRTIMER
 40
0.0000000116
  9
$USRTIMER
 70
     1
  9
$ANGBASE
 50
0.0
  9
$ANGDIR
 70
     0
  9
$PDMODE
 70
     0
  9
$PDSIZE
 40
-1.0
  9
$PLINEWID
 40
0.0
  9
$SPLFRAME
 70
     0
  9
$SPLINETYPE
 70
     6
  9
$SPLINESEGS
 70
     8
  9
$HANDSEED
  5
1CC
  9
$SURFTAB1
 70
     6
  9
$SURFTAB2
 70
     6
  9
$SURFTYPE
 70
     6
  9
$SURFU
 70
     6
  9
$SURFV
 70
     6
  9
$UCSBASE
  2

  9
$UCSNAME
  2

  9
$UCSORG
 10
0.0
 20
0.0
 30
0.0
  9
$UCSXDIR
 10
1.0
 20
0.0
 30
0.0
  9
$UCSYDIR
 10
0.0
 20
1.0
 30
0.0
  9
$UCSORTHOREF
  2

  9
$UCSORTHOVIEW
 70
     0
  9
$UCSORGTOP
 10
0.0
 20
0.0
 30
0.0
  9
$UCSORGBOTTOM
 10
0.0
 20
0.0
 30
0.0
  9
$UCSORGLEFT
 10
0.0
 20
0.0
 30
0.0
  9
$UCSORGRIGHT
 10
0.0
 20
0.0
 30
0.0
  9
$UCSORGFRONT
 10
0.0
 20
0.0
 30
0.0
  9
$UCSORGBACK
 10
0.0
 20
0.0
 30
0.0
  9
$PUCSBASE
  2

  9
$PUCSNAME
  2

  9
$PUCSORG
 10
0.0
 20
0.0
 30
0.0
  9
$PUCSXDIR
 10
1.0
 20
0.0
 30
0.0
  9
$PUCSYDIR
 10
0.0
 20
1.0
 30
0.0
  9
$PUCSORTHOREF
  2

  9
$PUCSORTHOVIEW
 70
     0
  9
$PUCSORGTOP
 10
0.0
 20
0.0
 30
0.0
  9
$PUCSORGBOTTOM
 10
0.0
 20
0.0
 30
0.0
  9
$PUCSORGLEFT
 10
0.0
 20
0.0
 30
0.0
  9
$PUCSORGRIGHT
 10
0.0
 20
0.0
 30
0.0
  9
$PUCSORGFRONT
 10
0.0
 20
0.0
 30
0.0
  9
$PUCSORGBACK
 10
0.0
 20
0.0
 30
0.0
  9
$USERI1
 70
     0
  9
$USERI2
 70
     0
  9
$USERI3
 70
     0
  9
$USERI4
 70
     0
  9
$USERI5
 70
     0
  9
$USERR1
 40
0.0
  9
$USERR2
 40
0.0
  9
$USERR3
 40
0.0
  9
$USERR4
 40
0.0
  9
$USERR5
 40
0.0
  9
$WORLDVIEW
 70
     1
  9
$SHADEDGE
 70
     3
  9
$SHADEDIF
 70
    70
  9
$TILEMODE
 70
     1
  9
$MAXACTVP
 70
    64
  9
$PINSBASE
 10
0.0
 20
0.0
 30
0.0
  9
$PLIMCHECK
 70
     0
  9
$PEXTMIN
 10
1.0000000000E+20
 20
1.0000000000E+20
 30
1.0000000000E+20
  9
$PEXTMAX
 10
-1.0000000000E+20
 20
-1.0000000000E+20
 30
-1.0000000000E+20
  9
$PLIMMIN
 10
0.0
 20
0.0
  9
$PLIMMAX
 10
420.0
 20
297.0
  9
$UNITMODE
 70
     0
  9
$VISRETAIN
 70
     1
  9
$PLINEGEN
 70
     0
  9
$PSLTSCALE
 70
     1
  9
$TREEDEPTH
 70
  3020
  9
$CMLSTYLE
  2
Standard
  9
$CMLJUST
 70
     0
  9
$CMLSCALE
 40
20.0
  9
$PROXYGRAPHICS
 70
     1
  9
$MEASUREMENT
 70
     1
  9
$CELWEIGHT
370
    -1
  9
$ENDCAPS
280
     0
  9
$JOINSTYLE
280
     0
  9
$LWDISPLAY
290
     1
  9
$INSUNITS
 70
     4
  9
$HYPERLINKBASE
  1

  9
$STYLESHEET
  1

  9
$XEDIT
290
     1
  9
$CEPSNTYPE
380
     0
  9
$PSTYLEMODE
290
     1
  9
$FINGERPRINTGUID
  2
{15265395-495F-4F42-B4C1-800B2C0C410C}
  9
$VERSIONGUID
  2
{FAEB1C32-E019-11D5-929B-00C0DF256EC4}
  9
$EXTNAMES
290
     1
  9
$PSVPSCALE
 40
0.0
  9
$OLESTARTUP
290
     0
  0
ENDSEC
  0
SECTION
  2
CLASSES
  0
CLASS
  1
ACDBDICTIONARYWDFLT
  2
AcDbDictionaryWithDefault
  3
ObjectDBX Classes
 90
        0
280
     0
281
     0
  0
CLASS
  1
VISUALSTYLE
  2
AcDbVisualStyle
  3
ObjectDBX Classes
 90
     4095
280
     0
281
     0
  0
CLASS
  1
MATERIAL
  2
AcDbMaterial
  3
ObjectDBX Classes
 90
     1153
280
     0
281
     0
  0
CLASS
  1
SCALE
  2
AcDbScale
  3
ObjectDBX Classes
 90
     1153
280
     0
281
     0
  0
CLASS
  1
SUN
  2
AcDbSun
  3
SCENEOE
 90
     1153
280
     0
281
     0
  0
CLASS
  1
ACDBPLACEHOLDER
  2
AcDbPlaceHolder
  3
ObjectDBX Classes
 90
        0
280
     0
281
     0
  0
CLASS
  1
LAYOUT
  2
AcDbLayout
  3
ObjectDBX Classes
 90
        0
280
     0
281
     0
  0
ENDSEC
  0
SECTION
  2
TABLES
  0
TABLE
  2
VPORT
  5
8
330
0
100
AcDbSymbolTable
 70
     1
  0
VPORT
  5
29
330
8
100
AcDbSymbolTableRecord
100
AcDbViewportTableRecord
  2
*Active
 70
     0
 10
0.0
 20
0.0
 11
1.0
 21
1.0
 12
252.45
 22
178.5
 13
0.0
 23
0.0
 14
10.0
 24
10.0
 15
10.0
 25
10.0
 16
0.0
 26
0.0
 36
1.0
 17
0.0
 27
0.0
 37
0.0
 40
357.0
 41
1.4142857143
 42
50.0
 43
0.0
 44
0.0
 50
0.0
 51
0.0
 71
     0
 72
  2000
 73
     1
 74
     3
 75
     0
 76
     0
 77
     0
 78
     0
281
     0
 65
     1
110
0.0
120
0.0
130
0.0
111
1.0
121
0.0
131
0.0
112
0.0
122
1.0
132
0.0
 79
     0
146
0.0
  0
ENDTAB
  0
TABLE
  2
LTYPE
  5
5
330
0
100
AcDbSymbolTable
 70
     6
  0
LTYPE
  5
14
330
5
100
AcDbSymbolTableRecord
100
AcDbLinetypeTableRecord
  2
ByBlock
 70
     0
  3

 72
    65
 73
     0
 40
0.0
  0
LTYPE
  5
15
330
5
100
AcDbSymbolTableRecord
100
AcDbLinetypeTableRecord
  2
ByLayer
 70
     0
  3

 72
    65
 73
     0
 40
0.0
  0
LTYPE
  5
16
330
5
100
AcDbSymbolTableRecord
100
AcDbLinetypeTableRecord
  2
Continuous
 70
     0
  3
Solid line
 72
    65
 73
     0
 40
0.0
  0
LTYPE
  5
6A
330
5
100
AcDbSymbolTableRecord
100
AcDbLinetypeTableRecord
  2
HIDDEN
 70
     0
  3
Hidden __ __ __ __ __ __ __ __ __ __ __ __ __ __
 72
    65
 73
     2
 40
1.905
 49
1.27
 74
     0
 49
-0.635
 74
     0
  0
LTYPE
  5
6B
330
5
100
AcDbSymbolTableRecord
100
AcDbLinetypeTableRecord
  2
PHANTOM
 70
     0
  3
Phantom ______  __  __  ______  __  __  ______
 72
    65
 73
     6
 40
12.7
 49
6.35
 74
     0
 49
-1.27
 74
     0
 49
1.27
 74
     0
 49
-1.27
 74
     0
 49
1.27
 74
     0
 49
-1.27
 74
     0
  0
LTYPE
  5
6C
330
5
100
AcDbSymbolTableRecord
100
AcDbLinetypeTableRecord
  2
CENTER
 70
     0
  3
Center ____ _ ____ _ ____ _ ____ _ ____ _ ____
 72
    65
 73
     4
 40
10.16
 49
6.35
 74
     0
 49
-1.27
 74
     0
 49
1.27
 74
     0
 49
-1.27
 74
     0
  0
LTYPE
  5
6D
330
5
100
AcDbSymbolTableRecord
100
AcDbLinetypeTableRecord
  2
CENTERX2
 70
     0
  3
Center (2x) ________  __  ________  __  _____
 72
    65
 73
     4
 40
20.32
 49
12.7
 74
     0
 49
-2.54
 74
     0
 49
2.54
 74
     0
 49
-2.54
 74
     0
  0
LTYPE
  5
6E
330
5
100
AcDbSymbolTableRecord
100
AcDbLinetypeTableRecord
  2
DOT2
 70
     0
  3
Dot (.5x) ........................................
 72
    65
 73
     2
 40
0.635
 49
0.0
 74
     0
 49
-0.635
 74
     0
  0
ENDTAB
  0
TABLE
  2
LAYER
  5
2
330
0
100
AcDbSymbolTable
 70
     8
  0
LAYER
  5
10
330
2
100
AcDbSymbolTableRecord
100
AcDbLayerTableRecord
  2
0
 70
     0
 62
     7
  6
Continuous
370
    -3
390
F
  0
LAYER
  5
6F
330
2
100
AcDbSymbolTableRecord
100
AcDbLayerTableRecord
  2
FORMAT
 70
     0
 62
     7
  6
Continuous
370
    -3
390
F
  0
LAYER
  5
70
330
2
100
AcDbSymbolTableRecord
100
AcDbLayerTableRecord
  2
SLD-0
 70
     0
 62
     2
  6
Continuous
370
    -3
390
F
  0
LAYER
  5
71
330
2
100
AcDbSymbolTableRecord
100
AcDbLayerTableRecord
  2
DIM
 70
     0
 62
   179
  6
Continuous
370
    -3
390
F
  0
LAYER
  5
72
330
2
100
AcDbSymbolTableRecord
100
AcDbLayerTableRecord
  2
SLD-DEFPOINTS
 70
     0
 62
   179
  6
Continuous
370
    -3
390
F
  0
LAYER
  5
73
330
2
100
AcDbSymbolTableRecord
100
AcDbLayerTableRecord
  2
HAT
 70
     0
 62
   135
  6
Continuous
370
    -3
390
F
  0
LAYER
  5
74
330
2
100
AcDbSymbolTableRecord
100
AcDbLayerTableRecord
  2
JOB
 70
     0
 62
   201
  6
Continuous
370
    -3
390
F
  0
LAYER
  5
75
330
2
100
AcDbSymbolTableRecord
100
AcDbLayerTableRecord
  2
INSPECTION_REPORT
 70
     0
 62
   255
  6
Continuous
370
    -3
390
F
  0
ENDTAB
  0
TABLE
  2
STYLE
  5
3
330
0
100
AcDbSymbolTable
 70
     4
  0
STYLE
  5
11
330
3
100
AcDbSymbolTableRecord
100
AcDbTextStyleTableRecord
  2
Standard
 70
     0
 40
0.0
 41
1.0
 50
0.0
 71
     0
 42
6.5969444444
  3
txt
  4

  0
STYLE
  5
96
330
3
100
AcDbSymbolTableRecord
100
AcDbTextStyleTableRecord
  2
SLDTEXTSTYLE0
 70
     0
 40
0.0
 41
0.7
 50
0.0
 71
     0
 42
6.5969444444
  3
TXT
  4

  0
STYLE
  5
98
330
3
100
AcDbSymbolTableRecord
100
AcDbTextStyleTableRecord
  2
SLDTEXTSTYLE1
 70
     0
 40
0.0
 41
0.75
 50
0.0
 71
     0
 42
6.5969444444
  3
TXT
  4

  0
STYLE
  5
AB
330
3
100
AcDbSymbolTableRecord
100
AcDbTextStyleTableRecord
  2
SLDTEXTSTYLE2
 70
     0
 40
0.0
 41
0.6875
 50
0.0
 71
     0
 42
6.5969444444
  3
TXT
  4

  0
ENDTAB
  0
TABLE
  2
VIEW
  5
6
330
0
100
AcDbSymbolTable
 70
     0
  0
ENDTAB
  0
TABLE
  2
UCS
  5
7
330
0
100
AcDbSymbolTable
 70
     0
  0
ENDTAB
  0
TABLE
  2
APPID
  5
9
330
0
100
AcDbSymbolTable
 70
     1
  0
APPID
  5
12
330
9
100
AcDbSymbolTableRecord
100
AcDbRegAppTableRecord
  2
ACAD
 70
     0
  0
ENDTAB
  0
TABLE
  2
DIMSTYLE
  5
A
330
0
100
AcDbSymbolTable
 70
     4
100
AcDbDimStyleTable
  0
DIMSTYLE
105
27
330
A
100
AcDbSymbolTableRecord
100
AcDbDimStyleTableRecord
  2
ISO-25
 70
     0
 41
2.5
 42
0.625
 43
3.75
 44
1.25
 73
     0
 74
     0
 77
     1
 78
     8
140
2.5
141
2.5
143
0.0393700787
147
0.625
171
     3
172
     1
178
     0
271
     2
272
     2
274
     3
278
    44
283
     0
284
     8
340
11
  0
DIMSTYLE
105
188
102
{ACAD_REACTORS
330
187
330
193
330
1AB
330
1B5
102
}
330
A
100
AcDbSymbolTableRecord
100
AcDbDimStyleTableRecord
  2
SLDDIMSTYLE0
 70
     0
 41
5.6134
 44
0.0
 45
0.000000001
 73
     0
 74
     0
 77
     1
 78
    12
 79
     3
140
4.9477083333
144
1.0
147
1.2369270833
173
     1
178
     0
271
     2
272
     2
276
     2
284
    12
340
96
  0
DIMSTYLE
105
19F
102
{ACAD_REACTORS
330
19E
102
}
330
A
100
AcDbSymbolTableRecord
100
AcDbDimStyleTableRecord
  2
SLDDIMSTYLE1
 70
     0
 41
5.6134
 44
0.0
 45
0.000000001
 73
     0
 74
     0
 77
     1
 78
    12
 79
     3
140
4.9477083333
144
1.0
147
1.2369270833
172
     1
173
     1
178
     0
271
     2
272
     2
276
     2
284
    12
289
     0
340
96
  0
DIMSTYLE
105
1C0
102
{ACAD_REACTORS
330
1BF
102
}
330
A
100
AcDbSymbolTableRecord
100
AcDbDimStyleTableRecord
  2
SLDDIMSTYLE2
 70
     0
 41
5.6134
 44
0.0
 45
0.000000001
 73
     0
 74
     0
 77
     1
 78
     4
 79
     1
140
4.9477083333
144
1.0
147
1.2369270833
173
     1
178
     0
271
     2
272
     2
276
     2
284
    12
340
96
  0
ENDTAB
  0
TABLE
  2
BLOCK_RECORD
  5
1
330
0
100
AcDbSymbolTable
 70
     8
  0
BLOCK_RECORD
  5
1F
330
1
100
AcDbSymbolTableRecord
100
AcDbBlockTableRecord
  2
*Model_Space
340
22
  0
BLOCK_RECORD
  5
1B
330
1
100
AcDbSymbolTableRecord
100
AcDbBlockTableRecord
  2
*Paper_Space
340
1E
  0
BLOCK_RECORD
  5
23
330
1
100
AcDbSymbolTableRecord
100
AcDbBlockTableRecord
  2
*Paper_Space0
340
26
  0
BLOCK_RECORD
  5
E8
330
1
100
AcDbSymbolTableRecord
100
AcDbBlockTableRecord
  2
SW_CENTERMARKSYMBOL_0
340
0
102
{BLKREFS
331
F3
102
}
  0
BLOCK_RECORD
  5
189
330
1
100
AcDbSymbolTableRecord
100
AcDbBlockTableRecord
  2
_D
340
0
  0
BLOCK_RECORD
  5
194
330
1
100
AcDbSymbolTableRecord
100
AcDbBlockTableRecord
  2
_D_1
340
0
  0
BLOCK_RECORD
  5
1A0
330
1
100
AcDbSymbolTableRecord
100
AcDbBlockTableRecord
  2
_D_2
340
0
  0
BLOCK_RECORD
  5
1AC
330
1
100
AcDbSymbolTableRecord
100
AcDbBlockTableRecord
  2
_D_3
340
0
  0
BLOCK_RECORD
  5
1B6
330
1
100
AcDbSymbolTableRecord
100
AcDbBlockTableRecord
  2
_D_4
340
0
  0
BLOCK_RECORD
  5
1C1
330
1
100
AcDbSymbolTableRecord
100
AcDbBlockTableRecord
  2
_D_5
340
0
  0
ENDTAB
  0
ENDSEC
  0
SECTION
  2
BLOCKS
  0
BLOCK
  5
20
330
1F
100
AcDbEntity
  8
0
100
AcDbBlockBegin
  2
*Model_Space
 70
     0
 10
0.0
 20
0.0
 30
0.0
  3
*Model_Space
  1
*Model_Space
  0
ENDBLK
  5
21
330
1F
100
AcDbEntity
  8
0
100
AcDbBlockEnd
  0
BLOCK
  5
1C
330
1B
100
AcDbEntity
 67
     1
  8
0
100
AcDbBlockBegin
  2
*Paper_Space
 70
     0
 10
0.0
 20
0.0
 30
0.0
  3
*Paper_Space
  1
*Paper_Space
  0
ENDBLK
  5
1D
330
1B
100
AcDbEntity
 67
     1
  8
0
100
AcDbBlockEnd
  0
BLOCK
  5
24
330
23
100
AcDbEntity
  8
0
100
AcDbBlockBegin
  2
*Paper_Space0
 70
     0
 10
0.0
 20
0.0
 30
0.0
  3
*Paper_Space0
  1
*Paper_Space0
  0
ENDBLK
  5
25
330
23
100
AcDbEntity
  8
0
100
AcDbBlockEnd
  0
BLOCK
  5
E9
330
E8
100
AcDbEntity
  8
0
100
AcDbBlockBegin
  2
SW_CENTERMARKSYMBOL_0
 70
     0
 10
0.0
 20
0.0
 30
0.0
  3
SW_CENTERMARKSYMBOL_0
  1
SW_CENTERMARKSYMBOL_0
  0
LINE
  5
EB
330
E8
100
AcDbEntity
  8
DIM
 62
     0
100
AcDbLine
 10
0.0
 20
0.0
 30
0.0
 11
0.0
 21
2.5
 31
0.0
  0
LINE
  5
EC
330
E8
100
AcDbEntity
  8
DIM
 62
     0
100
AcDbLine
 10
0.0
 20
0.0
 30
0.0
 11
-2.5
 21
0.0
 31
0.0
  0
LINE
  5
ED
330
E8
100
AcDbEntity
  8
DIM
 62
     0
100
AcDbLine
 10
0.0
 20
0.0
 30
0.0
 11
0.0
 21
-2.5
 31
0.0
  0
LINE
  5
EE
330
E8
100
AcDbEntity
  8
DIM
 62
     0
100
AcDbLine
 10
0.0
 20
0.0
 30
0.0
 11
2.5
 21
0.0
 31
0.0
  0
LINE
  5
EF
330
E8
100
AcDbEntity
  8
DIM
 62
     0
100
AcDbLine
 10
0.0
 20
5.0
 30
0.0
 11
0.0
 21
51.1328427125
 31
0.0
  0
LINE
  5
F0
330
E8
100
AcDbEntity
  8
DIM
 62
     0
100
AcDbLine
 10
-5.0
 20
0.0
 30
0.0
 11
-51.1328427125
 21
0.0
 31
0.0
  0
LINE
  5
F1
330
E8
100
AcDbEntity
  8
DIM
 62
     0
100
AcDbLine
 10
0.0
 20
-5.0
 30
0.0
 11
0.0
 21
-51.1328427125
 31
0.0
  0
LINE
  5
F2
330
E8
100
AcDbEntity
  8
DIM
 62
     0
100
AcDbLine
 10
5.0
 20
0.0
 30
0.0
 11
51.1328427125
 21
0.0
 31
0.0
  0
ENDBLK
  5
EA
330
E8
100
AcDbEntity
  8
0
100
AcDbBlockEnd
  0
BLOCK
  5
18A
330
189
100
AcDbEntity
  8
0
100
AcDbBlockBegin
  2
_D
 70
     0
 10
0.0
 20
0.0
 30
0.0
  3
_D
  1
_D
  0
SOLID
  5
18C
330
189
100
AcDbEntity
  8
DIM
100
AcDbTrace
 10
468.6475883283
 20
206.9386652241
 30
0.0
 11
467.7839883283
 21
201.3252652241
 31
0.0
 12
469.5111883283
 22
201.3252652241
 32
0.0
 13
469.5111883283
 23
201.3252652241
 33
0.0
  0
SOLID
  5
18D
330
189
100
AcDbEntity
  8
DIM
100
AcDbTrace
 10
468.6475883283
 20
166.9386652241
 30
0.0
 11
469.5111883283
 21
172.5520652241
 31
0.0
 12
467.7839883283
 22
172.5520652241
 32
0.0
 13
467.7839883283
 23
172.5520652241
 33
0.0
  0
LINE
  5
18E
330
189
100
AcDbEntity
  8
DIM
100
AcDbLine
 10
444.5940711159
 20
206.9386652241
 30
0.0
 11
470.3475883283
 21
206.9386652241
 31
0.0
  0
LINE
  5
18F
330
189
100
AcDbEntity
  8
DIM
100
AcDbLine
 10
444.5940711159
 20
166.9386652241
 30
0.0
 11
470.3475883283
 21
166.9386652241
 31
0.0
  0
LINE
  5
190
330
189
100
AcDbEntity
  8
DIM
100
AcDbLine
 10
468.6475883283
 20
206.9386652241
 30
0.0
 11
468.6475883283
 21
166.9386652241
 31
0.0
  0
MTEXT
  5
191
330
189
100
AcDbEntity
  8
DIM
100
AcDbMText
 10
462.2696567342
 20
179.7688402458
 30
0.0
 40
4.9477083333
 41
0.0
 71
     1
 72
     1
  1
%%c
  7
SLDTEXTSTYLE0
 11
-7.044195017643634E-15
 21
1.0
 31
0.0
 73
     1
 44
1.0
  0
MTEXT
  5
192
330
189
100
AcDbEntity
  8
DIM
100
AcDbMText
 10
462.2696567342
 20
187.4199212751
 30
0.0
 40
4.9477083333
 41
0.0
 71
     1
 72
     1
  1
40
  7
SLDTEXTSTYLE0
 11
-7.044195017643634E-15
 21
1.0
 31
0.0
 73
     1
 44
1.0
  0
ENDBLK
  5
18B
330
189
100
AcDbEntity
  8
0
100
AcDbBlockEnd
  0
BLOCK
  5
195
330
194
100
AcDbEntity
  8
0
100
AcDbBlockBegin
  2
_D_1
 70
     0
 10
0.0
 20
0.0
 30
0.0
  3
_D_1
  1
_D_1
  0
SOLID
  5
197
330
194
100
AcDbEntity
  8
DIM
100
AcDbTrace
 10
475.8700510938
 20
230.9386652241
 30
0.0
 11
475.0064510938
 21
225.3252652241
 31
0.0
 12
476.7336510938
 22
225.3252652241
 32
0.0
 13
476.7336510938
 23
225.3252652241
 33
0.0
  0
SOLID
  5
198
330
194
100
AcDbEntity
  8
DIM
100
AcDbTrace
 10
475.8700510938
 20
142.9386652241
 30
0.0
 11
476.7336510938
 21
148.5520652241
 31
0.0
 12
475.0064510938
 22
148.5520652241
 32
0.0
 13
475.0064510938
 23
148.5520652241
 33
0.0
  0
LINE
  5
199
330
194
100
AcDbEntity
  8
DIM
100
AcDbLine
 10
417.0848188447
 20
230.9386652241
 30
0.0
 11
477.5700510938
 21
230.9386652241
 31
0.0
  0
LINE
  5
19A
330
194
100
AcDbEntity
  8
DIM
100
AcDbLine
 10
417.0848188447
 20
142.9386652241
 30
0.0
 11
477.5700510938
 21
142.9386652241
 31
0.0
  0
LINE
  5
19B
330
194
100
AcDbEntity
  8
DIM
100
AcDbLine
 10
475.8700510938
 20
230.9386652241
 30
0.0
 11
475.8700510938
 21
142.9386652241
 31
0.0
  0
MTEXT
  5
19C
330
194
100
AcDbEntity
  8
DIM
100
AcDbMText
 10
469.4921194997
 20
179.7688402458
 30
0.0
 40
4.9477083333
 41
0.0
 71
     1
 72
     1
  1
%%c
  7
SLDTEXTSTYLE0
 11
-7.044195017643634E-15
 21
1.0
 31
0.0
 73
     1
 44
1.0
  0
MTEXT
  5
19D
330
194
100
AcDbEntity
  8
DIM
100
AcDbMText
 10
469.4921194997
 20
187.4199212751
 30
0.0
 40
4.9477083333
 41
0.0
 71
     1
 72
     1
  1
88
  7
SLDTEXTSTYLE0
 11
-7.044195017643634E-15
 21
1.0
 31
0.0
 73
     1
 44
1.0
  0
ENDBLK
  5
196
330
194
100
AcDbEntity
  8
0
100
AcDbBlockEnd
  0
BLOCK
  5
1A1
330
1A0
100
AcDbEntity
  8
0
100
AcDbBlockBegin
  2
_D_2
 70
     0
 10
0.0
 20
0.0
 30
0.0
  3
_D_2
  1
_D_2
  0
SOLID
  5
1A3
330
1A0
100
AcDbEntity
  8
DIM
100
AcDbTrace
 10
443.3848188447
 20
124.05838822
 30
0.0
 11
448.9982188447
 21
123.19478822
 31
0.0
 12
448.9982188447
 22
124.92198822
 32
0.0
 13
448.9982188447
 23
124.92198822
 33
0.0
  0
SOLID
  5
1A4
330
1A0
100
AcDbEntity
  8
DIM
100
AcDbTrace
 10
416.3848188447
 20
124.05838822
 30
0.0
 11
410.7714188447
 21
124.92198822
 31
0.0
 12
410.7714188447
 22
123.19478822
 32
0.0
 13
410.7714188447
 23
123.19478822
 33
0.0
  0
LINE
  5
1A5
330
1A0
100
AcDbEntity
  8
DIM
100
AcDbLine
 10
443.3848188447
 20
166.0886652241
 30
0.0
 11
443.3848188447
 21
122.35838822
 31
0.0
  0
LINE
  5
1A6
330
1A0
100
AcDbEntity
  8
DIM
100
AcDbLine
 10
416.3848188447
 20
145.2386652241
 30
0.0
 11
416.3848188447
 21
122.35838822
 31
0.0
  0
LINE
  5
1A7
330
1A0
100
AcDbEntity
  8
DIM
100
AcDbLine
 10
443.3848188447
 20
124.05838822
 30
0.0
 11
454.1798188447
 21
124.05838822
 31
0.0
  0
LINE
  5
1A8
330
1A0
100
AcDbEntity
  8
DIM
100
AcDbLine
 10
443.3848188447
 20
124.05838822
 30
0.0
 11
416.3848188447
 21
124.05838822
 31
0.0
  0
LINE
  5
1A9
330
1A0
100
AcDbEntity
  8
DIM
100
AcDbLine
 10
416.3848188447
 20
124.05838822
 30
0.0
 11
405.5898188447
 21
124.05838822
 31
0.0
  0
MTEXT
  5
1AA
330
1A0
100
AcDbEntity
  8
DIM
100
AcDbMText
 10
426.540534381
 20
130.4363198141
 30
0.0
 40
4.9477083333
 41
0.0
 71
     1
 72
     1
  1
27
  7
SLDTEXTSTYLE0
 73
     1
 44
1.0
  0
ENDBLK
  5
1A2
330
1A0
100
AcDbEntity
  8
0
100
AcDbBlockEnd
  0
BLOCK
  5
1AD
330
1AC
100
AcDbEntity
  8
0
100
AcDbBlockBegin
  2
_D_3
 70
     0
 10
0.0
 20
0.0
 30
0.0
  3
_D_3
  1
_D_3
  0
SOLID
  5
1AF
330
1AC
100
AcDbEntity
  8
DIM
100
AcDbTrace
 10
416.3848188447
 20
124.05838822
 30
0.0
 11
410.7714188447
 21
124.92198822
 31
0.0
 12
410.7714188447
 22
123.19478822
 32
0.0
 13
410.7714188447
 23
123.19478822
 33
0.0
  0
SOLID
  5
1B0
330
1AC
100
AcDbEntity
  8
DIM
100
AcDbTrace
 10
256.3848188447
 20
124.05838822
 30
0.0
 11
261.9982188447
 21
123.19478822
 31
0.0
 12
261.9982188447
 22
124.92198822
 32
0.0
 13
261.9982188447
 23
124.92198822
 33
0.0
  0
LINE
  5
1B1
330
1AC
100
AcDbEntity
  8
DIM
100
AcDbLine
 10
416.3848188447
 20
142.2386652241
 30
0.0
 11
416.3848188447
 21
122.35838822
 31
0.0
  0
LINE
  5
1B2
330
1AC
100
AcDbEntity
  8
DIM
100
AcDbLine
 10
256.3848188447
 20
150.3136652241
 30
0.0
 11
256.3848188447
 21
122.35838822
 31
0.0
  0
LINE
  5
1B3
330
1AC
100
AcDbEntity
  8
DIM
100
AcDbLine
 10
416.3848188447
 20
124.05838822
 30
0.0
 11
256.3848188447
 21
124.05838822
 31
0.0
  0
MTEXT
  5
1B4
330
1AC
100
AcDbEntity
  8
DIM
100
AcDbMText
 10
331.3683921492
 20
130.4363198141
 30
0.0
 40
4.9477083333
 41
0.0
 71
     1
 72
     1
  1
160
  7
SLDTEXTSTYLE0
 73
     1
 44
1.0
  0
ENDBLK
  5
1AE
330
1AC
100
AcDbEntity
  8
0
100
AcDbBlockEnd
  0
BLOCK
  5
1B7
330
1B6
100
AcDbEntity
  8
0
100
AcDbBlockBegin
  2
_D_4
 70
     0
 10
0.0
 20
0.0
 30
0.0
  3
_D_4
  1
_D_4
  0
SOLID
  5
1B9
330
1B6
100
AcDbEntity
  8
DIM
100
AcDbTrace
 10
154.6348188447
 20
106.8173062327
 30
0.0
 11
160.2482188447
 21
105.9537062327
 31
0.0
 12
160.2482188447
 22
107.6809062327
 32
0.0
 13
160.2482188447
 23
107.6809062327
 33
0.0
  0
SOLID
  5
1BA
330
1B6
100
AcDbEntity
  8
DIM
100
AcDbTrace
 10
457.3848188447
 20
106.8173062327
 30
0.0
 11
451.7714188447
 21
107.6809062327
 31
0.0
 12
451.7714188447
 22
105.9537062327
 32
0.0
 13
451.7714188447
 23
105.9537062327
 33
0.0
  0
LINE
  5
1BB
330
1B6
100
AcDbEntity
  8
DIM
100
AcDbLine
 10
154.6348188447
 20
185.2386652241
 30
0.0
 11
154.6348188447
 21
105.1173062327
 31
0.0
  0
LINE
  5
1BC
330
1B6
100
AcDbEntity
  8
DIM
100
AcDbLine
 10
457.3848188447
 20
160.2386652241
 30
0.0
 11
457.3848188447
 21
105.1173062327
 31
0.0
  0
LINE
  5
1BD
330
1B6
100
AcDbEntity
  8
DIM
100
AcDbLine
 10
154.6348188447
 20
106.8173062327
 30
0.0
 11
457.3848188447
 21
106.8173062327
 31
0.0
  0
MTEXT
  5
1BE
330
1B6
100
AcDbEntity
  8
DIM
100
AcDbMText
 10
296.7695150508
 20
113.1952378269
 30
0.0
 40
4.9477083333
 41
0.0
 71
     1
 72
     1
  1
302.75
  7
SLDTEXTSTYLE0
 73
     1
 44
1.0
  0
ENDBLK
  5
1B8
330
1B6
100
AcDbEntity
  8
0
100
AcDbBlockEnd
  0
BLOCK
  5
1C2
330
1C1
100
AcDbEntity
  8
0
100
AcDbBlockBegin
  2
_D_5
 70
     0
 10
0.0
 20
0.0
 30
0.0
  3
_D_5
  1
_D_5
  0
SOLID
  5
1C4
330
1C1
100
AcDbEntity
  8
DIM
100
AcDbTrace
 10
146.6677311262
 20
235.6886652241
 30
0.0
 11
145.8041311262
 21
230.0752652241
 31
0.0
 12
147.5313311262
 22
230.0752652241
 32
0.0
 13
147.5313311262
 23
230.0752652241
 33
0.0
  0
SOLID
  5
1C5
330
1C1
100
AcDbEntity
  8
DIM
100
AcDbTrace
 10
146.6677311262
 20
138.1886652241
 30
0.0
 11
147.5313311262
 21
143.8020652241
 31
0.0
 12
145.8041311262
 22
143.8020652241
 32
0.0
 13
145.8041311262
 23
143.8020652241
 33
0.0
  0
LINE
  5
1C6
330
1C1
100
AcDbEntity
  8
DIM
100
AcDbLine
 10
259.0505042696
 20
235.6886652241
 30
0.0
 11
144.9677311262
 21
235.6886652241
 31
0.0
  0
LINE
  5
1C7
330
1C1
100
AcDbEntity
  8
DIM
100
AcDbLine
 10
259.0505042696
 20
138.1886652241
 30
0.0
 11
144.9677311262
 21
138.1886652241
 31
0.0
  0
LINE
  5
1C8
330
1C1
100
AcDbEntity
  8
DIM
100
AcDbLine
 10
146.6677311262
 20
235.6886652241
 30
0.0
 11
146.6677311262
 21
138.1886652241
 31
0.0
  0
MTEXT
  5
1C9
330
1C1
100
AcDbEntity
  8
DIM
100
AcDbMText
 10
140.2897995321
 20
175.5449631474
 30
0.0
 40
4.9477083333
 41
0.0
 71
     1
 72
     1
  1
%%c
  7
SLDTEXTSTYLE0
 11
-7.044195017643634E-15
 21
1.0
 31
0.0
 73
     1
 44
1.0
  0
MTEXT
  5
1CA
330
1C1
100
AcDbEntity
  8
DIM
100
AcDbMText
 10
140.2897995321
 20
183.1960441767
 30
0.0
 40
4.9477083333
 41
0.0
 71
     1
 72
     1
  1
97.50
  7
SLDTEXTSTYLE0
 11
-7.044195017643634E-15
 21
1.0
 31
0.0
 73
     1
 44
1.0
  0
ENDBLK
  5
1C3
330
1C1
100
AcDbEntity
  8
0
100
AcDbBlockEnd
  0
ENDSEC
  0
SECTION
  2
ENTITIES
  0
LINE
  5
76
330
1F
100
AcDbEntity
  8
DIM
100
AcDbLine
 10
177.9975219713
 20
16.6446854767
 30
0.0
 11
177.9975219713
 21
8.1446854767
 31
0.0
  0
LINE
  5
77
330
1F
100
AcDbEntity
  8
DIM
100
AcDbLine
 10
432.598322882
 20
16.6446854767
 30
0.0
 11
432.598322882
 21
8.1446854767
 31
0.0
  0
LINE
  5
78
330
1F
100
AcDbEntity
  8
DIM
100
AcDbLine
 10
403.6679068837
 20
16.6446854767
 30
0.0
 11
403.6679068837
 21
8.1446854767
 31
0.0
  0
LINE
  5
79
330
1F
100
AcDbEntity
  8
DIM
100
AcDbLine
 10
474.1375219713
 20
8.1446854767
 30
0.0
 11
474.1375219713
 21
16.6446854767
 31
0.0
  0
LINE
  5
7A
330
1F
100
AcDbEntity
  8
DIM
100
AcDbLine
 10
191.2575219713
 20
16.6446854767
 30
0.0
 11
191.2575219713
 21
8.1446854767
 31
0.0
  0
LINE
  5
7B
330
1F
100
AcDbEntity
  8
DIM
100
AcDbLine
 10
223.8821411087
 20
16.6446854767
 30
0.0
 11
223.8821411087
 21
8.1446854767
 31
0.0
  0
LINE
  5
7C
330
1F
100
AcDbEntity
  8
DIM
100
AcDbLine
 10
496.2375219713
 20
8.1446854767
 30
0.0
 11
496.2375219713
 21
130.9696854767
 31
0.0
  0
LINE
  5
7D
330
1F
100
AcDbEntity
  8
DIM
100
AcDbLine
 10
485.892307981
 20
102.0696854767
 30
0.0
 11
496.2375219713
 21
102.0696854767
 31
0.0
  0
LINE
  5
7E
330
1F
100
AcDbEntity
  8
DIM
100
AcDbLine
 10
253.4756964493
 20
15.3696854767
 30
0.0
 11
253.4756964493
 21
8.1446854767
 31
0.0
  0
LINE
  5
7F
330
1F
100
AcDbEntity
  8
DIM
100
AcDbLine
 10
334.4987135727
 20
16.6446854767
 30
0.0
 11
334.4987135727
 21
8.1446854767
 31
0.0
  0
LINE
  5
80
330
1F
100
AcDbEntity
  8
DIM
100
AcDbLine
 10
253.4756964493
 20
16.6446854767
 30
0.0
 11
253.4756964493
 21
15.3696854767
 31
0.0
  0
LINE
  5
81
330
1F
100
AcDbEntity
  8
DIM
100
AcDbLine
 10
487.7375219713
 20
29.8195630767
 30
0.0
 11
496.2375219713
 21
29.8195630767
 31
0.0
  0
LINE
  5
82
330
1F
100
AcDbEntity
  8
DIM
100
AcDbLine
 10
487.7375219713
 20
339.6446854767
 30
0.0
 11
16.8375219713
 21
339.6446854767
 31
0.0
  0
LINE
  5
83
330
1F
100
AcDbEntity
  8
DIM
100
AcDbLine
 10
496.2375219713
 20
348.1446854767
 30
0.0
 11
8.3375219713
 21
348.1446854767
 31
0.0
  0
LINE
  5
84
330
1F
100
AcDbEntity
  8
DIM
100
AcDbLine
 10
16.8375219713
 20
339.6446854767
 30
0.0
 11
16.8375219713
 21
16.6446854767
 31
0.0
  0
LINE
  5
85
330
1F
100
AcDbEntity
  8
DIM
100
AcDbLine
 10
8.3375219713
 20
348.1446854767
 30
0.0
 11
8.3375219713
 21
8.1446854767
 31
0.0
  0
LINE
  5
86
330
1F
100
AcDbEntity
  8
DIM
100
AcDbLine
 10
16.8375219713
 20
93.1446854767
 30
0.0
 11
8.3375219713
 21
93.1446854767
 31
0.0
  0
LINE
  5
87
330
1F
100
AcDbEntity
  8
DIM
100
AcDbLine
 10
8.3375219713
 20
178.1446854767
 30
0.0
 11
16.8375219713
 21
178.1446854767
 31
0.0
  0
LINE
  5
88
330
1F
100
AcDbEntity
  8
DIM
100
AcDbLine
 10
8.3375219713
 20
8.1446854767
 30
0.0
 11
496.2375219713
 21
8.1446854767
 31
0.0
  0
LINE
  5
89
330
1F
100
AcDbEntity
  8
DIM
100
AcDbLine
 10
16.8375219713
 20
16.6446854767
 30
0.0
 11
496.2375219713
 21
16.6446854767
 31
0.0
  0
LINE
  5
8A
330
1F
100
AcDbEntity
  8
DIM
100
AcDbLine
 10
82.2875219713
 20
8.1446854767
 30
0.0
 11
82.2875219713
 21
16.6446854767
 31
0.0
  0
LINE
  5
8B
330
1F
100
AcDbEntity
  8
DIM
100
AcDbLine
 10
167.2875219713
 20
16.6446854767
 30
0.0
 11
167.2875219713
 21
8.1446854767
 31
0.0
  0
LINE
  5
8C
330
1F
100
AcDbEntity
  8
DIM
100
AcDbLine
 10
16.8375219713
 20
263.1446854767
 30
0.0
 11
8.3375219713
 21
263.1446854767
 31
0.0
  0
LINE
  5
8D
330
1F
100
AcDbEntity
  8
DIM
100
AcDbLine
 10
82.2875219713
 20
339.6446854767
 30
0.0
 11
82.2875219713
 21
348.1446854767
 31
0.0
  0
LINE
  5
8E
330
1F
100
AcDbEntity
  8
DIM
100
AcDbLine
 10
167.2875219713
 20
348.1446854767
 30
0.0
 11
167.2875219713
 21
339.6446854767
 31
0.0
  0
LINE
  5
8F
330
1F
100
AcDbEntity
  8
DIM
100
AcDbLine
 10
252.2875219713
 20
348.1446854767
 30
0.0
 11
252.2875219713
 21
339.6446854767
 31
0.0
  0
LINE
  5
90
330
1F
100
AcDbEntity
  8
DIM
100
AcDbLine
 10
487.7375219713
 20
16.6446854767
 30
0.0
 11
487.7375219713
 21
339.6446854767
 31
0.0
  0
LINE
  5
91
330
1F
100
AcDbEntity
  8
DIM
100
AcDbLine
 10
496.2375219713
 20
130.9696854767
 30
0.0
 11
496.2375219713
 21
348.1446854767
 31
0.0
  0
LINE
  5
92
330
1F
100
AcDbEntity
  8
DIM
100
AcDbLine
 10
496.2375219713
 20
178.1446854767
 30
0.0
 11
487.7375219713
 21
178.1446854767
 31
0.0
  0
LINE
  5
93
330
1F
100
AcDbEntity
  8
DIM
100
AcDbLine
 10
337.2875219713
 20
348.1446854767
 30
0.0
 11
337.2875219713
 21
339.6446854767
 31
0.0
  0
LINE
  5
94
330
1F
100
AcDbEntity
  8
DIM
100
AcDbLine
 10
422.2875219713
 20
339.6446854767
 30
0.0
 11
422.2875219713
 21
348.1446854767
 31
0.0
  0
LINE
  5
95
330
1F
100
AcDbEntity
  8
DIM
100
AcDbLine
 10
487.7375219713
 20
263.1446854767
 30
0.0
 11
496.2375219713
 21
263.1446854767
 31
0.0
  0
MTEXT
  5
97
330
1F
100
AcDbEntity
  8
DIM
100
AcDbMText
 10
27.420439631
 20
329.5756838088
 30
0.0
 40
7.1966666667
 41
0.0
 71
     1
 72
     1
  1
SK 50 FMH-K40 160 AD+B/6.3G15000 SL SP.S
  7
SLDTEXTSTYLE0
 73
     1
 44
1.0
  0
MTEXT
  5
99
330
1F
100
AcDbEntity
  8
DIM
 62
     7
100
AcDbMText
 10
336.1457236993
 20
13.2633175947
 30
0.0
 40
2.54762
 41
0.0
 71
     1
 72
     1
  1
WEIGHT:
  7
SLDTEXTSTYLE1
 73
     1
 44
1.0
  0
MTEXT
  5
9A
330
1F
100
AcDbEntity
  8
DIM
 62
     7
100
AcDbMText
 10
490.6150304832
 20
139.299042964
 30
0.0
 40
3.1485416667
 41
0.0
 71
     1
 72
     1
  1
C
  7
SLDTEXTSTYLE1
 73
     1
 44
1.0
  0
MTEXT
  5
9B
330
1F
100
AcDbEntity
  8
DIM
 62
     7
100
AcDbMText
 10
481.1740870531
 20
25.2517693721
 30
0.0
 40
4.9477083333
 41
0.0
 71
     1
 72
     1
  1
A4
  7
SLDTEXTSTYLE1
 73
     1
 44
1.0
  0
MTEXT
  5
9C
330
1F
100
AcDbEntity
  8
DIM
 62
     7
100
AcDbMText
 10
463.3708621046
 20
345.8803133627
 30
0.0
 40
3.1485416667
 41
0.0
 71
     1
 72
     1
  1
6
  7
SLDTEXTSTYLE1
 73
     1
 44
1.0
  0
MTEXT
  5
9D
330
1F
100
AcDbEntity
  8
DIM
 62
     7
100
AcDbMText
 10
378.3708621046
 20
345.8803133627
 30
0.0
 40
3.1485416667
 41
0.0
 71
     1
 72
     1
  1
5
  7
SLDTEXTSTYLE1
 73
     1
 44
1.0
  0
MTEXT
  5
9E
330
1F
100
AcDbEntity
  8
DIM
 62
     7
100
AcDbMText
 10
490.5708689046
 20
307.6303133627
 30
0.0
 40
3.1485416667
 41
0.0
 71
     1
 72
     1
  1
A
  7
SLDTEXTSTYLE1
 73
     1
 44
1.0
  0
MTEXT
  5
9F
330
1F
100
AcDbEntity
  8
DIM
 62
     7
100
AcDbMText
 10
490.5708689046
 20
222.6303133627
 30
0.0
 40
3.1485416667
 41
0.0
 71
     1
 72
     1
  1
B
  7
SLDTEXTSTYLE1
 73
     1
 44
1.0
  0
MTEXT
  5
A0
330
1F
100
AcDbEntity
  8
DIM
 62
     7
100
AcDbMText
 10
293.3708621046
 20
345.8803133627
 30
0.0
 40
3.1485416667
 41
0.0
 71
     1
 72
     1
  1
4
  7
SLDTEXTSTYLE1
 73
     1
 44
1.0
  0
MTEXT
  5
A1
330
1F
100
AcDbEntity
  8
DIM
 62
     7
100
AcDbMText
 10
39.079195438
 20
345.8803133627
 30
0.0
 40
3.1485416667
 41
0.0
 71
     1
 72
     1
  1
1
  7
SLDTEXTSTYLE1
 73
     1
 44
1.0
  0
MTEXT
  5
A2
330
1F
100
AcDbEntity
  8
DIM
 62
     7
100
AcDbMText
 10
123.3708621046
 20
345.8803133627
 30
0.0
 40
3.1485416667
 41
0.0
 71
     1
 72
     1
  1
2
  7
SLDTEXTSTYLE1
 73
     1
 44
1.0
  0
MTEXT
  5
A3
330
1F
100
AcDbEntity
  8
DIM
 62
     7
100
AcDbMText
 10
208.3708621046
 20
345.8803133627
 30
0.0
 40
3.1485416667
 41
0.0
 71
     1
 72
     1
  1
3
  7
SLDTEXTSTYLE1
 73
     1
 44
1.0
  0
MTEXT
  5
A4
330
1F
100
AcDbEntity
  8
DIM
 62
     7
100
AcDbMText
 10
11.1708553046
 20
307.6303133627
 30
0.0
 40
3.1485416667
 41
0.0
 71
     1
 72
     1
  1
A
  7
SLDTEXTSTYLE1
 73
     1
 44
1.0
  0
MTEXT
  5
A5
330
1F
100
AcDbEntity
  8
DIM
 62
     7
100
AcDbMText
 10
123.3708621046
 20
14.3803133627
 30
0.0
 40
3.1485416667
 41
0.0
 71
     1
 72
     1
  1
2
  7
SLDTEXTSTYLE1
 73
     1
 44
1.0
  0
MTEXT
  5
A6
330
1F
100
AcDbEntity
  8
DIM
 62
     7
100
AcDbMText
 10
39.079195438
 20
14.3803133627
 30
0.0
 40
3.1485416667
 41
0.0
 71
     1
 72
     1
  1
1
  7
SLDTEXTSTYLE1
 73
     1
 44
1.0
  0
MTEXT
  5
A7
330
1F
100
AcDbEntity
  8
DIM
 62
     7
100
AcDbMText
 10
11.1708553046
 20
52.6303133627
 30
0.0
 40
3.1485416667
 41
0.0
 71
     1
 72
     1
  1
D
  7
SLDTEXTSTYLE1
 73
     1
 44
1.0
  0
MTEXT
  5
A8
330
1F
100
AcDbEntity
  8
DIM
 62
     7
100
AcDbMText
 10
11.1708553046
 20
137.6303133627
 30
0.0
 40
3.1485416667
 41
0.0
 71
     1
 72
     1
  1
C
  7
SLDTEXTSTYLE1
 73
     1
 44
1.0
  0
MTEXT
  5
A9
330
1F
100
AcDbEntity
  8
DIM
 62
     7
100
AcDbMText
 10
11.1708553046
 20
222.6303133627
 30
0.0
 40
3.1485416667
 41
0.0
 71
     1
 72
     1
  1
B
  7
SLDTEXTSTYLE1
 73
     1
 44
1.0
  0
MTEXT
  5
AA
330
1F
100
AcDbEntity
  8
DIM
 62
     7
100
AcDbMText
 10
490.6150304832
 20
139.299042964
 30
0.0
 40
3.1485416667
 41
0.0
 71
     1
 72
     1
  1
C
  7
SLDTEXTSTYLE1
 73
     1
 44
1.0
  0
MTEXT
  5
AC
330
1F
100
AcDbEntity
  8
DIM
 62
     7
100
AcDbMText
 10
436.0931218813
 20
13.0748338434
 30
0.0
 40
2.55
 41
0.0
 71
     1
 72
     1
  1
SHEET 1 OF 1
  7
SLDTEXTSTYLE2
 73
     1
 44
1.0
  0
MTEXT
  5
AD
330
1F
100
AcDbEntity
  8
DIM
 62
     7
100
AcDbMText
 10
255.6320266518
 20
13.3507247222
 30
0.0
 40
2.55
 41
0.0
 71
     1
 72
     1
  1
MATERIAL:
  7
SLDTEXTSTYLE1
 73
     1
 44
1.0
  0
MTEXT
  5
AE
330
1F
100
AcDbEntity
  8
DIM
 62
     7
100
AcDbMText
 10
463.3708621046
 20
345.8803133627
 30
0.0
 40
3.1485416667
 41
0.0
 71
     1
 72
     1
  1
6
  7
SLDTEXTSTYLE1
 73
     1
 44
1.0
  0
MTEXT
  5
AF
330
1F
100
AcDbEntity
  8
DIM
 62
     7
100
AcDbMText
 10
378.3708621046
 20
345.8803133627
 30
0.0
 40
3.1485416667
 41
0.0
 71
     1
 72
     1
  1
5
  7
SLDTEXTSTYLE1
 73
     1
 44
1.0
  0
MTEXT
  5
B0
330
1F
100
AcDbEntity
  8
DIM
 62
     7
100
AcDbMText
 10
490.5708689046
 20
307.6303133627
 30
0.0
 40
3.1485416667
 41
0.0
 71
     1
 72
     1
  1
A
  7
SLDTEXTSTYLE1
 73
     1
 44
1.0
  0
MTEXT
  5
B1
330
1F
100
AcDbEntity
  8
DIM
 62
     7
100
AcDbMText
 10
490.5708689046
 20
222.6303133627
 30
0.0
 40
3.1485416667
 41
0.0
 71
     1
 72
     1
  1
B
  7
SLDTEXTSTYLE1
 73
     1
 44
1.0
  0
MTEXT
  5
B2
330
1F
100
AcDbEntity
  8
DIM
 62
     7
100
AcDbMText
 10
293.3708621046
 20
345.8803133627
 30
0.0
 40
3.1485416667
 41
0.0
 71
     1
 72
     1
  1
4
  7
SLDTEXTSTYLE1
 73
     1
 44
1.0
  0
MTEXT
  5
B3
330
1F
100
AcDbEntity
  8
DIM
 62
     7
100
AcDbMText
 10
39.079195438
 20
345.8803133627
 30
0.0
 40
3.1485416667
 41
0.0
 71
     1
 72
     1
  1
1
  7
SLDTEXTSTYLE1
 73
     1
 44
1.0
  0
MTEXT
  5
B4
330
1F
100
AcDbEntity
  8
DIM
 62
     7
100
AcDbMText
 10
123.3708621046
 20
345.8803133627
 30
0.0
 40
3.1485416667
 41
0.0
 71
     1
 72
     1
  1
2
  7
SLDTEXTSTYLE1
 73
     1
 44
1.0
  0
MTEXT
  5
B5
330
1F
100
AcDbEntity
  8
DIM
 62
     7
100
AcDbMText
 10
208.3708621046
 20
345.8803133627
 30
0.0
 40
3.1485416667
 41
0.0
 71
     1
 72
     1
  1
3
  7
SLDTEXTSTYLE1
 73
     1
 44
1.0
  0
MTEXT
  5
B6
330
1F
100
AcDbEntity
  8
DIM
 62
     7
100
AcDbMText
 10
11.1708553046
 20
307.6303133627
 30
0.0
 40
3.1485416667
 41
0.0
 71
     1
 72
     1
  1
A
  7
SLDTEXTSTYLE1
 73
     1
 44
1.0
  0
MTEXT
  5
B7
330
1F
100
AcDbEntity
  8
DIM
 62
     7
100
AcDbMText
 10
123.3708621046
 20
14.3803133627
 30
0.0
 40
3.1485416667
 41
0.0
 71
     1
 72
     1
  1
2
  7
SLDTEXTSTYLE1
 73
     1
 44
1.0
  0
MTEXT
  5
B8
330
1F
100
AcDbEntity
  8
DIM
 62
     7
100
AcDbMText
 10
39.079195438
 20
14.3803133627
 30
0.0
 40
3.1485416667
 41
0.0
 71
     1
 72
     1
  1
1
  7
SLDTEXTSTYLE1
 73
     1
 44
1.0
  0
MTEXT
  5
B9
330
1F
100
AcDbEntity
  8
DIM
 62
     7
100
AcDbMText
 10
11.1708553046
 20
52.6303133627
 30
0.0
 40
3.1485416667
 41
0.0
 71
     1
 72
     1
  1
D
  7
SLDTEXTSTYLE1
 73
     1
 44
1.0
  0
MTEXT
  5
BA
330
1F
100
AcDbEntity
  8
DIM
 62
     7
100
AcDbMText
 10
11.1708553046
 20
137.6303133627
 30
0.0
 40
3.1485416667
 41
0.0
 71
     1
 72
     1
  1
C
  7
SLDTEXTSTYLE1
 73
     1
 44
1.0
  0
MTEXT
  5
BB
330
1F
100
AcDbEntity
  8
DIM
 62
     7
100
AcDbMText
 10
11.1708553046
 20
222.6303133627
 30
0.0
 40
3.1485416667
 41
0.0
 71
     1
 72
     1
  1
B
  7
SLDTEXTSTYLE1
 73
     1
 44
1.0
  0
SPLINE
  5
BC
330
1F
100
AcDbEntity
  8
0
  6
Continuous
 62
     7
370
    15
100
AcDbSpline
210
0.0
220
0.0
230
1.0
 70
     8
 71
     3
 72
    14
 73
    10
 74
     0
 42
0.000000001
 43
0.00000001
 40
0.0
 40
0.0
 40
0.0
 40
0.0
 40
0.25
 40
0.25
 40
0.5
 40
0.5
 40
0.75
 40
0.75
 40
1.0
 40
1.0
 40
1.0
 40
1.0
 10
103.7467557508986
 20
186.9386652241081
 30
0.0
 10
103.7467557508986
 20
181.8409308473337
 30
0.0
 10
101.7215293248297
 20
176.9516017426417
 30
0.0
 10
94.51224423181972
 20
169.7423166496317
 30
0.0
 10
89.62291512712768
 20
167.7170902235627
 30
0.0
 10
79.4274463735788
 20
167.7170902235627
 30
0.0
 10
74.53811726888677
 20
169.7423166496317
 30
0.0
 10
67.32883217587678
 20
176.9516017426417
 30
0.0
 10
65.30360574980784
 20
181.8409308473337
 30
0.0
 10
65.30360574980784
 20
186.9386652241081
 30
0.0
  0
SPLINE
  5
BD
330
1F
100
AcDbEntity
  8
0
  6
Continuous
 62
     7
370
    15
100
AcDbSpline
210
0.0
220
0.0
230
1.0
 70
     8
 71
     3
 72
    14
 73
    10
 74
     0
 42
0.000000001
 43
0.00000001
 40
0.0
 40
0.0
 40
0.0
 40
0.0
 40
0.25
 40
0.25
 40
0.5
 40
0.5
 40
0.75
 40
0.75
 40
1.0
 40
1.0
 40
1.0
 40
1.0
 10
65.30360574980784
 20
186.9386652241081
 30
0.0
 10
65.30360574980784
 20
192.0363996008826
 30
0.0
 10
67.32883217587678
 20
196.9257287055746
 30
0.0
 10
74.53811726888677
 20
204.1350137985846
 30
0.0
 10
79.42744637357879
 20
206.1602402246535
 30
0.0
 10
89.62291512712768
 20
206.1602402246535
 30
0.0
 10
94.51224423181971
 20
204.1350137985846
 30
0.0
 10
101.7215293248297
 20
196.9257287055746
 30
0.0
 10
103.7467557508986
 20
192.0363996008826
 30
0.0
 10
103.7467557508986
 20
186.9386652241081
 30
0.0
  0
CIRCLE
  5
BE
330
1F
100
AcDbEntity
  8
0
  6
Continuous
 62
     7
370
    15
100
AcDbCircle
 10
84.5251807504
 20
186.9386652241
 30
0.0
 40
20.21110778703758
  0
CIRCLE
  5
BF
330
1F
100
AcDbEntity
  8
0
  6
Continuous
 62
     7
370
    15
100
AcDbCircle
 10
84.5251807504
 20
186.9386652241
 30
0.0
 40
34.925
  0
SPLINE
  5
C0
330
1F
100
AcDbEntity
  8
0
  6
Continuous
 62
     7
370
    15
100
AcDbSpline
210
0.0
220
0.0
230
1.0
 70
     8
 71
     3
 72
    52
 73
    48
 74
     0
 42
0.000000001
 43
0.00000001
 40
0.0
 40
0.0
 40
0.0
 40
0.0
 40
0.0053074994726554
 40
0.0106084744807156
 40
0.0159043870752884
 40
0.0211967035030982
 40
0.0264868930010475
 40
0.031776426578386
 40
0.0370667757915106
 40
0.0423594115164833
 40
0.0476558027243854
 40
0.0529574152645906
 40
0.0582657106609693
 40
0.0891348494758177
 40
0.1200087595578935
 40
0.1521645941108524
 40
0.1843252192282218
 40
0.2171652710885947
 40
0.2500102154523581
 40
0.2828502674523063
 40
0.3156952119562962
 40
0.3478510468948057
 40
0.380011672397905
 40
0.4108808109142898
 40
0.4417547207534483
 40
0.470875333637603
 40
0.5000007798720159
 40
0.5291213927975412
 40
0.5582468390472084
 40
0.5891159778617261
 40
0.6199898879441322
 40
0.652145722497098
 40
0.6843063476144644
 40
0.7171463994755694
 40
0.7499913438386044
 40
0.7828313958395676
 40
0.8156763403425417
 40
0.8478321752819549
 40
0.8799928007841501
 40
0.9108619393016738
 40
0.941735849139696
 40
0.9514609652020397
 40
0.9611682412334405
 40
0.9708667191333772
 40
0.9805654654081966
 40
0.9902735458123287
 40
1.0
 40
1.0
 40
1.0
 40
1.0
 10
49.52518075035324
 20
186.9386652241081
 30
0.0
 10
49.52610878126369
 20
187.1331273821611
 30
0.0
 10
49.52796370226401
 20
187.5218126475668
 30
0.0
 10
49.54299273661564
 20
188.1043756175883
 30
0.0
 10
49.56699136565002
 20
188.6860615049576
 30
0.0
 10
49.60083566973313
 20
189.2668701997748
 30
0.0
 10
49.64429121146672
 20
189.846801548194
 30
0.0
 10
49.69742077253278
 20
190.4258554686186
 30
0.0
 10
49.76020744225497
 20
191.0040316327553
 30
0.0
 10
49.83265603477155
 20
191.5813306301237
 30
0.0
 10
49.91476407226456
 20
192.1577496302712
 30
0.0
 10
50.00653647425822
 20
192.7332985918493
 30
0.0
 10
50.27067597589161
 20
194.229911195363
 30
0.0
 10
50.83444372879703
 20
196.6256180565311
 30
0.0
 10
51.94706090913574
 20
199.8864891625836
 30
0.0
 10
53.39422712467636
 20
203.0663780448773
 30
0.0
 10
55.19340275408306
 20
206.144876976633
 30
0.0
 10
57.30982332964339
 20
209.0463368846699
 30
0.0
 10
59.73270852315853
 20
211.7308838606638
 30
0.0
 10
62.417369001777
 20
214.1539090356103
 30
0.0
 10
65.31866914133727
 20
216.2702482716874
 30
0.0
 10
68.39732223936427
 20
218.0695404638064
 30
0.0
 10
71.57698567337259
 20
219.5166485970138
 30
0.0
 10
74.83822197137891
 20
220.6293784140186
 30
0.0
 10
78.08396627011294
 20
221.3932658994148
 30
0.0
 10
81.32283238826885
 20
221.8415438994252
 30
0.0
 10
84.52500377819871
 20
221.9872217642654
 30
0.0
 10
87.72735124884498
 20
221.8415603868169
 30
0.0
 10
90.96604950855888
 20
221.3933301943558
 30
0.0
 10
94.21197011813193
 20
220.6294281352331
 30
0.0
 10
97.4730505186914
 20
219.5167778058744
 30
0.0
 10
100.6528810871465
 20
218.069620830819
 30
0.0
 10
103.7313959273565
 20
216.2704426635899
 30
0.0
 10
106.6328514834831
 20
214.1540228467424
 30
0.0
 10
109.3173996414926
 20
211.731137205632
 30
0.0
 10
111.7404244710753
 20
209.0464777531465
 30
0.0
 10
113.8567639052403
 20
206.1451739817936
 30
0.0
 10
115.6560556578784
 20
203.0665341192116
 30
0.0
 10
117.103165327238
 20
199.8868221737878
 30
0.0
 10
118.2158896509013
 20
196.6257599641125
 30
0.0
 10
118.8167355829441
 20
194.0723458787583
 30
0.0
 10
119.1246756624632
 20
192.2549261731566
 30
0.0
 10
119.2708147733858
 20
191.1974794349281
 30
0.0
 10
119.3846208006469
 20
190.1370421815533
 30
0.0
 10
119.4653161214535
 20
189.0735882074011
 30
0.0
 10
119.5158376568691
 20
188.0071278386667
 30
0.0
 10
119.5220644235568
 20
187.2950438349411
 30
0.0
 10
119.5251807503532
 20
186.9386652241081
 30
0.0
  0
SPLINE
  5
C1
330
1F
100
AcDbEntity
  8
0
  6
Continuous
 62
     7
370
    15
100
AcDbSpline
210
0.0
220
0.0
230
1.0
 70
     8
 71
     3
 72
    52
 73
    48
 74
     0
 42
0.000000001
 43
0.00000001
 40
0.0
 40
0.0
 40
0.0
 40
0.0
 40
0.0053074994726554
 40
0.0106084744807156
 40
0.0159043870752884
 40
0.0211967035030983
 40
0.0264868930010475
 40
0.0317764265783861
 40
0.0370667757915106
 40
0.0423594115164834
 40
0.0476558027243854
 40
0.0529574152645907
 40
0.0582657106609694
 40
0.0891348494759667
 40
0.1200087595578951
 40
0.1521645941111445
 40
0.1843252192282232
 40
0.2171652710889209
 40
0.25001021545236
 40
0.2828502674525652
 40
0.315695211956297
 40
0.3478510468951538
 40
0.3800116723979077
 40
0.41088081091547
 40
0.4417547207534571
 40
0.4708753336379863
 40
0.5000007798720127
 40
0.5291213927971703
 40
0.5582468390472111
 40
0.5891159778626601
 40
0.6199898879441411
 40
0.6521457224976949
 40
0.6843063476144631
 40
0.7171463994753853
 40
0.7499913438386053
 40
0.7828313958393156
 40
0.8156763403425399
 40
0.8478321752809374
 40
0.8799928007841432
 40
0.9108619393011222
 40
0.9417358491396983
 40
0.9514609652021586
 40
0.9611682412336295
 40
0.9708667191335897
 40
0.9805654654083855
 40
0.9902735458124469
 40
1.0
 40
1.0
 40
1.0
 40
1.0
 10
119.5251807503532
 20
186.9386652241081
 30
0.0
 10
119.5242527194428
 20
186.7442030660552
 30
0.0
 10
119.5223977984425
 20
186.3555178006495
 30
0.0
 10
119.5073687640908
 20
185.772954830628
 30
0.0
 10
119.4833701350565
 20
185.1912689432586
 30
0.0
 10
119.4495258309733
 20
184.6104602484415
 30
0.0
 10
119.4060702892397
 20
184.0305289000223
 30
0.0
 10
119.3529407281737
 20
183.4514749795976
 30
0.0
 10
119.2901540584515
 20
182.873298815461
 30
0.0
 10
119.2177054659349
 20
182.2959998180926
 30
0.0
 10
119.1355974284419
 20
181.7195808179451
 30
0.0
 10
119.0438250264483
 20
181.144031856367
 30
0.0
 10
118.7796855248138
 20
179.6474192528479
 30
0.0
 10
118.2159177719107
 20
177.2517123916791
 30
0.0
 10
117.1033005915643
 20
173.990841285618
 30
0.0
 10
115.6561343760253
 20
170.8109524033294
 30
0.0
 10
113.856958746611
 20
167.7324534715645
 30
0.0
 10
111.740538171056
 20
164.8309935635367
 30
0.0
 10
109.317652977533
 20
162.1464465875373
 30
0.0
 10
106.6329924989209
 20
159.7234214126013
 30
0.0
 10
103.7316923593505
 20
157.6070821765173
 30
0.0
 10
100.6530392613327
 20
155.8077899844001
 30
0.0
 10
97.4733758272813
 20
154.360681851184
 30
0.0
 10
94.21213952928893
 20
153.247952034176
 30
0.0
 10
90.96639523053776
 20
152.4840645487886
 30
0.0
 10
87.72752911242151
 20
152.0357865488129
 30
0.0
 10
84.52535772250769
 20
151.890108683949
 30
0.0
 10
81.32301025187381
 20
152.0357700613875
 30
0.0
 10
78.08431199212811
 20
152.4840002538674
 30
0.0
 10
74.83839138253876
 20
153.2479023129819
 30
0.0
 10
71.57731098196281
 20
154.360552642362
 30
0.0
 10
68.39748041354865
 20
155.8077096174227
 30
0.0
 10
65.31896557333617
 20
157.6068877846324
 30
0.0
 10
62.41751001722736
 20
159.7233076014682
 30
0.0
 10
59.73296185922465
 20
162.1461932425725
 30
0.0
 10
57.30993702964128
 20
164.8308526950659
 30
0.0
 10
55.19359759548972
 20
167.7321564663827
 30
0.0
 10
53.39430584285303
 20
170.8107963289757
 30
0.0
 10
51.94719617349107
 20
173.9905082743756
 30
0.0
 10
50.83447184979435
 20
177.2515704840796
 30
0.0
 10
50.23362591776385
 20
179.8049845694421
 30
0.0
 10
49.92568583824362
 20
181.622404275071
 30
0.0
 10
49.77954672732101
 20
182.6798510133073
 30
0.0
 10
49.66574070005985
 20
183.7402882666847
 30
0.0
 10
49.5850453792532
 20
184.8037422408342
 30
0.0
 10
49.5345238438374
 20
185.8702026095608
 30
0.0
 10
49.5282970771497
 20
186.5822866132796
 30
0.0
 10
49.52518075035324
 20
186.9386652241081
 30
0.0
  0
SPLINE
  5
C2
330
1F
100
AcDbEntity
  8
0
  6
Continuous
 62
     7
370
    15
100
AcDbSpline
210
0.0
220
0.0
230
1.0
 70
    24
 71
     3
 72
     8
 73
     4
 74
     0
 42
0.000000001
 43
0.00000001
 40
0.0
 40
0.0
 40
0.0
 40
0.0
 40
1.0
 40
1.0
 40
1.0
 40
1.0
 10
54.52518075035323
 20
224.2383267076752
 30
0.0
 10
54.52518075035323
 20
224.1348176634408
 30
0.0
 10
54.52518075035324
 20
224.0053941016087
 30
0.0
 10
54.52518075035324
 20
223.8746503006888
 30
0.0
  0
ARC
  5
C3
330
1F
100
AcDbEntity
  8
0
  6
Continuous
 62
     7
370
    15
100
AcDbCircle
 10
84.5251807504
 20
186.9386652241
 30
0.0
 40
47.58431457505075
100
AcDbArc
 50
129.0840578538
 51
140.9159421462
  0
SPLINE
  5
C4
330
1F
100
AcDbEntity
  8
0
  6
Continuous
 62
     7
370
    15
100
AcDbSpline
210
0.0
220
0.0
230
1.0
 70
    24
 71
     3
 72
     8
 73
     4
 74
     0
 42
0.000000001
 43
0.00000001
 40
0.0
 40
0.0
 40
0.0
 40
0.0
 40
1.0
 40
1.0
 40
1.0
 40
1.0
 10
47.58919567377259
 20
216.9386652241081
 30
0.0
 10
47.4584915241657
 20
216.9386652241081
 30
0.0
 10
47.32895455714953
 20
216.9386652241081
 30
0.0
 10
47.22551926678619
 20
216.9386652241081
 30
0.0
  0
ARC
  5
C5
330
1F
100
AcDbEntity
  8
0
  6
Continuous
 62
     7
370
    15
100
AcDbCircle
 10
84.5251807504
 20
186.9386652241
 30
0.0
 40
47.86715728752537
100
AcDbArc
 50
128.8096103904
 51
141.1903896096
  0
ARC
  5
C6
330
1F
100
AcDbEntity
  8
0
  6
Continuous
 62
     7
370
    15
100
AcDbCircle
 10
84.5251807504
 20
186.9386652241
 30
0.0
 40
47.86715728752539
100
AcDbArc
 50
163.7023380383
 51
196.2976619617
  0
SPLINE
  5
C7
330
1F
100
AcDbEntity
  8
0
  6
Continuous
 62
     7
370
    15
100
AcDbSpline
210
0.0
220
0.0
230
1.0
 70
     8
 71
     3
 72
    10
 73
     6
 74
     0
 42
0.000000001
 43
0.00000001
 40
0.0
 40
0.0
 40
0.0
 40
0.0
 40
0.5
 40
0.5
 40
1.0
 40
1.0
 40
1.0
 40
1.0
 10
38.58148168888658
 20
200.3715079365828
 30
0.0
 10
38.62502208030531
 20
200.4041409976001
 30
0.0
 10
38.67357668442307
 20
200.4321218838663
 30
0.0
 10
38.78502622018495
 20
200.4747787342413
 30
0.0
 10
38.84698447277409
 20
200.4886652241081
 30
0.0
 10
38.9108793353651
 20
200.4886652241081
 30
0.0
  0
ARC
  5
C8
330
1F
100
AcDbEntity
  8
0
  6
Continuous
 62
     7
370
    15
100
AcDbCircle
 10
84.5251807504
 20
186.9386652241
 30
0.0
 40
47.58431457505078
100
AcDbArc
 50
163.4556342686
 51
196.5443657314
  0
SPLINE
  5
C9
330
1F
100
AcDbEntity
  8
0
  6
Continuous
 62
     7
370
    15
100
AcDbSpline
210
0.0
220
0.0
230
1.0
 70
     8
 71
     3
 72
    10
 73
     6
 74
     0
 42
0.000000001
 43
0.00000001
 40
0.0
 40
0.0
 40
0.0
 40
0.0
 40
0.5
 40
0.5
 40
1.0
 40
1.0
 40
1.0
 40
1.0
 10
38.58148168888658
 20
173.5058225116335
 30
0.0
 10
38.62502208030531
 20
173.4731894506162
 30
0.0
 10
38.67357668442307
 20
173.44520856435
 30
0.0
 10
38.78502622018497
 20
173.402551713975
 30
0.0
 10
38.84698447277407
 20
173.3886652241081
 30
0.0
 10
38.9108793353651
 20
173.3886652241081
 30
0.0
  0
SPLINE
  5
CA
330
1F
100
AcDbEntity
  8
0
  6
Continuous
 62
     7
370
    15
100
AcDbSpline
210
0.0
220
0.0
230
1.0
 70
     8
 71
     3
 72
    10
 73
     6
 74
     0
 42
0.000000001
 43
0.00000001
 40
0.0
 40
0.0
 40
0.0
 40
0.0
 40
0.5
 40
0.5
 40
1.0
 40
1.0
 40
1.0
 40
1.0
 10
130.4688798118199
 20
173.5058225116336
 30
0.0
 10
130.4253394204012
 20
173.4731894506163
 30
0.0
 10
130.3767848162834
 20
173.44520856435
 30
0.0
 10
130.2653352805215
 20
173.402551713975
 30
0.0
 10
130.2033770279324
 20
173.3886652241081
 30
0.0
 10
130.1394821653414
 20
173.3886652241082
 30
0.0
  0
ARC
  5
CB
330
1F
100
AcDbEntity
  8
0
  6
Continuous
 62
     7
370
    15
100
AcDbCircle
 10
84.5251807504
 20
186.9386652241
 30
0.0
 40
47.58431457505075
100
AcDbArc
 50
343.4556342686
 51
16.5443657314
  0
SPLINE
  5
CC
330
1F
100
AcDbEntity
  8
0
  6
Continuous
 62
     7
370
    15
100
AcDbSpline
210
0.0
220
0.0
230
1.0
 70
     8
 71
     3
 72
    10
 73
     6
 74
     0
 42
0.000000001
 43
0.00000001
 40
0.0
 40
0.0
 40
0.0
 40
0.0
 40
0.5
 40
0.5
 40
1.0
 40
1.0
 40
1.0
 40
1.0
 10
130.1394821653414
 20
200.4886652241081
 30
0.0
 10
130.2034338541845
 20
200.4886652241081
 30
0.0
 10
130.2649981926356
 20
200.4748193480833
 30
0.0
 10
130.3756235434847
 20
200.4326535718959
 30
0.0
 10
130.4253102351541
 20
200.4041628716329
 30
0.0
 10
130.4688798118199
 20
200.3715079365828
 30
0.0
  0
ARC
  5
CD
330
1F
100
AcDbEntity
  8
0
  6
Continuous
 62
     7
370
    15
100
AcDbCircle
 10
84.5251807504
 20
186.9386652241
 30
0.0
 40
47.86715728752536
100
AcDbArc
 50
343.7023380383
 51
16.2976619617
  0
SPLINE
  5
CE
330
1F
100
AcDbEntity
  8
0
  6
Continuous
 62
     7
370
    15
100
AcDbSpline
210
0.0
220
0.0
230
1.0
 70
     8
 71
     3
 72
    40
 73
    36
 74
     0
 42
0.000000001
 43
0.00000001
 40
0.0
 40
0.0
 40
0.0
 40
0.0
 40
0.0076138096090706
 40
0.015222703696619
 40
0.0228283796622113
 40
0.0304325370604607
 40
0.0380368764641707
 40
0.0456430983240686
 40
0.0532529018289472
 40
0.0608679837700325
 40
0.0919930035882894
 40
0.1231236538966525
 40
0.1547321881285151
 40
0.1863461940165317
 40
0.2182020912711853
 40
0.2500635030030784
 40
0.3137495787501998
 40
0.3769416086590435
 40
0.439168148565131
 40
0.5000004350472922
 40
0.5608327215294534
 40
0.6230592614355407
 40
0.6862512913443847
 40
0.7499373670915059
 40
0.7817932643700992
 40
0.813654676120411
 40
0.8452632104154371
 40
0.8768772163635395
 40
0.9080022357785864
 40
0.9391328857746177
 40
0.9513123423166135
 40
0.963481817855821
 40
0.9756482751522532
 40
0.9878186821461872
 40
1.0
 40
1.0
 40
1.0
 40
1.0
 10
130.1394821653414
 20
200.4886652241081
 30
0.0
 10
130.0709827545091
 20
200.7156779818308
 30
0.0
 10
129.9340281564784
 20
201.169556936467
 30
0.0
 10
129.7157980673413
 20
201.8462241576374
 30
0.0
 10
129.4883024459458
 20
202.5194948582042
 30
0.0
 10
129.2506174817777
 20
203.1890943889944
 30
0.0
 10
129.0029903357359
 20
203.8550965293448
 30
0.0
 10
128.7453559056844
 20
204.5174800643636
 30
0.0
 10
128.4777277253368
 20
205.1762554993765
 30
0.0
 10
127.9145350753469
 20
206.5053592346168
 30
0.0
 10
126.9895164031811
 20
208.4766600060267
 30
0.0
 10
125.5871036907304
 20
211.0435050854412
 30
0.0
 10
124.0215640826221
 20
213.5324549118485
 30
0.0
 10
122.2910526273686
 20
215.9374843239439
 30
0.0
 10
120.4093981902039
 20
218.2365946816833
 30
0.0
 10
117.7075684231059
 20
221.1451885556344
 30
0.0
 10
114.0082046855869
 20
224.4457674020933
 30
0.0
 10
109.1479277804481
 20
227.7978167196674
 30
0.0
 10
103.9916400795935
 20
230.4861275086441
 30
0.0
 10
98.61847626408243
 20
232.506756175917
 30
0.0
 10
93.04273959081577
 20
233.8724025772127
 30
0.0
 10
87.26906604368071
 20
234.5645093077644
 30
0.0
 10
81.36499938900741
 20
234.5416553750393
 30
0.0
 10
76.44837166359201
 20
233.9059043629895
 30
0.0
 10
72.57622587164472
 20
233.0305293367495
 30
0.0
 10
69.72529842014502
 20
232.1952235514268
 30
0.0
 10
66.93900060204432
 20
231.1870575607416
 30
0.0
 10
64.24181517210287
 20
230.0166171662297
 30
0.0
 10
61.63497244061453
 20
228.6896318534559
 30
0.0
 10
59.63600051490852
 20
227.5126118259074
 30
0.0
 10
58.18553628102352
 20
226.5735381402554
 30
0.0
 10
57.2458040230103
 20
225.9328963369059
 30
0.0
 10
56.32224194651379
 20
225.2697145956112
 30
0.0
 10
55.41328546242152
 20
224.5858994077161
 30
0.0
 10
54.82130406736102
 20
224.1118041429438
 30
0.0
 10
54.52518075035325
 20
223.8746503006888
 30
0.0
  0
SPLINE
  5
CF
330
1F
100
AcDbEntity
  8
0
  6
Continuous
 62
     7
370
    15
100
AcDbSpline
210
0.0
220
0.0
230
1.0
 70
     8
 71
     3
 72
    48
 73
    44
 74
     0
 42
0.000000001
 43
0.00000001
 40
0.0
 40
0.0
 40
0.0
 40
0.0
 40
0.005434703786829
 40
0.0108647463481565
 40
0.0162911759172437
 40
0.0217150428221264
 40
0.0271373988800298
 40
0.032559296787466
 40
0.0379817895077769
 40
0.0434059296578991
 40
0.0488327688961384
 40
0.0542633573127282
 40
0.0596987428249332
 40
0.0907177253993591
 40
0.1217409090757467
 40
0.1535986684448282
 40
0.1854607425290361
 40
0.2177550902626071
 40
0.2500538118399379
 40
0.2823481596256391
 40
0.3146468812541988
 40
0.3465046407712576
 40
0.3783667150011435
 40
0.4403596830876939
 40
0.5000005600694934
 40
0.5596414370512929
 40
0.6216344051378433
 40
0.6534921645102401
 40
0.6853542385911324
 40
0.7176485863250008
 40
0.7499473079020139
 40
0.7822416556874933
 40
0.8145403773162917
 40
0.846398136836074
 40
0.8782602110632396
 40
0.909279193859034
 40
0.9403023777537861
 40
0.9502622131362787
 40
0.9602093142090031
 40
0.9701501568325975
 40
0.9800912290984334
 40
0.9900390186485545
 40
1.0
 40
1.0
 40
1.0
 40
1.0
 10
38.91087933536511
 20
173.3886652241081
 30
0.0
 10
38.97463983245119
 20
173.1771258876881
 30
0.0
 10
39.1021061406521
 20
172.7542286474684
 30
0.0
 10
39.30436967166919
 20
172.1235544052595
 30
0.0
 10
39.5146142401655
 20
171.4959769255911
 30
0.0
 10
39.73363970490699
 20
170.8717338741476
 30
0.0
 10
39.9612319082348
 20
170.2507617263575
 30
0.0
 10
40.19744819571434
 20
169.6330775523076
 30
0.0
 10
40.44227307856899
 20
169.0186769854646
 30
0.0
 10
40.69571102347792
 20
168.4075608457488
 30
0.0
 10
40.95775946647736
 20
167.799730629648
 30
0.0
 10
41.22842399402238
 20
167.1951799225351
 30
0.0
 10
41.94570323436338
 20
165.6508813273947
 30
0.0
 10
43.21721676151572
 20
163.2164388583623
 30
0.0
 10
45.25098191179197
 20
159.9814931993447
 30
0.0
 10
47.55820497373785
 20
156.8920142017725
 30
0.0
 10
50.14517063955692
 20
153.963424389146
 30
0.0
 10
52.97590005988634
 20
151.24352046466
 30
0.0
 10
56.03656564803152
 20
148.757258554988
 30
0.0
 10
59.29159451139535
 20
146.5311673776361
 30
0.0
 10
62.70473790604124
 20
144.5922069215377
 30
0.0
 10
66.24913193278924
 20
142.9462106651904
 30
0.0
 10
71.04936673474622
 20
141.1787247378544
 30
0.0
 10
77.1492890293422
 20
139.7333633311981
 30
0.0
 10
84.5251807921963
 20
139.1685088645111
 30
0.0
 10
91.90107230069164
 20
139.7333634009029
 30
0.0
 10
98.00082378611758
 20
141.1786838755388
 30
0.0
 10
102.801066200387
 20
142.9461436102484
 30
0.0
 10
106.3453098200673
 20
144.5920451006757
 30
0.0
 10
109.7586149573683
 20
146.531072783656
 30
0.0
 10
113.0135109464313
 20
148.7570459812908
 30
0.0
 10
116.0743275866783
 20
151.243401735705
 30
0.0
 10
118.9049459341709
 20
153.9631694020043
 30
0.0
 10
121.4920474172635
 20
156.8918777737884
 30
0.0
 10
123.7991775716691
 20
159.9812037640653
 30
0.0
 10
125.8330818630016
 20
163.2163048145399
 30
0.0
 10
127.1897859769849
 20
165.8139166837051
 30
0.0
 10
128.0512199719421
 20
167.6968041136737
 30
0.0
 10
128.5277667655855
 20
168.8128590880458
 30
0.0
 10
128.9755132949575
 20
169.9399532230472
 30
0.0
 10
129.3937524357072
 20
171.0783181467255
 30
0.0
 10
129.7851656400385
 20
172.2271496280656
 30
0.0
 10
130.0213244963003
 20
173.0013223665715
 30
0.0
 10
130.1394821653414
 20
173.3886652241082
 30
0.0
  0
SPLINE
  5
D0
330
1F
100
AcDbEntity
  8
0
  6
Continuous
 62
     7
370
    15
100
AcDbSpline
210
0.0
220
0.0
230
1.0
 70
     8
 71
     3
 72
    27
 73
    23
 74
     0
 42
0.000000001
 43
0.00000001
 40
0.0
 40
0.0
 40
0.0
 40
0.0
 40
0.0385569892848211
 40
0.0770658329194701
 40
0.1155353026399639
 40
0.1539741971376514
 40
0.1923913361118491
 40
0.2307955542506346
 40
0.2691956951601454
 40
0.3076006052631416
 40
0.3460191276878565
 40
0.3844600961682111
 40
0.4229323289763935
 40
0.461444622908547
 40
0.5000057473438686
 40
0.5715713334491092
 40
0.6429967682524639
 40
0.7143384572505677
 40
0.7856530046539444
 40
0.8569970792753662
 40
0.9284272796518032
 40
1.0
 40
1.0
 40
1.0
 40
1.0
 10
47.58919567377259
 20
216.9386652241081
 30
0.0
 10
47.43832633794265
 20
216.7512600399362
 30
0.0
 10
47.13677605501331
 20
216.3766836821987
 30
0.0
 10
46.69549037550755
 20
215.8065729887811
 30
0.0
 10
46.26270325422206
 20
215.2309311534098
 30
0.0
 10
45.83917923805979
 20
214.6491373178691
 30
0.0
 10
45.4247138598002
 20
214.06135770719
 30
0.0
 10
45.01936194198107
 20
213.4675479381093
 30
0.0
 10
44.62310889459158
 20
212.8677200116717
 30
0.0
 10
44.23595870499376
 20
212.2618708244724
 30
0.0
 10
43.85791038524071
 20
211.6500013669005
 30
0.0
 10
43.48896424155719
 20
211.032111375191
 30
0.0
 10
43.12912034179992
 20
210.4082015277847
 30
0.0
 10
42.77837837375235
 20
209.7782700014862
 30
0.0
 10
42.33944761582072
 20
208.9612188525039
 30
0.0
 10
41.82480639069503
 20
207.9518632597469
 30
0.0
 10
41.25091517244155
 20
206.7436998587352
 30
0.0
 10
40.71193788915255
 20
205.5212751798573
 30
0.0
 10
40.20764631813482
 20
204.284665751834
 30
0.0
 10
39.73891000913007
 20
203.0336143101637
 30
0.0
 10
39.30248011657424
 20
201.7690887679603
 30
0.0
 10
39.04149962880328
 20
200.9157565555061
 30
0.0
 10
38.91087933536511
 20
200.4886652241081
 30
0.0
  0
ARC
  5
D1
330
1F
100
AcDbEntity
  8
0
  6
Continuous
 62
     7
370
    15
100
AcDbCircle
 10
84.5251807504
 20
186.9386652241
 30
0.0
 40
47.86715728752539
100
AcDbArc
 50
196.2976619617
 51
343.7023380383
  0
ARC
  5
D2
330
1F
100
AcDbEntity
  8
0
  6
Continuous
 62
     7
370
    15
100
AcDbCircle
 10
84.5251807504
 20
186.9386652241
 30
0.0
 40
47.8671572875254
100
AcDbArc
 50
16.2976619617
 51
128.8096103904
  0
ARC
  5
D3
330
1F
100
AcDbEntity
  8
0
  6
Continuous
 62
     7
370
    15
100
AcDbCircle
 10
84.5251807504
 20
186.9386652241
 30
0.0
 40
47.86715728752538
100
AcDbArc
 50
141.1903896096
 51
163.7023380383
  0
ARC
  5
D4
330
1F
100
AcDbEntity
  8
0
  6
Continuous
 62
     7
370
    15
100
AcDbCircle
 10
84.5251807504
 20
186.9386652241
 30
0.0
 40
48.63284271247461
100
AcDbArc
 50
15.8741097166
 51
128.0877117496
  0
ARC
  5
D5
330
1F
100
AcDbEntity
  8
0
  6
Continuous
 62
     7
370
    15
100
AcDbCircle
 10
84.5251807504
 20
186.9386652241
 30
0.0
 40
48.63284271247459
100
AcDbArc
 50
344.1258902834
 51
15.8741097166
  0
ARC
  5
D6
330
1F
100
AcDbEntity
  8
0
  6
Continuous
 62
     7
370
    15
100
AcDbCircle
 10
84.5251807504
 20
186.9386652241
 30
0.0
 40
48.63284271247462
100
AcDbArc
 50
195.9657859825
 51
344.1258902834
  0
ARC
  5
D7
330
1F
100
AcDbEntity
  8
0
  6
Continuous
 62
     7
370
    15
100
AcDbCircle
 10
84.5251807504
 20
186.9386652241
 30
0.0
 40
48.63284271247462
100
AcDbArc
 50
164.0342140175
 51
195.9657859825
  0
ARC
  5
D8
330
1F
100
AcDbEntity
  8
0
  6
Continuous
 62
     7
370
    15
100
AcDbCircle
 10
84.5251807504
 20
186.9386652241
 30
0.0
 40
48.63284271247461
100
AcDbArc
 50
141.9122882504
 51
164.0342140175
  0
ARC
  5
D9
330
1F
100
AcDbEntity
  8
0
  6
Continuous
 62
     7
370
    15
100
AcDbCircle
 10
84.5251807504
 20
186.9386652241
 30
0.0
 40
48.63284271247461
100
AcDbArc
 50
128.0877117496
 51
141.9122882504
  0
SPLINE
  5
DA
330
1F
100
AcDbEntity
  8
0
  6
Continuous
 62
     7
370
    15
100
AcDbSpline
210
0.0
220
0.0
230
1.0
 70
    24
 71
     3
 72
    10
 73
     6
 74
     0
 42
0.000000001
 43
0.00000001
 40
0.0
 40
0.0
 40
0.0
 40
0.0
 40
0.5
 40
0.5
 40
1.0
 40
1.0
 40
1.0
 40
1.0
 10
37.76829544592887
 20
173.561555412
 30
0.0
 10
37.74535392569176
 20
173.5213620797368
 30
0.0
 10
37.72523283547218
 20
173.4861101149001
 30
0.0
 10
37.69596356141565
 20
173.4348306161965
 30
0.0
 10
37.68721696390186
 20
173.4195066578708
 30
0.0
 10
37.68721696390186
 20
173.4195066578708
 30
0.0
  0
ARC
  5
DB
330
1F
100
AcDbEntity
  8
0
  6
Continuous
 62
     7
370
    15
100
AcDbCircle
 10
84.5251807504
 20
186.9386652241
 30
0.0
 40
48.74999999999999
100
AcDbArc
 50
163.8999153276
 51
196.1000846724
  0
SPLINE
  5
DC
330
1F
100
AcDbEntity
  8
0
  6
Continuous
 62
     7
370
    15
100
AcDbSpline
210
0.0
220
0.0
230
1.0
 70
    24
 71
     3
 72
    10
 73
     6
 74
     0
 42
0.000000001
 43
0.00000001
 40
0.0
 40
0.0
 40
0.0
 40
0.0
 40
0.5
 40
0.5
 40
1.0
 40
1.0
 40
1.0
 40
1.0
 10
37.68721696390186
 20
200.4578237903455
 30
0.0
 10
37.68721696390187
 20
200.4578237903455
 30
0.0
 10
37.69593277851923
 20
200.4425537633707
 30
0.0
 10
37.72515085576565
 20
200.3913639610071
 30
0.0
 10
37.7453439134978
 20
200.3559859097511
 30
0.0
 10
37.76829544592886
 20
200.3157750362163
 30
0.0
  0
SPLINE
  5
DD
330
1F
100
AcDbEntity
  8
0
  6
Continuous
 62
     7
370
    15
100
AcDbSpline
210
0.0
220
0.0
230
1.0
 70
    24
 71
     3
 72
     8
 73
     4
 74
     0
 42
0.000000001
 43
0.00000001
 40
0.0
 40
0.0
 40
0.0
 40
0.0
 40
1.0
 40
1.0
 40
1.0
 40
1.0
 10
54.52518075035325
 20
225.3647305964566
 30
0.0
 10
54.52518075035325
 20
225.3647305964566
 30
0.0
 10
54.52518075035324
 20
225.3032150480252
 30
0.0
 10
54.52518075035324
 20
225.2159873652441
 30
0.0
  0
SPLINE
  5
DE
330
1F
100
AcDbEntity
  8
0
  6
Continuous
 62
     7
370
    15
100
AcDbSpline
210
0.0
220
0.0
230
1.0
 70
    24
 71
     3
 72
     8
 73
     4
 74
     0
 42
0.000000001
 43
0.00000001
 40
0.0
 40
0.0
 40
0.0
 40
0.0
 40
1.0
 40
1.0
 40
1.0
 40
1.0
 10
46.2478586092173
 20
216.9386652241081
 30
0.0
 10
46.16058419300322
 20
216.9386652241081
 30
0.0
 10
46.09911537800473
 20
216.938665224108
 30
0.0
 10
46.09911537800472
 20
216.938665224108
 30
0.0
  0
ARC
  5
DF
330
1F
100
AcDbEntity
  8
0
  6
Continuous
 62
     7
370
    15
100
AcDbCircle
 10
84.5251807504
 20
186.9386652241
 30
0.0
 40
48.74999999999999
100
AcDbArc
 50
127.9798724449
 51
142.0201275551
  0
ARC
  5
E0
330
1F
100
AcDbEntity
  8
0
  6
Continuous
 62
     7
370
    15
100
AcDbCircle
 10
84.5251807504
 20
186.9386652241
 30
0.0
 40
48.75000000000001
100
AcDbArc
 50
344.0491974398
 51
15.9508025602
  0
SPLINE
  5
E1
330
1F
100
AcDbEntity
  8
0
  6
Continuous
 62
     7
370
    15
100
AcDbSpline
210
0.0
220
0.0
230
1.0
 70
    24
 71
     3
 72
     8
 73
     4
 74
     0
 42
0.000000001
 43
0.00000001
 40
0.0
 40
0.0
 40
0.0
 40
0.0
 40
1.0
 40
1.0
 40
1.0
 40
1.0
 10
131.3982092045619
 20
173.5415870526955
 30
0.0
 10
131.3982092045619
 20
173.5415870526955
 30
0.0
 10
131.3611126114957
 20
173.5786836457617
 30
0.0
 10
131.3034102733987
 20
173.6363859838586
 30
0.0
  0
SPLINE
  5
E2
330
1F
100
AcDbEntity
  8
0
  6
Continuous
 62
     7
370
    15
100
AcDbSpline
210
0.0
220
0.0
230
1.0
 70
    24
 71
     3
 72
     8
 73
     4
 74
     0
 42
0.000000001
 43
0.00000001
 40
0.0
 40
0.0
 40
0.0
 40
0.0
 40
1.0
 40
1.0
 40
1.0
 40
1.0
 10
131.3034102733987
 20
200.2409444643576
 30
0.0
 10
131.3611376586714
 20
200.2986718496303
 30
0.0
 10
131.3982092045619
 20
200.3357433955208
 30
0.0
 10
131.3982092045619
 20
200.3357433955208
 30
0.0
  0
ARC
  5
E3
330
1F
100
AcDbEntity
  8
0
  6
Continuous
 62
     7
370
    15
100
AcDbCircle
 10
84.5251807504
 20
186.9386652241
 30
0.0
 40
48.75000000000001
100
AcDbArc
 50
15.9508025602
 51
127.9798724449
  0
ARC
  5
E4
330
1F
100
AcDbEntity
  8
0
  6
Continuous
 62
     7
370
    15
100
AcDbCircle
 10
84.5251807504
 20
186.9386652241
 30
0.0
 40
48.75000000000001
100
AcDbArc
 50
196.1000846724
 51
344.0491974398
  0
ARC
  5
E5
330
1F
100
AcDbEntity
  8
0
  6
Continuous
 62
     7
370
    15
100
AcDbCircle
 10
84.5251807504
 20
186.9386652241
 30
0.0
 40
48.74999999999999
100
AcDbArc
 50
142.0201275551
 51
163.8999153276
  0
ARC
  5
E6
330
1F
100
AcDbEntity
  8
0
  6
Continuous
 62
     7
370
    15
100
AcDbCircle
 10
84.5251807504
 20
186.9386652241
 30
0.0
 40
48.74999999999999
100
AcDbArc
 50
180.0
 51
196.1000846724
  0
ARC
  5
E7
330
1F
100
AcDbEntity
  8
0
  6
Continuous
 62
     7
370
    15
100
AcDbCircle
 10
84.5251807504
 20
186.9386652241
 30
0.0
 40
48.74999999999999
100
AcDbArc
 50
163.8999153276
 51
180.0
  0
INSERT
  5
F3
330
1F
100
AcDbEntity
  8
DIM
100
AcDbBlockReference
  2
SW_CENTERMARKSYMBOL_0
 10
84.5251807504
 20
186.9386652241
 30
0.0
  0
LINE
  5
F4
330
1F
100
AcDbEntity
  8
0
  6
Continuous
 62
     7
370
    15
100
AcDbLine
 10
270.7324141089
 20
138.1886652241
 30
0.0
 11
274.3191334197
 21
138.1886652241
 31
0.0
  0
LINE
  5
F5
330
1F
100
AcDbEntity
  8
0
  6
Continuous
 62
     7
370
    15
100
AcDbLine
 10
274.3191334197
 20
235.6886652241
 30
0.0
 11
270.7324141089
 21
235.6886652241
 31
0.0
  0
LINE
  5
F6
330
1F
100
AcDbEntity
  8
0
  6
Continuous
 62
     7
370
    15
100
AcDbLine
 10
270.7324141089
 20
235.6886652241
 30
0.0
 11
269.3848188447
 21
233.3545617585
 31
0.0
  0
LINE
  5
F7
330
1F
100
AcDbEntity
  8
0
  6
Continuous
 62
     7
370
    15
100
AcDbLine
 10
269.3848188447
 20
140.5227686897
 30
0.0
 11
270.7324141089
 21
138.1886652241
 31
0.0
  0
LINE
  5
F8
330
1F
100
AcDbEntity
  8
0
  6
Continuous
 62
     7
370
    15
100
AcDbLine
 10
264.2372235805
 20
138.1886652241
 30
0.0
 11
265.5848188447
 21
140.5227686897
 31
0.0
  0
LINE
  5
F9
330
1F
100
AcDbEntity
  8
0
  6
Continuous
 62
     7
370
    15
100
AcDbLine
 10
265.5848188447
 20
233.3545617585
 30
0.0
 11
264.2372235805
 21
235.6886652241
 31
0.0
  0
LINE
  5
FA
330
1F
100
AcDbEntity
  8
0
  6
Continuous
 62
     7
370
    15
100
AcDbLine
 10
260.7505042696
 20
138.1886652241
 30
0.0
 11
264.2372235805
 21
138.1886652241
 31
0.0
  0
LINE
  5
FB
330
1F
100
AcDbEntity
  8
0
  6
Continuous
 62
     7
370
    15
100
AcDbLine
 10
264.2372235805
 20
235.6886652241
 30
0.0
 11
260.7505042696
 21
235.6886652241
 31
0.0
  0
LINE
  5
FC
330
1F
100
AcDbEntity
  8
0
  6
Continuous
 62
     7
370
    15
100
AcDbLine
 10
260.4676615572
 20
235.5715079366
 30
0.0
 11
259.7019761322
 21
234.8058225116
 31
0.0
  0
LINE
  5
FD
330
1F
100
AcDbEntity
  8
0
  6
Continuous
 62
     7
370
    15
100
AcDbLine
 10
259.7019761322
 20
139.0715079366
 30
0.0
 11
260.4676615572
 21
138.3058225116
 31
0.0
  0
LINE
  5
FE
330
1F
100
AcDbEntity
  8
0
  6
Continuous
 62
     7
370
    15
100
AcDbLine
 10
274.6019761322
 20
138.3058225116
 30
0.0
 11
275.3676615572
 21
139.0715079366
 31
0.0
  0
LINE
  5
FF
330
1F
100
AcDbEntity
  8
0
  6
Continuous
 62
     7
370
    15
100
AcDbLine
 10
275.3676615572
 20
234.8058225116
 30
0.0
 11
274.6019761322
 21
235.5715079366
 31
0.0
  0
ARC
  5
100
330
1F
100
AcDbEntity
  8
0
  6
Continuous
 62
     7
370
    15
100
AcDbCircle
 10
274.3191334197
 20
138.5886652241
 30
0.0
 40
0.4000000000000193
100
AcDbArc
 50
270.0
 51
315.0
  0
ARC
  5
101
330
1F
100
AcDbEntity
  8
0
  6
Continuous
 62
     7
370
    15
100
AcDbCircle
 10
260.7505042696
 20
138.5886652241
 30
0.0
 40
0.4000000000000057
100
AcDbArc
 50
225.0
 51
270.0
  0
ARC
  5
102
330
1F
100
AcDbEntity
  8
0
  6
Continuous
 62
     7
370
    15
100
AcDbCircle
 10
274.3191334197
 20
235.2886652241
 30
0.0
 40
0.3999999999999992
100
AcDbArc
 50
45.0
 51
90.0
  0
ARC
  5
103
330
1F
100
AcDbEntity
  8
0
  6
Continuous
 62
     7
370
    15
100
AcDbCircle
 10
260.7505042696
 20
235.2886652241
 30
0.0
 40
0.3999999999999791
100
AcDbArc
 50
90.0
 51
135.0
  0
ARC
  5
104
330
1F
100
AcDbEntity
  8
0
  6
Continuous
 62
     7
370
    15
100
AcDbCircle
 10
275.0848188447
 20
139.3543506491
 30
0.0
 40
0.4000000000000341
100
AcDbArc
 50
315.0
 51
0.0
  0
ARC
  5
105
330
1F
100
AcDbEntity
  8
0
  6
Continuous
 62
     7
370
    15
100
AcDbCircle
 10
275.0848188447
 20
234.5229797992
 30
0.0
 40
0.4000000000000341
100
AcDbArc
 50
0.0
 51
45.0
  0
ARC
  5
106
330
1F
100
AcDbEntity
  8
0
  6
Continuous
 62
     7
370
    15
100
AcDbCircle
 10
259.9848188447
 20
139.3543506491
 30
0.0
 40
0.3999999999999773
100
AcDbArc
 50
180.0
 51
225.0
  0
ARC
  5
107
330
1F
100
AcDbEntity
  8
0
  6
Continuous
 62
     7
370
    15
100
AcDbCircle
 10
259.9848188447
 20
234.5229797992
 30
0.0
 40
0.3999999999999773
100
AcDbArc
 50
135.0
 51
180.0
  0
LINE
  5
108
330
1F
100
AcDbEntity
  8
0
  6
Continuous
 62
     7
370
    15
100
AcDbLine
 10
265.5848188447
 20
141.4386652241
 30
0.0
 11
269.3848188447
 21
141.4386652241
 31
0.0
  0
LINE
  5
109
330
1F
100
AcDbEntity
  8
0
  6
Continuous
 62
     7
370
    15
100
AcDbLine
 10
269.3848188447
 20
232.4386652241
 30
0.0
 11
265.5848188447
 21
232.4386652241
 31
0.0
  0
LINE
  5
10A
330
1F
100
AcDbEntity
  8
0
  6
Continuous
 62
     7
370
    15
100
AcDbLine
 10
415.3848188447
 20
142.9386652241
 30
0.0
 11
416.3848188447
 21
143.9386652241
 31
0.0
  0
LINE
  5
10B
330
1F
100
AcDbEntity
  8
0
  6
Continuous
 62
     7
370
    15
100
AcDbLine
 10
416.3848188447
 20
229.9386652241
 30
0.0
 11
415.3848188447
 21
230.9386652241
 31
0.0
  0
LINE
  5
10C
330
1F
100
AcDbEntity
  8
0
  6
Continuous
 62
     7
370
    15
100
AcDbLine
 10
293.3848188447
 20
142.9386652241
 30
0.0
 11
415.3848188447
 21
142.9386652241
 31
0.0
  0
LINE
  5
10D
330
1F
100
AcDbEntity
  8
0
  6
Continuous
 62
     7
370
    15
100
AcDbLine
 10
415.3848188447
 20
230.9386652241
 30
0.0
 11
293.3848188447
 21
230.9386652241
 31
0.0
  0
LINE
  5
10E
330
1F
100
AcDbEntity
  8
0
  6
Continuous
 62
     7
370
    15
100
AcDbLine
 10
293.3848188447
 20
230.9386652241
 30
0.0
 11
292.3848188447
 21
229.9386652241
 31
0.0
  0
LINE
  5
10F
330
1F
100
AcDbEntity
  8
0
  6
Continuous
 62
     7
370
    15
100
AcDbLine
 10
292.3848188447
 20
143.9386652241
 30
0.0
 11
293.3848188447
 21
142.9386652241
 31
0.0
  0
ARC
  5
110
330
1F
100
AcDbEntity
  8
0
  6
Continuous
 62
     7
370
    15
100
AcDbCircle
 10
278.4848188447
 20
229.6886652241
 30
0.0
 40
3.000000000000028
100
AcDbArc
 50
180.0
 51
270.0
  0
ARC
  5
111
330
1F
100
AcDbEntity
  8
0
  6
Continuous
 62
     7
370
    15
100
AcDbCircle
 10
278.4848188447
 20
144.1886652241
 30
0.0
 40
3.0
100
AcDbArc
 50
90.0
 51
180.0
  0
ARC
  5
112
330
1F
100
AcDbEntity
  8
0
  6
Continuous
 62
     7
370
    15
100
AcDbCircle
 10
291.8848188447
 20
146.6886652241
 30
0.0
 40
0.5000000000000568
100
AcDbArc
 50
0.0
 51
90.0
  0
ARC
  5
113
330
1F
100
AcDbEntity
  8
0
  6
Continuous
 62
     7
370
    15
100
AcDbCircle
 10
291.8848188447
 20
227.1886652241
 30
0.0
 40
0.5000000000000568
100
AcDbArc
 50
270.0
 51
0.0
  0
LINE
  5
114
330
1F
100
AcDbEntity
  8
0
  6
Continuous
 62
     7
370
    15
100
AcDbLine
 10
278.4848188447
 20
147.1886652241
 30
0.0
 11
291.8848188447
 21
147.1886652241
 31
0.0
  0
LINE
  5
115
330
1F
100
AcDbEntity
  8
0
  6
Continuous
 62
     7
370
    15
100
AcDbLine
 10
291.8848188447
 20
226.6886652241
 30
0.0
 11
278.4848188447
 21
226.6886652241
 31
0.0
  0
ARC
  5
116
330
1F
100
AcDbEntity
  8
0
  6
Continuous
 62
     7
370
    15
100
AcDbCircle
 10
259.0848188447
 20
151.9386652241
 30
0.0
 40
0.5
100
AcDbArc
 50
0.0
 51
90.0
  0
ARC
  5
117
330
1F
100
AcDbEntity
  8
0
  6
Continuous
 62
     7
370
    15
100
AcDbCircle
 10
259.0848188447
 20
221.9386652241
 30
0.0
 40
0.5
100
AcDbArc
 50
270.0
 51
0.0
  0
LINE
  5
118
330
1F
100
AcDbEntity
  8
0
  6
Continuous
 62
     7
370
    15
100
AcDbLine
 10
256.3848188447
 20
152.0136652241
 30
0.0
 11
257.2962342859
 21
152.4386652241
 31
0.0
  0
LINE
  5
119
330
1F
100
AcDbEntity
  8
0
  6
Continuous
 62
     7
370
    15
100
AcDbLine
 10
257.2962342859
 20
221.4386652241
 30
0.0
 11
256.3848188447
 21
221.8636652241
 31
0.0
  0
LINE
  5
11A
330
1F
100
AcDbEntity
  8
0
  6
Continuous
 62
     7
370
    15
100
AcDbLine
 10
256.3848188447
 20
221.8636652241
 30
0.0
 11
155.4905106174
 21
207.1497730111
 31
0.0
  0
LINE
  5
11B
330
1F
100
AcDbEntity
  8
0
  6
Continuous
 62
     7
370
    15
100
AcDbLine
 10
155.4905106174
 20
166.7275574371
 30
0.0
 11
256.3848188447
 21
152.0136652241
 31
0.0
  0
LINE
  5
11C
330
1F
100
AcDbEntity
  8
0
  6
Continuous
 62
     7
370
    15
100
AcDbLine
 10
257.2962342859
 20
152.4386652241
 30
0.0
 11
259.0848188447
 21
152.4386652241
 31
0.0
  0
LINE
  5
11D
330
1F
100
AcDbEntity
  8
0
  6
Continuous
 62
     7
370
    15
100
AcDbLine
 10
259.0848188447
 20
221.4386652241
 30
0.0
 11
257.2962342859
 21
221.4386652241
 31
0.0
  0
LINE
  5
11E
330
1F
100
AcDbEntity
  8
0
  6
Continuous
 62
     7
370
    15
100
AcDbLine
 10
456.3848188447
 20
160.9386652241
 30
0.0
 11
457.3848188447
 21
161.9386652241
 31
0.0
  0
LINE
  5
11F
330
1F
100
AcDbEntity
  8
0
  6
Continuous
 62
     7
370
    15
100
AcDbLine
 10
457.3848188447
 20
211.9386652241
 30
0.0
 11
456.3848188447
 21
212.9386652241
 31
0.0
  0
LINE
  5
120
330
1F
100
AcDbEntity
  8
0
  6
Continuous
 62
     7
370
    15
100
AcDbLine
 10
447.3848188447
 20
160.9386652241
 30
0.0
 11
456.3848188447
 21
160.9386652241
 31
0.0
  0
LINE
  5
121
330
1F
100
AcDbEntity
  8
0
  6
Continuous
 62
     7
370
    15
100
AcDbLine
 10
456.3848188447
 20
212.9386652241
 30
0.0
 11
447.3848188447
 21
212.9386652241
 31
0.0
  0
LINE
  5
122
330
1F
100
AcDbEntity
  8
0
  6
Continuous
 62
     7
370
    15
100
AcDbLine
 10
447.3848188447
 20
212.9386652241
 30
0.0
 11
446.3848188447
 21
211.9386652241
 31
0.0
  0
LINE
  5
123
330
1F
100
AcDbEntity
  8
0
  6
Continuous
 62
     7
370
    15
100
AcDbLine
 10
446.3848188447
 20
161.9386652241
 30
0.0
 11
447.3848188447
 21
160.9386652241
 31
0.0
  0
ARC
  5
124
330
1F
100
AcDbEntity
  8
0
  6
Continuous
 62
     7
370
    15
100
AcDbCircle
 10
155.6348188447
 20
167.7170902236
 30
0.0
 40
0.9999999999999856
100
AcDbArc
 50
180.0
 51
261.7027777778
  0
ARC
  5
125
330
1F
100
AcDbEntity
  8
0
  6
Continuous
 62
     7
370
    15
100
AcDbCircle
 10
155.6348188447
 20
206.1602402247
 30
0.0
 40
1.000000000000014
100
AcDbArc
 50
98.2972222222
 51
180.0
  0
LINE
  5
126
330
1F
100
AcDbEntity
  8
0
  6
Continuous
 62
     7
370
    15
100
AcDbLine
 10
442.8940711159
 20
166.9386652241
 30
0.0
 11
443.3848188447
 21
167.7886652241
 31
0.0
  0
LINE
  5
127
330
1F
100
AcDbEntity
  8
0
  6
Continuous
 62
     7
370
    15
100
AcDbLine
 10
443.3848188447
 20
206.0886652241
 30
0.0
 11
442.8940711159
 21
206.9386652241
 31
0.0
  0
LINE
  5
128
330
1F
100
AcDbEntity
  8
0
  6
Continuous
 62
     7
370
    15
100
AcDbLine
 10
416.3848188447
 20
166.9386652241
 30
0.0
 11
442.8940711159
 21
166.9386652241
 31
0.0
  0
LINE
  5
129
330
1F
100
AcDbEntity
  8
0
  6
Continuous
 62
     7
370
    15
100
AcDbLine
 10
442.8940711159
 20
206.9386652241
 30
0.0
 11
416.3848188447
 21
206.9386652241
 31
0.0
  0
ARC
  5
12A
330
1F
100
AcDbEntity
  8
0
  6
Continuous
 62
     7
370
    15
100
AcDbCircle
 10
445.8848188447
 20
176.4386652241
 30
0.0
 40
0.5000000000000568
100
AcDbArc
 50
0.0
 51
90.0
  0
ARC
  5
12B
330
1F
100
AcDbEntity
  8
0
  6
Continuous
 62
     7
370
    15
100
AcDbCircle
 10
445.8848188447
 20
197.4386652241
 30
0.0
 40
0.5000000000000568
100
AcDbArc
 50
270.0
 51
0.0
  0
LINE
  5
12C
330
1F
100
AcDbEntity
  8
0
  6
Continuous
 62
     7
370
    15
100
AcDbLine
 10
443.3848188447
 20
176.9386652241
 30
0.0
 11
445.8848188447
 21
176.9386652241
 31
0.0
  0
LINE
  5
12D
330
1F
100
AcDbEntity
  8
0
  6
Continuous
 62
     7
370
    15
100
AcDbLine
 10
445.8848188447
 20
196.9386652241
 30
0.0
 11
443.3848188447
 21
196.9386652241
 31
0.0
  0
LINE
  5
12E
330
1F
100
AcDbEntity
  8
0
  6
Continuous
 62
     7
370
    15
100
AcDbLine
 10
270.7324141089
 20
138.1886652241
 30
0.0
 11
270.7324141089
 21
235.6886652241
 31
0.0
  0
LINE
  5
12F
330
1F
100
AcDbEntity
  8
0
  6
Continuous
 62
     7
370
    15
100
AcDbLine
 10
274.3191334197
 20
173.5415870527
 30
0.0
 11
274.3191334197
 21
200.3357433955
 31
0.0
  0
LINE
  5
130
330
1F
100
AcDbEntity
  8
0
  6
Continuous
 62
     7
370
    15
100
AcDbLine
 10
274.6019761322
 20
173.6363859839
 30
0.0
 11
274.6019761322
 21
200.2409444644
 31
0.0
  0
SPLINE
  5
131
330
1F
100
AcDbEntity
  8
0
  6
Continuous
 62
     7
370
    15
100
AcDbSpline
210
0.0
220
0.0
230
1.0
 70
     8
 71
     3
 72
     8
 73
     4
 74
     0
 42
0.000000001
 43
0.00000001
 40
0.0
 40
0.0
 40
0.0
 40
0.0
 40
1.0
 40
1.0
 40
1.0
 40
1.0
 10
274.6019761322049
 20
173.6363859838586
 30
0.0
 10
274.5306603200229
 20
173.578658598586
 30
0.0
 10
274.4277591623862
 20
173.5415870526955
 30
0.0
 10
274.3191334197302
 20
173.5415870526955
 30
0.0
  0
SPLINE
  5
132
330
1F
100
AcDbEntity
  8
0
  6
Continuous
 62
     7
370
    15
100
AcDbSpline
210
0.0
220
0.0
230
1.0
 70
     8
 71
     3
 72
     8
 73
     4
 74
     0
 42
0.000000001
 43
0.00000001
 40
0.0
 40
0.0
 40
0.0
 40
0.0
 40
1.0
 40
1.0
 40
1.0
 40
1.0
 10
274.3191334197302
 20
200.3357433955208
 30
0.0
 10
274.4276504111813
 20
200.3357433955208
 30
0.0
 10
274.5306912630437
 20
200.2986468024546
 30
0.0
 10
274.6019761322049
 20
200.2409444643576
 30
0.0
  0
LINE
  5
133
330
1F
100
AcDbEntity
  8
0
  6
Continuous
 62
     7
370
    15
100
AcDbLine
 10
269.3848188447
 20
233.3545617585
 30
0.0
 11
269.3848188447
 21
140.5227686897
 31
0.0
  0
LINE
  5
134
330
1F
100
AcDbEntity
  8
0
  6
Continuous
 62
     7
370
    15
100
AcDbLine
 10
264.2372235805
 20
186.9386652241
 30
0.0
 11
264.2372235805
 21
138.1886652241
 31
0.0
  0
LINE
  5
135
330
1F
100
AcDbEntity
  8
0
  6
Continuous
 62
     7
370
    15
100
AcDbLine
 10
264.2372235805
 20
235.6886652241
 30
0.0
 11
264.2372235805
 21
186.9386652241
 31
0.0
  0
LINE
  5
136
330
1F
100
AcDbEntity
  8
0
  6
Continuous
 62
     7
370
    15
100
AcDbLine
 10
265.5848188447
 20
186.9386652241
 30
0.0
 11
265.5848188447
 21
233.3545617585
 31
0.0
  0
LINE
  5
137
330
1F
100
AcDbEntity
  8
0
  6
Continuous
 62
     7
370
    15
100
AcDbLine
 10
265.5848188447
 20
140.5227686897
 30
0.0
 11
265.5848188447
 21
186.9386652241
 31
0.0
  0
LINE
  5
138
330
1F
100
AcDbEntity
  8
0
  6
Continuous
 62
     7
370
    15
100
AcDbLine
 10
260.7505042696
 20
173.5415870527
 30
0.0
 11
260.7505042696
 21
200.3357433955
 31
0.0
  0
SPLINE
  5
139
330
1F
100
AcDbEntity
  8
0
  6
Continuous
 62
     7
370
    15
100
AcDbSpline
210
0.0
220
0.0
230
1.0
 70
     8
 71
     3
 72
     8
 73
     4
 74
     0
 42
0.000000001
 43
0.00000001
 40
0.0
 40
0.0
 40
0.0
 40
0.0
 40
1.0
 40
1.0
 40
1.0
 40
1.0
 10
260.7505042696287
 20
173.5415870526955
 30
0.0
 10
260.6419872781777
 20
173.5415870526955
 30
0.0
 10
260.5389464263154
 20
173.5786836457617
 30
0.0
 10
260.4676615571541
 20
173.6363859838586
 30
0.0
  0
LINE
  5
13A
330
1F
100
AcDbEntity
  8
0
  6
Continuous
 62
     7
370
    15
100
AcDbLine
 10
260.4676615572
 20
173.6363859839
 30
0.0
 11
260.4676615572
 21
200.2409444644
 31
0.0
  0
SPLINE
  5
13B
330
1F
100
AcDbEntity
  8
0
  6
Continuous
 62
     7
370
    15
100
AcDbSpline
210
0.0
220
0.0
230
1.0
 70
     8
 71
     3
 72
     8
 73
     4
 74
     0
 42
0.000000001
 43
0.00000001
 40
0.0
 40
0.0
 40
0.0
 40
0.0
 40
1.0
 40
1.0
 40
1.0
 40
1.0
 10
260.4676615571541
 20
200.2409444643576
 30
0.0
 10
260.5389773693361
 20
200.2986718496303
 30
0.0
 10
260.6418785269728
 20
200.3357433955208
 30
0.0
 10
260.7505042696287
 20
200.3357433955208
 30
0.0
  0
LINE
  5
13C
330
1F
100
AcDbEntity
  8
0
  6
Continuous
 62
     7
370
    15
100
AcDbLine
 10
259.7019761322
 20
173.5058225116
 30
0.0
 11
259.7019761322
 21
200.3715079366
 31
0.0
  0
LINE
  5
13D
330
1F
100
AcDbEntity
  8
0
  6
Continuous
 62
     7
370
    15
100
AcDbLine
 10
275.3676615572
 20
174.0886652241
 30
0.0
 11
275.3676615572
 21
199.7886652241
 31
0.0
  0
LINE
  5
13E
330
1F
100
AcDbEntity
  8
0
  6
Continuous
 62
     7
370
    15
100
AcDbLine
 10
275.4848188394
 20
174.0886404713
 30
0.0
 11
275.4848188394
 21
199.7886899769
 31
0.0
  0
SPLINE
  5
13F
330
1F
100
AcDbEntity
  8
0
  6
Continuous
 62
     7
370
    15
100
AcDbSpline
210
0.0
220
0.0
230
1.0
 70
    24
 71
     3
 72
     8
 73
     4
 74
     0
 42
0.000000001
 43
0.00000001
 40
0.0
 40
0.0
 40
0.0
 40
0.0
 40
1.0
 40
1.0
 40
1.0
 40
1.0
 10
275.4848188446795
 20
174.0886652241082
 30
0.0
 10
275.4848188446795
 20
174.0886652241082
 30
0.0
 10
275.443275110727
 20
174.0886652241082
 30
0.0
 10
275.3676615571541
 20
174.0886652241082
 30
0.0
  0
SPLINE
  5
140
330
1F
100
AcDbEntity
  8
0
  6
Continuous
 62
     7
370
    15
100
AcDbSpline
210
0.0
220
0.0
230
1.0
 70
    24
 71
     3
 72
     8
 73
     4
 74
     0
 42
0.000000001
 43
0.00000001
 40
0.0
 40
0.0
 40
0.0
 40
0.0
 40
1.0
 40
1.0
 40
1.0
 40
1.0
 10
275.4848188446795
 20
199.7886652241081
 30
0.0
 10
275.4848188446795
 20
199.7886652241081
 30
0.0
 10
275.4432751107274
 20
199.7886652241081
 30
0.0
 10
275.3676615571547
 20
199.7886652241081
 30
0.0
  0
SPLINE
  5
141
330
1F
100
AcDbEntity
  8
0
  6
Continuous
 62
     7
370
    15
100
AcDbSpline
210
0.0
220
0.0
230
1.0
 70
    24
 71
     3
 72
    10
 73
     6
 74
     0
 42
0.000000001
 43
0.00000001
 40
0.0
 40
0.0
 40
0.0
 40
0.0
 40
0.5
 40
0.5
 40
1.0
 40
1.0
 40
1.0
 40
1.0
 10
259.7019761322049
 20
173.5058225116336
 30
0.0
 10
259.6693430711876
 20
173.4731894506163
 30
0.0
 10
259.6413621849214
 20
173.44520856435
 30
0.0
 10
259.5987053345464
 20
173.402551713975
 30
0.0
 10
259.5848188446795
 20
173.3886652241081
 30
0.0
 10
259.5848188446795
 20
173.3886652241082
 30
0.0
  0
LINE
  5
142
330
1F
100
AcDbEntity
  8
0
  6
Continuous
 62
     7
370
    15
100
AcDbLine
 10
259.5848188447
 20
173.3886652241
 30
0.0
 11
259.5848188447
 21
200.4886652241
 31
0.0
  0
SPLINE
  5
143
330
1F
100
AcDbEntity
  8
0
  6
Continuous
 62
     7
370
    15
100
AcDbSpline
210
0.0
220
0.0
230
1.0
 70
    24
 71
     3
 72
    10
 73
     6
 74
     0
 42
0.000000001
 43
0.00000001
 40
0.0
 40
0.0
 40
0.0
 40
0.0
 40
0.5
 40
0.5
 40
1.0
 40
1.0
 40
1.0
 40
1.0
 10
259.5848188446795
 20
200.4886652241081
 30
0.0
 10
259.5848188446795
 20
200.4886652241081
 30
0.0
 10
259.5986647207043
 20
200.4748193480833
 30
0.0
 10
259.6408304968917
 20
200.4326535718959
 30
0.0
 10
259.6693211971548
 20
200.4041628716329
 30
0.0
 10
259.7019761322049
 20
200.3715079365828
 30
0.0
  0
SPLINE
  5
144
330
1F
100
AcDbEntity
  8
0
  6
Continuous
 62
     7
370
    15
100
AcDbSpline
210
0.0
220
0.0
230
1.0
 70
    24
 71
     3
 72
    36
 73
    32
 74
     0
 42
0.000000001
 43
0.00000001
 40
0.0
 40
0.0
 40
0.0
 40
0.0
 40
0.0108550601157133
 40
0.0217006032483287
 40
0.032538768348585
 40
0.0433716987375759
 40
0.0542015408443823
 40
0.0650304429344976
 40
0.0758605538328023
 40
0.0866940216448727
 40
0.0975329924804308
 40
0.1083796091827167
 40
0.1192360100675338
 40
0.181247834122379
 40
0.2432679244012009
 40
0.30699904894893
 40
0.3707386689215396
 40
0.4353656024878496
 40
0.5000011508910772
 40
0.5646280845649078
 40
0.6292636330748689
 40
0.6929947579296986
 40
0.7567343782029038
 40
0.81874620271251
 40
0.8807662934441527
 40
0.9006583299602561
 40
0.920524832491279
 40
0.9403790153804317
 40
0.9602341175685428
 40
0.9801033761588474
 40
1.0
 40
1.0
 40
1.0
 40
1.0
 10
275.4848188446795
 20
174.0886652241082
 30
0.0
 10
275.4848188446795
 20
173.8738783497379
 30
0.0
 10
275.4848188446795
 20
173.4444929116129
 30
0.0
 10
275.4848188446795
 20
172.8039964014932
 30
0.0
 10
275.4848188446795
 20
172.16654619005
 30
0.0
 10
275.4848188446795
 20
171.532372535568
 30
0.0
 10
275.4848188446795
 20
170.901413903575
 30
0.0
 10
275.4848188446795
 20
170.2736868349907
 30
0.0
 10
275.4848188446795
 20
169.6491871159168
 30
0.0
 10
275.4848188446795
 20
169.0279155104012
 30
0.0
 10
275.4848188446795
 20
168.4098736111108
 30
0.0
 10
275.4848188446795
 20
167.7950546989884
 30
0.0
 10
275.4848188446795
 20
166.2231970423449
 30
0.0
 10
275.4848188446795
 20
163.7435477483258
 30
0.0
 10
275.4848188446795
 20
160.4448746898473
 30
0.0
 10
275.4848188446795
 20
157.2914977646588
 30
0.0
 10
275.4848188446795
 20
154.2994250560942
 30
0.0
 10
275.4848188446795
 20
151.5186788474845
 30
0.0
 10
275.4848188446795
 20
148.9753795404083
 30
0.0
 10
275.4848188446795
 20
146.6973680553469
 30
0.0
 10
275.4848188446795
 20
144.7129355596312
 30
0.0
 10
275.4848188446795
 20
143.0281823225523
 30
0.0
 10
275.4848188446795
 20
141.6653218290035
 30
0.0
 10
275.4848188446795
 20
140.6131435083435
 30
0.0
 10
275.4848188446795
 20
140.0396420562898
 30
0.0
 10
275.4848188446795
 20
139.7436146556059
 30
0.0
 10
275.4848188446795
 20
139.6015995701601
 30
0.0
 10
275.4848188446795
 20
139.4909973775983
 30
0.0
 10
275.4848188446795
 20
139.4125678483844
 30
0.0
 10
275.4848188446795
 20
139.3634517365796
 30
0.0
 10
275.4848188446795
 20
139.3573857363557
 30
0.0
 10
275.4848188446795
 20
139.3543506490574
 30
0.0
  0
SPLINE
  5
145
330
1F
100
AcDbEntity
  8
0
  6
Continuous
 62
     7
370
    15
100
AcDbSpline
210
0.0
220
0.0
230
1.0
 70
    24
 71
     3
 72
    18
 73
    14
 74
     0
 42
0.000000001
 43
0.00000001
 40
0.0
 40
0.0
 40
0.0
 40
0.0
 40
0.049341009168767
 40
0.1443029880143528
 40
0.2371042401765801
 40
0.3299054923388072
 40
0.4248674711843931
 40
0.5213266033289872
 40
0.61855212008829
 40
0.7157776368475928
 40
0.8122367689921868
 40
0.9071987478377727
 40
1.0
 40
1.0
 40
1.0
 40
1.0
 10
275.4848188446795
 20
234.4299074137627
 30
0.0
 10
275.4848188446795
 20
234.4471223089133
 30
0.0
 10
275.4848188446795
 20
234.4974690863794
 30
0.0
 10
275.4848188446795
 20
233.7927330662704
 30
0.0
 10
275.4848188446795
 20
232.4051719185846
 30
0.0
 10
275.4848188446795
 20
230.317880198065
 30
0.0
 10
275.4848188446795
 20
227.5643031501739
 30
0.0
 10
275.4848188446795
 20
224.1360113175814
 30
0.0
 10
275.4848188446795
 20
220.0939063420382
 30
0.0
 10
275.4848188446795
 20
215.527166094149
 30
0.0
 10
275.4848188446795
 20
210.544691684183
 30
0.0
 10
275.4848188446795
 20
205.2930432202867
 30
0.0
 10
275.4848188446795
 20
201.609327499846
 30
0.0
 10
275.4848188446795
 20
199.7886652241081
 30
0.0
  0
SPLINE
  5
146
330
1F
100
AcDbEntity
  8
0
  6
Continuous
 62
     7
370
    15
100
AcDbSpline
210
0.0
220
0.0
230
1.0
 70
    24
 71
     3
 72
    36
 73
    32
 74
     0
 42
0.000000001
 43
0.00000001
 40
0.0
 40
0.0
 40
0.0
 40
0.0
 40
0.010866390168934
 40
0.0217235992681963
 40
0.032573723945068
 40
0.0434188649555584
 40
0.0542611259525279
 40
0.0651026122653265
 40
0.0759454296745619
 40
0.086791683185551
 40
0.097643475804031
 40
0.1085029073176766
 40
0.119372073086945
 40
0.1813968254482005
 40
0.2434299782169175
 40
0.307131926886736
 40
0.3708425031356601
 40
0.4354174425600136
 40
0.5000011278075818
 40
0.5645760673351354
 40
0.6291597526862523
 40
0.6928617016507792
 40
0.7565722781921872
 40
0.8185970309925916
 40
0.8806301842014188
 40
0.9005456124924965
 40
0.9204355775883225
 40
0.940313028451726
 40
0.9601909385017945
 40
0.9800822802591509
 40
0.9999999999999999
 40
0.9999999999999999
 40
0.9999999999999999
 40
0.9999999999999999
 10
259.5848188446795
 20
139.3543506490574
 30
0.0
 10
259.5848188446795
 20
139.3552316959393
 30
0.0
 10
259.5848188446795
 20
139.3569930453019
 30
0.0
 10
259.5848188446795
 20
139.3712882921487
 30
0.0
 10
259.5848188446795
 20
139.3941171886741
 30
0.0
 10
259.5848188446795
 20
139.4263143076093
 30
0.0
 10
259.5848188446795
 20
139.4676562231787
 30
0.0
 10
259.5848188446795
 20
139.5182027811445
 30
0.0
 10
259.5848188446795
 20
139.5779378845754
 30
0.0
 10
259.5848188446795
 20
139.646866056848
 30
0.0
 10
259.5848188446795
 20
139.724985238706
 30
0.0
 10
259.5848188446795
 20
139.8122990596986
 30
0.0
 10
259.5848188446795
 20
140.0601357740948
 30
0.0
 10
259.5848188446795
 20
140.5857835891226
 30
0.0
 10
259.5848188446795
 20
141.6141745956673
 30
0.0
 10
259.5848188446795
 20
142.9461244089565
 30
0.0
 10
259.5848188446795
 20
144.592050323688
 30
0.0
 10
259.5848188446795
 20
146.5310713759702
 30
0.0
 10
259.5848188446795
 20
148.7570463584547
 30
0.0
 10
259.5848188446795
 20
151.243401634588
 30
0.0
 10
259.5848188446795
 20
153.9631694286905
 30
0.0
 10
259.5848188446795
 20
156.8918777666707
 30
0.0
 10
259.5848188446795
 20
159.9812037659211
 30
0.0
 10
259.5848188446795
 20
163.2163048140314
 30
0.0
 10
259.5848188446795
 20
165.8139166837439
 30
0.0
 10
259.5848188446795
 20
167.6968041136683
 30
0.0
 10
259.5848188446795
 20
168.8128590880472
 30
0.0
 10
259.5848188446795
 20
169.9399532230468
 30
0.0
 10
259.5848188446795
 20
171.0783181467256
 30
0.0
 10
259.5848188446795
 20
172.2271496280656
 30
0.0
 10
259.5848188446795
 20
173.0013223665715
 30
0.0
 10
259.5848188446795
 20
173.3886652241082
 30
0.0
  0
SPLINE
  5
147
330
1F
100
AcDbEntity
  8
0
  6
Continuous
 62
     7
370
    15
100
AcDbSpline
210
0.0
220
0.0
230
1.0
 70
    24
 71
     3
 72
    18
 73
    14
 74
     0
 42
0.000000001
 43
0.00000001
 40
0.0
 40
0.0
 40
0.0
 40
0.0
 40
0.0932231664383691
 40
0.1885829732450733
 40
0.2854223567770079
 40
0.383018846774494
 40
0.4806153367719804
 40
0.5774547203039149
 40
0.6728145271106194
 40
0.7660376935489883
 40
0.8592608599873572
 40
0.9546206667940617
 40
0.9999999999999999
 40
0.9999999999999999
 40
0.9999999999999999
 40
0.9999999999999999
 10
259.5848188446795
 20
200.4886652241081
 30
0.0
 10
259.5848188446795
 20
202.2871311310568
 30
0.0
 10
259.5848188446795
 20
205.9252831159125
 30
0.0
 10
259.5848188446795
 20
211.0999806643822
 30
0.0
 10
259.5848188446795
 20
216.0007883052362
 30
0.0
 10
259.5848188446795
 20
220.4842702911427
 30
0.0
 10
259.5848188446795
 20
224.4454340613543
 30
0.0
 10
259.5848188446795
 20
227.7983543247319
 30
0.0
 10
259.5848188446795
 20
230.4843520618933
 30
0.0
 10
259.5848188446795
 20
232.5131741735984
 30
0.0
 10
259.5848188446795
 20
233.8482118369887
 30
0.0
 10
259.5848188446795
 20
234.5117598177271
 30
0.0
 10
259.5848188446795
 20
234.4512099482027
 30
0.0
 10
259.5848188446795
 20
234.4316865043017
 30
0.0
  0
LINE
  5
148
330
1F
100
AcDbEntity
  8
0
  6
Continuous
 62
     7
370
    15
100
AcDbLine
 10
415.3848188447
 20
186.9386652241
 30
0.0
 11
415.3848188447
 21
230.9386652241
 31
0.0
  0
LINE
  5
149
330
1F
100
AcDbEntity
  8
0
  6
Continuous
 62
     7
370
    15
100
AcDbLine
 10
415.3848188447
 20
142.9386652241
 30
0.0
 11
415.3848188447
 21
186.9386652241
 31
0.0
  0
LINE
  5
14A
330
1F
100
AcDbEntity
  8
0
  6
Continuous
 62
     7
370
    15
100
AcDbLine
 10
416.3848188447
 20
186.9386652241
 30
0.0
 11
416.3848188447
 21
229.9386652241
 31
0.0
  0
LINE
  5
14B
330
1F
100
AcDbEntity
  8
0
  6
Continuous
 62
     7
370
    15
100
AcDbLine
 10
416.3848188447
 20
143.9386652241
 30
0.0
 11
416.3848188447
 21
186.9386652241
 31
0.0
  0
LINE
  5
14C
330
1F
100
AcDbEntity
  8
0
  6
Continuous
 62
     7
370
    15
100
AcDbLine
 10
293.3848188447
 20
186.9386652241
 30
0.0
 11
293.3848188447
 21
142.9386652241
 31
0.0
  0
LINE
  5
14D
330
1F
100
AcDbEntity
  8
0
  6
Continuous
 62
     7
370
    15
100
AcDbLine
 10
293.3848188447
 20
230.9386652241
 30
0.0
 11
293.3848188447
 21
186.9386652241
 31
0.0
  0
LINE
  5
14E
330
1F
100
AcDbEntity
  8
0
  6
Continuous
 62
     7
370
    15
100
AcDbLine
 10
292.3848188447
 20
229.9386652241
 30
0.0
 11
292.3848188447
 21
143.9386652241
 31
0.0
  0
SPLINE
  5
14F
330
1F
100
AcDbEntity
  8
0
  6
Continuous
 62
     7
370
    15
100
AcDbSpline
210
0.0
220
0.0
230
1.0
 70
    24
 71
     3
 72
    14
 73
    10
 74
     0
 42
0.000000001
 43
0.00000001
 40
0.0
 40
0.0
 40
0.0
 40
0.0
 40
0.25
 40
0.25
 40
0.5
 40
0.5
 40
0.75
 40
0.75
 40
1.0
 40
1.0
 40
1.0
 40
1.0
 10
277.7348188446795
 20
199.7886652241081
 30
0.0
 10
277.4038977790865
 20
199.7886652241081
 30
0.0
 10
277.0981757174309
 20
199.7886652241081
 30
0.0
 10
276.5382521747404
 20
199.7886652241081
 30
0.0
 10
276.2978614006801
 20
199.7886652241081
 30
0.0
 10
275.8971771247295
 20
199.7886652241081
 30
0.0
 10
275.7452515174406
 20
199.7886652241081
 30
0.0
 10
275.5368030773549
 20
199.7886652241081
 30
0.0
 10
275.4848188446795
 20
199.7886652241081
 30
0.0
 10
275.4848188446795
 20
199.7886652241081
 30
0.0
  0
SPLINE
  5
150
330
1F
100
AcDbEntity
  8
0
  6
Continuous
 62
     7
370
    15
100
AcDbSpline
210
0.0
220
0.0
230
1.0
 70
     8
 71
     3
 72
     8
 73
     4
 74
     0
 42
0.000000001
 43
0.00000001
 40
0.0
 40
0.0
 40
0.0
 40
0.0
 40
1.0
 40
1.0
 40
1.0
 40
1.0
 10
277.7348188446795
 20
199.7886652241081
 30
0.0
 10
277.9805629277859
 20
199.7886652241081
 30
0.0
 10
278.2305513684309
 20
199.7816252492761
 30
0.0
 10
278.4848188446795
 20
199.7667593927678
 30
0.0
  0
LINE
  5
151
330
1F
100
AcDbEntity
  8
0
  6
Continuous
 62
     7
370
    15
100
AcDbLine
 10
278.4848188447
 20
174.1105710554
 30
0.0
 11
278.4848188447
 21
199.7667593928
 31
0.0
  0
SPLINE
  5
152
330
1F
100
AcDbEntity
  8
0
  6
Continuous
 62
     7
370
    15
100
AcDbSpline
210
0.0
220
0.0
230
1.0
 70
     8
 71
     3
 72
     8
 73
     4
 74
     0
 42
0.000000001
 43
0.00000001
 40
0.0
 40
0.0
 40
0.0
 40
0.0
 40
1.0
 40
1.0
 40
1.0
 40
1.0
 10
277.7348188446795
 20
174.0886652241081
 30
0.0
 10
277.9805629277859
 20
174.0886652241081
 30
0.0
 10
278.2305513684309
 20
174.0957051989402
 30
0.0
 10
278.4848188446795
 20
174.1105710554485
 30
0.0
  0
SPLINE
  5
153
330
1F
100
AcDbEntity
  8
0
  6
Continuous
 62
     7
370
    15
100
AcDbSpline
210
0.0
220
0.0
230
1.0
 70
    24
 71
     3
 72
    20
 73
    16
 74
     0
 42
0.000000001
 43
0.00000001
 40
0.0
 40
0.0
 40
0.0
 40
0.0
 40
0.2500000000000042
 40
0.2500000000000042
 40
0.3750000000000034
 40
0.3750000000000034
 40
0.5000000000000028
 40
0.5000000000000028
 40
0.6250000000000021
 40
0.6250000000000021
 40
0.7500000000000013
 40
0.7500000000000013
 40
0.8750000000000007
 40
0.8750000000000007
 40
1.0
 40
1.0
 40
1.0
 40
1.0
 10
275.4848188446795
 20
174.0886652241082
 30
0.0
 10
275.4848188446795
 20
174.0886652241082
 30
0.0
 10
275.5368353758141
 20
174.0886652241082
 30
0.0
 10
275.692516196937
 20
174.0886652241082
 30
0.0
 10
275.7572466230068
 20
174.0886652241081
 30
0.0
 10
275.90910346135
 20
174.0886652241081
 30
0.0
 10
275.9965688527728
 20
174.0886652241081
 30
0.0
 10
276.1954872503437
 20
174.0886652241081
 30
0.0
 10
276.3073145489757
 20
174.0886652241081
 30
0.0
 10
276.5473305051088
 20
174.0886652241081
 30
0.0
 10
276.676413089548
 20
174.0886652241082
 30
0.0
 10
276.9533493845331
 20
174.0886652241082
 30
0.0
 10
277.1022946009548
 20
174.0886652241081
 30
0.0
 10
277.409803139084
 20
174.0886652241081
 30
0.0
 10
277.5693075265109
 20
174.0886652241081
 30
0.0
 10
277.7348188446795
 20
174.0886652241081
 30
0.0
  0
LINE
  5
154
330
1F
100
AcDbEntity
  8
0
  6
Continuous
 62
     7
370
    15
100
AcDbLine
 10
256.3848188447
 20
186.9386652241
 30
0.0
 11
256.3848188447
 21
152.0136652241
 31
0.0
  0
LINE
  5
155
330
1F
100
AcDbEntity
  8
0
  6
Continuous
 62
     7
370
    15
100
AcDbLine
 10
256.3848188447
 20
221.8636652241
 30
0.0
 11
256.3848188447
 21
186.9386652241
 31
0.0
  0
LINE
  5
156
330
1F
100
AcDbEntity
  8
0
  6
Continuous
 62
     7
370
    15
100
AcDbLine
 10
257.2962342859
 20
186.9386652241
 30
0.0
 11
257.2962342859
 21
152.4386652241
 31
0.0
  0
LINE
  5
157
330
1F
100
AcDbEntity
  8
0
  6
Continuous
 62
     7
370
    15
100
AcDbLine
 10
257.2962342859
 20
221.4386652241
 30
0.0
 11
257.2962342859
 21
186.9386652241
 31
0.0
  0
LINE
  5
158
330
1F
100
AcDbEntity
  8
0
  6
Continuous
 62
     7
370
    15
100
AcDbLine
 10
457.3848188447
 20
186.9386652241
 30
0.0
 11
457.3848188447
 21
211.9386652241
 31
0.0
  0
LINE
  5
159
330
1F
100
AcDbEntity
  8
0
  6
Continuous
 62
     7
370
    15
100
AcDbLine
 10
457.3848188447
 20
161.9386652241
 30
0.0
 11
457.3848188447
 21
186.9386652241
 31
0.0
  0
LINE
  5
15A
330
1F
100
AcDbEntity
  8
0
  6
Continuous
 62
     7
370
    15
100
AcDbLine
 10
456.3848188447
 20
186.9386652241
 30
0.0
 11
456.3848188447
 21
212.9386652241
 31
0.0
  0
LINE
  5
15B
330
1F
100
AcDbEntity
  8
0
  6
Continuous
 62
     7
370
    15
100
AcDbLine
 10
456.3848188447
 20
160.9386652241
 30
0.0
 11
456.3848188447
 21
186.9386652241
 31
0.0
  0
LINE
  5
15C
330
1F
100
AcDbEntity
  8
0
  6
Continuous
 62
     7
370
    15
100
AcDbLine
 10
447.3848188447
 20
160.9386652241
 30
0.0
 11
447.3848188447
 21
212.9386652241
 31
0.0
  0
LINE
  5
15D
330
1F
100
AcDbEntity
  8
0
  6
Continuous
 62
     7
370
    15
100
AcDbLine
 10
446.3848188447
 20
161.9386652241
 30
0.0
 11
446.3848188447
 21
211.9386652241
 31
0.0
  0
SPLINE
  5
15E
330
1F
100
AcDbEntity
  8
0
  6
Continuous
 62
     7
370
    15
100
AcDbSpline
210
0.0
220
0.0
230
1.0
 70
    24
 71
     3
 72
    10
 73
     6
 74
     0
 42
0.000000001
 43
0.00000001
 40
0.0
 40
0.0
 40
0.0
 40
0.0
 40
0.4999999999999997
 40
0.4999999999999997
 40
0.9999999999999999
 40
0.9999999999999999
 40
0.9999999999999999
 40
0.9999999999999999
 10
154.6348188446796
 20
206.1602402246535
 30
0.0
 10
154.6348188446796
 20
206.1602402246534
 30
0.0
 10
154.6348188446796
 20
204.1350137985845
 30
0.0
 10
154.6348188446796
 20
196.9257287055744
 30
0.0
 10
154.6348188446796
 20
192.0363996008826
 30
0.0
 10
154.6348188446796
 20
186.9386652241081
 30
0.0
  0
SPLINE
  5
15F
330
1F
100
AcDbEntity
  8
0
  6
Continuous
 62
     7
370
    15
100
AcDbSpline
210
0.0
220
0.0
230
1.0
 70
    24
 71
     3
 72
    10
 73
     6
 74
     0
 42
0.000000001
 43
0.00000001
 40
0.0
 40
0.0
 40
0.0
 40
0.0
 40
0.4999999999999999
 40
0.4999999999999999
 40
0.9999999999999999
 40
0.9999999999999999
 40
0.9999999999999999
 40
0.9999999999999999
 10
154.6348188446796
 20
186.9386652241081
 30
0.0
 10
154.6348188446796
 20
181.8409308473337
 30
0.0
 10
154.6348188446796
 20
176.9516017426415
 30
0.0
 10
154.6348188446796
 20
169.7423166496316
 30
0.0
 10
154.6348188446796
 20
167.7170902235626
 30
0.0
 10
154.6348188446796
 20
167.7170902235627
 30
0.0
  0
LINE
  5
160
330
1F
100
AcDbEntity
  8
0
  6
Continuous
 62
     7
370
    15
100
AcDbLine
 10
442.8940711159
 20
186.9386652241
 30
0.0
 11
442.8940711159
 21
206.9386652241
 31
0.0
  0
LINE
  5
161
330
1F
100
AcDbEntity
  8
0
  6
Continuous
 62
     7
370
    15
100
AcDbLine
 10
442.8940711159
 20
166.9386652241
 30
0.0
 11
442.8940711159
 21
186.9386652241
 31
0.0
  0
LINE
  5
162
330
1F
100
AcDbEntity
  8
0
  6
Continuous
 62
     7
370
    15
100
AcDbLine
 10
443.3848188447
 20
186.9386652241
 30
0.0
 11
443.3848188447
 21
206.0886652241
 31
0.0
  0
LINE
  5
163
330
1F
100
AcDbEntity
  8
0
  6
Continuous
 62
     7
370
    15
100
AcDbLine
 10
443.3848188447
 20
167.7886652241
 30
0.0
 11
443.3848188447
 21
186.9386652241
 31
0.0
  0
LINE
  5
164
330
1F
100
AcDbEntity
  8
0
  6
Continuous
 62
     7
370
    15
100
AcDbLine
 10
416.3848188447
 20
162.4386652241
 30
0.0
 11
424.1848188447
 21
162.4386652241
 31
0.0
  0
LINE
  5
165
330
1F
100
AcDbEntity
  8
0
  6
Continuous
 62
     7
370
    15
100
AcDbLine
 10
424.1848188447
 20
162.4386652241
 30
0.0
 11
424.1848188447
 21
147.4386652241
 31
0.0
  0
LINE
  5
166
330
1F
100
AcDbEntity
  8
0
  6
Continuous
 62
     7
370
    15
100
AcDbLine
 10
424.1848188447
 20
147.4386652241
 30
0.0
 11
416.3848188447
 21
147.4386652241
 31
0.0
  0
LINE
  5
167
330
1F
100
AcDbEntity
  8
0
  6
Continuous
 62
     7
370
    15
100
AcDbLine
 10
424.1848188447
 20
162.9386652241
 30
0.0
 11
416.3848188447
 21
162.9386652241
 31
0.0
  0
LINE
  5
168
330
1F
100
AcDbEntity
  8
0
  6
Continuous
 62
     7
370
    15
100
AcDbLine
 10
424.1848188447
 20
162.9386652241
 30
0.0
 11
424.1848188447
 21
162.4386652241
 31
0.0
  0
LINE
  5
169
330
1F
100
AcDbEntity
  8
0
  6
Continuous
 62
     7
370
    15
100
AcDbLine
 10
416.3848188447
 20
146.9386652241
 30
0.0
 11
424.1848188447
 21
146.9386652241
 31
0.0
  0
LINE
  5
16A
330
1F
100
AcDbEntity
  8
0
  6
Continuous
 62
     7
370
    15
100
AcDbLine
 10
424.1848188447
 20
147.4386652241
 30
0.0
 11
424.1848188447
 21
146.9386652241
 31
0.0
  0
LINE
  5
16B
330
1F
100
AcDbEntity
  8
0
  6
Continuous
 62
     7
370
    15
100
AcDbLine
 10
416.3848188447
 20
226.4386652241
 30
0.0
 11
424.1848188447
 21
226.4386652241
 31
0.0
  0
LINE
  5
16C
330
1F
100
AcDbEntity
  8
0
  6
Continuous
 62
     7
370
    15
100
AcDbLine
 10
424.1848188447
 20
226.4386652241
 30
0.0
 11
424.1848188447
 21
211.4386652241
 31
0.0
  0
LINE
  5
16D
330
1F
100
AcDbEntity
  8
0
  6
Continuous
 62
     7
370
    15
100
AcDbLine
 10
424.1848188447
 20
211.4386652241
 30
0.0
 11
416.3848188447
 21
211.4386652241
 31
0.0
  0
LINE
  5
16E
330
1F
100
AcDbEntity
  8
0
  6
Continuous
 62
     7
370
    15
100
AcDbLine
 10
416.3848188447
 20
210.9386652241
 30
0.0
 11
424.1848188447
 21
210.9386652241
 31
0.0
  0
LINE
  5
16F
330
1F
100
AcDbEntity
  8
0
  6
Continuous
 62
     7
370
    15
100
AcDbLine
 10
424.1848188447
 20
211.4386652241
 30
0.0
 11
424.1848188447
 21
210.9386652241
 31
0.0
  0
LINE
  5
170
330
1F
100
AcDbEntity
  8
0
  6
Continuous
 62
     7
370
    15
100
AcDbLine
 10
424.1848188447
 20
226.9386652241
 30
0.0
 11
416.3848188447
 21
226.9386652241
 31
0.0
  0
LINE
  5
171
330
1F
100
AcDbEntity
  8
0
  6
Continuous
 62
     7
370
    15
100
AcDbLine
 10
424.1848188447
 20
226.9386652241
 30
0.0
 11
424.1848188447
 21
226.4386652241
 31
0.0
  0
LINE
  5
172
330
1F
100
AcDbEntity
  8
0
  6
Continuous
 62
     8
370
    15
100
AcDbLine
 10
274.3191334197
 20
200.3357433955
 30
0.0
 11
274.3191334197
 21
235.6886652241
 31
0.0
  0
LINE
  5
173
330
1F
100
AcDbEntity
  8
0
  6
Continuous
 62
     8
370
    15
100
AcDbLine
 10
274.3191334197
 20
138.1886652241
 30
0.0
 11
274.3191334197
 21
173.5415870527
 31
0.0
  0
LINE
  5
174
330
1F
100
AcDbEntity
  8
0
  6
Continuous
 62
     8
370
    15
100
AcDbLine
 10
260.7505042696
 20
235.6886652241
 30
0.0
 11
260.7505042696
 21
200.3357433955
 31
0.0
  0
LINE
  5
175
330
1F
100
AcDbEntity
  8
0
  6
Continuous
 62
     8
370
    15
100
AcDbLine
 10
260.7505042696
 20
173.5415870527
 30
0.0
 11
260.7505042696
 21
138.1886652241
 31
0.0
  0
LINE
  5
176
330
1F
100
AcDbEntity
  8
0
  6
Continuous
 62
     8
370
    15
100
AcDbLine
 10
259.7019761322
 20
139.0715079366
 30
0.0
 11
259.7019761322
 21
173.5058225116
 31
0.0
  0
LINE
  5
177
330
1F
100
AcDbEntity
  8
0
  6
Continuous
 62
     8
370
    15
100
AcDbLine
 10
259.7019761322
 20
200.3715079366
 30
0.0
 11
259.7019761322
 21
234.8058225116
 31
0.0
  0
LINE
  5
178
330
1F
100
AcDbEntity
  8
0
  6
Continuous
 62
     8
370
    15
100
AcDbLine
 10
260.4676615572
 20
200.2409444644
 30
0.0
 11
260.4676615572
 21
235.5715079366
 31
0.0
  0
LINE
  5
179
330
1F
100
AcDbEntity
  8
0
  6
Continuous
 62
     8
370
    15
100
AcDbLine
 10
260.4676615572
 20
138.3058225116
 30
0.0
 11
260.4676615572
 21
173.6363859839
 31
0.0
  0
LINE
  5
17A
330
1F
100
AcDbEntity
  8
0
  6
Continuous
 62
     8
370
    15
100
AcDbLine
 10
274.6019761322
 20
173.6363859839
 30
0.0
 11
274.6019761322
 21
138.3058225116
 31
0.0
  0
LINE
  5
17B
330
1F
100
AcDbEntity
  8
0
  6
Continuous
 62
     8
370
    15
100
AcDbLine
 10
274.6019761322
 20
235.5715079366
 30
0.0
 11
274.6019761322
 21
200.2409444644
 31
0.0
  0
LINE
  5
17C
330
1F
100
AcDbEntity
  8
0
  6
Continuous
 62
     8
370
    15
100
AcDbLine
 10
275.3676615572
 20
234.8058225116
 30
0.0
 11
275.3676615572
 21
199.7886652241
 31
0.0
  0
LINE
  5
17D
330
1F
100
AcDbEntity
  8
0
  6
Continuous
 62
     8
370
    15
100
AcDbLine
 10
275.3676615572
 20
174.0886652241
 30
0.0
 11
275.3676615572
 21
139.0715079366
 31
0.0
  0
LINE
  5
17E
330
1F
100
AcDbEntity
  8
0
  6
Continuous
 62
     8
370
    15
100
AcDbLine
 10
278.4848188447
 20
226.6886652241
 30
0.0
 11
278.4848188447
 21
199.7667593928
 31
0.0
  0
LINE
  5
17F
330
1F
100
AcDbEntity
  8
0
  6
Continuous
 62
     8
370
    15
100
AcDbLine
 10
278.4848188447
 20
174.1105710554
 30
0.0
 11
278.4848188447
 21
147.1886652241
 31
0.0
  0
LINE
  5
180
330
1F
100
AcDbEntity
  8
0
  6
Continuous
 62
     8
370
    15
100
AcDbLine
 10
291.8848188447
 20
186.9386652241
 30
0.0
 11
291.8848188447
 21
226.6886652241
 31
0.0
  0
LINE
  5
181
330
1F
100
AcDbEntity
  8
0
  6
Continuous
 62
     8
370
    15
100
AcDbLine
 10
291.8848188447
 20
147.1886652241
 30
0.0
 11
291.8848188447
 21
186.9386652241
 31
0.0
  0
LINE
  5
182
330
1F
100
AcDbEntity
  8
0
  6
Continuous
 62
     8
370
    15
100
AcDbLine
 10
259.0848188447
 20
186.9386652241
 30
0.0
 11
259.0848188447
 21
221.4386652241
 31
0.0
  0
LINE
  5
183
330
1F
100
AcDbEntity
  8
0
  6
Continuous
 62
     8
370
    15
100
AcDbLine
 10
259.0848188447
 20
152.4386652241
 30
0.0
 11
259.0848188447
 21
186.9386652241
 31
0.0
  0
LINE
  5
184
330
1F
100
AcDbEntity
  8
0
  6
Continuous
 62
     8
370
    15
100
AcDbLine
 10
155.4905106174
 20
207.1497730111
 30
0.0
 11
155.4905106174
 21
166.7275574371
 31
0.0
  0
LINE
  5
185
330
1F
100
AcDbEntity
  8
0
  6
Continuous
 62
     8
370
    15
100
AcDbLine
 10
445.8848188447
 20
186.9386652241
 30
0.0
 11
445.8848188447
 21
196.9386652241
 31
0.0
  0
LINE
  5
186
330
1F
100
AcDbEntity
  8
0
  6
Continuous
 62
     8
370
    15
100
AcDbLine
 10
445.8848188447
 20
176.9386652241
 30
0.0
 11
445.8848188447
 21
186.9386652241
 31
0.0
  0
DIMENSION
  5
187
330
1F
100
AcDbEntity
  8
DIM
100
AcDbDimension
  2
_D
 10
468.6475883283
 20
166.9386652241
 30
0.0
 11
468.6475883283
 21
186.9386652241
 31
0.0
 70
   160
  1
%%c<>
 71
     2
 42
-1.0
  3
SLDDIMSTYLE0
100
AcDbAlignedDimension
 13
442.8940711159
 23
206.9386652241
 33
0.0
 14
442.8940711159
 24
166.9386652241
 34
0.0
 50
90.0
100
AcDbRotatedDimension
  0
DIMENSION
  5
193
330
1F
100
AcDbEntity
  8
DIM
100
AcDbDimension
  2
_D_1
 10
475.8700510938
 20
142.9386652241
 30
0.0
 11
475.8700510938
 21
186.9386652241
 31
0.0
 70
   160
  1
%%c<>
 71
     2
 42
-1.0
  3
SLDDIMSTYLE0
100
AcDbAlignedDimension
 13
415.3848188447
 23
230.9386652241
 33
0.0
 14
415.3848188447
 24
142.9386652241
 34
0.0
 50
90.0
100
AcDbRotatedDimension
  0
DIMENSION
  5
19E
330
1F
100
AcDbEntity
  8
DIM
100
AcDbDimension
  2
_D_2
 10
416.3848188447
 20
124.05838822
 30
0.0
 11
429.8848188447
 21
124.05838822
 31
0.0
 70
   160
  1
<>
 71
     2
 42
-1.0
  3
SLDDIMSTYLE1
100
AcDbAlignedDimension
 13
443.3848188447
 23
167.7886652241
 33
0.0
 14
416.3848188447
 24
146.9386652241
 34
0.0
100
AcDbRotatedDimension
  0
DIMENSION
  5
1AB
330
1F
100
AcDbEntity
  8
DIM
100
AcDbDimension
  2
_D_3
 10
256.3848188447
 20
124.05838822
 30
0.0
 11
336.3848188447
 21
124.05838822
 31
0.0
 70
   160
  1
<>
 71
     2
 42
-1.0
  3
SLDDIMSTYLE0
100
AcDbAlignedDimension
 13
416.3848188447
 23
143.9386652241
 33
0.0
 14
256.3848188447
 24
152.0136652241
 34
0.0
100
AcDbRotatedDimension
  0
DIMENSION
  5
1B5
330
1F
100
AcDbEntity
  8
DIM
100
AcDbDimension
  2
_D_4
 10
457.3848188447
 20
106.8173062327
 30
0.0
 11
306.0098188447
 21
106.8173062327
 31
0.0
 70
   160
  1
<>
 71
     2
 42
-1.0
  3
SLDDIMSTYLE0
100
AcDbAlignedDimension
 13
154.6348188447
 23
186.9386652241
 33
0.0
 14
457.3848188447
 24
161.9386652241
 34
0.0
 50
0.0
100
AcDbRotatedDimension
  0
DIMENSION
  5
1BF
330
1F
100
AcDbEntity
  8
DIM
100
AcDbDimension
  2
_D_5
 10
146.6677311262
 20
138.1886652241
 30
0.0
 11
146.6677311262
 21
186.9386652241
 31
0.0
 70
   160
  1
%%c<>
 71
     2
 42
-1.0
  3
SLDDIMSTYLE2
100
AcDbAlignedDimension
 13
260.7505042696
 23
235.6886652241
 33
0.0
 14
260.7505042696
 24
138.1886652241
 34
0.0
 50
90.0
100
AcDbRotatedDimension
  0
LINE
  5
1CB
330
1F
100
AcDbEntity
  8
DIM
  6
CENTERX2
 48
1.1764705882
370
     0
100
AcDbLine
 10
155.0759442261
 20
186.9386652241
 30
0.0
 11
456.7772567967
 21
186.9386652241
 31
0.0
  0
ENDSEC
  0
SECTION
  2
OBJECTS
  0
DICTIONARY
  5
C
330
0
100
AcDbDictionary
281
     1
  3
ACAD_GROUP
350
D
  3
ACAD_LAYOUT
350
1A
  3
ACAD_MLINESTYLE
350
17
  3
ACAD_PLOTSETTINGS
350
19
  3
ACAD_PLOTSTYLENAME
350
E
  3
ACAD_SCALELIST
350
47
  0
DICTIONARY
  5
D
102
{ACAD_REACTORS
330
C
102
}
330
C
100
AcDbDictionary
281
     1
  0
DICTIONARY
  5
1A
102
{ACAD_REACTORS
330
C
102
}
330
C
100
AcDbDictionary
281
     1
  3
Layout1
350
1E
  3
Layout2
350
26
  3
Model
350
22
  0
DICTIONARY
  5
17
102
{ACAD_REACTORS
330
C
102
}
330
C
100
AcDbDictionary
281
     1
  3
Standard
350
18
  0
DICTIONARY
  5
19
102
{ACAD_REACTORS
330
C
102
}
330
C
100
AcDbDictionary
281
     1
  0
ACDBDICTIONARYWDFLT
  5
E
102
{ACAD_REACTORS
330
C
102
}
330
C
100
AcDbDictionary
281
     1
  3
Normal
350
F
100
AcDbDictionaryWithDefault
340
F
  0
DICTIONARY
  5
47
102
{ACAD_REACTORS
330
C
102
}
330
C
100
AcDbDictionary
281
     1
  3
A0
350
48
  3
A1
350
49
  3
A2
350
4A
  3
A3
350
4B
  3
A4
350
4C
  3
A5
350
4D
  3
A6
350
4E
  3
A7
350
4F
  3
A8
350
50
  3
A9
350
51
  3
B0
350
52
  3
B1
350
53
  3
B2
350
54
  3
B3
350
55
  3
B4
350
56
  3
B5
350
57
  3
B6
350
58
  3
B7
350
59
  3
B8
350
5A
  3
B9
350
5B
  3
C0
350
5C
  3
C1
350
5D
  3
C2
350
5E
  3
C3
350
5F
  3
C4
350
60
  3
C5
350
61
  3
C6
350
62
  3
C7
350
63
  3
C8
350
64
  3
C9
350
65
  3
D0
350
66
  3
D1
350
67
  3
D2
350
68
  0
LAYOUT
  5
1E
102
{ACAD_REACTORS
330
1A
102
}
330
1A
100
AcDbPlotSettings
  1

  2
none_device
  4

  6

 40
0.0
 41
0.0
 42
0.0
 43
0.0
 44
0.0
 45
0.0
 46
0.0
 47
0.0
 48
0.0
 49
0.0
140
0.0
141
0.0
142
1.0
143
1.0
 70
   688
 72
     1
 73
     0
 74
     5
  7

 75
    16
147
1.0
148
0.0
149
0.0
100
AcDbLayout
  1
Layout1
 70
     1
 71
     1
 10
0.0
 20
0.0
 11
420.0
 21
297.0
 12
0.0
 22
0.0
 32
0.0
 14
1.0000000000E+20
 24
1.0000000000E+20
 34
1.0000000000E+20
 15
-1.0000000000E+20
 25
-1.0000000000E+20
 35
-1.0000000000E+20
146
0.0
 13
0.0
 23
0.0
 33
0.0
 16
1.0
 26
0.0
 36
0.0
 17
0.0
 27
1.0
 37
0.0
 76
     0
330
1B
  0
LAYOUT
  5
26
102
{ACAD_REACTORS
330
1A
102
}
330
1A
100
AcDbPlotSettings
  1

  2
none_device
  4

  6

 40
0.0
 41
0.0
 42
0.0
 43
0.0
 44
0.0
 45
0.0
 46
0.0
 47
0.0
 48
0.0
 49
0.0
140
0.0
141
0.0
142
1.0
143
1.0
 70
   688
 72
     1
 73
     0
 74
     5
  7

 75
    16
147
1.0
148
0.0
149
0.0
100
AcDbLayout
  1
Layout2
 70
     1
 71
     2
 10
0.0
 20
0.0
 11
0.0
 21
0.0
 12
0.0
 22
0.0
 32
0.0
 14
0.0
 24
0.0
 34
0.0
 15
0.0
 25
0.0
 35
0.0
146
0.0
 13
0.0
 23
0.0
 33
0.0
 16
1.0
 26
0.0
 36
0.0
 17
0.0
 27
1.0
 37
0.0
 76
     0
330
23
  0
LAYOUT
  5
22
102
{ACAD_REACTORS
330
1A
102
}
330
1A
100
AcDbPlotSettings
  1

  2
none_device
  4
Letter_(8.50_x_11.00_Inches)
  6

 40
6.35
 41
6.35
 42
6.35000508
 43
6.35000508
 44
215.9
 45
279.4
 46
0.0
 47
0.0
 48
0.0
 49
0.0
140
0.0
141
0.0
142
1.0
143
1.0
 70
  1712
 72
     1
 73
     0
 74
     0
  7

 75
     0
147
1.0
148
0.0
149
0.0
100
AcDbLayout
  1
Model
 70
     1
 71
     0
 10
0.0
 20
0.0
 11
504.9
 21
357.0
 12
0.0
 22
0.0
 32
0.0
 14
0.0
 24
0.0
 34
0.0
 15
504.9
 25
357.0
 35
0.0
146
0.0
 13
0.0
 23
0.0
 33
0.0
 16
1.0
 26
0.0
 36
0.0
 17
0.0
 27
1.0
 37
0.0
 76
     0
330
1F
331
29
  0
MLINESTYLE
  5
18
102
{ACAD_REACTORS
330
17
102
}
330
17
100
AcDbMlineStyle
  2
Standard
 70
     0
  3

 62
   256
 51
90.0
 52
90.0
 71
     2
 49
0.5
 62
   256
  6
BYLAYER
 49
-0.5
 62
   256
  6
BYLAYER
  0
ACDBPLACEHOLDER
  5
F
102
{ACAD_REACTORS
330
E
102
}
330
E
  0
SCALE
  5
48
102
{ACAD_REACTORS
330
47
102
}
330
47
100
AcDbScale
 70
     0
300
1:1
140
1.0
141
1.0
290
     1
  0
SCALE
  5
49
102
{ACAD_REACTORS
330
47
102
}
330
47
100
AcDbScale
 70
     0
300
1:2
140
1.0
141
2.0
290
     0
  0
SCALE
  5
4A
102
{ACAD_REACTORS
330
47
102
}
330
47
100
AcDbScale
 70
     0
300
1:4
140
1.0
141
4.0
290
     0
  0
SCALE
  5
4B
102
{ACAD_REACTORS
330
47
102
}
330
47
100
AcDbScale
 70
     0
300
1:5
140
1.0
141
5.0
290
     0
  0
SCALE
  5
4C
102
{ACAD_REACTORS
330
47
102
}
330
47
100
AcDbScale
 70
     0
300
1:8
140
1.0
141
8.0
290
     0
  0
SCALE
  5
4D
102
{ACAD_REACTORS
330
47
102
}
330
47
100
AcDbScale
 70
     0
300
1:10
140
1.0
141
10.0
290
     0
  0
SCALE
  5
4E
102
{ACAD_REACTORS
330
47
102
}
330
47
100
AcDbScale
 70
     0
300
1:16
140
1.0
141
16.0
290
     0
  0
SCALE
  5
4F
102
{ACAD_REACTORS
330
47
102
}
330
47
100
AcDbScale
 70
     0
300
1:20
140
1.0
141
20.0
290
     0
  0
SCALE
  5
50
102
{ACAD_REACTORS
330
47
102
}
330
47
100
AcDbScale
 70
     0
300
1:30
140
1.0
141
30.0
290
     0
  0
SCALE
  5
51
102
{ACAD_REACTORS
330
47
102
}
330
47
100
AcDbScale
 70
     0
300
1:40
140
1.0
141
40.0
290
     0
  0
SCALE
  5
52
102
{ACAD_REACTORS
330
47
102
}
330
47
100
AcDbScale
 70
     0
300
1:50
140
1.0
141
50.0
290
     0
  0
SCALE
  5
53
102
{ACAD_REACTORS
330
47
102
}
330
47
100
AcDbScale
 70
     0
300
1:100
140
1.0
141
100.0
290
     0
  0
SCALE
  5
54
102
{ACAD_REACTORS
330
47
102
}
330
47
100
AcDbScale
 70
     0
300
2:1
140
2.0
141
1.0
290
     0
  0
SCALE
  5
55
102
{ACAD_REACTORS
330
47
102
}
330
47
100
AcDbScale
 70
     0
300
4:1
140
4.0
141
1.0
290
     0
  0
SCALE
  5
56
102
{ACAD_REACTORS
330
47
102
}
330
47
100
AcDbScale
 70
     0
300
8:1
140
8.0
141
1.0
290
     0
  0
SCALE
  5
57
102
{ACAD_REACTORS
330
47
102
}
330
47
100
AcDbScale
 70
     0
300
10:1
140
10.0
141
1.0
290
     0
  0
SCALE
  5
58
102
{ACAD_REACTORS
330
47
102
}
330
47
100
AcDbScale
 70
     0
300
100:1
140
100.0
141
1.0
290
     0
  0
SCALE
  5
59
102
{ACAD_REACTORS
330
47
102
}
330
47
100
AcDbScale
 70
     0
300
1/128" = 1'-0"
140
0.0078125
141
12.0
290
     0
  0
SCALE
  5
5A
102
{ACAD_REACTORS
330
47
102
}
330
47
100
AcDbScale
 70
     0
300
1/64" = 1'-0"
140
0.015625
141
12.0
290
     0
  0
SCALE
  5
5B
102
{ACAD_REACTORS
330
47
102
}
330
47
100
AcDbScale
 70
     0
300
1/32" = 1'-0"
140
0.03125
141
12.0
290
     0
  0
SCALE
  5
5C
102
{ACAD_REACTORS
330
47
102
}
330
47
100
AcDbScale
 70
     0
300
1/16" = 1'-0"
140
0.0625
141
12.0
290
     0
  0
SCALE
  5
5D
102
{ACAD_REACTORS
330
47
102
}
330
47
100
AcDbScale
 70
     0
300
3/32" = 1'-0"
140
0.09375
141
12.0
290
     0
  0
SCALE
  5
5E
102
{ACAD_REACTORS
330
47
102
}
330
47
100
AcDbScale
 70
     0
300
1/8" = 1'-0"
140
0.125
141
12.0
290
     0
  0
SCALE
  5
5F
102
{ACAD_REACTORS
330
47
102
}
330
47
100
AcDbScale
 70
     0
300
3/16" = 1'-0"
140
0.1875
141
12.0
290
     0
  0
SCALE
  5
60
102
{ACAD_REACTORS
330
47
102
}
330
47
100
AcDbScale
 70
     0
300
1/4" = 1'-0"
140
0.25
141
12.0
290
     0
  0
SCALE
  5
61
102
{ACAD_REACTORS
330
47
102
}
330
47
100
AcDbScale
 70
     0
300
3/8" = 1'-0"
140
0.375
141
12.0
290
     0
  0
SCALE
  5
62
102
{ACAD_REACTORS
330
47
102
}
330
47
100
AcDbScale
 70
     0
300
1/2" = 1'-0"
140
0.5
141
12.0
290
     0
  0
SCALE
  5
63
102
{ACAD_REACTORS
330
47
102
}
330
47
100
AcDbScale
 70
     0
300
3/4" = 1'-0"
140
0.75
141
12.0
290
     0
  0
SCALE
  5
64
102
{ACAD_REACTORS
330
47
102
}
330
47
100
AcDbScale
 70
     0
300
1" = 1'-0"
140
1.0
141
12.0
290
     0
  0
SCALE
  5
65
102
{ACAD_REACTORS
330
47
102
}
330
47
100
AcDbScale
 70
     0
300
1-1/2" = 1'-0"
140
1.5
141
12.0
290
     0
  0
SCALE
  5
66
102
{ACAD_REACTORS
330
47
102
}
330
47
100
AcDbScale
 70
     0
300
3" = 1'-0"
140
3.0
141
12.0
290
     0
  0
SCALE
  5
67
102
{ACAD_REACTORS
330
47
102
}
330
47
100
AcDbScale
 70
     0
300
6" = 1'-0"
140
6.0
141
12.0
290
     0
  0
SCALE
  5
68
102
{ACAD_REACTORS
330
47
102
}
330
47
100
AcDbScale
 70
     0
300
1'-0" = 1'-0"
140
12.0
141
12.0
290
     0
  0
ENDSEC
  0
EOF
