  0
SECTION
  2
HEADER
  9
$ACADVER
  1
AC1015
  9
$ACADMAINTVER
 70
     6
  9
$DWGCODEPAGE
  3
ANSI_1252
  9
$INSBASE
 10
0.0
 20
0.0
 30
0.0
  9
$EXTMIN
 10
0.0
 20
0.0
 30
0.0
  9
$EXTMAX
 10
371.25
 20
262.5
 30
0.0
  9
$LIMMIN
 10
0.0
 20
0.0
  9
$LIMMAX
 10
371.25
 20
262.5
  9
$ORTHOMODE
 70
     0
  9
$REGENMODE
 70
     1
  9
$FILLMODE
 70
     1
  9
$QTEXTMODE
 70
     0
  9
$MIRRTEXT
 70
     1
  9
$LTSCALE
 40
1.25
  9
$ATTMODE
 70
     1
  9
$TEXTSIZE
 40
4.8506944444
  9
$TRACEWID
 40
1.0
  9
$TEXTSTYLE
  7
Standard
  9
$CLAYER
  8
0
  9
$CELTYPE
  6
ByLayer
  9
$CECOLOR
 62
   256
  9
$CELTSCALE
 40
1.0
  9
$DISPSILH
 70
     0
  9
$DIMSCALE
 40
1.0
  9
$DIMASZ
 40
4.1275
  9
$DIMEXO
 40
1.25
  9
$DIMDLI
 40
3.75
  9
$DIMRND
 40
0.0
  9
$DIMDLE
 40
0.0
  9
$DIMEXE
 40
1.25
  9
$DIMTP
 40
0.0
  9
$DIMTM
 40
0.0
  9
$DIMTXT
 40
4.8506944444
  9
$DIMCEN
 40
2.5
  9
$DIMTSZ
 40
0.0
  9
$DIMTOL
 70
     0
  9
$DIMLIM
 70
     0
  9
$DIMTIH
 70
     1
  9
$DIMTOH
 70
     1
  9
$DIMSE1
 70
     0
  9
$DIMSE2
 70
     0
  9
$DIMTAD
 70
     1
  9
$DIMZIN
 70
     0
  9
$DIMBLK
  1

  9
$DIMASO
 70
     1
  9
$DIMSHO
 70
     1
  9
$DIMPOST
  1

  9
$DIMAPOST
  1

  9
$DIMALT
 70
     0
  9
$DIMALTD
 70
     3
  9
$DIMALTF
 40
0.0393700787
  9
$DIMLFAC
 40
1.0
  9
$DIMTOFL
 70
     1
  9
$DIMTVP
 40
0.0
  9
$DIMTIX
 70
     0
  9
$DIMSOXD
 70
     0
  9
$DIMSAH
 70
     0
  9
$DIMBLK1
  1

  9
$DIMBLK2
  1

  9
$DIMSTYLE
  2
ISO-25
  9
$DIMCLRD
 70
     0
  9
$DIMCLRE
 70
     0
  9
$DIMCLRT
 70
     0
  9
$DIMTFAC
 40
1.0
  9
$DIMGAP
 40
1.905
  9
$DIMJUST
 70
     0
  9
$DIMSD1
 70
     0
  9
$DIMSD2
 70
     0
  9
$DIMTOLJ
 70
     0
  9
$DIMTZIN
 70
     0
  9
$DIMALTZ
 70
     0
  9
$DIMALTTZ
 70
     0
  9
$DIMUPT
 70
     0
  9
$DIMDEC
 70
     2
  9
$DIMTDEC
 70
     2
  9
$DIMALTU
 70
     2
  9
$DIMALTTD
 70
     3
  9
$DIMTXSTY
  7
Standard
  9
$DIMAUNIT
 70
     0
  9
$DIMADEC
 70
     2
  9
$DIMALTRND
 40
0.0
  9
$DIMAZIN
 70
     0
  9
$DIMDSEP
 70
    44
  9
$DIMATFIT
 70
     3
  9
$DIMFRAC
 70
     0
  9
$DIMLDRBLK
  1

  9
$DIMLUNIT
 70
     2
  9
$DIMLWD
 70
    -2
  9
$DIMLWE
 70
    -2
  9
$DIMTMOVE
 70
     0
  9
$LUNITS
 70
     2
  9
$LUPREC
 70
     2
  9
$SKETCHINC
 40
1.0
  9
$FILLETRAD
 40
10.0
  9
$AUNITS
 70
     1
  9
$AUPREC
 70
     2
  9
$MENU
  1
.
  9
$ELEVATION
 40
0.0
  9
$PELEVATION
 40
0.0
  9
$THICKNESS
 40
0.0
  9
$LIMCHECK
 70
     0
  9
$CHAMFERA
 40
0.0
  9
$CHAMFERB
 40
0.0
  9
$CHAMFERC
 40
0.0
  9
$CHAMFERD
 40
0.0
  9
$SKPOLY
 70
     0
  9
$TDCREATE
 40
2458601.627089213
  9
$TDUCREATE
 40
2458601.397922546
  9
$TDUPDATE
 40
2458601.627090023
  9
$TDUUPDATE
 40
2458601.397923356
  9
$TDINDWG
 40
0.0000000116
  9
$TDUSRTIMER
 40
0.0000000116
  9
$USRTIMER
 70
     1
  9
$ANGBASE
 50
0.0
  9
$ANGDIR
 70
     0
  9
$PDMODE
 70
     0
  9
$PDSIZE
 40
-1.0
  9
$PLINEWID
 40
0.0
  9
$SPLFRAME
 70
     0
  9
$SPLINETYPE
 70
     6
  9
$SPLINESEGS
 70
     8
  9
$HANDSEED
  5
135
  9
$SURFTAB1
 70
     6
  9
$SURFTAB2
 70
     6
  9
$SURFTYPE
 70
     6
  9
$SURFU
 70
     6
  9
$SURFV
 70
     6
  9
$UCSBASE
  2

  9
$UCSNAME
  2

  9
$UCSORG
 10
0.0
 20
0.0
 30
0.0
  9
$UCSXDIR
 10
1.0
 20
0.0
 30
0.0
  9
$UCSYDIR
 10
0.0
 20
1.0
 30
0.0
  9
$UCSORTHOREF
  2

  9
$UCSORTHOVIEW
 70
     0
  9
$UCSORGTOP
 10
0.0
 20
0.0
 30
0.0
  9
$UCSORGBOTTOM
 10
0.0
 20
0.0
 30
0.0
  9
$UCSORGLEFT
 10
0.0
 20
0.0
 30
0.0
  9
$UCSORGRIGHT
 10
0.0
 20
0.0
 30
0.0
  9
$UCSORGFRONT
 10
0.0
 20
0.0
 30
0.0
  9
$UCSORGBACK
 10
0.0
 20
0.0
 30
0.0
  9
$PUCSBASE
  2

  9
$PUCSNAME
  2

  9
$PUCSORG
 10
0.0
 20
0.0
 30
0.0
  9
$PUCSXDIR
 10
1.0
 20
0.0
 30
0.0
  9
$PUCSYDIR
 10
0.0
 20
1.0
 30
0.0
  9
$PUCSORTHOREF
  2

  9
$PUCSORTHOVIEW
 70
     0
  9
$PUCSORGTOP
 10
0.0
 20
0.0
 30
0.0
  9
$PUCSORGBOTTOM
 10
0.0
 20
0.0
 30
0.0
  9
$PUCSORGLEFT
 10
0.0
 20
0.0
 30
0.0
  9
$PUCSORGRIGHT
 10
0.0
 20
0.0
 30
0.0
  9
$PUCSORGFRONT
 10
0.0
 20
0.0
 30
0.0
  9
$PUCSORGBACK
 10
0.0
 20
0.0
 30
0.0
  9
$USERI1
 70
     0
  9
$USERI2
 70
     0
  9
$USERI3
 70
     0
  9
$USERI4
 70
     0
  9
$USERI5
 70
     0
  9
$USERR1
 40
0.0
  9
$USERR2
 40
0.0
  9
$USERR3
 40
0.0
  9
$USERR4
 40
0.0
  9
$USERR5
 40
0.0
  9
$WORLDVIEW
 70
     1
  9
$SHADEDGE
 70
     3
  9
$SHADEDIF
 70
    70
  9
$TILEMODE
 70
     1
  9
$MAXACTVP
 70
    64
  9
$PINSBASE
 10
0.0
 20
0.0
 30
0.0
  9
$PLIMCHECK
 70
     0
  9
$PEXTMIN
 10
1.0000000000E+20
 20
1.0000000000E+20
 30
1.0000000000E+20
  9
$PEXTMAX
 10
-1.0000000000E+20
 20
-1.0000000000E+20
 30
-1.0000000000E+20
  9
$PLIMMIN
 10
0.0
 20
0.0
  9
$PLIMMAX
 10
420.0
 20
297.0
  9
$UNITMODE
 70
     0
  9
$VISRETAIN
 70
     1
  9
$PLINEGEN
 70
     0
  9
$PSLTSCALE
 70
     1
  9
$TREEDEPTH
 70
  3020
  9
$CMLSTYLE
  2
Standard
  9
$CMLJUST
 70
     0
  9
$CMLSCALE
 40
20.0
  9
$PROXYGRAPHICS
 70
     1
  9
$MEASUREMENT
 70
     1
  9
$CELWEIGHT
370
    -1
  9
$ENDCAPS
280
     0
  9
$JOINSTYLE
280
     0
  9
$LWDISPLAY
290
     1
  9
$INSUNITS
 70
     4
  9
$HYPERLINKBASE
  1

  9
$STYLESHEET
  1

  9
$XEDIT
290
     1
  9
$CEPSNTYPE
380
     0
  9
$PSTYLEMODE
290
     1
  9
$FINGERPRINTGUID
  2
{5EB34324-69BA-4896-9C6F-238F39B2CF35}
  9
$VERSIONGUID
  2
{FAEB1C32-E019-11D5-929B-00C0DF256EC4}
  9
$EXTNAMES
290
     1
  9
$PSVPSCALE
 40
0.0
  9
$OLESTARTUP
290
     0
  0
ENDSEC
  0
SECTION
  2
CLASSES
  0
CLASS
  1
ACDBDICTIONARYWDFLT
  2
AcDbDictionaryWithDefault
  3
ObjectDBX Classes
 90
        0
280
     0
281
     0
  0
CLASS
  1
VISUALSTYLE
  2
AcDbVisualStyle
  3
ObjectDBX Classes
 90
     4095
280
     0
281
     0
  0
CLASS
  1
MATERIAL
  2
AcDbMaterial
  3
ObjectDBX Classes
 90
     1153
280
     0
281
     0
  0
CLASS
  1
SCALE
  2
AcDbScale
  3
ObjectDBX Classes
 90
     1153
280
     0
281
     0
  0
CLASS
  1
SUN
  2
AcDbSun
  3
SCENEOE
 90
     1153
280
     0
281
     0
  0
CLASS
  1
ACDBPLACEHOLDER
  2
AcDbPlaceHolder
  3
ObjectDBX Classes
 90
        0
280
     0
281
     0
  0
CLASS
  1
LAYOUT
  2
AcDbLayout
  3
ObjectDBX Classes
 90
        0
280
     0
281
     0
  0
ENDSEC
  0
SECTION
  2
TABLES
  0
TABLE
  2
VPORT
  5
8
330
0
100
AcDbSymbolTable
 70
     1
  0
VPORT
  5
29
330
8
100
AcDbSymbolTableRecord
100
AcDbViewportTableRecord
  2
*Active
 70
     0
 10
0.0
 20
0.0
 11
1.0
 21
1.0
 12
185.625
 22
131.25
 13
0.0
 23
0.0
 14
10.0
 24
10.0
 15
10.0
 25
10.0
 16
0.0
 26
0.0
 36
1.0
 17
0.0
 27
0.0
 37
0.0
 40
262.5
 41
1.4142857143
 42
50.0
 43
0.0
 44
0.0
 50
0.0
 51
0.0
 71
     0
 72
  2000
 73
     1
 74
     3
 75
     0
 76
     0
 77
     0
 78
     0
281
     0
 65
     1
110
0.0
120
0.0
130
0.0
111
1.0
121
0.0
131
0.0
112
0.0
122
1.0
132
0.0
 79
     0
146
0.0
  0
ENDTAB
  0
TABLE
  2
LTYPE
  5
5
330
0
100
AcDbSymbolTable
 70
     6
  0
LTYPE
  5
14
330
5
100
AcDbSymbolTableRecord
100
AcDbLinetypeTableRecord
  2
ByBlock
 70
     0
  3

 72
    65
 73
     0
 40
0.0
  0
LTYPE
  5
15
330
5
100
AcDbSymbolTableRecord
100
AcDbLinetypeTableRecord
  2
ByLayer
 70
     0
  3

 72
    65
 73
     0
 40
0.0
  0
LTYPE
  5
16
330
5
100
AcDbSymbolTableRecord
100
AcDbLinetypeTableRecord
  2
Continuous
 70
     0
  3
Solid line
 72
    65
 73
     0
 40
0.0
  0
LTYPE
  5
6A
330
5
100
AcDbSymbolTableRecord
100
AcDbLinetypeTableRecord
  2
HIDDEN
 70
     0
  3
Hidden __ __ __ __ __ __ __ __ __ __ __ __ __ __
 72
    65
 73
     2
 40
1.905
 49
1.27
 74
     0
 49
-0.635
 74
     0
  0
LTYPE
  5
6B
330
5
100
AcDbSymbolTableRecord
100
AcDbLinetypeTableRecord
  2
PHANTOM
 70
     0
  3
Phantom ______  __  __  ______  __  __  ______
 72
    65
 73
     6
 40
12.7
 49
6.35
 74
     0
 49
-1.27
 74
     0
 49
1.27
 74
     0
 49
-1.27
 74
     0
 49
1.27
 74
     0
 49
-1.27
 74
     0
  0
LTYPE
  5
6C
330
5
100
AcDbSymbolTableRecord
100
AcDbLinetypeTableRecord
  2
CENTER
 70
     0
  3
Center ____ _ ____ _ ____ _ ____ _ ____ _ ____
 72
    65
 73
     4
 40
10.16
 49
6.35
 74
     0
 49
-1.27
 74
     0
 49
1.27
 74
     0
 49
-1.27
 74
     0
  0
LTYPE
  5
6D
330
5
100
AcDbSymbolTableRecord
100
AcDbLinetypeTableRecord
  2
CENTERX2
 70
     0
  3
Center (2x) ________  __  ________  __  _____
 72
    65
 73
     4
 40
20.32
 49
12.7
 74
     0
 49
-2.54
 74
     0
 49
2.54
 74
     0
 49
-2.54
 74
     0
  0
LTYPE
  5
6E
330
5
100
AcDbSymbolTableRecord
100
AcDbLinetypeTableRecord
  2
DOT2
 70
     0
  3
Dot (.5x) ........................................
 72
    65
 73
     2
 40
0.635
 49
0.0
 74
     0
 49
-0.635
 74
     0
  0
ENDTAB
  0
TABLE
  2
LAYER
  5
2
330
0
100
AcDbSymbolTable
 70
     8
  0
LAYER
  5
10
330
2
100
AcDbSymbolTableRecord
100
AcDbLayerTableRecord
  2
0
 70
     0
 62
     7
  6
Continuous
370
    -3
390
F
  0
LAYER
  5
6F
330
2
100
AcDbSymbolTableRecord
100
AcDbLayerTableRecord
  2
FORMAT
 70
     0
 62
     7
  6
Continuous
370
    -3
390
F
  0
LAYER
  5
70
330
2
100
AcDbSymbolTableRecord
100
AcDbLayerTableRecord
  2
SLD-0
 70
     0
 62
     2
  6
Continuous
370
    -3
390
F
  0
LAYER
  5
71
330
2
100
AcDbSymbolTableRecord
100
AcDbLayerTableRecord
  2
DIM
 70
     0
 62
   179
  6
Continuous
370
    -3
390
F
  0
LAYER
  5
72
330
2
100
AcDbSymbolTableRecord
100
AcDbLayerTableRecord
  2
SLD-DEFPOINTS
 70
     0
 62
   179
  6
Continuous
370
    -3
390
F
  0
LAYER
  5
73
330
2
100
AcDbSymbolTableRecord
100
AcDbLayerTableRecord
  2
HAT
 70
     0
 62
   135
  6
Continuous
370
    -3
390
F
  0
LAYER
  5
74
330
2
100
AcDbSymbolTableRecord
100
AcDbLayerTableRecord
  2
JOB
 70
     0
 62
   201
  6
Continuous
370
    -3
390
F
  0
LAYER
  5
75
330
2
100
AcDbSymbolTableRecord
100
AcDbLayerTableRecord
  2
INSPECTION_REPORT
 70
     0
 62
   255
  6
Continuous
370
    -3
390
F
  0
ENDTAB
  0
TABLE
  2
STYLE
  5
3
330
0
100
AcDbSymbolTable
 70
     4
  0
STYLE
  5
11
330
3
100
AcDbSymbolTableRecord
100
AcDbTextStyleTableRecord
  2
Standard
 70
     0
 40
0.0
 41
1.0
 50
0.0
 71
     0
 42
4.8506944444
  3
txt
  4

  0
STYLE
  5
96
330
3
100
AcDbSymbolTableRecord
100
AcDbTextStyleTableRecord
  2
SLDTEXTSTYLE0
 70
     0
 40
0.0
 41
0.7
 50
0.0
 71
     0
 42
4.8506944444
  3
TXT
  4

  0
STYLE
  5
98
330
3
100
AcDbSymbolTableRecord
100
AcDbTextStyleTableRecord
  2
SLDTEXTSTYLE1
 70
     0
 40
0.0
 41
0.75
 50
0.0
 71
     0
 42
4.8506944444
  3
TXT
  4

  0
STYLE
  5
AB
330
3
100
AcDbSymbolTableRecord
100
AcDbTextStyleTableRecord
  2
SLDTEXTSTYLE2
 70
     0
 40
0.0
 41
0.6875
 50
0.0
 71
     0
 42
4.8506944444
  3
TXT
  4

  0
ENDTAB
  0
TABLE
  2
VIEW
  5
6
330
0
100
AcDbSymbolTable
 70
     0
  0
ENDTAB
  0
TABLE
  2
UCS
  5
7
330
0
100
AcDbSymbolTable
 70
     0
  0
ENDTAB
  0
TABLE
  2
APPID
  5
9
330
0
100
AcDbSymbolTable
 70
     1
  0
APPID
  5
12
330
9
100
AcDbSymbolTableRecord
100
AcDbRegAppTableRecord
  2
ACAD
 70
     0
  0
ENDTAB
  0
TABLE
  2
DIMSTYLE
  5
A
330
0
100
AcDbSymbolTable
 70
     3
100
AcDbDimStyleTable
  0
DIMSTYLE
105
27
330
A
100
AcDbSymbolTableRecord
100
AcDbDimStyleTableRecord
  2
ISO-25
 70
     0
 41
2.5
 42
0.625
 43
3.75
 44
1.25
 73
     0
 74
     0
 77
     1
 78
     8
140
2.5
141
2.5
143
0.0393700787
147
0.625
171
     3
172
     1
178
     0
271
     2
272
     2
274
     3
278
    44
283
     0
284
     8
340
11
  0
DIMSTYLE
105
109
102
{ACAD_REACTORS
330
108
330
113
102
}
330
A
100
AcDbSymbolTableRecord
100
AcDbDimStyleTableRecord
  2
SLDDIMSTYLE0
 70
     0
 41
4.1275
 44
0.0
 45
0.000000001
 73
     0
 74
     0
 77
     1
 78
    12
 79
     3
140
3.6380208333
147
0.9095052083
173
     1
178
     0
271
     2
272
     2
276
     2
284
    12
340
96
  0
DIMSTYLE
105
11F
102
{ACAD_REACTORS
330
11E
330
129
102
}
330
A
100
AcDbSymbolTableRecord
100
AcDbDimStyleTableRecord
  2
SLDDIMSTYLE1
 70
     0
 41
4.1275
 44
0.0
 45
0.000000001
 73
     0
 74
     0
 77
     1
 78
     4
 79
     1
140
3.6380208333
147
0.9095052083
173
     1
178
     0
271
     2
272
     2
276
     2
284
    12
340
96
  0
ENDTAB
  0
TABLE
  2
BLOCK_RECORD
  5
1
330
0
100
AcDbSymbolTable
 70
     6
  0
BLOCK_RECORD
  5
1F
330
1
100
AcDbSymbolTableRecord
100
AcDbBlockTableRecord
  2
*Model_Space
340
22
  0
BLOCK_RECORD
  5
1B
330
1
100
AcDbSymbolTableRecord
100
AcDbBlockTableRecord
  2
*Paper_Space
340
1E
  0
BLOCK_RECORD
  5
23
330
1
100
AcDbSymbolTableRecord
100
AcDbBlockTableRecord
  2
*Paper_Space0
340
26
  0
BLOCK_RECORD
  5
C4
330
1
100
AcDbSymbolTableRecord
100
AcDbBlockTableRecord
  2
SW_CENTERMARKSYMBOL_0
340
0
102
{BLKREFS
331
CF
102
}
  0
BLOCK_RECORD
  5
10A
330
1
100
AcDbSymbolTableRecord
100
AcDbBlockTableRecord
  2
_D
340
0
  0
BLOCK_RECORD
  5
114
330
1
100
AcDbSymbolTableRecord
100
AcDbBlockTableRecord
  2
_D_1
340
0
  0
BLOCK_RECORD
  5
120
330
1
100
AcDbSymbolTableRecord
100
AcDbBlockTableRecord
  2
_D_2
340
0
  0
BLOCK_RECORD
  5
12A
330
1
100
AcDbSymbolTableRecord
100
AcDbBlockTableRecord
  2
_D_3
340
0
  0
ENDTAB
  0
ENDSEC
  0
SECTION
  2
BLOCKS
  0
BLOCK
  5
20
330
1F
100
AcDbEntity
  8
0
100
AcDbBlockBegin
  2
*Model_Space
 70
     0
 10
0.0
 20
0.0
 30
0.0
  3
*Model_Space
  1
*Model_Space
  0
ENDBLK
  5
21
330
1F
100
AcDbEntity
  8
0
100
AcDbBlockEnd
  0
BLOCK
  5
1C
330
1B
100
AcDbEntity
 67
     1
  8
0
100
AcDbBlockBegin
  2
*Paper_Space
 70
     0
 10
0.0
 20
0.0
 30
0.0
  3
*Paper_Space
  1
*Paper_Space
  0
ENDBLK
  5
1D
330
1B
100
AcDbEntity
 67
     1
  8
0
100
AcDbBlockEnd
  0
BLOCK
  5
24
330
23
100
AcDbEntity
  8
0
100
AcDbBlockBegin
  2
*Paper_Space0
 70
     0
 10
0.0
 20
0.0
 30
0.0
  3
*Paper_Space0
  1
*Paper_Space0
  0
ENDBLK
  5
25
330
23
100
AcDbEntity
  8
0
100
AcDbBlockEnd
  0
BLOCK
  5
C5
330
C4
100
AcDbEntity
  8
0
100
AcDbBlockBegin
  2
SW_CENTERMARKSYMBOL_0
 70
     0
 10
0.0
 20
0.0
 30
0.0
  3
SW_CENTERMARKSYMBOL_0
  1
SW_CENTERMARKSYMBOL_0
  0
LINE
  5
C7
330
C4
100
AcDbEntity
  8
DIM
 62
     0
100
AcDbLine
 10
0.0
 20
0.0
 30
0.0
 11
0.0
 21
2.5
 31
0.0
  0
LINE
  5
C8
330
C4
100
AcDbEntity
  8
DIM
 62
     0
100
AcDbLine
 10
0.0
 20
0.0
 30
0.0
 11
-2.5
 21
0.0
 31
0.0
  0
LINE
  5
C9
330
C4
100
AcDbEntity
  8
DIM
 62
     0
100
AcDbLine
 10
0.0
 20
0.0
 30
0.0
 11
0.0
 21
-2.5
 31
0.0
  0
LINE
  5
CA
330
C4
100
AcDbEntity
  8
DIM
 62
     0
100
AcDbLine
 10
0.0
 20
0.0
 30
0.0
 11
2.5
 21
0.0
 31
0.0
  0
LINE
  5
CB
330
C4
100
AcDbEntity
  8
DIM
 62
     0
100
AcDbLine
 10
0.0
 20
5.0
 30
0.0
 11
0.0
 21
34.25
 31
0.0
  0
LINE
  5
CC
330
C4
100
AcDbEntity
  8
DIM
 62
     0
100
AcDbLine
 10
-5.0
 20
0.0
 30
0.0
 11
-34.25
 21
0.0
 31
0.0
  0
LINE
  5
CD
330
C4
100
AcDbEntity
  8
DIM
 62
     0
100
AcDbLine
 10
0.0
 20
-5.0
 30
0.0
 11
0.0
 21
-34.25
 31
0.0
  0
LINE
  5
CE
330
C4
100
AcDbEntity
  8
DIM
 62
     0
100
AcDbLine
 10
5.0
 20
0.0
 30
0.0
 11
34.25
 21
0.0
 31
0.0
  0
ENDBLK
  5
C6
330
C4
100
AcDbEntity
  8
0
100
AcDbBlockEnd
  0
BLOCK
  5
10B
330
10A
100
AcDbEntity
  8
0
100
AcDbBlockBegin
  2
_D
 70
     0
 10
0.0
 20
0.0
 30
0.0
  3
_D
  1
_D
  0
SOLID
  5
10D
330
10A
100
AcDbEntity
  8
DIM
100
AcDbTrace
 10
230.6080812436
 20
94.64541451
 30
0.0
 11
234.7355812436
 21
94.01041451
 31
0.0
 12
234.7355812436
 22
95.28041451
 32
0.0
 13
234.7355812436
 23
95.28041451
 33
0.0
  0
SOLID
  5
10E
330
10A
100
AcDbEntity
  8
DIM
100
AcDbTrace
 10
293.6080812436
 20
94.64541451
 30
0.0
 11
289.4805812436
 21
95.28041451
 31
0.0
 12
289.4805812436
 22
94.01041451
 32
0.0
 13
289.4805812436
 23
94.01041451
 33
0.0
  0
LINE
  5
10F
330
10A
100
AcDbEntity
  8
DIM
100
AcDbLine
 10
230.6080812436
 20
116.1033432372
 30
0.0
 11
230.6080812436
 21
93.39541451
 31
0.0
  0
LINE
  5
110
330
10A
100
AcDbEntity
  8
DIM
100
AcDbLine
 10
293.6080812436
 20
119.3283432372
 30
0.0
 11
293.6080812436
 21
93.39541451
 31
0.0
  0
LINE
  5
111
330
10A
100
AcDbEntity
  8
DIM
100
AcDbLine
 10
230.6080812436
 20
94.64541451
 30
0.0
 11
293.6080812436
 21
94.64541451
 31
0.0
  0
MTEXT
  5
112
330
10A
100
AcDbEntity
  8
DIM
100
AcDbMText
 10
259.6490485497
 20
99.3350700939
 30
0.0
 40
3.6380208333
 41
0.0
 71
     1
 72
     1
  1
63
  7
SLDTEXTSTYLE0
 73
     1
 44
1.0
  0
ENDBLK
  5
10C
330
10A
100
AcDbEntity
  8
0
100
AcDbBlockEnd
  0
BLOCK
  5
115
330
114
100
AcDbEntity
  8
0
100
AcDbBlockBegin
  2
_D_1
 70
     0
 10
0.0
 20
0.0
 30
0.0
  3
_D_1
  1
_D_1
  0
SOLID
  5
117
330
114
100
AcDbEntity
  8
DIM
100
AcDbTrace
 10
301.0747099229
 20
164.5783432372
 30
0.0
 11
300.4397099229
 21
160.4508432372
 31
0.0
 12
301.7097099229
 22
160.4508432372
 32
0.0
 13
301.7097099229
 23
160.4508432372
 33
0.0
  0
SOLID
  5
118
330
114
100
AcDbEntity
  8
DIM
100
AcDbTrace
 10
301.0747099229
 20
114.5783432372
 30
0.0
 11
301.7097099229
 21
118.7058432372
 31
0.0
 12
300.4397099229
 22
118.7058432372
 32
0.0
 13
300.4397099229
 23
118.7058432372
 33
0.0
  0
LINE
  5
119
330
114
100
AcDbEntity
  8
DIM
100
AcDbLine
 10
281.9910397205
 20
164.5783432372
 30
0.0
 11
302.3247099229
 21
164.5783432372
 31
0.0
  0
LINE
  5
11A
330
114
100
AcDbEntity
  8
DIM
100
AcDbLine
 10
281.9910397205
 20
114.5783432372
 30
0.0
 11
302.3247099229
 21
114.5783432372
 31
0.0
  0
LINE
  5
11B
330
114
100
AcDbEntity
  8
DIM
100
AcDbLine
 10
301.0747099229
 20
164.5783432372
 30
0.0
 11
301.0747099229
 21
114.5783432372
 31
0.0
  0
MTEXT
  5
11C
330
114
100
AcDbEntity
  8
DIM
100
AcDbMText
 10
296.385054339
 20
134.3064131061
 30
0.0
 40
3.6380208333
 41
0.0
 71
     1
 72
     1
  1
%%c
  7
SLDTEXTSTYLE0
 11
-7.044195017643634E-15
 21
1.0
 31
0.0
 73
     1
 44
1.0
  0
MTEXT
  5
11D
330
114
100
AcDbEntity
  8
DIM
100
AcDbMText
 10
296.385054339
 20
139.9322079806
 30
0.0
 40
3.6380208333
 41
0.0
 71
     1
 72
     1
  1
50
  7
SLDTEXTSTYLE0
 11
-7.044195017643634E-15
 21
1.0
 31
0.0
 73
     1
 44
1.0
  0
ENDBLK
  5
116
330
114
100
AcDbEntity
  8
0
100
AcDbBlockEnd
  0
BLOCK
  5
121
330
120
100
AcDbEntity
  8
0
100
AcDbBlockBegin
  2
_D_2
 70
     0
 10
0.0
 20
0.0
 30
0.0
  3
_D_2
  1
_D_2
  0
SOLID
  5
123
330
120
100
AcDbEntity
  8
DIM
100
AcDbTrace
 10
162.2080812436
 20
86.0040114472
 30
0.0
 11
166.3355812436
 21
85.3690114472
 31
0.0
 12
166.3355812436
 22
86.6390114472
 32
0.0
 13
166.3355812436
 23
86.6390114472
 33
0.0
  0
SOLID
  5
124
330
120
100
AcDbEntity
  8
DIM
100
AcDbTrace
 10
293.6080812436
 20
86.0040114472
 30
0.0
 11
289.4805812436
 21
86.6390114472
 31
0.0
 12
289.4805812436
 22
85.3690114472
 32
0.0
 13
289.4805812436
 23
85.3690114472
 33
0.0
  0
LINE
  5
125
330
120
100
AcDbEntity
  8
DIM
100
AcDbLine
 10
162.2080812436
 20
138.3283432372
 30
0.0
 11
162.2080812436
 21
84.7540114472
 31
0.0
  0
LINE
  5
126
330
120
100
AcDbEntity
  8
DIM
100
AcDbLine
 10
293.6080812436
 20
119.3283432372
 30
0.0
 11
293.6080812436
 21
84.7540114472
 31
0.0
  0
LINE
  5
127
330
120
100
AcDbEntity
  8
DIM
100
AcDbLine
 10
162.2080812436
 20
86.0040114472
 30
0.0
 11
293.6080812436
 21
86.0040114472
 31
0.0
  0
MTEXT
  5
128
330
120
100
AcDbEntity
  8
DIM
100
AcDbMText
 10
221.1137402186
 20
90.6936670312
 30
0.0
 40
3.6380208333
 41
0.0
 71
     1
 72
     1
  1
131.40
  7
SLDTEXTSTYLE0
 73
     1
 44
1.0
  0
ENDBLK
  5
122
330
120
100
AcDbEntity
  8
0
100
AcDbBlockEnd
  0
BLOCK
  5
12B
330
12A
100
AcDbEntity
  8
0
100
AcDbBlockBegin
  2
_D_3
 70
     0
 10
0.0
 20
0.0
 30
0.0
  3
_D_3
  1
_D_3
  0
SOLID
  5
12D
330
12A
100
AcDbEntity
  8
DIM
100
AcDbTrace
 10
149.7068272499
 20
107.8283432372
 30
0.0
 11
150.3418272499
 21
111.9558432372
 31
0.0
 12
149.0718272499
 22
111.9558432372
 32
0.0
 13
149.0718272499
 23
111.9558432372
 33
0.0
  0
SOLID
  5
12E
330
12A
100
AcDbEntity
  8
DIM
100
AcDbTrace
 10
149.7068272499
 20
171.3283432372
 30
0.0
 11
149.0718272499
 21
167.2008432372
 31
0.0
 12
150.3418272499
 22
167.2008432372
 32
0.0
 13
150.3418272499
 23
167.2008432372
 33
0.0
  0
LINE
  5
12F
330
12A
100
AcDbEntity
  8
DIM
100
AcDbLine
 10
233.5580812436
 20
107.8283432372
 30
0.0
 11
148.4568272499
 21
107.8283432372
 31
0.0
  0
LINE
  5
130
330
12A
100
AcDbEntity
  8
DIM
100
AcDbLine
 10
233.5580812436
 20
171.3283432372
 30
0.0
 11
148.4568272499
 21
171.3283432372
 31
0.0
  0
LINE
  5
131
330
12A
100
AcDbEntity
  8
DIM
100
AcDbLine
 10
149.7068272499
 20
107.8283432372
 30
0.0
 11
149.7068272499
 21
171.3283432372
 31
0.0
  0
MTEXT
  5
132
330
12A
100
AcDbEntity
  8
DIM
100
AcDbMText
 10
145.017171666
 20
131.200621122
 30
0.0
 40
3.6380208333
 41
0.0
 71
     1
 72
     1
  1
%%c
  7
SLDTEXTSTYLE0
 11
6.123233995736766E-17
 21
1.0
 31
0.0
 73
     1
 44
1.0
  0
MTEXT
  5
133
330
12A
100
AcDbEntity
  8
DIM
100
AcDbMText
 10
145.017171666
 20
136.8264159965
 30
0.0
 40
3.6380208333
 41
0.0
 71
     1
 72
     1
  1
63.50
  7
SLDTEXTSTYLE0
 11
6.123233995736766E-17
 21
1.0
 31
0.0
 73
     1
 44
1.0
  0
ENDBLK
  5
12C
330
12A
100
AcDbEntity
  8
0
100
AcDbBlockEnd
  0
ENDSEC
  0
SECTION
  2
ENTITIES
  0
LINE
  5
76
330
1F
100
AcDbEntity
  8
DIM
100
AcDbLine
 10
130.8805308612
 20
12.2387393211
 30
0.0
 11
130.8805308612
 21
5.9887393211
 31
0.0
  0
LINE
  5
77
330
1F
100
AcDbEntity
  8
DIM
100
AcDbLine
 10
318.0870021191
 20
12.2387393211
 30
0.0
 11
318.0870021191
 21
5.9887393211
 31
0.0
  0
LINE
  5
78
330
1F
100
AcDbEntity
  8
DIM
100
AcDbLine
 10
296.8146374145
 20
12.2387393211
 30
0.0
 11
296.8146374145
 21
5.9887393211
 31
0.0
  0
LINE
  5
79
330
1F
100
AcDbEntity
  8
DIM
100
AcDbLine
 10
348.6305308612
 20
5.9887393211
 30
0.0
 11
348.6305308612
 21
12.2387393211
 31
0.0
  0
LINE
  5
7A
330
1F
100
AcDbEntity
  8
DIM
100
AcDbLine
 10
140.6305308612
 20
12.2387393211
 30
0.0
 11
140.6305308612
 21
5.9887393211
 31
0.0
  0
LINE
  5
7B
330
1F
100
AcDbEntity
  8
DIM
100
AcDbLine
 10
164.6192214035
 20
12.2387393211
 30
0.0
 11
164.6192214035
 21
5.9887393211
 31
0.0
  0
LINE
  5
7C
330
1F
100
AcDbEntity
  8
DIM
100
AcDbLine
 10
364.8805308612
 20
5.9887393211
 30
0.0
 11
364.8805308612
 21
96.3012393211
 31
0.0
  0
LINE
  5
7D
330
1F
100
AcDbEntity
  8
DIM
100
AcDbLine
 10
357.2737558684
 20
75.0512393211
 30
0.0
 11
364.8805308612
 21
75.0512393211
 31
0.0
  0
LINE
  5
7E
330
1F
100
AcDbEntity
  8
DIM
100
AcDbLine
 10
186.3791885657
 20
11.3012393211
 30
0.0
 11
186.3791885657
 21
5.9887393211
 31
0.0
  0
LINE
  5
7F
330
1F
100
AcDbEntity
  8
DIM
100
AcDbLine
 10
245.9549364505
 20
12.2387393211
 30
0.0
 11
245.9549364505
 21
5.9887393211
 31
0.0
  0
LINE
  5
80
330
1F
100
AcDbEntity
  8
DIM
100
AcDbLine
 10
186.3791885657
 20
12.2387393211
 30
0.0
 11
186.3791885657
 21
11.3012393211
 31
0.0
  0
LINE
  5
81
330
1F
100
AcDbEntity
  8
DIM
100
AcDbLine
 10
358.6305308612
 20
21.9261493211
 30
0.0
 11
364.8805308612
 21
21.9261493211
 31
0.0
  0
LINE
  5
82
330
1F
100
AcDbEntity
  8
DIM
100
AcDbLine
 10
358.6305308612
 20
249.7387393211
 30
0.0
 11
12.3805308612
 21
249.7387393211
 31
0.0
  0
LINE
  5
83
330
1F
100
AcDbEntity
  8
DIM
100
AcDbLine
 10
364.8805308612
 20
255.9887393211
 30
0.0
 11
6.1305308612
 21
255.9887393211
 31
0.0
  0
LINE
  5
84
330
1F
100
AcDbEntity
  8
DIM
100
AcDbLine
 10
12.3805308612
 20
249.7387393211
 30
0.0
 11
12.3805308612
 21
12.2387393211
 31
0.0
  0
LINE
  5
85
330
1F
100
AcDbEntity
  8
DIM
100
AcDbLine
 10
6.1305308612
 20
255.9887393211
 30
0.0
 11
6.1305308612
 21
5.9887393211
 31
0.0
  0
LINE
  5
86
330
1F
100
AcDbEntity
  8
DIM
100
AcDbLine
 10
12.3805308612
 20
68.4887393211
 30
0.0
 11
6.1305308612
 21
68.4887393211
 31
0.0
  0
LINE
  5
87
330
1F
100
AcDbEntity
  8
DIM
100
AcDbLine
 10
6.1305308612
 20
130.9887393211
 30
0.0
 11
12.3805308612
 21
130.9887393211
 31
0.0
  0
LINE
  5
88
330
1F
100
AcDbEntity
  8
DIM
100
AcDbLine
 10
6.1305308612
 20
5.9887393211
 30
0.0
 11
364.8805308612
 21
5.9887393211
 31
0.0
  0
LINE
  5
89
330
1F
100
AcDbEntity
  8
DIM
100
AcDbLine
 10
12.3805308612
 20
12.2387393211
 30
0.0
 11
364.8805308612
 21
12.2387393211
 31
0.0
  0
LINE
  5
8A
330
1F
100
AcDbEntity
  8
DIM
100
AcDbLine
 10
60.5055308612
 20
5.9887393211
 30
0.0
 11
60.5055308612
 21
12.2387393211
 31
0.0
  0
LINE
  5
8B
330
1F
100
AcDbEntity
  8
DIM
100
AcDbLine
 10
123.0055308612
 20
12.2387393211
 30
0.0
 11
123.0055308612
 21
5.9887393211
 31
0.0
  0
LINE
  5
8C
330
1F
100
AcDbEntity
  8
DIM
100
AcDbLine
 10
12.3805308612
 20
193.4887393211
 30
0.0
 11
6.1305308612
 21
193.4887393211
 31
0.0
  0
LINE
  5
8D
330
1F
100
AcDbEntity
  8
DIM
100
AcDbLine
 10
60.5055308612
 20
249.7387393211
 30
0.0
 11
60.5055308612
 21
255.9887393211
 31
0.0
  0
LINE
  5
8E
330
1F
100
AcDbEntity
  8
DIM
100
AcDbLine
 10
123.0055308612
 20
255.9887393211
 30
0.0
 11
123.0055308612
 21
249.7387393211
 31
0.0
  0
LINE
  5
8F
330
1F
100
AcDbEntity
  8
DIM
100
AcDbLine
 10
185.5055308612
 20
255.9887393211
 30
0.0
 11
185.5055308612
 21
249.7387393211
 31
0.0
  0
LINE
  5
90
330
1F
100
AcDbEntity
  8
DIM
100
AcDbLine
 10
358.6305308612
 20
12.2387393211
 30
0.0
 11
358.6305308612
 21
249.7387393211
 31
0.0
  0
LINE
  5
91
330
1F
100
AcDbEntity
  8
DIM
100
AcDbLine
 10
364.8805308612
 20
96.3012393211
 30
0.0
 11
364.8805308612
 21
255.9887393211
 31
0.0
  0
LINE
  5
92
330
1F
100
AcDbEntity
  8
DIM
100
AcDbLine
 10
364.8805308612
 20
130.9887393211
 30
0.0
 11
358.6305308612
 21
130.9887393211
 31
0.0
  0
LINE
  5
93
330
1F
100
AcDbEntity
  8
DIM
100
AcDbLine
 10
248.0055308612
 20
255.9887393211
 30
0.0
 11
248.0055308612
 21
249.7387393211
 31
0.0
  0
LINE
  5
94
330
1F
100
AcDbEntity
  8
DIM
100
AcDbLine
 10
310.5055308612
 20
249.7387393211
 30
0.0
 11
310.5055308612
 21
255.9887393211
 31
0.0
  0
LINE
  5
95
330
1F
100
AcDbEntity
  8
DIM
100
AcDbLine
 10
358.6305308612
 20
193.4887393211
 30
0.0
 11
364.8805308612
 21
193.4887393211
 31
0.0
  0
MTEXT
  5
97
330
1F
100
AcDbEntity
  8
DIM
100
AcDbMText
 10
15.9654271693
 20
242.3653156665
 30
0.0
 40
5.2916666667
 41
0.0
 71
     1
 72
     1
  1
SK 40 WE18 063 AD/6.3G15000 SL
  7
SLDTEXTSTYLE0
 73
     1
 44
1.0
  0
MTEXT
  5
99
330
1F
100
AcDbEntity
  8
DIM
 62
     7
100
AcDbMText
 10
247.1659733083
 20
9.7524394079
 30
0.0
 40
1.87325
 41
0.0
 71
     1
 72
     1
  1
WEIGHT:
  7
SLDTEXTSTYLE1
 73
     1
 44
1.0
  0
MTEXT
  5
9A
330
1F
100
AcDbEntity
  8
DIM
 62
     7
100
AcDbMText
 10
360.7463459435
 20
102.4257668853
 30
0.0
 40
2.3151041667
 41
0.0
 71
     1
 72
     1
  1
C
  7
SLDTEXTSTYLE1
 73
     1
 44
1.0
  0
MTEXT
  5
9B
330
1F
100
AcDbEntity
  8
DIM
 62
     7
100
AcDbMText
 10
353.8044757743
 20
18.5674774795
 30
0.0
 40
3.6380208333
 41
0.0
 71
     1
 72
     1
  1
A4
  7
SLDTEXTSTYLE1
 73
     1
 44
1.0
  0
MTEXT
  5
9C
330
1F
100
AcDbEntity
  8
DIM
 62
     7
100
AcDbMText
 10
340.7138691946
 20
254.3237598255
 30
0.0
 40
2.3151041667
 41
0.0
 71
     1
 72
     1
  1
6
  7
SLDTEXTSTYLE1
 73
     1
 44
1.0
  0
MTEXT
  5
9D
330
1F
100
AcDbEntity
  8
DIM
 62
     7
100
AcDbMText
 10
278.2138691946
 20
254.3237598255
 30
0.0
 40
2.3151041667
 41
0.0
 71
     1
 72
     1
  1
5
  7
SLDTEXTSTYLE1
 73
     1
 44
1.0
  0
MTEXT
  5
9E
330
1F
100
AcDbEntity
  8
DIM
 62
     7
100
AcDbMText
 10
360.7138741946
 20
226.1987598255
 30
0.0
 40
2.3151041667
 41
0.0
 71
     1
 72
     1
  1
A
  7
SLDTEXTSTYLE1
 73
     1
 44
1.0
  0
MTEXT
  5
9F
330
1F
100
AcDbEntity
  8
DIM
 62
     7
100
AcDbMText
 10
360.7138741946
 20
163.6987598255
 30
0.0
 40
2.3151041667
 41
0.0
 71
     1
 72
     1
  1
B
  7
SLDTEXTSTYLE1
 73
     1
 44
1.0
  0
MTEXT
  5
A0
330
1F
100
AcDbEntity
  8
DIM
 62
     7
100
AcDbMText
 10
215.7138691946
 20
254.3237598255
 30
0.0
 40
2.3151041667
 41
0.0
 71
     1
 72
     1
  1
4
  7
SLDTEXTSTYLE1
 73
     1
 44
1.0
  0
MTEXT
  5
A1
330
1F
100
AcDbEntity
  8
DIM
 62
     7
100
AcDbMText
 10
28.7347025279
 20
254.3237598255
 30
0.0
 40
2.3151041667
 41
0.0
 71
     1
 72
     1
  1
1
  7
SLDTEXTSTYLE1
 73
     1
 44
1.0
  0
MTEXT
  5
A2
330
1F
100
AcDbEntity
  8
DIM
 62
     7
100
AcDbMText
 10
90.7138691946
 20
254.3237598255
 30
0.0
 40
2.3151041667
 41
0.0
 71
     1
 72
     1
  1
2
  7
SLDTEXTSTYLE1
 73
     1
 44
1.0
  0
MTEXT
  5
A3
330
1F
100
AcDbEntity
  8
DIM
 62
     7
100
AcDbMText
 10
153.2138691946
 20
254.3237598255
 30
0.0
 40
2.3151041667
 41
0.0
 71
     1
 72
     1
  1
3
  7
SLDTEXTSTYLE1
 73
     1
 44
1.0
  0
MTEXT
  5
A4
330
1F
100
AcDbEntity
  8
DIM
 62
     7
100
AcDbMText
 10
8.2138641946
 20
226.1987598255
 30
0.0
 40
2.3151041667
 41
0.0
 71
     1
 72
     1
  1
A
  7
SLDTEXTSTYLE1
 73
     1
 44
1.0
  0
MTEXT
  5
A5
330
1F
100
AcDbEntity
  8
DIM
 62
     7
100
AcDbMText
 10
90.7138691946
 20
10.5737598255
 30
0.0
 40
2.3151041667
 41
0.0
 71
     1
 72
     1
  1
2
  7
SLDTEXTSTYLE1
 73
     1
 44
1.0
  0
MTEXT
  5
A6
330
1F
100
AcDbEntity
  8
DIM
 62
     7
100
AcDbMText
 10
28.7347025279
 20
10.5737598255
 30
0.0
 40
2.3151041667
 41
0.0
 71
     1
 72
     1
  1
1
  7
SLDTEXTSTYLE1
 73
     1
 44
1.0
  0
MTEXT
  5
A7
330
1F
100
AcDbEntity
  8
DIM
 62
     7
100
AcDbMText
 10
8.2138641946
 20
38.6987598255
 30
0.0
 40
2.3151041667
 41
0.0
 71
     1
 72
     1
  1
D
  7
SLDTEXTSTYLE1
 73
     1
 44
1.0
  0
MTEXT
  5
A8
330
1F
100
AcDbEntity
  8
DIM
 62
     7
100
AcDbMText
 10
8.2138641946
 20
101.1987598255
 30
0.0
 40
2.3151041667
 41
0.0
 71
     1
 72
     1
  1
C
  7
SLDTEXTSTYLE1
 73
     1
 44
1.0
  0
MTEXT
  5
A9
330
1F
100
AcDbEntity
  8
DIM
 62
     7
100
AcDbMText
 10
8.2138641946
 20
163.6987598255
 30
0.0
 40
2.3151041667
 41
0.0
 71
     1
 72
     1
  1
B
  7
SLDTEXTSTYLE1
 73
     1
 44
1.0
  0
MTEXT
  5
AA
330
1F
100
AcDbEntity
  8
DIM
 62
     7
100
AcDbMText
 10
360.7463459435
 20
102.4257668853
 30
0.0
 40
2.3151041667
 41
0.0
 71
     1
 72
     1
  1
C
  7
SLDTEXTSTYLE1
 73
     1
 44
1.0
  0
MTEXT
  5
AC
330
1F
100
AcDbEntity
  8
DIM
 62
     7
100
AcDbMText
 10
320.6567072656
 20
9.6138484142
 30
0.0
 40
1.875
 41
0.0
 71
     1
 72
     1
  1
SHEET 1 OF 1
  7
SLDTEXTSTYLE2
 73
     1
 44
1.0
  0
MTEXT
  5
AD
330
1F
100
AcDbEntity
  8
DIM
 62
     7
100
AcDbMText
 10
187.9647254793
 20
9.8167093546
 30
0.0
 40
1.875
 41
0.0
 71
     1
 72
     1
  1
MATERIAL:
  7
SLDTEXTSTYLE1
 73
     1
 44
1.0
  0
MTEXT
  5
AE
330
1F
100
AcDbEntity
  8
DIM
 62
     7
100
AcDbMText
 10
340.7138691946
 20
254.3237598255
 30
0.0
 40
2.3151041667
 41
0.0
 71
     1
 72
     1
  1
6
  7
SLDTEXTSTYLE1
 73
     1
 44
1.0
  0
MTEXT
  5
AF
330
1F
100
AcDbEntity
  8
DIM
 62
     7
100
AcDbMText
 10
278.2138691946
 20
254.3237598255
 30
0.0
 40
2.3151041667
 41
0.0
 71
     1
 72
     1
  1
5
  7
SLDTEXTSTYLE1
 73
     1
 44
1.0
  0
MTEXT
  5
B0
330
1F
100
AcDbEntity
  8
DIM
 62
     7
100
AcDbMText
 10
360.7138741946
 20
226.1987598255
 30
0.0
 40
2.3151041667
 41
0.0
 71
     1
 72
     1
  1
A
  7
SLDTEXTSTYLE1
 73
     1
 44
1.0
  0
MTEXT
  5
B1
330
1F
100
AcDbEntity
  8
DIM
 62
     7
100
AcDbMText
 10
360.7138741946
 20
163.6987598255
 30
0.0
 40
2.3151041667
 41
0.0
 71
     1
 72
     1
  1
B
  7
SLDTEXTSTYLE1
 73
     1
 44
1.0
  0
MTEXT
  5
B2
330
1F
100
AcDbEntity
  8
DIM
 62
     7
100
AcDbMText
 10
215.7138691946
 20
254.3237598255
 30
0.0
 40
2.3151041667
 41
0.0
 71
     1
 72
     1
  1
4
  7
SLDTEXTSTYLE1
 73
     1
 44
1.0
  0
MTEXT
  5
B3
330
1F
100
AcDbEntity
  8
DIM
 62
     7
100
AcDbMText
 10
28.7347025279
 20
254.3237598255
 30
0.0
 40
2.3151041667
 41
0.0
 71
     1
 72
     1
  1
1
  7
SLDTEXTSTYLE1
 73
     1
 44
1.0
  0
MTEXT
  5
B4
330
1F
100
AcDbEntity
  8
DIM
 62
     7
100
AcDbMText
 10
90.7138691946
 20
254.3237598255
 30
0.0
 40
2.3151041667
 41
0.0
 71
     1
 72
     1
  1
2
  7
SLDTEXTSTYLE1
 73
     1
 44
1.0
  0
MTEXT
  5
B5
330
1F
100
AcDbEntity
  8
DIM
 62
     7
100
AcDbMText
 10
153.2138691946
 20
254.3237598255
 30
0.0
 40
2.3151041667
 41
0.0
 71
     1
 72
     1
  1
3
  7
SLDTEXTSTYLE1
 73
     1
 44
1.0
  0
MTEXT
  5
B6
330
1F
100
AcDbEntity
  8
DIM
 62
     7
100
AcDbMText
 10
8.2138641946
 20
226.1987598255
 30
0.0
 40
2.3151041667
 41
0.0
 71
     1
 72
     1
  1
A
  7
SLDTEXTSTYLE1
 73
     1
 44
1.0
  0
MTEXT
  5
B7
330
1F
100
AcDbEntity
  8
DIM
 62
     7
100
AcDbMText
 10
90.7138691946
 20
10.5737598255
 30
0.0
 40
2.3151041667
 41
0.0
 71
     1
 72
     1
  1
2
  7
SLDTEXTSTYLE1
 73
     1
 44
1.0
  0
MTEXT
  5
B8
330
1F
100
AcDbEntity
  8
DIM
 62
     7
100
AcDbMText
 10
28.7347025279
 20
10.5737598255
 30
0.0
 40
2.3151041667
 41
0.0
 71
     1
 72
     1
  1
1
  7
SLDTEXTSTYLE1
 73
     1
 44
1.0
  0
MTEXT
  5
B9
330
1F
100
AcDbEntity
  8
DIM
 62
     7
100
AcDbMText
 10
8.2138641946
 20
38.6987598255
 30
0.0
 40
2.3151041667
 41
0.0
 71
     1
 72
     1
  1
D
  7
SLDTEXTSTYLE1
 73
     1
 44
1.0
  0
MTEXT
  5
BA
330
1F
100
AcDbEntity
  8
DIM
 62
     7
100
AcDbMText
 10
8.2138641946
 20
101.1987598255
 30
0.0
 40
2.3151041667
 41
0.0
 71
     1
 72
     1
  1
C
  7
SLDTEXTSTYLE1
 73
     1
 44
1.0
  0
MTEXT
  5
BB
330
1F
100
AcDbEntity
  8
DIM
 62
     7
100
AcDbMText
 10
8.2138641946
 20
163.6987598255
 30
0.0
 40
2.3151041667
 41
0.0
 71
     1
 72
     1
  1
B
  7
SLDTEXTSTYLE1
 73
     1
 44
1.0
  0
SPLINE
  5
BC
330
1F
100
AcDbEntity
  8
0
  6
Continuous
 62
     7
370
    15
100
AcDbSpline
210
0.0
220
0.0
230
1.0
 70
     8
 71
     3
 72
    14
 73
    10
 74
     0
 42
0.000000001
 43
0.00000001
 40
0.0
 40
0.0
 40
0.0
 40
0.0
 40
0.25
 40
0.25
 40
0.5
 40
0.5
 40
0.75
 40
0.75
 40
1.0
 40
1.0
 40
1.0
 40
1.0
 10
93.22802715524776
 20
139.5783432372272
 30
0.0
 10
93.22802715524776
 20
136.5588958341596
 30
0.0
 10
92.02846197180502
 20
133.6628892993415
 30
0.0
 10
87.75831850351453
 20
129.3927458310511
 30
0.0
 10
84.86231196869649
 20
128.1931806476083
 30
0.0
 10
78.8234171625612
 20
128.1931806476083
 30
0.0
 10
75.92741062774314
 20
129.3927458310511
 30
0.0
 10
71.65726715945266
 20
133.6628892993415
 30
0.0
 10
70.45770197600991
 20
136.5588958341596
 30
0.0
 10
70.45770197600991
 20
139.5783432372272
 30
0.0
  0
SPLINE
  5
BD
330
1F
100
AcDbEntity
  8
0
  6
Continuous
 62
     7
370
    15
100
AcDbSpline
210
0.0
220
0.0
230
1.0
 70
     8
 71
     3
 72
    14
 73
    10
 74
     0
 42
0.000000001
 43
0.00000001
 40
0.0
 40
0.0
 40
0.0
 40
0.0
 40
0.25
 40
0.25
 40
0.5
 40
0.5
 40
0.75
 40
0.75
 40
1.0
 40
1.0
 40
1.0
 40
1.0
 10
70.45770197600991
 20
139.5783432372272
 30
0.0
 10
70.45770197600991
 20
142.5977906402949
 30
0.0
 10
71.65726715945266
 20
145.4937971751129
 30
0.0
 10
75.92741062774314
 20
149.7639406434034
 30
0.0
 10
78.8234171625612
 20
150.9635058268462
 30
0.0
 10
84.86231196869647
 20
150.9635058268462
 30
0.0
 10
87.75831850351453
 20
149.7639406434034
 30
0.0
 10
92.02846197180502
 20
145.4937971751129
 30
0.0
 10
93.22802715524776
 20
142.5977906402949
 30
0.0
 10
93.22802715524776
 20
139.5783432372272
 30
0.0
  0
CIRCLE
  5
BE
330
1F
100
AcDbEntity
  8
0
  6
Continuous
 62
     7
370
    15
100
AcDbCircle
 10
81.8428645656
 20
139.5783432372
 30
0.0
 40
12.37469537611112
  0
CIRCLE
  5
BF
330
1F
100
AcDbEntity
  8
0
  6
Continuous
 62
     7
370
    15
100
AcDbCircle
 10
81.8428645656
 20
139.5783432372
 30
0.0
 40
22.22500000000002
  0
SPLINE
  5
C0
330
1F
100
AcDbEntity
  8
0
  6
Continuous
 62
     7
370
    15
100
AcDbSpline
210
0.0
220
0.0
230
1.0
 70
     8
 71
     3
 72
    47
 73
    43
 74
     0
 42
0.000000001
 43
0.00000001
 40
0.0
 40
0.0
 40
0.0
 40
0.0
 40
0.0064865058599544
 40
0.0129638156775974
 40
0.0194346018868018
 40
0.0259015450089971
 40
0.0323673303453013
 40
0.0388346446390101
 40
0.0453061727291163
 40
0.0517845942156699
 40
0.0582725801576112
 40
0.0891442126942977
 40
0.1200232680972888
 40
0.1521817500082456
 40
0.1843476848298072
 40
0.2171904404488881
 40
0.250040807568759
 40
0.282883563405296
 40
0.315733930742997
 40
0.3478924132540137
 40
0.3800583486754345
 40
0.4109299807251642
 40
0.4418090357728578
 40
0.5000011037995962
 40
0.5581931718263348
 40
0.5890648043627151
 40
0.6199438597660143
 40
0.6521023416767789
 40
0.684268276498532
 40
0.7171110321176541
 40
0.749961399237487
 40
0.7828041550742094
 40
0.815654522411723
 40
0.8478130049227987
 40
0.8799789403441611
 40
0.9108505723940962
 40
0.9417296274415853
 40
0.953398157213752
 40
0.9650438067132959
 40
0.9766822203186435
 40
0.9883290715666286
 40
1.0
 40
1.0
 40
1.0
 40
1.0
 10
59.34286456562884
 20
139.5783432372272
 30
0.0
 10
59.34375554840273
 20
139.7311065908571
 30
0.0
 10
59.34553625078738
 20
140.0364167226145
 30
0.0
 10
59.35996903681221
 20
140.4939322304919
 30
0.0
 10
59.38301708450302
 20
140.9506101629125
 30
0.0
 10
59.41552130787014
 20
141.4064503601921
 30
0.0
 10
59.4572565988674
 20
141.8614524020016
 30
0.0
 10
59.50828351398575
 20
142.3156167128666
 30
0.0
 10
59.56858464521715
 20
142.7689406018371
 30
0.0
 10
59.63816883087029
 20
143.2214330262052
 30
0.0
 10
59.81573340651896
 20
144.2384775206262
 30
0.0
 10
60.18452501099419
 20
145.8056344867853
 30
0.0
 10
60.89976437600617
 20
147.9018877440185
 30
0.0
 10
61.83009434028294
 20
149.9461299668214
 30
0.0
 10
62.9866868351256
 20
151.9251408324525
 30
0.0
 10
64.34725738284924
 20
153.7903926447187
 30
0.0
 10
65.90480128365635
 20
155.5161529076317
 30
0.0
 10
67.63067538784006
 20
157.0738365770274
 30
0.0
 10
69.49576587468259
 20
158.4343269670632
 30
0.0
 10
71.47493667850117
 20
159.5910315997141
 30
0.0
 10
73.51893226811204
 20
160.5213197314984
 30
0.0
 10
75.61562673732317
 20
161.2366134117361
 30
0.0
 10
78.36883849718845
 20
161.8849915104116
 30
0.0
 10
81.84286444763352
 20
162.2046642616536
 30
0.0
 10
85.31671589381526
 20
161.885006981127
 30
0.0
 10
88.06993302951054
 20
161.2366630892166
 30
0.0
 10
90.1664715298771
 20
160.5214489491057
 30
0.0
 10
92.21063428179222
 20
159.5911119635766
 30
0.0
 10
94.18966682412275
 20
158.4345213588641
 30
0.0
 10
96.05491272297927
 20
157.073950390746
 30
0.0
 10
97.78067453113114
 20
155.5164062420469
 30
0.0
 10
99.33835797494241
 20
153.7905335526447
 30
0.0
 10
100.6988477266216
 20
151.9254376915941
 30
0.0
 10
101.8555550817226
 20
149.9462865736924
 30
0.0
 10
102.7858331300069
 20
147.9022188007197
 30
0.0
 10
103.501163021775
 20
145.8057833673049
 30
0.0
 10
103.897941240221
 20
144.1197309040297
 30
0.0
 10
104.1073285039429
 20
142.8605570224723
 30
0.0
 10
104.212719292527
 20
142.0439615916341
 30
0.0
 10
104.2874411492561
 20
141.2245802410388
 30
0.0
 10
104.3342188979942
 20
140.4023923741902
 30
0.0
 10
104.3399806932694
 20
139.8532153037105
 30
0.0
 10
104.3428645656288
 20
139.5783432372272
 30
0.0
  0
SPLINE
  5
C1
330
1F
100
AcDbEntity
  8
0
  6
Continuous
 62
     7
370
    15
100
AcDbSpline
210
0.0
220
0.0
230
1.0
 70
     8
 71
     3
 72
    47
 73
    43
 74
     0
 42
0.000000001
 43
0.00000001
 40
0.0
 40
0.0
 40
0.0
 40
0.0
 40
0.0064865058600646
 40
0.0129638156777903
 40
0.0194346018870498
 40
0.0259015450092725
 40
0.0323673303455768
 40
0.0388346446392581
 40
0.0453061727293097
 40
0.0517845942157816
 40
0.0582725801576143
 40
0.0891442126948909
 40
0.1200232680972924
 40
0.1521817500083951
 40
0.1843476848298058
 40
0.2171904404485402
 40
0.2500408075687574
 40
0.2828835634052776
 40
0.3157339307429991
 40
0.3478924132542638
 40
0.3800583486754358
 40
0.4109299807257716
 40
0.4418090357728632
 40
0.5000011037996017
 40
0.5581931718263402
 40
0.5890648043636169
 40
0.6199438597660184
 40
0.6521023416771926
 40
0.6842682764985326
 40
0.7171110321177041
 40
0.7499613992374872
 40
0.7828041550742053
 40
0.8156545224117233
 40
0.8478130049224891
 40
0.8799789403441584
 40
0.9108505723936514
 40
0.941729627441584
 40
0.9533981572136628
 40
0.9650438067131625
 40
0.9766822203185102
 40
0.9883290715665397
 40
1.0
 40
1.0
 40
1.0
 40
1.0
 10
104.3428645656288
 20
139.5783432372272
 30
0.0
 10
104.3419735828549
 20
139.4255798835948
 30
0.0
 10
104.3401928804703
 20
139.1202697518328
 30
0.0
 10
104.3257600944455
 20
138.6627542439496
 30
0.0
 10
104.3027120467547
 20
138.2060763115251
 30
0.0
 10
104.2702078233876
 20
137.7502361142435
 30
0.0
 10
104.2284725323904
 20
137.295234072434
 30
0.0
 10
104.1774456172721
 20
136.841069761571
 30
0.0
 10
104.1171444860406
 20
136.3877458726044
 30
0.0
 10
104.0475603003876
 20
135.9352534482421
 30
0.0
 10
103.8699957247336
 20
134.9182089538124
 30
0.0
 10
103.5012041202605
 20
133.3510519876556
 30
0.0
 10
102.7859647552457
 20
131.2547987304195
 30
0.0
 10
101.855634790968
 20
129.2105565076327
 30
0.0
 10
100.6990422961355
 20
127.2315456420054
 30
0.0
 10
99.3384717484133
 20
125.3662938297424
 30
0.0
 10
97.78092784760703
 20
123.6405335668294
 30
0.0
 10
96.05505374342069
 20
122.082849897424
 30
0.0
 10
94.1899632565702
 20
120.7223595073889
 30
0.0
 10
92.2107924527511
 20
119.5656548747379
 30
0.0
 10
90.1667968631267
 20
118.6353667429494
 30
0.0
 10
88.07010239392208
 20
117.9200730627096
 30
0.0
 10
85.31689063405437
 20
117.2716949640442
 30
0.0
 10
81.84286468362448
 20
116.9520222128004
 30
0.0
 10
78.36901323742096
 20
117.2716794933283
 30
0.0
 10
75.61579610172731
 20
117.9200233852459
 30
0.0
 10
73.51925760135157
 20
118.6352375253592
 30
0.0
 10
71.47509484945861
 20
119.5655745108861
 30
0.0
 10
69.49606230712543
 20
120.7221651155956
 30
0.0
 10
67.63081640827805
 20
122.08273608371
 30
0.0
 10
65.90505460012561
 20
123.6402802324082
 30
0.0
 10
64.34737115631563
 20
125.3661529218099
 30
0.0
 10
62.98688140463958
 20
127.2312487828539
 30
0.0
 10
61.83017404954161
 20
129.2103999007572
 30
0.0
 10
60.89989600125719
 20
131.2544676737182
 30
0.0
 10
60.18456610948358
 20
133.350903107139
 30
0.0
 10
59.78778789103988
 20
135.0369555704127
 30
0.0
 10
59.57840062731442
 20
136.2961294519768
 30
0.0
 10
59.47300983873052
 20
137.112724882812
 30
0.0
 10
59.39828798200144
 20
137.9321062334072
 30
0.0
 10
59.35151023326348
 20
138.7542941002591
 30
0.0
 10
59.34574843798822
 20
139.3034711707419
 30
0.0
 10
59.34286456562884
 20
139.5783432372272
 30
0.0
  0
CIRCLE
  5
C2
330
1F
100
AcDbEntity
  8
0
  6
Continuous
 62
     7
370
    15
100
AcDbCircle
 10
81.8428645656
 20
139.5783432372
 30
0.0
 40
30.74999999999995
  0
CIRCLE
  5
C3
330
1F
100
AcDbEntity
  8
0
  6
Continuous
 62
     7
370
    15
100
AcDbCircle
 10
81.8428645656
 20
139.5783432372
 30
0.0
 40
31.74999999999984
  0
INSERT
  5
CF
330
1F
100
AcDbEntity
  8
DIM
100
AcDbBlockReference
  2
SW_CENTERMARKSYMBOL_0
 10
81.8428645656
 20
139.5783432372
 30
0.0
  0
LINE
  5
D0
330
1F
100
AcDbEntity
  8
0
  6
Continuous
 62
     7
370
    15
100
AcDbLine
 10
248.7080812436
 20
107.8283432372
 30
0.0
 11
249.7080812436
 21
108.8283432372
 31
0.0
  0
LINE
  5
D1
330
1F
100
AcDbEntity
  8
0
  6
Continuous
 62
     7
370
    15
100
AcDbLine
 10
249.7080812436
 20
170.3283432372
 30
0.0
 11
248.7080812436
 21
171.3283432372
 31
0.0
  0
LINE
  5
D2
330
1F
100
AcDbEntity
  8
0
  6
Continuous
 62
     7
370
    15
100
AcDbLine
 10
245.2299178856
 20
107.8283432372
 30
0.0
 11
248.7080812436
 21
107.8283432372
 31
0.0
  0
LINE
  5
D3
330
1F
100
AcDbEntity
  8
0
  6
Continuous
 62
     7
370
    15
100
AcDbLine
 10
248.7080812436
 20
171.3283432372
 30
0.0
 11
245.2299178856
 21
171.3283432372
 31
0.0
  0
LINE
  5
D4
330
1F
100
AcDbEntity
  8
0
  6
Continuous
 62
     7
370
    15
100
AcDbLine
 10
245.2299178856
 20
171.3283432372
 30
0.0
 11
243.6080812436
 21
168.5192397716
 31
0.0
  0
LINE
  5
D5
330
1F
100
AcDbEntity
  8
0
  6
Continuous
 62
     7
370
    15
100
AcDbLine
 10
243.6080812436
 20
110.6374467028
 30
0.0
 11
245.2299178856
 21
107.8283432372
 31
0.0
  0
LINE
  5
D6
330
1F
100
AcDbEntity
  8
0
  6
Continuous
 62
     7
370
    15
100
AcDbLine
 10
238.1862446015
 20
107.8283432372
 30
0.0
 11
239.8080812436
 21
110.6374467028
 31
0.0
  0
LINE
  5
D7
330
1F
100
AcDbEntity
  8
0
  6
Continuous
 62
     7
370
    15
100
AcDbLine
 10
239.8080812436
 20
168.5192397716
 30
0.0
 11
238.1862446015
 21
171.3283432372
 31
0.0
  0
LINE
  5
D8
330
1F
100
AcDbEntity
  8
0
  6
Continuous
 62
     7
370
    15
100
AcDbLine
 10
234.8080812436
 20
107.8283432372
 30
0.0
 11
238.1862446015
 21
107.8283432372
 31
0.0
  0
LINE
  5
D9
330
1F
100
AcDbEntity
  8
0
  6
Continuous
 62
     7
370
    15
100
AcDbLine
 10
238.1862446015
 20
171.3283432372
 30
0.0
 11
234.8080812436
 21
171.3283432372
 31
0.0
  0
LINE
  5
DA
330
1F
100
AcDbEntity
  8
0
  6
Continuous
 62
     7
370
    15
100
AcDbLine
 10
234.8080812436
 20
171.3283432372
 30
0.0
 11
233.8080812436
 21
170.3283432372
 31
0.0
  0
LINE
  5
DB
330
1F
100
AcDbEntity
  8
0
  6
Continuous
 62
     7
370
    15
100
AcDbLine
 10
233.8080812436
 20
108.8283432372
 30
0.0
 11
234.8080812436
 21
107.8283432372
 31
0.0
  0
LINE
  5
DC
330
1F
100
AcDbEntity
  8
0
  6
Continuous
 62
     7
370
    15
100
AcDbLine
 10
239.8080812436
 20
111.5783432372
 30
0.0
 11
243.6080812436
 21
111.5783432372
 31
0.0
  0
LINE
  5
DD
330
1F
100
AcDbEntity
  8
0
  6
Continuous
 62
     7
370
    15
100
AcDbLine
 10
243.6080812436
 20
167.5783432372
 30
0.0
 11
239.8080812436
 21
167.5783432372
 31
0.0
  0
LINE
  5
DE
330
1F
100
AcDbEntity
  8
0
  6
Continuous
 62
     7
370
    15
100
AcDbLine
 10
280.7410397205
 20
114.5783432372
 30
0.0
 11
293.6080812436
 21
120.5783432372
 31
0.0
  0
LINE
  5
DF
330
1F
100
AcDbEntity
  8
0
  6
Continuous
 62
     7
370
    15
100
AcDbLine
 10
293.6080812436
 20
158.5783432372
 30
0.0
 11
280.7410397205
 21
164.5783432372
 31
0.0
  0
LINE
  5
E0
330
1F
100
AcDbEntity
  8
0
  6
Continuous
 62
     7
370
    15
100
AcDbLine
 10
250.7080812436
 20
114.5783432372
 30
0.0
 11
280.7410397205
 21
114.5783432372
 31
0.0
  0
LINE
  5
E1
330
1F
100
AcDbEntity
  8
0
  6
Continuous
 62
     7
370
    15
100
AcDbLine
 10
280.7410397205
 20
164.5783432372
 30
0.0
 11
250.7080812436
 21
164.5783432372
 31
0.0
  0
ARC
  5
E2
330
1F
100
AcDbEntity
  8
0
  6
Continuous
 62
     7
370
    15
100
AcDbCircle
 10
250.7080812436
 20
113.5783432372
 30
0.0
 40
1.0
100
AcDbArc
 50
90.0
 51
180.0
  0
ARC
  5
E3
330
1F
100
AcDbEntity
  8
0
  6
Continuous
 62
     7
370
    15
100
AcDbCircle
 10
250.7080812436
 20
165.5783432372
 30
0.0
 40
1.0
100
AcDbArc
 50
180.0
 51
270.0
  0
ARC
  5
E4
330
1F
100
AcDbEntity
  8
0
  6
Continuous
 62
     7
370
    15
100
AcDbCircle
 10
233.3080812436
 20
117.0783432372
 30
0.0
 40
0.5000000000000284
100
AcDbArc
 50
0.0
 51
90.0
  0
ARC
  5
E5
330
1F
100
AcDbEntity
  8
0
  6
Continuous
 62
     7
370
    15
100
AcDbCircle
 10
233.3080812436
 20
162.0783432372
 30
0.0
 40
0.5000000000000284
100
AcDbArc
 50
270.0
 51
0.0
  0
LINE
  5
E6
330
1F
100
AcDbEntity
  8
0
  6
Continuous
 62
     7
370
    15
100
AcDbLine
 10
230.6080812436
 20
117.3533432372
 30
0.0
 11
231.0905953007
 21
117.5783432372
 31
0.0
  0
LINE
  5
E7
330
1F
100
AcDbEntity
  8
0
  6
Continuous
 62
     7
370
    15
100
AcDbLine
 10
231.0905953007
 20
161.5783432372
 30
0.0
 11
230.6080812436
 21
161.8033432372
 31
0.0
  0
LINE
  5
E8
330
1F
100
AcDbEntity
  8
0
  6
Continuous
 62
     7
370
    15
100
AcDbLine
 10
230.6080812436
 20
161.8033432372
 30
0.0
 11
163.0637730163
 21
151.9530386133
 31
0.0
  0
LINE
  5
E9
330
1F
100
AcDbEntity
  8
0
  6
Continuous
 62
     7
370
    15
100
AcDbLine
 10
163.0637730163
 20
127.2036478611
 30
0.0
 11
230.6080812436
 21
117.3533432372
 31
0.0
  0
LINE
  5
EA
330
1F
100
AcDbEntity
  8
0
  6
Continuous
 62
     7
370
    15
100
AcDbLine
 10
231.0905953007
 20
117.5783432372
 30
0.0
 11
233.3080812436
 21
117.5783432372
 31
0.0
  0
LINE
  5
EB
330
1F
100
AcDbEntity
  8
0
  6
Continuous
 62
     7
370
    15
100
AcDbLine
 10
233.3080812436
 20
161.5783432372
 30
0.0
 11
231.0905953007
 21
161.5783432372
 31
0.0
  0
ARC
  5
EC
330
1F
100
AcDbEntity
  8
0
  6
Continuous
 62
     7
370
    15
100
AcDbCircle
 10
163.2080812436
 20
128.1931806476
 30
0.0
 40
1.000000000000028
100
AcDbArc
 50
180.0
 51
261.7027777778
  0
ARC
  5
ED
330
1F
100
AcDbEntity
  8
0
  6
Continuous
 62
     7
370
    15
100
AcDbCircle
 10
163.2080812436
 20
150.9635058268
 30
0.0
 40
1.000000000000014
100
AcDbArc
 50
98.2972222222
 51
180.0
  0
LINE
  5
EE
330
1F
100
AcDbEntity
  8
0
  6
Continuous
 62
     7
370
    15
100
AcDbLine
 10
249.7080812436
 20
170.3283432372
 30
0.0
 11
249.7080812436
 21
108.8283432372
 31
0.0
  0
LINE
  5
EF
330
1F
100
AcDbEntity
  8
0
  6
Continuous
 62
     7
370
    15
100
AcDbLine
 10
248.7080812436
 20
171.3283432372
 30
0.0
 11
248.7080812436
 21
107.8283432372
 31
0.0
  0
LINE
  5
F0
330
1F
100
AcDbEntity
  8
0
  6
Continuous
 62
     7
370
    15
100
AcDbLine
 10
245.2299178856
 20
107.8283432372
 30
0.0
 11
245.2299178856
 21
171.3283432372
 31
0.0
  0
LINE
  5
F1
330
1F
100
AcDbEntity
  8
0
  6
Continuous
 62
     7
370
    15
100
AcDbLine
 10
243.6080812436
 20
168.5192397716
 30
0.0
 11
243.6080812436
 21
110.6374467028
 31
0.0
  0
LINE
  5
F2
330
1F
100
AcDbEntity
  8
0
  6
Continuous
 62
     7
370
    15
100
AcDbLine
 10
239.8080812436
 20
110.6374467028
 30
0.0
 11
239.8080812436
 21
168.5192397716
 31
0.0
  0
LINE
  5
F3
330
1F
100
AcDbEntity
  8
0
  6
Continuous
 62
     7
370
    15
100
AcDbLine
 10
238.1862446015
 20
139.5783432372
 30
0.0
 11
238.1862446015
 21
171.3283432372
 31
0.0
  0
LINE
  5
F4
330
1F
100
AcDbEntity
  8
0
  6
Continuous
 62
     7
370
    15
100
AcDbLine
 10
238.1862446015
 20
107.8283432372
 30
0.0
 11
238.1862446015
 21
139.5783432372
 31
0.0
  0
LINE
  5
F5
330
1F
100
AcDbEntity
  8
0
  6
Continuous
 62
     7
370
    15
100
AcDbLine
 10
234.8080812436
 20
171.3283432372
 30
0.0
 11
234.8080812436
 21
107.8283432372
 31
0.0
  0
LINE
  5
F6
330
1F
100
AcDbEntity
  8
0
  6
Continuous
 62
     7
370
    15
100
AcDbLine
 10
233.8080812436
 20
170.3283432372
 30
0.0
 11
233.8080812436
 21
108.8283432372
 31
0.0
  0
SPLINE
  5
F7
330
1F
100
AcDbEntity
  8
0
  6
Continuous
 62
     7
370
    15
100
AcDbSpline
210
0.0
220
0.0
230
1.0
 70
     8
 71
     3
 72
    14
 73
    10
 74
     0
 42
0.000000001
 43
0.00000001
 40
0.0
 40
0.0
 40
0.0
 40
0.0
 40
0.25
 40
0.25
 40
0.5
 40
0.5
 40
0.75
 40
0.75
 40
1.0
 40
1.0
 40
1.0
 40
1.0
 10
250.708081243562
 20
147.5659899494949
 30
0.0
 10
250.5739283968597
 20
147.582784989578
 30
0.0
 10
250.4401627667566
 20
147.5959327101666
 30
0.0
 10
250.1944202223509
 20
147.6145835715441
 30
0.0
 10
250.0825062532186
 20
147.6201478387305
 30
0.0
 10
249.9002422858542
 20
147.6265659895149
 30
0.0
 10
249.8286171520532
 20
147.6275840951102
 30
0.0
 10
249.7325524596692
 20
147.6284493516229
 30
0.0
 10
249.7080812435622
 20
147.6283432372272
 30
0.0
 10
249.708081243562
 20
147.6283432372272
 30
0.0
  0
LINE
  5
F8
330
1F
100
AcDbEntity
  8
0
  6
Continuous
 62
     7
370
    15
100
AcDbLine
 10
250.7080812436
 20
147.5659899495
 30
0.0
 11
250.7080812436
 21
131.590696525
 31
0.0
  0
SPLINE
  5
F9
330
1F
100
AcDbEntity
  8
0
  6
Continuous
 62
     7
370
    15
100
AcDbSpline
210
0.0
220
0.0
230
1.0
 70
     8
 71
     3
 72
    14
 73
    10
 74
     0
 42
0.000000001
 43
0.00000001
 40
0.0
 40
0.0
 40
0.0
 40
0.0
 40
0.25
 40
0.25
 40
0.5
 40
0.5
 40
0.75
 40
0.75
 40
1.0
 40
1.0
 40
1.0
 40
1.0
 10
249.708081243562
 20
131.5283432372272
 30
0.0
 10
249.708081243562
 20
131.5283432372272
 30
0.0
 10
249.73240948899
 20
131.5282361568963
 30
0.0
 10
249.8286525300033
 20
131.5291023765494
 30
0.0
 10
249.8997136778075
 20
131.5301056552217
 30
0.0
 10
250.082370163865
 20
131.5365300728719
 30
0.0
 10
250.193904152105
 20
131.5420750882604
 30
0.0
 10
250.4392057567498
 20
131.5606698461006
 30
0.0
 10
250.5737578419411
 20
131.5738801325402
 30
0.0
 10
250.708081243562
 20
131.5906965249596
 30
0.0
  0
LINE
  5
FA
330
1F
100
AcDbEntity
  8
0
  6
Continuous
 62
     7
370
    15
100
AcDbLine
 10
293.6080812436
 20
139.5783432372
 30
0.0
 11
293.6080812436
 21
158.5783432372
 31
0.0
  0
LINE
  5
FB
330
1F
100
AcDbEntity
  8
0
  6
Continuous
 62
     7
370
    15
100
AcDbLine
 10
293.6080812436
 20
120.5783432372
 30
0.0
 11
293.6080812436
 21
139.5783432372
 31
0.0
  0
LINE
  5
FC
330
1F
100
AcDbEntity
  8
0
  6
Continuous
 62
     7
370
    15
100
AcDbLine
 10
280.7410397205
 20
139.5783432372
 30
0.0
 11
280.7410397205
 21
164.5783432372
 31
0.0
  0
LINE
  5
FD
330
1F
100
AcDbEntity
  8
0
  6
Continuous
 62
     7
370
    15
100
AcDbLine
 10
280.7410397205
 20
114.5783432372
 30
0.0
 11
280.7410397205
 21
139.5783432372
 31
0.0
  0
LINE
  5
FE
330
1F
100
AcDbEntity
  8
0
  6
Continuous
 62
     7
370
    15
100
AcDbLine
 10
231.0905953007
 20
139.5783432372
 30
0.0
 11
231.0905953007
 21
161.5783432372
 31
0.0
  0
LINE
  5
FF
330
1F
100
AcDbEntity
  8
0
  6
Continuous
 62
     7
370
    15
100
AcDbLine
 10
231.0905953007
 20
117.5783432372
 30
0.0
 11
231.0905953007
 21
139.5783432372
 31
0.0
  0
LINE
  5
100
330
1F
100
AcDbEntity
  8
0
  6
Continuous
 62
     7
370
    15
100
AcDbLine
 10
230.6080812436
 20
117.3533432372
 30
0.0
 11
230.6080812436
 21
161.8033432372
 31
0.0
  0
SPLINE
  5
101
330
1F
100
AcDbEntity
  8
0
  6
Continuous
 62
     7
370
    15
100
AcDbSpline
210
0.0
220
0.0
230
1.0
 70
    24
 71
     3
 72
    10
 73
     6
 74
     0
 42
0.000000001
 43
0.00000001
 40
0.0
 40
0.0
 40
0.0
 40
0.0
 40
0.4999999999999997
 40
0.4999999999999997
 40
0.9999999999999999
 40
0.9999999999999999
 40
0.9999999999999999
 40
0.9999999999999999
 10
162.208081243562
 20
150.9635058268462
 30
0.0
 10
162.208081243562
 20
150.9635058268461
 30
0.0
 10
162.208081243562
 20
149.7639406434033
 30
0.0
 10
162.208081243562
 20
145.4937971751128
 30
0.0
 10
162.208081243562
 20
142.5977906402949
 30
0.0
 10
162.208081243562
 20
139.5783432372272
 30
0.0
  0
SPLINE
  5
102
330
1F
100
AcDbEntity
  8
0
  6
Continuous
 62
     7
370
    15
100
AcDbSpline
210
0.0
220
0.0
230
1.0
 70
    24
 71
     3
 72
    10
 73
     6
 74
     0
 42
0.000000001
 43
0.00000001
 40
0.0
 40
0.0
 40
0.0
 40
0.0
 40
0.5
 40
0.5
 40
1.0
 40
1.0
 40
1.0
 40
1.0
 10
162.208081243562
 20
139.5783432372272
 30
0.0
 10
162.208081243562
 20
136.5588958341596
 30
0.0
 10
162.208081243562
 20
133.6628892993414
 30
0.0
 10
162.208081243562
 20
129.392745831051
 30
0.0
 10
162.208081243562
 20
128.1931806476082
 30
0.0
 10
162.208081243562
 20
128.1931806476083
 30
0.0
  0
LINE
  5
103
330
1F
100
AcDbEntity
  8
0
  6
Continuous
 62
     8
370
    15
100
AcDbLine
 10
250.7080812436
 20
131.590696525
 30
0.0
 11
250.7080812436
 21
114.5783432372
 31
0.0
  0
LINE
  5
104
330
1F
100
AcDbEntity
  8
0
  6
Continuous
 62
     8
370
    15
100
AcDbLine
 10
250.7080812436
 20
164.5783432372
 30
0.0
 11
250.7080812436
 21
147.5659899495
 31
0.0
  0
LINE
  5
105
330
1F
100
AcDbEntity
  8
0
  6
Continuous
 62
     8
370
    15
100
AcDbLine
 10
233.3080812436
 20
139.5783432372
 30
0.0
 11
233.3080812436
 21
161.5783432372
 31
0.0
  0
LINE
  5
106
330
1F
100
AcDbEntity
  8
0
  6
Continuous
 62
     8
370
    15
100
AcDbLine
 10
233.3080812436
 20
117.5783432372
 30
0.0
 11
233.3080812436
 21
139.5783432372
 31
0.0
  0
LINE
  5
107
330
1F
100
AcDbEntity
  8
0
  6
Continuous
 62
     8
370
    15
100
AcDbLine
 10
163.0637730163
 20
151.9530386133
 30
0.0
 11
163.0637730163
 21
127.2036478611
 31
0.0
  0
DIMENSION
  5
108
330
1F
100
AcDbEntity
  8
DIM
100
AcDbDimension
  2
_D
 10
293.6080812436
 20
94.64541451
 30
0.0
 11
262.1080812436
 21
94.64541451
 31
0.0
 70
   160
  1
<>
 71
     2
 42
-1.0
  3
SLDDIMSTYLE0
100
AcDbAlignedDimension
 13
230.6080812436
 23
117.3533432372
 33
0.0
 14
293.6080812436
 24
120.5783432372
 34
0.0
100
AcDbRotatedDimension
  0
DIMENSION
  5
113
330
1F
100
AcDbEntity
  8
DIM
100
AcDbDimension
  2
_D_1
 10
301.0747099229
 20
114.5783432372
 30
0.0
 11
301.0747099229
 21
139.5783432372
 31
0.0
 70
   160
  1
%%c<>
 71
     2
 42
-1.0
  3
SLDDIMSTYLE0
100
AcDbAlignedDimension
 13
280.7410397205
 23
164.5783432372
 33
0.0
 14
280.7410397205
 24
114.5783432372
 34
0.0
 50
90.0
100
AcDbRotatedDimension
  0
DIMENSION
  5
11E
330
1F
100
AcDbEntity
  8
DIM
100
AcDbDimension
  2
_D_2
 10
293.6080812436
 20
86.0040114472
 30
0.0
 11
227.9080812436
 21
86.0040114472
 31
0.0
 70
   160
  1
<>
 71
     2
 42
-1.0
  3
SLDDIMSTYLE1
100
AcDbAlignedDimension
 13
162.2080812436
 23
139.5783432372
 33
0.0
 14
293.6080812436
 24
120.5783432372
 34
0.0
100
AcDbRotatedDimension
  0
DIMENSION
  5
129
330
1F
100
AcDbEntity
  8
DIM
100
AcDbDimension
  2
_D_3
 10
149.7068272499
 20
171.3283432372
 30
0.0
 11
149.7068272499
 21
139.5783432372
 31
0.0
 70
   160
  1
%%c<>
 71
     2
 42
-1.0
  3
SLDDIMSTYLE1
100
AcDbAlignedDimension
 13
234.8080812436
 23
107.8283432372
 33
0.0
 14
234.8080812436
 24
171.3283432372
 34
0.0
 50
90.0
100
AcDbRotatedDimension
  0
LINE
  5
134
330
1F
100
AcDbEntity
  8
DIM
  6
CENTERX2
 48
1.6
370
     0
100
AcDbLine
 10
160.0006781731
 20
139.5783432372
 30
0.0
 11
293.352920717
 21
139.5783432372
 31
0.0
  0
ENDSEC
  0
SECTION
  2
OBJECTS
  0
DICTIONARY
  5
C
330
0
100
AcDbDictionary
281
     1
  3
ACAD_GROUP
350
D
  3
ACAD_LAYOUT
350
1A
  3
ACAD_MLINESTYLE
350
17
  3
ACAD_PLOTSETTINGS
350
19
  3
ACAD_PLOTSTYLENAME
350
E
  3
ACAD_SCALELIST
350
47
  0
DICTIONARY
  5
D
102
{ACAD_REACTORS
330
C
102
}
330
C
100
AcDbDictionary
281
     1
  0
DICTIONARY
  5
1A
102
{ACAD_REACTORS
330
C
102
}
330
C
100
AcDbDictionary
281
     1
  3
Layout1
350
1E
  3
Layout2
350
26
  3
Model
350
22
  0
DICTIONARY
  5
17
102
{ACAD_REACTORS
330
C
102
}
330
C
100
AcDbDictionary
281
     1
  3
Standard
350
18
  0
DICTIONARY
  5
19
102
{ACAD_REACTORS
330
C
102
}
330
C
100
AcDbDictionary
281
     1
  0
ACDBDICTIONARYWDFLT
  5
E
102
{ACAD_REACTORS
330
C
102
}
330
C
100
AcDbDictionary
281
     1
  3
Normal
350
F
100
AcDbDictionaryWithDefault
340
F
  0
DICTIONARY
  5
47
102
{ACAD_REACTORS
330
C
102
}
330
C
100
AcDbDictionary
281
     1
  3
A0
350
48
  3
A1
350
49
  3
A2
350
4A
  3
A3
350
4B
  3
A4
350
4C
  3
A5
350
4D
  3
A6
350
4E
  3
A7
350
4F
  3
A8
350
50
  3
A9
350
51
  3
B0
350
52
  3
B1
350
53
  3
B2
350
54
  3
B3
350
55
  3
B4
350
56
  3
B5
350
57
  3
B6
350
58
  3
B7
350
59
  3
B8
350
5A
  3
B9
350
5B
  3
C0
350
5C
  3
C1
350
5D
  3
C2
350
5E
  3
C3
350
5F
  3
C4
350
60
  3
C5
350
61
  3
C6
350
62
  3
C7
350
63
  3
C8
350
64
  3
C9
350
65
  3
D0
350
66
  3
D1
350
67
  3
D2
350
68
  0
LAYOUT
  5
1E
102
{ACAD_REACTORS
330
1A
102
}
330
1A
100
AcDbPlotSettings
  1

  2
none_device
  4

  6

 40
0.0
 41
0.0
 42
0.0
 43
0.0
 44
0.0
 45
0.0
 46
0.0
 47
0.0
 48
0.0
 49
0.0
140
0.0
141
0.0
142
1.0
143
1.0
 70
   688
 72
     1
 73
     0
 74
     5
  7

 75
    16
147
1.0
148
0.0
149
0.0
100
AcDbLayout
  1
Layout1
 70
     1
 71
     1
 10
0.0
 20
0.0
 11
420.0
 21
297.0
 12
0.0
 22
0.0
 32
0.0
 14
1.0000000000E+20
 24
1.0000000000E+20
 34
1.0000000000E+20
 15
-1.0000000000E+20
 25
-1.0000000000E+20
 35
-1.0000000000E+20
146
0.0
 13
0.0
 23
0.0
 33
0.0
 16
1.0
 26
0.0
 36
0.0
 17
0.0
 27
1.0
 37
0.0
 76
     0
330
1B
  0
LAYOUT
  5
26
102
{ACAD_REACTORS
330
1A
102
}
330
1A
100
AcDbPlotSettings
  1

  2
none_device
  4

  6

 40
0.0
 41
0.0
 42
0.0
 43
0.0
 44
0.0
 45
0.0
 46
0.0
 47
0.0
 48
0.0
 49
0.0
140
0.0
141
0.0
142
1.0
143
1.0
 70
   688
 72
     1
 73
     0
 74
     5
  7

 75
    16
147
1.0
148
0.0
149
0.0
100
AcDbLayout
  1
Layout2
 70
     1
 71
     2
 10
0.0
 20
0.0
 11
0.0
 21
0.0
 12
0.0
 22
0.0
 32
0.0
 14
0.0
 24
0.0
 34
0.0
 15
0.0
 25
0.0
 35
0.0
146
0.0
 13
0.0
 23
0.0
 33
0.0
 16
1.0
 26
0.0
 36
0.0
 17
0.0
 27
1.0
 37
0.0
 76
     0
330
23
  0
LAYOUT
  5
22
102
{ACAD_REACTORS
330
1A
102
}
330
1A
100
AcDbPlotSettings
  1

  2
none_device
  4
Letter_(8.50_x_11.00_Inches)
  6

 40
6.35
 41
6.35
 42
6.35000508
 43
6.35000508
 44
215.9
 45
279.4
 46
0.0
 47
0.0
 48
0.0
 49
0.0
140
0.0
141
0.0
142
1.0
143
1.0
 70
  1712
 72
     1
 73
     0
 74
     0
  7

 75
     0
147
1.0
148
0.0
149
0.0
100
AcDbLayout
  1
Model
 70
     1
 71
     0
 10
0.0
 20
0.0
 11
371.25
 21
262.5
 12
0.0
 22
0.0
 32
0.0
 14
0.0
 24
0.0
 34
0.0
 15
371.25
 25
262.5
 35
0.0
146
0.0
 13
0.0
 23
0.0
 33
0.0
 16
1.0
 26
0.0
 36
0.0
 17
0.0
 27
1.0
 37
0.0
 76
     0
330
1F
331
29
  0
MLINESTYLE
  5
18
102
{ACAD_REACTORS
330
17
102
}
330
17
100
AcDbMlineStyle
  2
Standard
 70
     0
  3

 62
   256
 51
90.0
 52
90.0
 71
     2
 49
0.5
 62
   256
  6
BYLAYER
 49
-0.5
 62
   256
  6
BYLAYER
  0
ACDBPLACEHOLDER
  5
F
102
{ACAD_REACTORS
330
E
102
}
330
E
  0
SCALE
  5
48
102
{ACAD_REACTORS
330
47
102
}
330
47
100
AcDbScale
 70
     0
300
1:1
140
1.0
141
1.0
290
     1
  0
SCALE
  5
49
102
{ACAD_REACTORS
330
47
102
}
330
47
100
AcDbScale
 70
     0
300
1:2
140
1.0
141
2.0
290
     0
  0
SCALE
  5
4A
102
{ACAD_REACTORS
330
47
102
}
330
47
100
AcDbScale
 70
     0
300
1:4
140
1.0
141
4.0
290
     0
  0
SCALE
  5
4B
102
{ACAD_REACTORS
330
47
102
}
330
47
100
AcDbScale
 70
     0
300
1:5
140
1.0
141
5.0
290
     0
  0
SCALE
  5
4C
102
{ACAD_REACTORS
330
47
102
}
330
47
100
AcDbScale
 70
     0
300
1:8
140
1.0
141
8.0
290
     0
  0
SCALE
  5
4D
102
{ACAD_REACTORS
330
47
102
}
330
47
100
AcDbScale
 70
     0
300
1:10
140
1.0
141
10.0
290
     0
  0
SCALE
  5
4E
102
{ACAD_REACTORS
330
47
102
}
330
47
100
AcDbScale
 70
     0
300
1:16
140
1.0
141
16.0
290
     0
  0
SCALE
  5
4F
102
{ACAD_REACTORS
330
47
102
}
330
47
100
AcDbScale
 70
     0
300
1:20
140
1.0
141
20.0
290
     0
  0
SCALE
  5
50
102
{ACAD_REACTORS
330
47
102
}
330
47
100
AcDbScale
 70
     0
300
1:30
140
1.0
141
30.0
290
     0
  0
SCALE
  5
51
102
{ACAD_REACTORS
330
47
102
}
330
47
100
AcDbScale
 70
     0
300
1:40
140
1.0
141
40.0
290
     0
  0
SCALE
  5
52
102
{ACAD_REACTORS
330
47
102
}
330
47
100
AcDbScale
 70
     0
300
1:50
140
1.0
141
50.0
290
     0
  0
SCALE
  5
53
102
{ACAD_REACTORS
330
47
102
}
330
47
100
AcDbScale
 70
     0
300
1:100
140
1.0
141
100.0
290
     0
  0
SCALE
  5
54
102
{ACAD_REACTORS
330
47
102
}
330
47
100
AcDbScale
 70
     0
300
2:1
140
2.0
141
1.0
290
     0
  0
SCALE
  5
55
102
{ACAD_REACTORS
330
47
102
}
330
47
100
AcDbScale
 70
     0
300
4:1
140
4.0
141
1.0
290
     0
  0
SCALE
  5
56
102
{ACAD_REACTORS
330
47
102
}
330
47
100
AcDbScale
 70
     0
300
8:1
140
8.0
141
1.0
290
     0
  0
SCALE
  5
57
102
{ACAD_REACTORS
330
47
102
}
330
47
100
AcDbScale
 70
     0
300
10:1
140
10.0
141
1.0
290
     0
  0
SCALE
  5
58
102
{ACAD_REACTORS
330
47
102
}
330
47
100
AcDbScale
 70
     0
300
100:1
140
100.0
141
1.0
290
     0
  0
SCALE
  5
59
102
{ACAD_REACTORS
330
47
102
}
330
47
100
AcDbScale
 70
     0
300
1/128" = 1'-0"
140
0.0078125
141
12.0
290
     0
  0
SCALE
  5
5A
102
{ACAD_REACTORS
330
47
102
}
330
47
100
AcDbScale
 70
     0
300
1/64" = 1'-0"
140
0.015625
141
12.0
290
     0
  0
SCALE
  5
5B
102
{ACAD_REACTORS
330
47
102
}
330
47
100
AcDbScale
 70
     0
300
1/32" = 1'-0"
140
0.03125
141
12.0
290
     0
  0
SCALE
  5
5C
102
{ACAD_REACTORS
330
47
102
}
330
47
100
AcDbScale
 70
     0
300
1/16" = 1'-0"
140
0.0625
141
12.0
290
     0
  0
SCALE
  5
5D
102
{ACAD_REACTORS
330
47
102
}
330
47
100
AcDbScale
 70
     0
300
3/32" = 1'-0"
140
0.09375
141
12.0
290
     0
  0
SCALE
  5
5E
102
{ACAD_REACTORS
330
47
102
}
330
47
100
AcDbScale
 70
     0
300
1/8" = 1'-0"
140
0.125
141
12.0
290
     0
  0
SCALE
  5
5F
102
{ACAD_REACTORS
330
47
102
}
330
47
100
AcDbScale
 70
     0
300
3/16" = 1'-0"
140
0.1875
141
12.0
290
     0
  0
SCALE
  5
60
102
{ACAD_REACTORS
330
47
102
}
330
47
100
AcDbScale
 70
     0
300
1/4" = 1'-0"
140
0.25
141
12.0
290
     0
  0
SCALE
  5
61
102
{ACAD_REACTORS
330
47
102
}
330
47
100
AcDbScale
 70
     0
300
3/8" = 1'-0"
140
0.375
141
12.0
290
     0
  0
SCALE
  5
62
102
{ACAD_REACTORS
330
47
102
}
330
47
100
AcDbScale
 70
     0
300
1/2" = 1'-0"
140
0.5
141
12.0
290
     0
  0
SCALE
  5
63
102
{ACAD_REACTORS
330
47
102
}
330
47
100
AcDbScale
 70
     0
300
3/4" = 1'-0"
140
0.75
141
12.0
290
     0
  0
SCALE
  5
64
102
{ACAD_REACTORS
330
47
102
}
330
47
100
AcDbScale
 70
     0
300
1" = 1'-0"
140
1.0
141
12.0
290
     0
  0
SCALE
  5
65
102
{ACAD_REACTORS
330
47
102
}
330
47
100
AcDbScale
 70
     0
300
1-1/2" = 1'-0"
140
1.5
141
12.0
290
     0
  0
SCALE
  5
66
102
{ACAD_REACTORS
330
47
102
}
330
47
100
AcDbScale
 70
     0
300
3" = 1'-0"
140
3.0
141
12.0
290
     0
  0
SCALE
  5
67
102
{ACAD_REACTORS
330
47
102
}
330
47
100
AcDbScale
 70
     0
300
6" = 1'-0"
140
6.0
141
12.0
290
     0
  0
SCALE
  5
68
102
{ACAD_REACTORS
330
47
102
}
330
47
100
AcDbScale
 70
     0
300
1'-0" = 1'-0"
140
12.0
141
12.0
290
     0
  0
ENDSEC
  0
EOF
