  0
SECTION
  2
HEADER
  9
$ACADVER
  1
AC1015
  9
$ACADMAINTVER
 70
     6
  9
$DWGCODEPAGE
  3
ANSI_1252
  9
$INSBASE
 10
0.0
 20
0.0
 30
0.0
  9
$EXTMIN
 10
0.0
 20
0.0
 30
0.0
  9
$EXTMAX
 10
534.6
 20
378.0
 30
0.0
  9
$LIMMIN
 10
0.0
 20
0.0
  9
$LIMMAX
 10
534.6
 20
378.0
  9
$ORTHOMODE
 70
     0
  9
$REGENMODE
 70
     1
  9
$FILLMODE
 70
     1
  9
$QTEXTMODE
 70
     0
  9
$MIRRTEXT
 70
     1
  9
$LTSCALE
 40
1.8
  9
$ATTMODE
 70
     1
  9
$TEXTSIZE
 40
6.985
  9
$TRACEWID
 40
1.0
  9
$TEXTSTYLE
  7
Standard
  9
$CLAYER
  8
0
  9
$CELTYPE
  6
ByLayer
  9
$CECOLOR
 62
   256
  9
$CELTSCALE
 40
1.0
  9
$DISPSILH
 70
     0
  9
$DIMSCALE
 40
1.0
  9
$DIMASZ
 40
5.9436
  9
$DIMEXO
 40
1.8
  9
$DIMDLI
 40
3.75
  9
$DIMRND
 40
0.0
  9
$DIMDLE
 40
0.0
  9
$DIMEXE
 40
1.8
  9
$DIMTP
 40
0.0
  9
$DIMTM
 40
0.0
  9
$DIMTXT
 40
6.985
  9
$DIMCEN
 40
2.5
  9
$DIMTSZ
 40
0.0
  9
$DIMTOL
 70
     0
  9
$DIMLIM
 70
     0
  9
$DIMTIH
 70
     1
  9
$DIMTOH
 70
     1
  9
$DIMSE1
 70
     0
  9
$DIMSE2
 70
     0
  9
$DIMTAD
 70
     1
  9
$DIMZIN
 70
     0
  9
$DIMBLK
  1

  9
$DIMASO
 70
     1
  9
$DIMSHO
 70
     1
  9
$DIMPOST
  1

  9
$DIMAPOST
  1

  9
$DIMALT
 70
     0
  9
$DIMALTD
 70
     3
  9
$DIMALTF
 40
0.0393700787
  9
$DIMLFAC
 40
1.0
  9
$DIMTOFL
 70
     1
  9
$DIMTVP
 40
0.0
  9
$DIMTIX
 70
     0
  9
$DIMSOXD
 70
     0
  9
$DIMSAH
 70
     0
  9
$DIMBLK1
  1

  9
$DIMBLK2
  1

  9
$DIMSTYLE
  2
ISO-25
  9
$DIMCLRD
 70
     0
  9
$DIMCLRE
 70
     0
  9
$DIMCLRT
 70
     0
  9
$DIMTFAC
 40
1.0
  9
$DIMGAP
 40
2.7432
  9
$DIMJUST
 70
     0
  9
$DIMSD1
 70
     0
  9
$DIMSD2
 70
     0
  9
$DIMTOLJ
 70
     0
  9
$DIMTZIN
 70
     0
  9
$DIMALTZ
 70
     0
  9
$DIMALTTZ
 70
     0
  9
$DIMUPT
 70
     0
  9
$DIMDEC
 70
     2
  9
$DIMTDEC
 70
     2
  9
$DIMALTU
 70
     2
  9
$DIMALTTD
 70
     3
  9
$DIMTXSTY
  7
Standard
  9
$DIMAUNIT
 70
     0
  9
$DIMADEC
 70
     2
  9
$DIMALTRND
 40
0.0
  9
$DIMAZIN
 70
     0
  9
$DIMDSEP
 70
    44
  9
$DIMATFIT
 70
     3
  9
$DIMFRAC
 70
     0
  9
$DIMLDRBLK
  1

  9
$DIMLUNIT
 70
     2
  9
$DIMLWD
 70
    -2
  9
$DIMLWE
 70
    -2
  9
$DIMTMOVE
 70
     0
  9
$LUNITS
 70
     2
  9
$LUPREC
 70
     2
  9
$SKETCHINC
 40
1.0
  9
$FILLETRAD
 40
10.0
  9
$AUNITS
 70
     1
  9
$AUPREC
 70
     2
  9
$MENU
  1
.
  9
$ELEVATION
 40
0.0
  9
$PELEVATION
 40
0.0
  9
$THICKNESS
 40
0.0
  9
$LIMCHECK
 70
     0
  9
$CHAMFERA
 40
0.0
  9
$CHAMFERB
 40
0.0
  9
$CHAMFERC
 40
0.0
  9
$CHAMFERD
 40
0.0
  9
$SKPOLY
 70
     0
  9
$TDCREATE
 40
2458628.495046644
  9
$TDUCREATE
 40
2458628.265879977
  9
$TDUPDATE
 40
2458628.495047338
  9
$TDUUPDATE
 40
2458628.265880671
  9
$TDINDWG
 40
0.0000000116
  9
$TDUSRTIMER
 40
0.0000000116
  9
$USRTIMER
 70
     1
  9
$ANGBASE
 50
0.0
  9
$ANGDIR
 70
     0
  9
$PDMODE
 70
     0
  9
$PDSIZE
 40
-1.0
  9
$PLINEWID
 40
0.0
  9
$SPLFRAME
 70
     0
  9
$SPLINETYPE
 70
     6
  9
$SPLINESEGS
 70
     8
  9
$HANDSEED
  5
F5
  9
$SURFTAB1
 70
     6
  9
$SURFTAB2
 70
     6
  9
$SURFTYPE
 70
     6
  9
$SURFU
 70
     6
  9
$SURFV
 70
     6
  9
$UCSBASE
  2

  9
$UCSNAME
  2

  9
$UCSORG
 10
0.0
 20
0.0
 30
0.0
  9
$UCSXDIR
 10
1.0
 20
0.0
 30
0.0
  9
$UCSYDIR
 10
0.0
 20
1.0
 30
0.0
  9
$UCSORTHOREF
  2

  9
$UCSORTHOVIEW
 70
     0
  9
$UCSORGTOP
 10
0.0
 20
0.0
 30
0.0
  9
$UCSORGBOTTOM
 10
0.0
 20
0.0
 30
0.0
  9
$UCSORGLEFT
 10
0.0
 20
0.0
 30
0.0
  9
$UCSORGRIGHT
 10
0.0
 20
0.0
 30
0.0
  9
$UCSORGFRONT
 10
0.0
 20
0.0
 30
0.0
  9
$UCSORGBACK
 10
0.0
 20
0.0
 30
0.0
  9
$PUCSBASE
  2

  9
$PUCSNAME
  2

  9
$PUCSORG
 10
0.0
 20
0.0
 30
0.0
  9
$PUCSXDIR
 10
1.0
 20
0.0
 30
0.0
  9
$PUCSYDIR
 10
0.0
 20
1.0
 30
0.0
  9
$PUCSORTHOREF
  2

  9
$PUCSORTHOVIEW
 70
     0
  9
$PUCSORGTOP
 10
0.0
 20
0.0
 30
0.0
  9
$PUCSORGBOTTOM
 10
0.0
 20
0.0
 30
0.0
  9
$PUCSORGLEFT
 10
0.0
 20
0.0
 30
0.0
  9
$PUCSORGRIGHT
 10
0.0
 20
0.0
 30
0.0
  9
$PUCSORGFRONT
 10
0.0
 20
0.0
 30
0.0
  9
$PUCSORGBACK
 10
0.0
 20
0.0
 30
0.0
  9
$USERI1
 70
     0
  9
$USERI2
 70
     0
  9
$USERI3
 70
     0
  9
$USERI4
 70
     0
  9
$USERI5
 70
     0
  9
$USERR1
 40
0.0
  9
$USERR2
 40
0.0
  9
$USERR3
 40
0.0
  9
$USERR4
 40
0.0
  9
$USERR5
 40
0.0
  9
$WORLDVIEW
 70
     1
  9
$SHADEDGE
 70
     3
  9
$SHADEDIF
 70
    70
  9
$TILEMODE
 70
     1
  9
$MAXACTVP
 70
    64
  9
$PINSBASE
 10
0.0
 20
0.0
 30
0.0
  9
$PLIMCHECK
 70
     0
  9
$PEXTMIN
 10
1.0000000000E+20
 20
1.0000000000E+20
 30
1.0000000000E+20
  9
$PEXTMAX
 10
-1.0000000000E+20
 20
-1.0000000000E+20
 30
-1.0000000000E+20
  9
$PLIMMIN
 10
0.0
 20
0.0
  9
$PLIMMAX
 10
420.0
 20
297.0
  9
$UNITMODE
 70
     0
  9
$VISRETAIN
 70
     1
  9
$PLINEGEN
 70
     0
  9
$PSLTSCALE
 70
     1
  9
$TREEDEPTH
 70
  3020
  9
$CMLSTYLE
  2
Standard
  9
$CMLJUST
 70
     0
  9
$CMLSCALE
 40
20.0
  9
$PROXYGRAPHICS
 70
     1
  9
$MEASUREMENT
 70
     1
  9
$CELWEIGHT
370
    -1
  9
$ENDCAPS
280
     0
  9
$JOINSTYLE
280
     0
  9
$LWDISPLAY
290
     1
  9
$INSUNITS
 70
     4
  9
$HYPERLINKBASE
  1

  9
$STYLESHEET
  1

  9
$XEDIT
290
     1
  9
$CEPSNTYPE
380
     0
  9
$PSTYLEMODE
290
     1
  9
$FINGERPRINTGUID
  2
{694A8C98-C96A-4994-97CF-826DEED602AF}
  9
$VERSIONGUID
  2
{FAEB1C32-E019-11D5-929B-00C0DF256EC4}
  9
$EXTNAMES
290
     1
  9
$PSVPSCALE
 40
0.0
  9
$OLESTARTUP
290
     0
  0
ENDSEC
  0
SECTION
  2
CLASSES
  0
CLASS
  1
ACDBDICTIONARYWDFLT
  2
AcDbDictionaryWithDefault
  3
ObjectDBX Classes
 90
        0
280
     0
281
     0
  0
CLASS
  1
VISUALSTYLE
  2
AcDbVisualStyle
  3
ObjectDBX Classes
 90
     4095
280
     0
281
     0
  0
CLASS
  1
MATERIAL
  2
AcDbMaterial
  3
ObjectDBX Classes
 90
     1153
280
     0
281
     0
  0
CLASS
  1
SCALE
  2
AcDbScale
  3
ObjectDBX Classes
 90
     1153
280
     0
281
     0
  0
CLASS
  1
SUN
  2
AcDbSun
  3
SCENEOE
 90
     1153
280
     0
281
     0
  0
CLASS
  1
ACDBPLACEHOLDER
  2
AcDbPlaceHolder
  3
ObjectDBX Classes
 90
        0
280
     0
281
     0
  0
CLASS
  1
LAYOUT
  2
AcDbLayout
  3
ObjectDBX Classes
 90
        0
280
     0
281
     0
  0
ENDSEC
  0
SECTION
  2
TABLES
  0
TABLE
  2
VPORT
  5
8
330
0
100
AcDbSymbolTable
 70
     1
  0
VPORT
  5
29
330
8
100
AcDbSymbolTableRecord
100
AcDbViewportTableRecord
  2
*Active
 70
     0
 10
0.0
 20
0.0
 11
1.0
 21
1.0
 12
267.3
 22
189.0
 13
0.0
 23
0.0
 14
10.0
 24
10.0
 15
10.0
 25
10.0
 16
0.0
 26
0.0
 36
1.0
 17
0.0
 27
0.0
 37
0.0
 40
378.0
 41
1.4142857143
 42
50.0
 43
0.0
 44
0.0
 50
0.0
 51
0.0
 71
     0
 72
  2000
 73
     1
 74
     3
 75
     0
 76
     0
 77
     0
 78
     0
281
     0
 65
     1
110
0.0
120
0.0
130
0.0
111
1.0
121
0.0
131
0.0
112
0.0
122
1.0
132
0.0
 79
     0
146
0.0
  0
ENDTAB
  0
TABLE
  2
LTYPE
  5
5
330
0
100
AcDbSymbolTable
 70
     6
  0
LTYPE
  5
14
330
5
100
AcDbSymbolTableRecord
100
AcDbLinetypeTableRecord
  2
ByBlock
 70
     0
  3

 72
    65
 73
     0
 40
0.0
  0
LTYPE
  5
15
330
5
100
AcDbSymbolTableRecord
100
AcDbLinetypeTableRecord
  2
ByLayer
 70
     0
  3

 72
    65
 73
     0
 40
0.0
  0
LTYPE
  5
16
330
5
100
AcDbSymbolTableRecord
100
AcDbLinetypeTableRecord
  2
Continuous
 70
     0
  3
Solid line
 72
    65
 73
     0
 40
0.0
  0
LTYPE
  5
6A
330
5
100
AcDbSymbolTableRecord
100
AcDbLinetypeTableRecord
  2
HIDDEN
 70
     0
  3
Hidden __ __ __ __ __ __ __ __ __ __ __ __ __ __
 72
    65
 73
     2
 40
1.905
 49
1.27
 74
     0
 49
-0.635
 74
     0
  0
LTYPE
  5
6B
330
5
100
AcDbSymbolTableRecord
100
AcDbLinetypeTableRecord
  2
PHANTOM
 70
     0
  3
Phantom ______  __  __  ______  __  __  ______
 72
    65
 73
     6
 40
12.7
 49
6.35
 74
     0
 49
-1.27
 74
     0
 49
1.27
 74
     0
 49
-1.27
 74
     0
 49
1.27
 74
     0
 49
-1.27
 74
     0
  0
LTYPE
  5
6C
330
5
100
AcDbSymbolTableRecord
100
AcDbLinetypeTableRecord
  2
CENTER
 70
     0
  3
Center ____ _ ____ _ ____ _ ____ _ ____ _ ____
 72
    65
 73
     4
 40
10.16
 49
6.35
 74
     0
 49
-1.27
 74
     0
 49
1.27
 74
     0
 49
-1.27
 74
     0
  0
LTYPE
  5
6D
330
5
100
AcDbSymbolTableRecord
100
AcDbLinetypeTableRecord
  2
CENTERX2
 70
     0
  3
Center (2x) ________  __  ________  __  _____
 72
    65
 73
     4
 40
20.32
 49
12.7
 74
     0
 49
-2.54
 74
     0
 49
2.54
 74
     0
 49
-2.54
 74
     0
  0
LTYPE
  5
6E
330
5
100
AcDbSymbolTableRecord
100
AcDbLinetypeTableRecord
  2
DOT2
 70
     0
  3
Dot (.5x) ........................................
 72
    65
 73
     2
 40
0.635
 49
0.0
 74
     0
 49
-0.635
 74
     0
  0
ENDTAB
  0
TABLE
  2
LAYER
  5
2
330
0
100
AcDbSymbolTable
 70
     8
  0
LAYER
  5
10
330
2
100
AcDbSymbolTableRecord
100
AcDbLayerTableRecord
  2
0
 70
     0
 62
     7
  6
Continuous
370
    -3
390
F
  0
LAYER
  5
6F
330
2
100
AcDbSymbolTableRecord
100
AcDbLayerTableRecord
  2
FORMAT
 70
     0
 62
     7
  6
Continuous
370
    -3
390
F
  0
LAYER
  5
70
330
2
100
AcDbSymbolTableRecord
100
AcDbLayerTableRecord
  2
SLD-0
 70
     0
 62
     2
  6
Continuous
370
    -3
390
F
  0
LAYER
  5
71
330
2
100
AcDbSymbolTableRecord
100
AcDbLayerTableRecord
  2
DIM
 70
     0
 62
   179
  6
Continuous
370
    -3
390
F
  0
LAYER
  5
72
330
2
100
AcDbSymbolTableRecord
100
AcDbLayerTableRecord
  2
SLD-DEFPOINTS
 70
     0
 62
   179
  6
Continuous
370
    -3
390
F
  0
LAYER
  5
73
330
2
100
AcDbSymbolTableRecord
100
AcDbLayerTableRecord
  2
HAT
 70
     0
 62
   135
  6
Continuous
370
    -3
390
F
  0
LAYER
  5
74
330
2
100
AcDbSymbolTableRecord
100
AcDbLayerTableRecord
  2
JOB
 70
     0
 62
   201
  6
Continuous
370
    -3
390
F
  0
LAYER
  5
75
330
2
100
AcDbSymbolTableRecord
100
AcDbLayerTableRecord
  2
INSPECTION_REPORT
 70
     0
 62
   255
  6
Continuous
370
    -3
390
F
  0
ENDTAB
  0
TABLE
  2
STYLE
  5
3
330
0
100
AcDbSymbolTable
 70
     4
  0
STYLE
  5
11
330
3
100
AcDbSymbolTableRecord
100
AcDbTextStyleTableRecord
  2
Standard
 70
     0
 40
0.0
 41
1.0
 50
0.0
 71
     0
 42
6.985
  3
txt
  4

  0
STYLE
  5
96
330
3
100
AcDbSymbolTableRecord
100
AcDbTextStyleTableRecord
  2
SLDTEXTSTYLE0
 70
     0
 40
0.0
 41
0.7
 50
0.0
 71
     0
 42
6.985
  3
TXT
  4

  0
STYLE
  5
98
330
3
100
AcDbSymbolTableRecord
100
AcDbTextStyleTableRecord
  2
SLDTEXTSTYLE1
 70
     0
 40
0.0
 41
0.75
 50
0.0
 71
     0
 42
6.985
  3
TXT
  4

  0
STYLE
  5
AB
330
3
100
AcDbSymbolTableRecord
100
AcDbTextStyleTableRecord
  2
SLDTEXTSTYLE2
 70
     0
 40
0.0
 41
0.6875
 50
0.0
 71
     0
 42
6.985
  3
TXT
  4

  0
ENDTAB
  0
TABLE
  2
VIEW
  5
6
330
0
100
AcDbSymbolTable
 70
     0
  0
ENDTAB
  0
TABLE
  2
UCS
  5
7
330
0
100
AcDbSymbolTable
 70
     0
  0
ENDTAB
  0
TABLE
  2
APPID
  5
9
330
0
100
AcDbSymbolTable
 70
     1
  0
APPID
  5
12
330
9
100
AcDbSymbolTableRecord
100
AcDbRegAppTableRecord
  2
ACAD
 70
     0
  0
ENDTAB
  0
TABLE
  2
DIMSTYLE
  5
A
330
0
100
AcDbSymbolTable
 70
     3
100
AcDbDimStyleTable
  0
DIMSTYLE
105
27
330
A
100
AcDbSymbolTableRecord
100
AcDbDimStyleTableRecord
  2
ISO-25
 70
     0
 41
2.5
 42
0.625
 43
3.75
 44
1.25
 73
     0
 74
     0
 77
     1
 78
     8
140
2.5
141
2.5
143
0.0393700787
147
0.625
171
     3
172
     1
178
     0
271
     2
272
     2
274
     3
278
    44
283
     0
284
     8
340
11
  0
DIMSTYLE
105
D4
102
{ACAD_REACTORS
330
D3
330
DF
102
}
330
A
100
AcDbSymbolTableRecord
100
AcDbDimStyleTableRecord
  2
SLDDIMSTYLE0
 70
     0
 41
5.9436
 44
0.0
 45
0.000000001
 73
     0
 74
     0
 77
     1
 78
    12
 79
     3
140
5.23875
144
1.0
147
1.3096875
173
     1
178
     0
271
     2
272
     2
276
     2
284
    12
340
96
  0
DIMSTYLE
105
EA
102
{ACAD_REACTORS
330
E9
102
}
330
A
100
AcDbSymbolTableRecord
100
AcDbDimStyleTableRecord
  2
SLDDIMSTYLE1
 70
     0
 41
5.9436
 44
0.0
 45
0.000000001
 73
     0
 74
     0
 77
     1
 78
     4
 79
     1
140
5.23875
144
1.0
147
1.3096875
173
     1
178
     0
271
     2
272
     2
276
     2
284
    12
340
96
  0
ENDTAB
  0
TABLE
  2
BLOCK_RECORD
  5
1
330
0
100
AcDbSymbolTable
 70
     4
  0
BLOCK_RECORD
  5
1F
330
1
100
AcDbSymbolTableRecord
100
AcDbBlockTableRecord
  2
*Model_Space
340
22
  0
BLOCK_RECORD
  5
1B
330
1
100
AcDbSymbolTableRecord
100
AcDbBlockTableRecord
  2
*Paper_Space
340
1E
  0
BLOCK_RECORD
  5
23
330
1
100
AcDbSymbolTableRecord
100
AcDbBlockTableRecord
  2
*Paper_Space0
340
26
  0
BLOCK_RECORD
  5
D5
330
1
100
AcDbSymbolTableRecord
100
AcDbBlockTableRecord
  2
_D
340
0
  0
BLOCK_RECORD
  5
E0
330
1
100
AcDbSymbolTableRecord
100
AcDbBlockTableRecord
  2
_D_1
340
0
  0
BLOCK_RECORD
  5
EB
330
1
100
AcDbSymbolTableRecord
100
AcDbBlockTableRecord
  2
_D_2
340
0
  0
ENDTAB
  0
ENDSEC
  0
SECTION
  2
BLOCKS
  0
BLOCK
  5
20
330
1F
100
AcDbEntity
  8
0
100
AcDbBlockBegin
  2
*Model_Space
 70
     0
 10
0.0
 20
0.0
 30
0.0
  3
*Model_Space
  1
*Model_Space
  0
ENDBLK
  5
21
330
1F
100
AcDbEntity
  8
0
100
AcDbBlockEnd
  0
BLOCK
  5
1C
330
1B
100
AcDbEntity
 67
     1
  8
0
100
AcDbBlockBegin
  2
*Paper_Space
 70
     0
 10
0.0
 20
0.0
 30
0.0
  3
*Paper_Space
  1
*Paper_Space
  0
ENDBLK
  5
1D
330
1B
100
AcDbEntity
 67
     1
  8
0
100
AcDbBlockEnd
  0
BLOCK
  5
24
330
23
100
AcDbEntity
  8
0
100
AcDbBlockBegin
  2
*Paper_Space0
 70
     0
 10
0.0
 20
0.0
 30
0.0
  3
*Paper_Space0
  1
*Paper_Space0
  0
ENDBLK
  5
25
330
23
100
AcDbEntity
  8
0
100
AcDbBlockEnd
  0
BLOCK
  5
D6
330
D5
100
AcDbEntity
  8
0
100
AcDbBlockBegin
  2
_D
 70
     0
 10
0.0
 20
0.0
 30
0.0
  3
_D
  1
_D
  0
SOLID
  5
D8
330
D5
100
AcDbEntity
  8
DIM
100
AcDbTrace
 10
500.7559801565
 20
239.3187025383
 30
0.0
 11
499.8415801565
 21
233.3751025383
 31
0.0
 12
501.6703801565
 22
233.3751025383
 32
0.0
 13
501.6703801565
 23
233.3751025383
 33
0.0
  0
SOLID
  5
D9
330
D5
100
AcDbEntity
  8
DIM
100
AcDbTrace
 10
500.7559801565
 20
189.3187025383
 30
0.0
 11
501.6703801565
 21
195.2623025383
 31
0.0
 12
499.8415801565
 22
195.2623025383
 32
0.0
 13
499.8415801565
 23
195.2623025383
 33
0.0
  0
LINE
  5
DA
330
D5
100
AcDbEntity
  8
DIM
100
AcDbLine
 10
491.2020623174
 20
239.3187025383
 30
0.0
 11
502.5559801565
 21
239.3187025383
 31
0.0
  0
LINE
  5
DB
330
D5
100
AcDbEntity
  8
DIM
100
AcDbLine
 10
491.2020623174
 20
189.3187025383
 30
0.0
 11
502.5559801565
 21
189.3187025383
 31
0.0
  0
LINE
  5
DC
330
D5
100
AcDbEntity
  8
DIM
100
AcDbLine
 10
500.7559801565
 20
239.3187025383
 30
0.0
 11
500.7559801565
 21
189.3187025383
 31
0.0
  0
MTEXT
  5
DD
330
D5
100
AcDbEntity
  8
DIM
100
AcDbMText
 10
494.0028761157
 20
206.7271231494
 30
0.0
 40
5.23875
 41
0.0
 71
     1
 72
     1
  1
%%c
  7
SLDTEXTSTYLE0
 11
-7.044195017643634E-15
 21
1.0
 31
0.0
 73
     1
 44
1.0
  0
MTEXT
  5
DE
330
D5
100
AcDbEntity
  8
DIM
100
AcDbMText
 10
494.0028761157
 20
214.8282677687
 30
0.0
 40
5.23875
 41
0.0
 71
     1
 72
     1
  1
50
  7
SLDTEXTSTYLE0
 11
-7.044195017643634E-15
 21
1.0
 31
0.0
 73
     1
 44
1.0
  0
ENDBLK
  5
D7
330
D5
100
AcDbEntity
  8
0
100
AcDbBlockEnd
  0
BLOCK
  5
E1
330
E0
100
AcDbEntity
  8
0
100
AcDbBlockBegin
  2
_D_1
 70
     0
 10
0.0
 20
0.0
 30
0.0
  3
_D_1
  1
_D_1
  0
SOLID
  5
E3
330
E0
100
AcDbEntity
  8
DIM
100
AcDbTrace
 10
490.4020623174
 20
164.0946393363
 30
0.0
 11
484.4584623174
 21
165.0090393363
 31
0.0
 12
484.4584623174
 22
163.1802393363
 32
0.0
 13
484.4584623174
 23
163.1802393363
 33
0.0
  0
SOLID
  5
E4
330
E0
100
AcDbEntity
  8
DIM
100
AcDbTrace
 10
140.4020623174
 20
164.0946393363
 30
0.0
 11
146.3456623174
 21
163.1802393363
 31
0.0
 12
146.3456623174
 22
165.0090393363
 32
0.0
 13
146.3456623174
 23
165.0090393363
 33
0.0
  0
LINE
  5
E5
330
E0
100
AcDbEntity
  8
DIM
100
AcDbLine
 10
490.4020623174
 20
188.5187025383
 30
0.0
 11
490.4020623174
 21
162.2946393363
 31
0.0
  0
LINE
  5
E6
330
E0
100
AcDbEntity
  8
DIM
100
AcDbLine
 10
140.4020623174
 20
177.5937025383
 30
0.0
 11
140.4020623174
 21
162.2946393363
 31
0.0
  0
LINE
  5
E7
330
E0
100
AcDbEntity
  8
DIM
100
AcDbLine
 10
490.4020623174
 20
164.0946393363
 30
0.0
 11
140.4020623174
 21
164.0946393363
 31
0.0
  0
MTEXT
  5
E8
330
E0
100
AcDbEntity
  8
DIM
100
AcDbMText
 10
310.0905516987
 20
170.8477433771
 30
0.0
 40
5.23875
 41
0.0
 71
     1
 72
     1
  1
350
  7
SLDTEXTSTYLE0
 73
     1
 44
1.0
  0
ENDBLK
  5
E2
330
E0
100
AcDbEntity
  8
0
100
AcDbBlockEnd
  0
BLOCK
  5
EC
330
EB
100
AcDbEntity
  8
0
100
AcDbBlockBegin
  2
_D_2
 70
     0
 10
0.0
 20
0.0
 30
0.0
  3
_D_2
  1
_D_2
  0
SOLID
  5
EE
330
EB
100
AcDbEntity
  8
DIM
100
AcDbTrace
 10
38.6020623175
 20
150.5937025383
 30
0.0
 11
44.5456623175
 21
149.6793025383
 31
0.0
 12
44.5456623175
 22
151.5081025383
 32
0.0
 13
44.5456623175
 23
151.5081025383
 33
0.0
  0
SOLID
  5
EF
330
EB
100
AcDbEntity
  8
DIM
100
AcDbTrace
 10
490.4020623174
 20
150.5937025383
 30
0.0
 11
484.4584623174
 21
151.5081025383
 31
0.0
 12
484.4584623174
 22
149.6793025383
 32
0.0
 13
484.4584623174
 23
149.6793025383
 33
0.0
  0
LINE
  5
F0
330
EB
100
AcDbEntity
  8
DIM
100
AcDbLine
 10
38.6020623175
 20
212.5187025383
 30
0.0
 11
38.6020623175
 21
148.7937025383
 31
0.0
  0
LINE
  5
F1
330
EB
100
AcDbEntity
  8
DIM
100
AcDbLine
 10
490.4020623174
 20
188.5187025383
 30
0.0
 11
490.4020623174
 21
148.7937025383
 31
0.0
  0
LINE
  5
F2
330
EB
100
AcDbEntity
  8
DIM
100
AcDbLine
 10
38.6020623175
 20
150.5937025383
 30
0.0
 11
490.4020623174
 21
150.5937025383
 31
0.0
  0
MTEXT
  5
F3
330
EB
100
AcDbEntity
  8
DIM
100
AcDbMText
 10
254.7182112416
 20
157.3468065791
 30
0.0
 40
5.23875
 41
0.0
 71
     1
 72
     1
  1
451.80
  7
SLDTEXTSTYLE0
 73
     1
 44
1.0
  0
ENDBLK
  5
ED
330
EB
100
AcDbEntity
  8
0
100
AcDbBlockEnd
  0
ENDSEC
  0
SECTION
  2
ENTITIES
  0
LINE
  5
76
330
1F
100
AcDbEntity
  8
DIM
100
AcDbLine
 10
188.4679644402
 20
17.6237846223
 30
0.0
 11
188.4679644402
 21
8.6237846223
 31
0.0
  0
LINE
  5
77
330
1F
100
AcDbEntity
  8
DIM
100
AcDbLine
 10
458.0452830515
 20
17.6237846223
 30
0.0
 11
458.0452830515
 21
8.6237846223
 31
0.0
  0
LINE
  5
78
330
1F
100
AcDbEntity
  8
DIM
100
AcDbLine
 10
427.4130778768
 20
17.6237846223
 30
0.0
 11
427.4130778768
 21
8.6237846223
 31
0.0
  0
LINE
  5
79
330
1F
100
AcDbEntity
  8
DIM
100
AcDbLine
 10
502.0279644402
 20
8.6237846223
 30
0.0
 11
502.0279644402
 21
17.6237846223
 31
0.0
  0
LINE
  5
7A
330
1F
100
AcDbEntity
  8
DIM
100
AcDbLine
 10
202.5079644402
 20
17.6237846223
 30
0.0
 11
202.5079644402
 21
8.6237846223
 31
0.0
  0
LINE
  5
7B
330
1F
100
AcDbEntity
  8
DIM
100
AcDbLine
 10
237.051678821
 20
17.6237846223
 30
0.0
 11
237.051678821
 21
8.6237846223
 31
0.0
  0
LINE
  5
7C
330
1F
100
AcDbEntity
  8
DIM
100
AcDbLine
 10
525.4279644402
 20
8.6237846223
 30
0.0
 11
525.4279644402
 21
138.6737846223
 31
0.0
  0
LINE
  5
7D
330
1F
100
AcDbEntity
  8
DIM
100
AcDbLine
 10
514.4742084504
 20
108.0737846223
 30
0.0
 11
525.4279644402
 21
108.0737846223
 31
0.0
  0
LINE
  5
7E
330
1F
100
AcDbEntity
  8
DIM
100
AcDbLine
 10
268.3860315346
 20
16.2737846223
 30
0.0
 11
268.3860315346
 21
8.6237846223
 31
0.0
  0
LINE
  5
7F
330
1F
100
AcDbEntity
  8
DIM
100
AcDbLine
 10
354.1751084888
 20
17.6237846223
 30
0.0
 11
354.1751084888
 21
8.6237846223
 31
0.0
  0
LINE
  5
80
330
1F
100
AcDbEntity
  8
DIM
100
AcDbLine
 10
268.3860315346
 20
17.6237846223
 30
0.0
 11
268.3860315346
 21
16.2737846223
 31
0.0
  0
LINE
  5
81
330
1F
100
AcDbEntity
  8
DIM
100
AcDbLine
 10
516.4279644402
 20
31.5736550223
 30
0.0
 11
525.4279644402
 21
31.5736550223
 31
0.0
  0
LINE
  5
82
330
1F
100
AcDbEntity
  8
DIM
100
AcDbLine
 10
516.4279644402
 20
359.6237846223
 30
0.0
 11
17.8279644402
 21
359.6237846223
 31
0.0
  0
LINE
  5
83
330
1F
100
AcDbEntity
  8
DIM
100
AcDbLine
 10
525.4279644402
 20
368.6237846223
 30
0.0
 11
8.8279644402
 21
368.6237846223
 31
0.0
  0
LINE
  5
84
330
1F
100
AcDbEntity
  8
DIM
100
AcDbLine
 10
17.8279644402
 20
359.6237846223
 30
0.0
 11
17.8279644402
 21
17.6237846223
 31
0.0
  0
LINE
  5
85
330
1F
100
AcDbEntity
  8
DIM
100
AcDbLine
 10
8.8279644402
 20
368.6237846223
 30
0.0
 11
8.8279644402
 21
8.6237846223
 31
0.0
  0
LINE
  5
86
330
1F
100
AcDbEntity
  8
DIM
100
AcDbLine
 10
17.8279644402
 20
98.6237846223
 30
0.0
 11
8.8279644402
 21
98.6237846223
 31
0.0
  0
LINE
  5
87
330
1F
100
AcDbEntity
  8
DIM
100
AcDbLine
 10
8.8279644402
 20
188.6237846223
 30
0.0
 11
17.8279644402
 21
188.6237846223
 31
0.0
  0
LINE
  5
88
330
1F
100
AcDbEntity
  8
DIM
100
AcDbLine
 10
8.8279644402
 20
8.6237846223
 30
0.0
 11
525.4279644402
 21
8.6237846223
 31
0.0
  0
LINE
  5
89
330
1F
100
AcDbEntity
  8
DIM
100
AcDbLine
 10
17.8279644402
 20
17.6237846223
 30
0.0
 11
525.4279644402
 21
17.6237846223
 31
0.0
  0
LINE
  5
8A
330
1F
100
AcDbEntity
  8
DIM
100
AcDbLine
 10
87.1279644402
 20
8.6237846223
 30
0.0
 11
87.1279644402
 21
17.6237846223
 31
0.0
  0
LINE
  5
8B
330
1F
100
AcDbEntity
  8
DIM
100
AcDbLine
 10
177.1279644402
 20
17.6237846223
 30
0.0
 11
177.1279644402
 21
8.6237846223
 31
0.0
  0
LINE
  5
8C
330
1F
100
AcDbEntity
  8
DIM
100
AcDbLine
 10
17.8279644402
 20
278.6237846223
 30
0.0
 11
8.8279644402
 21
278.6237846223
 31
0.0
  0
LINE
  5
8D
330
1F
100
AcDbEntity
  8
DIM
100
AcDbLine
 10
87.1279644402
 20
359.6237846223
 30
0.0
 11
87.1279644402
 21
368.6237846223
 31
0.0
  0
LINE
  5
8E
330
1F
100
AcDbEntity
  8
DIM
100
AcDbLine
 10
177.1279644402
 20
368.6237846223
 30
0.0
 11
177.1279644402
 21
359.6237846223
 31
0.0
  0
LINE
  5
8F
330
1F
100
AcDbEntity
  8
DIM
100
AcDbLine
 10
267.1279644402
 20
368.6237846223
 30
0.0
 11
267.1279644402
 21
359.6237846223
 31
0.0
  0
LINE
  5
90
330
1F
100
AcDbEntity
  8
DIM
100
AcDbLine
 10
516.4279644402
 20
17.6237846223
 30
0.0
 11
516.4279644402
 21
359.6237846223
 31
0.0
  0
LINE
  5
91
330
1F
100
AcDbEntity
  8
DIM
100
AcDbLine
 10
525.4279644402
 20
138.6737846223
 30
0.0
 11
525.4279644402
 21
368.6237846223
 31
0.0
  0
LINE
  5
92
330
1F
100
AcDbEntity
  8
DIM
100
AcDbLine
 10
525.4279644402
 20
188.6237846223
 30
0.0
 11
516.4279644402
 21
188.6237846223
 31
0.0
  0
LINE
  5
93
330
1F
100
AcDbEntity
  8
DIM
100
AcDbLine
 10
357.1279644402
 20
368.6237846223
 30
0.0
 11
357.1279644402
 21
359.6237846223
 31
0.0
  0
LINE
  5
94
330
1F
100
AcDbEntity
  8
DIM
100
AcDbLine
 10
447.1279644402
 20
359.6237846223
 30
0.0
 11
447.1279644402
 21
368.6237846223
 31
0.0
  0
LINE
  5
95
330
1F
100
AcDbEntity
  8
DIM
100
AcDbLine
 10
516.4279644402
 20
278.6237846223
 30
0.0
 11
525.4279644402
 21
278.6237846223
 31
0.0
  0
MTEXT
  5
97
330
1F
100
AcDbEntity
  8
DIM
100
AcDbMText
 10
27.9621481581
 20
350.2388425764
 30
0.0
 40
7.62
 41
0.0
 71
     1
 72
     1
  1
BT50  MASTER MANDRELL DIA 50 L 350
  7
SLDTEXTSTYLE0
 73
     1
 44
1.0
  0
MTEXT
  5
99
330
1F
100
AcDbEntity
  8
DIM
 62
     7
100
AcDbMText
 10
355.9190015639
 20
14.0435127473
 30
0.0
 40
2.69748
 41
0.0
 71
     1
 72
     1
  1
WEIGHT:
  7
SLDTEXTSTYLE1
 73
     1
 44
1.0
  0
MTEXT
  5
9A
330
1F
100
AcDbEntity
  8
DIM
 62
     7
100
AcDbMText
 10
519.4747381586
 20
147.4931043148
 30
0.0
 40
3.33375
 41
0.0
 71
     1
 72
     1
  1
C
  7
SLDTEXTSTYLE1
 73
     1
 44
1.0
  0
MTEXT
  5
9B
330
1F
100
AcDbEntity
  8
DIM
 62
     7
100
AcDbMText
 10
509.478445115
 20
26.7371675705
 30
0.0
 40
5.23875
 41
0.0
 71
     1
 72
     1
  1
A4
  7
SLDTEXTSTYLE1
 73
     1
 44
1.0
  0
MTEXT
  5
9C
330
1F
100
AcDbEntity
  8
DIM
 62
     7
100
AcDbMText
 10
490.6279716402
 20
366.2262141487
 30
0.0
 40
3.33375
 41
0.0
 71
     1
 72
     1
  1
6
  7
SLDTEXTSTYLE1
 73
     1
 44
1.0
  0
MTEXT
  5
9D
330
1F
100
AcDbEntity
  8
DIM
 62
     7
100
AcDbMText
 10
400.6279716402
 20
366.2262141487
 30
0.0
 40
3.33375
 41
0.0
 71
     1
 72
     1
  1
5
  7
SLDTEXTSTYLE1
 73
     1
 44
1.0
  0
MTEXT
  5
9E
330
1F
100
AcDbEntity
  8
DIM
 62
     7
100
AcDbMText
 10
519.4279788402
 20
325.7262141487
 30
0.0
 40
3.33375
 41
0.0
 71
     1
 72
     1
  1
A
  7
SLDTEXTSTYLE1
 73
     1
 44
1.0
  0
MTEXT
  5
9F
330
1F
100
AcDbEntity
  8
DIM
 62
     7
100
AcDbMText
 10
519.4279788402
 20
235.7262141487
 30
0.0
 40
3.33375
 41
0.0
 71
     1
 72
     1
  1
B
  7
SLDTEXTSTYLE1
 73
     1
 44
1.0
  0
MTEXT
  5
A0
330
1F
100
AcDbEntity
  8
DIM
 62
     7
100
AcDbMText
 10
310.6279716402
 20
366.2262141487
 30
0.0
 40
3.33375
 41
0.0
 71
     1
 72
     1
  1
4
  7
SLDTEXTSTYLE1
 73
     1
 44
1.0
  0
MTEXT
  5
A1
330
1F
100
AcDbEntity
  8
DIM
 62
     7
100
AcDbMText
 10
41.3779716402
 20
366.2262141487
 30
0.0
 40
3.33375
 41
0.0
 71
     1
 72
     1
  1
1
  7
SLDTEXTSTYLE1
 73
     1
 44
1.0
  0
MTEXT
  5
A2
330
1F
100
AcDbEntity
  8
DIM
 62
     7
100
AcDbMText
 10
130.6279716402
 20
366.2262141487
 30
0.0
 40
3.33375
 41
0.0
 71
     1
 72
     1
  1
2
  7
SLDTEXTSTYLE1
 73
     1
 44
1.0
  0
MTEXT
  5
A3
330
1F
100
AcDbEntity
  8
DIM
 62
     7
100
AcDbMText
 10
220.6279716402
 20
366.2262141487
 30
0.0
 40
3.33375
 41
0.0
 71
     1
 72
     1
  1
3
  7
SLDTEXTSTYLE1
 73
     1
 44
1.0
  0
MTEXT
  5
A4
330
1F
100
AcDbEntity
  8
DIM
 62
     7
100
AcDbMText
 10
11.8279644402
 20
325.7262141487
 30
0.0
 40
3.33375
 41
0.0
 71
     1
 72
     1
  1
A
  7
SLDTEXTSTYLE1
 73
     1
 44
1.0
  0
MTEXT
  5
A5
330
1F
100
AcDbEntity
  8
DIM
 62
     7
100
AcDbMText
 10
130.6279716402
 20
15.2262141487
 30
0.0
 40
3.33375
 41
0.0
 71
     1
 72
     1
  1
2
  7
SLDTEXTSTYLE1
 73
     1
 44
1.0
  0
MTEXT
  5
A6
330
1F
100
AcDbEntity
  8
DIM
 62
     7
100
AcDbMText
 10
41.3779716402
 20
15.2262141487
 30
0.0
 40
3.33375
 41
0.0
 71
     1
 72
     1
  1
1
  7
SLDTEXTSTYLE1
 73
     1
 44
1.0
  0
MTEXT
  5
A7
330
1F
100
AcDbEntity
  8
DIM
 62
     7
100
AcDbMText
 10
11.8279644402
 20
55.7262141487
 30
0.0
 40
3.33375
 41
0.0
 71
     1
 72
     1
  1
D
  7
SLDTEXTSTYLE1
 73
     1
 44
1.0
  0
MTEXT
  5
A8
330
1F
100
AcDbEntity
  8
DIM
 62
     7
100
AcDbMText
 10
11.8279644402
 20
145.7262141487
 30
0.0
 40
3.33375
 41
0.0
 71
     1
 72
     1
  1
C
  7
SLDTEXTSTYLE1
 73
     1
 44
1.0
  0
MTEXT
  5
A9
330
1F
100
AcDbEntity
  8
DIM
 62
     7
100
AcDbMText
 10
11.8279644402
 20
235.7262141487
 30
0.0
 40
3.33375
 41
0.0
 71
     1
 72
     1
  1
B
  7
SLDTEXTSTYLE1
 73
     1
 44
1.0
  0
MTEXT
  5
AA
330
1F
100
AcDbEntity
  8
DIM
 62
     7
100
AcDbMText
 10
519.4747381586
 20
147.4931043148
 30
0.0
 40
3.33375
 41
0.0
 71
     1
 72
     1
  1
C
  7
SLDTEXTSTYLE1
 73
     1
 44
1.0
  0
MTEXT
  5
AC
330
1F
100
AcDbEntity
  8
DIM
 62
     7
100
AcDbMText
 10
461.7456584625
 20
13.8439417165
 30
0.0
 40
2.7
 41
0.0
 71
     1
 72
     1
  1
SHEET 1 OF 1
  7
SLDTEXTSTYLE2
 73
     1
 44
1.0
  0
MTEXT
  5
AD
330
1F
100
AcDbEntity
  8
DIM
 62
     7
100
AcDbMText
 10
270.6692046902
 20
14.1360614706
 30
0.0
 40
2.7
 41
0.0
 71
     1
 72
     1
  1
MATERIAL:
  7
SLDTEXTSTYLE1
 73
     1
 44
1.0
  0
MTEXT
  5
AE
330
1F
100
AcDbEntity
  8
DIM
 62
     7
100
AcDbMText
 10
490.6279716402
 20
366.2262141487
 30
0.0
 40
3.33375
 41
0.0
 71
     1
 72
     1
  1
6
  7
SLDTEXTSTYLE1
 73
     1
 44
1.0
  0
MTEXT
  5
AF
330
1F
100
AcDbEntity
  8
DIM
 62
     7
100
AcDbMText
 10
400.6279716402
 20
366.2262141487
 30
0.0
 40
3.33375
 41
0.0
 71
     1
 72
     1
  1
5
  7
SLDTEXTSTYLE1
 73
     1
 44
1.0
  0
MTEXT
  5
B0
330
1F
100
AcDbEntity
  8
DIM
 62
     7
100
AcDbMText
 10
519.4279788402
 20
325.7262141487
 30
0.0
 40
3.33375
 41
0.0
 71
     1
 72
     1
  1
A
  7
SLDTEXTSTYLE1
 73
     1
 44
1.0
  0
MTEXT
  5
B1
330
1F
100
AcDbEntity
  8
DIM
 62
     7
100
AcDbMText
 10
519.4279788402
 20
235.7262141487
 30
0.0
 40
3.33375
 41
0.0
 71
     1
 72
     1
  1
B
  7
SLDTEXTSTYLE1
 73
     1
 44
1.0
  0
MTEXT
  5
B2
330
1F
100
AcDbEntity
  8
DIM
 62
     7
100
AcDbMText
 10
310.6279716402
 20
366.2262141487
 30
0.0
 40
3.33375
 41
0.0
 71
     1
 72
     1
  1
4
  7
SLDTEXTSTYLE1
 73
     1
 44
1.0
  0
MTEXT
  5
B3
330
1F
100
AcDbEntity
  8
DIM
 62
     7
100
AcDbMText
 10
41.3779716402
 20
366.2262141487
 30
0.0
 40
3.33375
 41
0.0
 71
     1
 72
     1
  1
1
  7
SLDTEXTSTYLE1
 73
     1
 44
1.0
  0
MTEXT
  5
B4
330
1F
100
AcDbEntity
  8
DIM
 62
     7
100
AcDbMText
 10
130.6279716402
 20
366.2262141487
 30
0.0
 40
3.33375
 41
0.0
 71
     1
 72
     1
  1
2
  7
SLDTEXTSTYLE1
 73
     1
 44
1.0
  0
MTEXT
  5
B5
330
1F
100
AcDbEntity
  8
DIM
 62
     7
100
AcDbMText
 10
220.6279716402
 20
366.2262141487
 30
0.0
 40
3.33375
 41
0.0
 71
     1
 72
     1
  1
3
  7
SLDTEXTSTYLE1
 73
     1
 44
1.0
  0
MTEXT
  5
B6
330
1F
100
AcDbEntity
  8
DIM
 62
     7
100
AcDbMText
 10
11.8279644402
 20
325.7262141487
 30
0.0
 40
3.33375
 41
0.0
 71
     1
 72
     1
  1
A
  7
SLDTEXTSTYLE1
 73
     1
 44
1.0
  0
MTEXT
  5
B7
330
1F
100
AcDbEntity
  8
DIM
 62
     7
100
AcDbMText
 10
130.6279716402
 20
15.2262141487
 30
0.0
 40
3.33375
 41
0.0
 71
     1
 72
     1
  1
2
  7
SLDTEXTSTYLE1
 73
     1
 44
1.0
  0
MTEXT
  5
B8
330
1F
100
AcDbEntity
  8
DIM
 62
     7
100
AcDbMText
 10
41.3779716402
 20
15.2262141487
 30
0.0
 40
3.33375
 41
0.0
 71
     1
 72
     1
  1
1
  7
SLDTEXTSTYLE1
 73
     1
 44
1.0
  0
MTEXT
  5
B9
330
1F
100
AcDbEntity
  8
DIM
 62
     7
100
AcDbMText
 10
11.8279644402
 20
55.7262141487
 30
0.0
 40
3.33375
 41
0.0
 71
     1
 72
     1
  1
D
  7
SLDTEXTSTYLE1
 73
     1
 44
1.0
  0
MTEXT
  5
BA
330
1F
100
AcDbEntity
  8
DIM
 62
     7
100
AcDbMText
 10
11.8279644402
 20
145.7262141487
 30
0.0
 40
3.33375
 41
0.0
 71
     1
 72
     1
  1
C
  7
SLDTEXTSTYLE1
 73
     1
 44
1.0
  0
MTEXT
  5
BB
330
1F
100
AcDbEntity
  8
DIM
 62
     7
100
AcDbMText
 10
11.8279644402
 20
235.7262141487
 30
0.0
 40
3.33375
 41
0.0
 71
     1
 72
     1
  1
B
  7
SLDTEXTSTYLE1
 73
     1
 44
1.0
  0
LINE
  5
BC
330
1F
100
AcDbEntity
  8
0
  6
Continuous
 62
     7
370
    15
100
AcDbLine
 10
140.4020623174
 20
179.3937025383
 30
0.0
 11
143.4020623174
 21
179.3937025383
 31
0.0
  0
LINE
  5
BD
330
1F
100
AcDbEntity
  8
0
  6
Continuous
 62
     7
370
    15
100
AcDbLine
 10
143.4020623174
 20
249.2437025383
 30
0.0
 11
140.4020623174
 21
249.2437025383
 31
0.0
  0
LINE
  5
BE
330
1F
100
AcDbEntity
  8
0
  6
Continuous
 62
     7
370
    15
100
AcDbLine
 10
140.4020623174
 20
249.2437025383
 30
0.0
 11
39.4577540942
 21
234.5225189902
 31
0.0
  0
LINE
  5
BF
330
1F
100
AcDbEntity
  8
0
  6
Continuous
 62
     7
370
    15
100
AcDbLine
 10
39.4577540942
 20
194.1148860863
 30
0.0
 11
140.4020623174
 21
179.3937025383
 31
0.0
  0
LINE
  5
C0
330
1F
100
AcDbEntity
  8
0
  6
Continuous
 62
     7
370
    15
100
AcDbLine
 10
489.4020623174
 20
189.3187025383
 30
0.0
 11
490.4020623174
 21
190.3187025383
 31
0.0
  0
LINE
  5
C1
330
1F
100
AcDbEntity
  8
0
  6
Continuous
 62
     7
370
    15
100
AcDbLine
 10
490.4020623174
 20
238.3187025383
 30
0.0
 11
489.4020623174
 21
239.3187025383
 31
0.0
  0
LINE
  5
C2
330
1F
100
AcDbEntity
  8
0
  6
Continuous
 62
     7
370
    15
100
AcDbLine
 10
143.4020623174
 20
189.3187025383
 30
0.0
 11
489.4020623174
 21
189.3187025383
 31
0.0
  0
LINE
  5
C3
330
1F
100
AcDbEntity
  8
0
  6
Continuous
 62
     7
370
    15
100
AcDbLine
 10
489.4020623174
 20
239.3187025383
 30
0.0
 11
143.4020623174
 21
239.3187025383
 31
0.0
  0
LWPOLYLINE
  5
C4
330
1F
100
AcDbEntity
  8
0
  6
Continuous
 62
     7
370
    15
100
AcDbPolyline
 90
       15
 70
   128
 43
0.0
 10
39.2759921177
 20
234.3098857628
 10
39.1000466191
 20
233.7745309289
 10
38.9433403643
 20
233.05368467
 10
38.8160822431
 20
232.3313252368
 10
38.7226537728
 20
231.791652026
 10
38.7044963982
 20
231.7038564105
 10
38.6882903736
 20
231.6388626515
 10
38.6808907196
 20
231.6154058499
 10
38.6773612809
 20
231.6060121784
 10
38.6739432413
 20
231.5982002128
 10
38.6706349072
 20
231.591987266
 10
38.6674345488
 20
231.5873893205
 10
38.6613506774
 20
231.5830954557
 10
38.6537099314
 20
231.5910054
 10
38.6537099314
 20
231.5910054
  0
LINE
  5
C5
330
1F
100
AcDbEntity
  8
0
  6
Continuous
 62
     7
370
    15
100
AcDbLine
 10
39.4577540942
 20
234.52251899
 30
0.0
 11
39.3572793246
 21
234.4049791453
 31
0.0
  0
LINE
  5
C6
330
1F
100
AcDbEntity
  8
0
  6
Continuous
 62
     7
370
    15
100
AcDbLine
 10
39.4155957289
 20
194.1642048133
 30
0.0
 11
39.4577540942
 21
194.1148860865
 31
0.0
  0
SPLINE
  5
C7
330
1F
100
AcDbEntity
  8
0
  6
Continuous
 62
     7
370
    15
100
AcDbSpline
210
0.0
220
0.0
230
1.0
 70
     8
 71
     3
 72
    20
 73
    16
 74
     0
 42
0.000000001
 43
0.00000001
 40
0.0
 40
0.0
 40
0.0
 40
0.0
 40
0.0086143758181297
 40
0.0123822164732975
 40
0.0138163590040859
 40
0.01507546527552
 40
0.016307290558811
 40
0.0176640967674438
 40
0.0211473781018231
 40
0.0323335048395374
 40
0.0496754670486447
 40
0.1783085561732661
 40
0.3912473127743196
 40
0.6716965267276598
 40
0.9999999999999999
 40
0.9999999999999999
 40
0.9999999999999999
 40
0.9999999999999999
 10
38.65370956549569
 20
197.0463992976752
 30
0.0
 10
38.65569235909629
 20
197.0505489409108
 30
0.0
 10
38.65854240651756
 20
197.0565135960309
 30
0.0
 10
38.66562495927444
 20
197.0527058364524
 30
0.0
 10
38.67038900478792
 20
197.0460790988015
 30
0.0
 10
38.67388366207397
 20
197.039577258617
 30
0.0
 10
38.67752281353305
 20
197.0312253649303
 30
0.0
 10
38.68281676482519
 20
197.0169709821141
 30
0.0
 10
38.69375485893085
 20
196.9808709506471
 30
0.0
 10
38.70758401434367
 20
196.9211614406944
 30
0.0
 10
38.76013428707689
 20
196.6604419219285
 30
0.0
 10
38.83347503324644
 20
196.1846847668799
 30
0.0
 10
38.95845166606038
 20
195.4839995240147
 30
0.0
 10
39.10971359685942
 20
194.7700508303624
 30
0.0
 10
39.21773540028
 20
194.4825629920488
 30
0.0
 10
39.27599211765683
 20
194.327519313684
 30
0.0
  0
LINE
  5
C8
330
1F
100
AcDbEntity
  8
0
  6
Continuous
 62
     7
370
    15
100
AcDbLine
 10
140.4020623174
 20
249.2437025383
 30
0.0
 11
140.4020623174
 21
179.3937025383
 31
0.0
  0
LINE
  5
C9
330
1F
100
AcDbEntity
  8
0
  6
Continuous
 62
     7
370
    15
100
AcDbLine
 10
143.4020623174
 20
179.3937025383
 30
0.0
 11
143.4020623174
 21
249.2437025383
 31
0.0
  0
LINE
  5
CA
330
1F
100
AcDbEntity
  8
0
  6
Continuous
 62
     7
370
    15
100
AcDbLine
 10
490.4020623174
 20
214.3187025383
 30
0.0
 11
490.4020623174
 21
238.3187025383
 31
0.0
  0
LINE
  5
CB
330
1F
100
AcDbEntity
  8
0
  6
Continuous
 62
     7
370
    15
100
AcDbLine
 10
490.4020623174
 20
190.3187025383
 30
0.0
 11
490.4020623174
 21
214.3187025383
 31
0.0
  0
LINE
  5
CC
330
1F
100
AcDbEntity
  8
0
  6
Continuous
 62
     7
370
    15
100
AcDbLine
 10
489.4020623174
 20
214.3187025383
 30
0.0
 11
489.4020623174
 21
239.3187025383
 31
0.0
  0
LINE
  5
CD
330
1F
100
AcDbEntity
  8
0
  6
Continuous
 62
     7
370
    15
100
AcDbLine
 10
489.4020623174
 20
189.3187025383
 30
0.0
 11
489.4020623174
 21
214.3187025383
 31
0.0
  0
SPLINE
  5
CE
330
1F
100
AcDbEntity
  8
0
  6
Continuous
 62
     7
370
    15
100
AcDbSpline
210
0.0
220
0.0
230
1.0
 70
    24
 71
     3
 72
    14
 73
    10
 74
     0
 42
0.000000001
 43
0.00000001
 40
0.0
 40
0.0
 40
0.0
 40
0.0
 40
0.25
 40
0.25
 40
0.5
 40
0.5
 40
0.75
 40
0.75
 40
1.0
 40
1.0
 40
1.0
 40
1.0
 10
38.60206231761206
 20
214.318702538253
 30
0.0
 10
38.60206231710907
 20
214.318702538253
 30
0.0
 10
38.62036649862276
 20
214.318702538253
 30
0.0
 10
38.70147242262946
 20
214.318702538253
 30
0.0
 10
38.76445652015703
 20
214.318702538253
 30
0.0
 10
38.92685072450276
 20
214.318702538253
 30
0.0
 10
39.02589612126246
 20
214.318702538253
 30
0.0
 10
39.2376571088326
 20
214.318702538253
 30
0.0
 10
39.34987864396447
 20
214.318702538253
 30
0.0
 10
39.45775409416591
 20
214.318702538253
 30
0.0
  0
SPLINE
  5
CF
330
1F
100
AcDbEntity
  8
0
  6
Continuous
 62
     7
370
    15
100
AcDbSpline
210
0.0
220
0.0
230
1.0
 70
    24
 71
     3
 72
    30
 73
    26
 74
     0
 42
0.000000001
 43
0.00000001
 40
0.0
 40
0.0
 40
0.0
 40
0.0
 40
0.0625
 40
0.0625
 40
0.125
 40
0.125
 40
0.1875
 40
0.1875
 40
0.25
 40
0.25
 40
0.3125
 40
0.3125
 40
0.375
 40
0.375
 40
0.4375
 40
0.4375
 40
0.5
 40
0.5
 40
0.625
 40
0.625
 40
0.75
 40
0.75
 40
0.875
 40
0.875
 40
1.0
 40
1.0
 40
1.0
 40
1.0
 10
38.60206231761186
 20
231.2724822397514
 30
0.0
 10
38.60206231761186
 20
231.7157183103075
 30
0.0
 10
38.60206231761217
 20
232.1057929878851
 30
0.0
 10
38.60206231761206
 20
232.7548881400052
 30
0.0
 10
38.60206231761186
 20
233.0137936532363
 30
0.0
 10
38.60206231761206
 20
233.3825618902351
 30
0.0
 10
38.60206231761206
 20
233.4923485313222
 30
0.0
 10
38.60206231761196
 20
233.5548644984048
 30
0.0
 10
38.60206231761206
 20
233.5075801001358
 30
0.0
 10
38.60206231761206
 20
233.2593372996381
 30
0.0
 10
38.60206231761217
 20
233.058431966223
 30
0.0
 10
38.60206231761206
 20
232.5171339425402
 30
0.0
 10
38.60206231761217
 20
232.1768442970755
 30
0.0
 10
38.60206231761206
 20
231.3793428282543
 30
0.0
 10
38.60206231761186
 20
230.9222541355078
 30
0.0
 10
38.60206231761196
 20
229.918583506608
 30
0.0
 10
38.60206231761196
 20
229.3721148638227
 30
0.0
 10
38.60206231761206
 20
227.6414231473147
 30
0.0
 10
38.60206231761217
 20
226.3680620014561
 30
0.0
 10
38.60206231761217
 20
223.7811458023533
 30
0.0
 10
38.60206231761217
 20
222.4681234365973
 30
0.0
 10
38.60206231761206
 20
219.9301744471615
 30
0.0
 10
38.60206231761217
 20
218.7046172378463
 30
0.0
 10
38.60206231761186
 20
216.3996602629065
 30
0.0
 10
38.60206231761206
 20
215.3194464789067
 30
0.0
 10
38.60206231761206
 20
214.318702538253
 30
0.0
  0
SPLINE
  5
D0
330
1F
100
AcDbEntity
  8
0
  6
Continuous
 62
     7
370
    15
100
AcDbSpline
210
0.0
220
0.0
230
1.0
 70
    24
 71
     3
 72
    30
 73
    26
 74
     0
 42
0.000000001
 43
0.00000001
 40
0.0
 40
0.0
 40
0.0
 40
0.0
 40
0.125
 40
0.125
 40
0.2500000000000001
 40
0.2500000000000001
 40
0.3750000000000001
 40
0.3750000000000001
 40
0.5
 40
0.5
 40
0.5624999999999999
 40
0.5624999999999999
 40
0.6249999999999999
 40
0.6249999999999999
 40
0.6875
 40
0.6875
 40
0.75
 40
0.75
 40
0.8125
 40
0.8125
 40
0.875
 40
0.875
 40
0.9375
 40
0.9375
 40
1.0
 40
1.0
 40
1.0
 40
1.0
 10
38.60206231761217
 20
214.318702538253
 30
0.0
 10
38.60206231761217
 20
213.3179585975987
 30
0.0
 10
38.60206231761206
 20
212.2377448135983
 30
0.0
 10
38.60206231761217
 20
209.932787838657
 30
0.0
 10
38.60206231761217
 20
208.707230629341
 30
0.0
 10
38.60206231761227
 20
206.1692816399036
 30
0.0
 10
38.60206231761217
 20
204.8562592741467
 30
0.0
 10
38.60206231761217
 20
202.2693430750427
 30
0.0
 10
38.60206231761217
 20
200.9959819291836
 30
0.0
 10
38.60206231761227
 20
199.2652902126755
 30
0.0
 10
38.60206231761206
 20
198.7188215698902
 30
0.0
 10
38.60206231761217
 20
197.7151509409908
 30
0.0
 10
38.60206231761217
 20
197.2580622482446
 30
0.0
 10
38.60206231761236
 20
196.4605607794242
 30
0.0
 10
38.60206231761217
 20
196.1202711339601
 30
0.0
 10
38.60206231761227
 20
195.5789731102787
 30
0.0
 10
38.60206231761217
 20
195.3780677768644
 30
0.0
 10
38.60206231761227
 20
195.1298249763686
 30
0.0
 10
38.60206231761217
 20
195.0825405781007
 30
0.0
 10
38.60206231761217
 20
195.1450565451856
 30
0.0
 10
38.60206231761196
 20
195.2548431862739
 30
0.0
 10
38.60206231761217
 20
195.6236114232753
 30
0.0
 10
38.60206231761206
 20
195.8825169365077
 30
0.0
 10
38.60206231761217
 20
196.5316120886304
 30
0.0
 10
38.60206231761217
 20
196.9216867662092
 30
0.0
 10
38.60206231761217
 20
197.3649228367666
 30
0.0
  0
LINE
  5
D1
330
1F
100
AcDbEntity
  8
0
  6
Continuous
 62
     8
370
    15
100
AcDbLine
 10
39.4577540942
 20
214.3187025362
 30
0.0
 11
39.4577540942
 21
194.1148860863
 31
0.0
  0
LINE
  5
D2
330
1F
100
AcDbEntity
  8
0
  6
Continuous
 62
     8
370
    15
100
AcDbLine
 10
39.4577540942
 20
234.5225189902
 30
0.0
 11
39.4577540942
 21
214.3187025362
 31
0.0
  0
DIMENSION
  5
D3
330
1F
100
AcDbEntity
  8
DIM
100
AcDbDimension
  2
_D
 10
500.7559801565
 20
189.3187025383
 30
0.0
 11
500.7559801565
 21
214.3187025383
 31
0.0
 70
   160
  1
%%c<>
 71
     2
 42
-1.0
  3
SLDDIMSTYLE0
100
AcDbAlignedDimension
 13
489.4020623174
 23
239.3187025383
 33
0.0
 14
489.4020623174
 24
189.3187025383
 34
0.0
 50
90.0
100
AcDbRotatedDimension
  0
DIMENSION
  5
DF
330
1F
100
AcDbEntity
  8
DIM
100
AcDbDimension
  2
_D_1
 10
140.4020623174
 20
164.0946393363
 30
0.0
 11
315.4020623174
 21
164.0946393363
 31
0.0
 70
   160
  1
<>
 71
     2
 42
-1.0
  3
SLDDIMSTYLE0
100
AcDbAlignedDimension
 13
490.4020623174
 23
190.3187025383
 33
0.0
 14
140.4020623174
 24
179.3937025383
 34
0.0
 50
0.0
100
AcDbRotatedDimension
  0
DIMENSION
  5
E9
330
1F
100
AcDbEntity
  8
DIM
100
AcDbDimension
  2
_D_2
 10
490.4020623174
 20
150.5937025383
 30
0.0
 11
264.5020623175
 21
150.5937025383
 31
0.0
 70
   160
  1
<>
 71
     2
 42
-1.0
  3
SLDDIMSTYLE1
100
AcDbAlignedDimension
 13
38.6020623175
 23
214.3187025383
 33
0.0
 14
490.4020623174
 24
190.3187025383
 34
0.0
 50
0.0
100
AcDbRotatedDimension
  0
LINE
  5
F4
330
1F
100
AcDbEntity
  8
DIM
  6
CENTERX2
 48
1.1111111111
370
     0
100
AcDbLine
 10
40.6656033835
 20
214.3187025383
 30
0.0
 11
489.4020623174
 21
214.3187025383
 31
0.0
  0
ENDSEC
  0
SECTION
  2
OBJECTS
  0
DICTIONARY
  5
C
330
0
100
AcDbDictionary
281
     1
  3
ACAD_GROUP
350
D
  3
ACAD_LAYOUT
350
1A
  3
ACAD_MLINESTYLE
350
17
  3
ACAD_PLOTSETTINGS
350
19
  3
ACAD_PLOTSTYLENAME
350
E
  3
ACAD_SCALELIST
350
47
  0
DICTIONARY
  5
D
102
{ACAD_REACTORS
330
C
102
}
330
C
100
AcDbDictionary
281
     1
  0
DICTIONARY
  5
1A
102
{ACAD_REACTORS
330
C
102
}
330
C
100
AcDbDictionary
281
     1
  3
Layout1
350
1E
  3
Layout2
350
26
  3
Model
350
22
  0
DICTIONARY
  5
17
102
{ACAD_REACTORS
330
C
102
}
330
C
100
AcDbDictionary
281
     1
  3
Standard
350
18
  0
DICTIONARY
  5
19
102
{ACAD_REACTORS
330
C
102
}
330
C
100
AcDbDictionary
281
     1
  0
ACDBDICTIONARYWDFLT
  5
E
102
{ACAD_REACTORS
330
C
102
}
330
C
100
AcDbDictionary
281
     1
  3
Normal
350
F
100
AcDbDictionaryWithDefault
340
F
  0
DICTIONARY
  5
47
102
{ACAD_REACTORS
330
C
102
}
330
C
100
AcDbDictionary
281
     1
  3
A0
350
48
  3
A1
350
49
  3
A2
350
4A
  3
A3
350
4B
  3
A4
350
4C
  3
A5
350
4D
  3
A6
350
4E
  3
A7
350
4F
  3
A8
350
50
  3
A9
350
51
  3
B0
350
52
  3
B1
350
53
  3
B2
350
54
  3
B3
350
55
  3
B4
350
56
  3
B5
350
57
  3
B6
350
58
  3
B7
350
59
  3
B8
350
5A
  3
B9
350
5B
  3
C0
350
5C
  3
C1
350
5D
  3
C2
350
5E
  3
C3
350
5F
  3
C4
350
60
  3
C5
350
61
  3
C6
350
62
  3
C7
350
63
  3
C8
350
64
  3
C9
350
65
  3
D0
350
66
  3
D1
350
67
  3
D2
350
68
  0
LAYOUT
  5
1E
102
{ACAD_REACTORS
330
1A
102
}
330
1A
100
AcDbPlotSettings
  1

  2
none_device
  4

  6

 40
0.0
 41
0.0
 42
0.0
 43
0.0
 44
0.0
 45
0.0
 46
0.0
 47
0.0
 48
0.0
 49
0.0
140
0.0
141
0.0
142
1.0
143
1.0
 70
   688
 72
     1
 73
     0
 74
     5
  7

 75
    16
147
1.0
148
0.0
149
0.0
100
AcDbLayout
  1
Layout1
 70
     1
 71
     1
 10
0.0
 20
0.0
 11
420.0
 21
297.0
 12
0.0
 22
0.0
 32
0.0
 14
1.0000000000E+20
 24
1.0000000000E+20
 34
1.0000000000E+20
 15
-1.0000000000E+20
 25
-1.0000000000E+20
 35
-1.0000000000E+20
146
0.0
 13
0.0
 23
0.0
 33
0.0
 16
1.0
 26
0.0
 36
0.0
 17
0.0
 27
1.0
 37
0.0
 76
     0
330
1B
  0
LAYOUT
  5
26
102
{ACAD_REACTORS
330
1A
102
}
330
1A
100
AcDbPlotSettings
  1

  2
none_device
  4

  6

 40
0.0
 41
0.0
 42
0.0
 43
0.0
 44
0.0
 45
0.0
 46
0.0
 47
0.0
 48
0.0
 49
0.0
140
0.0
141
0.0
142
1.0
143
1.0
 70
   688
 72
     1
 73
     0
 74
     5
  7

 75
    16
147
1.0
148
0.0
149
0.0
100
AcDbLayout
  1
Layout2
 70
     1
 71
     2
 10
0.0
 20
0.0
 11
0.0
 21
0.0
 12
0.0
 22
0.0
 32
0.0
 14
0.0
 24
0.0
 34
0.0
 15
0.0
 25
0.0
 35
0.0
146
0.0
 13
0.0
 23
0.0
 33
0.0
 16
1.0
 26
0.0
 36
0.0
 17
0.0
 27
1.0
 37
0.0
 76
     0
330
23
  0
LAYOUT
  5
22
102
{ACAD_REACTORS
330
1A
102
}
330
1A
100
AcDbPlotSettings
  1

  2
none_device
  4
Letter_(8.50_x_11.00_Inches)
  6

 40
6.35
 41
6.35
 42
6.35000508
 43
6.35000508
 44
215.9
 45
279.4
 46
0.0
 47
0.0
 48
0.0
 49
0.0
140
0.0
141
0.0
142
1.0
143
1.0
 70
  1712
 72
     1
 73
     0
 74
     0
  7

 75
     0
147
1.0
148
0.0
149
0.0
100
AcDbLayout
  1
Model
 70
     1
 71
     0
 10
0.0
 20
0.0
 11
534.6
 21
378.0
 12
0.0
 22
0.0
 32
0.0
 14
0.0
 24
0.0
 34
0.0
 15
534.6
 25
378.0
 35
0.0
146
0.0
 13
0.0
 23
0.0
 33
0.0
 16
1.0
 26
0.0
 36
0.0
 17
0.0
 27
1.0
 37
0.0
 76
     0
330
1F
331
29
  0
MLINESTYLE
  5
18
102
{ACAD_REACTORS
330
17
102
}
330
17
100
AcDbMlineStyle
  2
Standard
 70
     0
  3

 62
   256
 51
90.0
 52
90.0
 71
     2
 49
0.5
 62
   256
  6
BYLAYER
 49
-0.5
 62
   256
  6
BYLAYER
  0
ACDBPLACEHOLDER
  5
F
102
{ACAD_REACTORS
330
E
102
}
330
E
  0
SCALE
  5
48
102
{ACAD_REACTORS
330
47
102
}
330
47
100
AcDbScale
 70
     0
300
1:1
140
1.0
141
1.0
290
     1
  0
SCALE
  5
49
102
{ACAD_REACTORS
330
47
102
}
330
47
100
AcDbScale
 70
     0
300
1:2
140
1.0
141
2.0
290
     0
  0
SCALE
  5
4A
102
{ACAD_REACTORS
330
47
102
}
330
47
100
AcDbScale
 70
     0
300
1:4
140
1.0
141
4.0
290
     0
  0
SCALE
  5
4B
102
{ACAD_REACTORS
330
47
102
}
330
47
100
AcDbScale
 70
     0
300
1:5
140
1.0
141
5.0
290
     0
  0
SCALE
  5
4C
102
{ACAD_REACTORS
330
47
102
}
330
47
100
AcDbScale
 70
     0
300
1:8
140
1.0
141
8.0
290
     0
  0
SCALE
  5
4D
102
{ACAD_REACTORS
330
47
102
}
330
47
100
AcDbScale
 70
     0
300
1:10
140
1.0
141
10.0
290
     0
  0
SCALE
  5
4E
102
{ACAD_REACTORS
330
47
102
}
330
47
100
AcDbScale
 70
     0
300
1:16
140
1.0
141
16.0
290
     0
  0
SCALE
  5
4F
102
{ACAD_REACTORS
330
47
102
}
330
47
100
AcDbScale
 70
     0
300
1:20
140
1.0
141
20.0
290
     0
  0
SCALE
  5
50
102
{ACAD_REACTORS
330
47
102
}
330
47
100
AcDbScale
 70
     0
300
1:30
140
1.0
141
30.0
290
     0
  0
SCALE
  5
51
102
{ACAD_REACTORS
330
47
102
}
330
47
100
AcDbScale
 70
     0
300
1:40
140
1.0
141
40.0
290
     0
  0
SCALE
  5
52
102
{ACAD_REACTORS
330
47
102
}
330
47
100
AcDbScale
 70
     0
300
1:50
140
1.0
141
50.0
290
     0
  0
SCALE
  5
53
102
{ACAD_REACTORS
330
47
102
}
330
47
100
AcDbScale
 70
     0
300
1:100
140
1.0
141
100.0
290
     0
  0
SCALE
  5
54
102
{ACAD_REACTORS
330
47
102
}
330
47
100
AcDbScale
 70
     0
300
2:1
140
2.0
141
1.0
290
     0
  0
SCALE
  5
55
102
{ACAD_REACTORS
330
47
102
}
330
47
100
AcDbScale
 70
     0
300
4:1
140
4.0
141
1.0
290
     0
  0
SCALE
  5
56
102
{ACAD_REACTORS
330
47
102
}
330
47
100
AcDbScale
 70
     0
300
8:1
140
8.0
141
1.0
290
     0
  0
SCALE
  5
57
102
{ACAD_REACTORS
330
47
102
}
330
47
100
AcDbScale
 70
     0
300
10:1
140
10.0
141
1.0
290
     0
  0
SCALE
  5
58
102
{ACAD_REACTORS
330
47
102
}
330
47
100
AcDbScale
 70
     0
300
100:1
140
100.0
141
1.0
290
     0
  0
SCALE
  5
59
102
{ACAD_REACTORS
330
47
102
}
330
47
100
AcDbScale
 70
     0
300
1/128" = 1'-0"
140
0.0078125
141
12.0
290
     0
  0
SCALE
  5
5A
102
{ACAD_REACTORS
330
47
102
}
330
47
100
AcDbScale
 70
     0
300
1/64" = 1'-0"
140
0.015625
141
12.0
290
     0
  0
SCALE
  5
5B
102
{ACAD_REACTORS
330
47
102
}
330
47
100
AcDbScale
 70
     0
300
1/32" = 1'-0"
140
0.03125
141
12.0
290
     0
  0
SCALE
  5
5C
102
{ACAD_REACTORS
330
47
102
}
330
47
100
AcDbScale
 70
     0
300
1/16" = 1'-0"
140
0.0625
141
12.0
290
     0
  0
SCALE
  5
5D
102
{ACAD_REACTORS
330
47
102
}
330
47
100
AcDbScale
 70
     0
300
3/32" = 1'-0"
140
0.09375
141
12.0
290
     0
  0
SCALE
  5
5E
102
{ACAD_REACTORS
330
47
102
}
330
47
100
AcDbScale
 70
     0
300
1/8" = 1'-0"
140
0.125
141
12.0
290
     0
  0
SCALE
  5
5F
102
{ACAD_REACTORS
330
47
102
}
330
47
100
AcDbScale
 70
     0
300
3/16" = 1'-0"
140
0.1875
141
12.0
290
     0
  0
SCALE
  5
60
102
{ACAD_REACTORS
330
47
102
}
330
47
100
AcDbScale
 70
     0
300
1/4" = 1'-0"
140
0.25
141
12.0
290
     0
  0
SCALE
  5
61
102
{ACAD_REACTORS
330
47
102
}
330
47
100
AcDbScale
 70
     0
300
3/8" = 1'-0"
140
0.375
141
12.0
290
     0
  0
SCALE
  5
62
102
{ACAD_REACTORS
330
47
102
}
330
47
100
AcDbScale
 70
     0
300
1/2" = 1'-0"
140
0.5
141
12.0
290
     0
  0
SCALE
  5
63
102
{ACAD_REACTORS
330
47
102
}
330
47
100
AcDbScale
 70
     0
300
3/4" = 1'-0"
140
0.75
141
12.0
290
     0
  0
SCALE
  5
64
102
{ACAD_REACTORS
330
47
102
}
330
47
100
AcDbScale
 70
     0
300
1" = 1'-0"
140
1.0
141
12.0
290
     0
  0
SCALE
  5
65
102
{ACAD_REACTORS
330
47
102
}
330
47
100
AcDbScale
 70
     0
300
1-1/2" = 1'-0"
140
1.5
141
12.0
290
     0
  0
SCALE
  5
66
102
{ACAD_REACTORS
330
47
102
}
330
47
100
AcDbScale
 70
     0
300
3" = 1'-0"
140
3.0
141
12.0
290
     0
  0
SCALE
  5
67
102
{ACAD_REACTORS
330
47
102
}
330
47
100
AcDbScale
 70
     0
300
6" = 1'-0"
140
6.0
141
12.0
290
     0
  0
SCALE
  5
68
102
{ACAD_REACTORS
330
47
102
}
330
47
100
AcDbScale
 70
     0
300
1'-0" = 1'-0"
140
12.0
141
12.0
290
     0
  0
ENDSEC
  0
EOF
